  0
SECTION
  2
HEADER
  9
$ACADVER
  1
AC1014
  9
$ACADMAINTVER
 70
     0
  9
$DWGCODEPAGE
  3
ANSI_932
  9
$INSBASE
 10
0.0
 20
0.0
 30
0.0
  9
$EXTMIN
 10
0.0
 20
13.5
 30
0.0
  9
$EXTMAX
 10
200.0
 20
288.5
 30
0.0
  9
$LIMMIN
 10
0.0
 20
0.0
  9
$LIMMAX
 10
210.0
 20
297.0
  9
$ORTHOMODE
 70
     0
  9
$REGENMODE
 70
     1
  9
$FILLMODE
 70
     1
  9
$QTEXTMODE
 70
     0
  9
$MIRRTEXT
 70
     1
  9
$DRAGMODE
 70
     2
  9
$LTSCALE
 40
1.0
  9
$OSMODE
 70
     0
  9
$ATTMODE
 70
     1
  9
$TEXTSIZE
 40
0.2
  9
$TRACEWID
 40
0.05
  9
$TEXTSTYLE
  7
STANDARD
  9
$CLAYER
  8
化粧台
  9
$CELTYPE
  6
CONTINUOUS
  9
$CECOLOR
 62
   256
  9
$CELTSCALE
 40
1.0
  9
$DELOBJ
 70
     1
  9
$DISPSILH
 70
     0
  9
$DIMSCALE
 40
1.0
  9
$DIMASZ
 40
0.18
  9
$DIMEXO
 40
0.0625
  9
$DIMDLI
 40
0.38
  9
$DIMRND
 40
0.0
  9
$DIMDLE
 40
0.0
  9
$DIMEXE
 40
0.18
  9
$DIMTP
 40
0.0
  9
$DIMTM
 40
0.0
  9
$DIMTXT
 40
0.18
  9
$DIMCEN
 40
0.09
  9
$DIMTSZ
 40
0.0
  9
$DIMTOL
 70
     0
  9
$DIMLIM
 70
     0
  9
$DIMTIH
 70
     1
  9
$DIMTOH
 70
     1
  9
$DIMSE1
 70
     0
  9
$DIMSE2
 70
     0
  9
$DIMTAD
 70
     0
  9
$DIMZIN
 70
     0
  9
$DIMBLK
  1

  9
$DIMASO
 70
     1
  9
$DIMSHO
 70
     1
  9
$DIMPOST
  1

  9
$DIMAPOST
  1

  9
$DIMALT
 70
     0
  9
$DIMALTD
 70
     2
  9
$DIMALTF
 40
25.4
  9
$DIMLFAC
 40
1.0
  9
$DIMTOFL
 70
     0
  9
$DIMTVP
 40
0.0
  9
$DIMTIX
 70
     0
  9
$DIMSOXD
 70
     0
  9
$DIMSAH
 70
     0
  9
$DIMBLK1
  1

  9
$DIMBLK2
  1

  9
$DIMSTYLE
  2
STANDARD
  9
$DIMCLRD
 70
     0
  9
$DIMCLRE
 70
     0
  9
$DIMCLRT
 70
     0
  9
$DIMTFAC
 40
1.0
  9
$DIMGAP
 40
0.09
  9
$DIMJUST
 70
     0
  9
$DIMSD1
 70
     0
  9
$DIMSD2
 70
     0
  9
$DIMTOLJ
 70
     1
  9
$DIMTZIN
 70
     0
  9
$DIMALTZ
 70
     0
  9
$DIMALTTZ
 70
     0
  9
$DIMFIT
 70
     3
  9
$DIMUPT
 70
     0
  9
$DIMUNIT
 70
     2
  9
$DIMDEC
 70
     4
  9
$DIMTDEC
 70
     4
  9
$DIMALTU
 70
     2
  9
$DIMALTTD
 70
     2
  9
$DIMTXSTY
  7
STANDARD
  9
$DIMAUNIT
 70
     0
  9
$LUNITS
 70
     2
  9
$LUPREC
 70
     4
  9
$SKETCHINC
 40
0.1
  9
$FILLETRAD
 40
0.0
  9
$AUNITS
 70
     0
  9
$AUPREC
 70
     0
  9
$MENU
  1
acad
  9
$ELEVATION
 40
0.0
  9
$PELEVATION
 40
0.0
  9
$THICKNESS
 40
0.0
  9
$LIMCHECK
 70
     0
  9
$BLIPMODE
 70
     1
  9
$CHAMFERA
 40
0.0
  9
$CHAMFERB
 40
0.0
  9
$CHAMFERC
 40
0.0
  9
$CHAMFERD
 40
0.0
  9
$SKPOLY
 70
     0
  9
$TDCREATE
 40
2456190.993503993
  9
$TDUPDATE
 40
2456190.993503993
  9
$TDINDWG
 40
0.0000000000
  9
$TDUSRTIMER
 40
0.0000000000
  9
$USRTIMER
 70
     1
  9
$ANGBASE
 50
0.0
  9
$ANGDIR
 70
     0
  9
$PDMODE
 70
     0
  9
$PDSIZE
 40
0.0
  9
$PLINEWID
 40
0.0
  9
$COORDS
 70
     1
  9
$SPLFRAME
 70
     0
  9
$SPLINETYPE
 70
     6
  9
$SPLINESEGS
 70
     8
  9
$ATTDIA
 70
     0
  9
$ATTREQ
 70
     1
  9
$HANDLING
 70
     1
  9
$HANDSEED
  5
8B7
  9
$SURFTAB1
 70
     6
  9
$SURFTAB2
 70
     6
  9
$SURFTYPE
 70
     6
  9
$SURFU
 70
     6
  9
$SURFV
 70
     6
  9
$UCSNAME
  2

  9
$UCSORG
 10
0.0
 20
0.0
 30
0.0
  9
$UCSXDIR
 10
1.0
 20
0.0
 30
0.0
  9
$UCSYDIR
 10
0.0
 20
1.0
 30
0.0
  9
$PUCSNAME
  2

  9
$PUCSORG
 10
0.0
 20
0.0
 30
0.0
  9
$PUCSXDIR
 10
1.0
 20
0.0
 30
0.0
  9
$PUCSYDIR
 10
0.0
 20
1.0
 30
0.0
  9
$USERI1
 70
     0
  9
$USERI2
 70
     0
  9
$USERI3
 70
     0
  9
$USERI4
 70
     0
  9
$USERI5
 70
     0
  9
$USERR1
 40
0.0
  9
$USERR2
 40
0.0
  9
$USERR3
 40
0.0
  9
$USERR4
 40
0.0
  9
$USERR5
 40
0.0
  9
$WORLDVIEW
 70
     1
  9
$SHADEDGE
 70
     3
  9
$SHADEDIF
 70
    70
  9
$TILEMODE
 70
     1
  9
$MAXACTVP
 70
    16
  9
$PINSBASE
 10
0.0
 20
0.0
 30
0.0
  9
$PLIMCHECK
 70
     0
  9
$PEXTMIN
 10
1.000000E+20
 20
1.000000E+20
 30
1.000000E+20
  9
$PEXTMAX
 10
-1.000000E+20
 20
-1.000000E+20
 30
-1.000000E+20
  9
$PLIMMIN
 10
0.0
 20
0.0
  9
$PLIMMAX
 10
12.0
 20
9.0
  9
$UNITMODE
 70
     0
  9
$VISRETAIN
 70
     0
  9
$PLINEGEN
 70
     1
  9
$PSLTSCALE
 70
     0
  9
$TREEDEPTH
 70
  3020
  9
$PICKSTYLE
 70
     1
  9
$CMLSTYLE
  2
Standard
  9
$CMLJUST
 70
     0
  9
$CMLSCALE
 40
1.0
  9
$PROXYGRAPHICS
 70
     0
  9
$MEASUREMENT
 70
     0
  0
ENDSEC
  0
SECTION
  2
CLASSES
  0
CLASS
  1
LWPOLYLINE
  2
AcDbPolyline
  3
"AutoCAD"
 90
        0
280
     0
281
     1
  0
CLASS
  1
IMAGE
  2
AcDbRasterImage
  3
ISM
 90
      127
280
     0
281
     1
  0
CLASS
  1
OLE2FRAME
  2
AcDbOle2Frame
  3
""
 90
        0
280
     0
281
     1
  0
CLASS
  1
HATCH
  2
AcDbHatch
  3
"ACAD_SEDONA"
 90
        0
280
     0
281
     1
  0
CLASS
  1
DICTIONARYVAR
  2
AcDbDictionaryVar
  3
"AutoCAD"
 90
        0
280
     0
281
     0
  0
CLASS
  1
RASTERVARIABLES
  2
AcDbRasterVariables
  3
ISM
 90
        0
280
     0
281
     0
  0
CLASS
  1
IMAGEDEF
  2
AcDbRasterImageDef
  3
ISM
 90
        0
280
     0
281
     0
  0
CLASS
  1
IMAGEDEF_REACTOR
  2
AcDbRasterImageDefReactor
  3
ISM
 90
        1
280
     0
281
     0
  0
CLASS
  1
IDBUFFER
  2
AcDbIdBuffer
  3
"Acad"
 90
        0
280
     0
281
     0
  0
CLASS
  1
SPATIAL_FILTER
  2
AcDbSpatialFilter
  3
"Acad"
 90
        0
280
     0
281
     0
  0
CLASS
  1
XRECORD
  2
AcDbXrecord
  3
"<Built In>"
 90
        0
280
     0
281
     0
  0
CLASS
  1
SORTENTSTABLE
  2
AcDbSortentsTable
  3
"AutoCAD"
 90
        0
280
     0
281
     0
  0
CLASS
  1
LAYER_INDEX
  2
AcDbLayerIndex
  3
"Acad"
 90
        0
280
     0
281
     0
  0
CLASS
  1
SPATIAL_INDEX
  2
AcDbSpatialIndex
  3
"Acad"
 90
        0
280
     0
281
     0
  0
CLASS
  1
OBJECT_PTR
  2
CAseDLPNTableRecord
  3
"ASE-LPNTableRecord"
 90
        1
280
     0
281
     0
  0
CLASS
  1
LAYOUT
  2
AcDbLayout
  3
"AutoCAD 2000"
 90
        1
280
     0
281
     0
  0
CLASS
  1
PLOTSETTINGS
  2
AcDbPlotSettings
  3
"AutoCAD 2000"
 90
        1
280
     0
281
     0
  0
CLASS
  1
ACDBDICTIONARYWDFLT
  2
AcDbDictionaryWithDefault
  3
"AutoCAD 2000"
 90
        1
280
     0
281
     0
  0
CLASS
  1
ACDBPLACEHOLDER
  2
AcDbPlaceHolder
  3
"AutoCAD 2000"
 90
        1
280
     0
281
     0
  0
CLASS
  1
VBA_PROJECT
  2
AcDbVbaProject
  3
"acadvba"
 90
        1
280
     0
281
     0
  0
CLASS
  1
WIPEOUT
  2
AcDbWipeout
  3
WipeOut|AutoCAD Express Tool|expresstools@autodesk.com
 90
      127
280
     0
281
     1
  0
CLASS
  1
WIPEOUTVARIABLES
  2
AcDbWipeoutVariables
  3
WipeOut|AutoCAD Express Tool|expresstools@autodesk.com
 90
        0
280
     0
281
     0
  0
CLASS
  1
RTEXT
  2
RText
  3
RText|AutoCAD Express Tool|expresstools@autodesk.com
 90
        0
280
     0
281
     1
  0
CLASS
  1
ARCALIGNEDTEXT
  2
AcDbArcAlignedText
  3
ATEXT|AutoCAD Express Tool|expresstools@autodesk.com
 90
        0
280
     0
281
     1
  0
ENDSEC
  0
SECTION
  2
TABLES
  0
TABLE
  2
VPORT
  5
7
100
AcDbSymbolTable
 70
     1
  0
VPORT
  5
15
100
AcDbSymbolTableRecord
100
AcDbViewportTableRecord
  2
*ACTIVE
 70
     0
 10
0.0
 20
0.0
 11
1.0
 21
1.0
 12
1500.0
 22
2265.0
 13
0.0
 23
0.0
 14
1.0
 24
1.0
 15
0.0
 25
0.0
 16
0.0
 26
0.0
 36
1.0
 17
0.0
 27
0.0
 37
0.0
 40
4125.0
 41
1.722533
 42
50.0
 43
0.0
 44
0.0
 50
0.0
 51
0.0
 71
     0
 72
   100
 73
     1
 74
     1
 75
     0
 76
     0
 77
     0
 78
     0
  0
ENDTAB
  0
TABLE
  2
LTYPE
  5
4
100
AcDbSymbolTable
 70
     9
  0
LTYPE
  5
11
100
AcDbSymbolTableRecord
100
AcDbLinetypeTableRecord
  2
BYBLOCK
 70
    64
  3

 72
    65
 73
     0
 40
0.0
  0
LTYPE
  5
12
100
AcDbSymbolTableRecord
100
AcDbLinetypeTableRecord
  2
BYLAYER
 70
    64
  3

 72
    65
 73
     0
 40
0.0
  0
LTYPE
  5
13
100
AcDbSymbolTableRecord
100
AcDbLinetypeTableRecord
  2
CONTINUOUS
 70
    64
  3
実線
 72
    65
 73
     0
 40
0.0
  0
LTYPE
  5
1D
100
AcDbSymbolTableRecord
100
AcDbLinetypeTableRecord
  2
EXLTYPE1
 70
    64
  3
破線
 72
    65
 73
     2
 40
3.0
 49
2.0
 74
     0
 49
-1.0
 74
     0
  0
LTYPE
  5
1E
100
AcDbSymbolTableRecord
100
AcDbLinetypeTableRecord
  2
EXLTYPE2
 70
    64
  3
点線
 72
    65
 73
     2
 40
2.0
 49
1.0
 74
     0
 49
-1.0
 74
     0
  0
LTYPE
  5
1F
100
AcDbSymbolTableRecord
100
AcDbLinetypeTableRecord
  2
EXLTYPE3
 70
    64
  3
一点鎖線
 72
    65
 73
     4
 40
10.0
 49
7.0
 74
     0
 49
-1.0
 74
     0
 49
1.0
 74
     0
 49
-1.0
 74
     0
  0
LTYPE
  5
20
100
AcDbSymbolTableRecord
100
AcDbLinetypeTableRecord
  2
EXLTYPE4
 70
    64
  3
二点鎖線
 72
    65
 73
     6
 40
12.0
 49
7.0
 74
     0
 49
-1.0
 74
     0
 49
1.0
 74
     0
 49
-1.0
 74
     0
 49
1.0
 74
     0
 49
-1.0
 74
     0
  0
LTYPE
  5
21
100
AcDbSymbolTableRecord
100
AcDbLinetypeTableRecord
  2
EXLTYPE5
 70
    64
  3
三点鎖線
 72
    65
 73
     8
 40
37.0
 49
30.0
 74
     0
 49
-1.0
 74
     0
 49
1.0
 74
     0
 49
-1.0
 74
     0
 49
1.0
 74
     0
 49
-1.0
 74
     0
 49
1.0
 74
     0
 49
-1.0
 74
     0
  0
LTYPE
  5
22
100
AcDbSymbolTableRecord
100
AcDbLinetypeTableRecord
  2
EXLTYPE6
 70
    64
  3
四点鎖線
 72
    65
 73
    10
 40
39.0
 49
30.0
 74
     0
 49
-1.0
 74
     0
 49
1.0
 74
     0
 49
-1.0
 74
     0
 49
1.0
 74
     0
 49
-1.0
 74
     0
 49
1.0
 74
     0
 49
-1.0
 74
     0
 49
1.0
 74
     0
 49
-1.0
 74
     0
  0
ENDTAB
  0
TABLE
  2
LAYER
  5
2
100
AcDbSymbolTable
 70
     6
  0
LAYER
  5
14
100
AcDbSymbolTableRecord
100
AcDbLayerTableRecord
  2
0
 70
     0
 62
     7
  6
CONTINUOUS
  0
LAYER
  5
25
100
AcDbSymbolTableRecord
100
AcDbLayerTableRecord
  2
枠・表
 70
    64
 62
     7
  6
CONTINUOUS
  0
LAYER
  5
26
100
AcDbSymbolTableRecord
100
AcDbLayerTableRecord
  2
化粧台
 70
    64
 62
     7
  6
CONTINUOUS
  0
LAYER
  5
27
100
AcDbSymbolTableRecord
100
AcDbLayerTableRecord
  2
鏡台
 70
    64
 62
     7
  6
CONTINUOUS
  0
LAYER
  5
28
100
AcDbSymbolTableRecord
100
AcDbLayerTableRecord
  2
付属金具
 70
    64
 62
     7
  6
CONTINUOUS
  0
LAYER
  5
29
100
AcDbSymbolTableRecord
100
AcDbLayerTableRecord
  2
寸法
 70
    64
 62
     7
  6
CONTINUOUS
  0
ENDTAB
  0
TABLE
  2
STYLE
  5
3
100
AcDbSymbolTable
 70
     5
  0
STYLE
  5
17
100
AcDbSymbolTableRecord
100
AcDbTextStyleTableRecord
  2
STANDARD
 70
     0
 40
0.0
 41
1.0
 50
0.0
 71
     0
 42
0.0
  3
monotxt
  4
extfont
  0
STYLE
  5
23
100
AcDbSymbolTableRecord
100
AcDbTextStyleTableRecord
  2
EXCADSTD
 70
    64
 40
0.0
 41
1.0
 50
0.0
 71
     0
 42
0.2
  3
monotxt
  4
extfont
  0
STYLE
  5
24
100
AcDbSymbolTableRecord
100
AcDbTextStyleTableRecord
  2
EXCADVERT
 70
    68
 40
0.0
 41
1.0
 50
0.0
 71
     0
 42
0.286885
  3
monotxt
  4
extfont
  0
STYLE
  5
BB
100
AcDbSymbolTableRecord
100
AcDbTextStyleTableRecord
  2
EXCADTTF1
 70
    64
 40
0.0
 41
1.0
 50
0.0
 71
     0
 42
0.2
  3
MS Gothic.ttf
  4

1001
ACAD
1000
MS Gothic
1071
    32817
  0
STYLE
  5
122
100
AcDbSymbolTableRecord
100
AcDbTextStyleTableRecord
  2
EXCADDIM1
 70
    64
 40
0.0
 41
0.84
 50
0.0
 71
     0
 42
0.2
  3
monotxt
  4
extfont
  0
ENDTAB
  0
TABLE
  2
VIEW
  5
5
100
AcDbSymbolTable
 70
     0
  0
ENDTAB
  0
TABLE
  2
UCS
  5
6
100
AcDbSymbolTable
 70
     0
  0
ENDTAB
  0
TABLE
  2
APPID
  5
8
100
AcDbSymbolTable
 70
     1
  0
APPID
  5
16
100
AcDbSymbolTableRecord
100
AcDbRegAppTableRecord
  2
ACAD
 70
     0
  0
ENDTAB
  0
TABLE
  2
DIMSTYLE
  5
9
100
AcDbSymbolTable
 70
     1
  0
DIMSTYLE
105
18
100
AcDbSymbolTableRecord
100
AcDbDimStyleTableRecord
  2
STANDARD
 70
     0
  3

  4

  5

  6

  7

 40
1.0
 41
0.18
 42
0.0625
 43
0.38
 44
0.18
 45
0.0
 46
0.0
 47
0.0
 48
0.0
 71
     0
 72
     0
 73
     1
 74
     1
 75
     0
 76
     0
 77
     0
 78
     0
140
0.18
141
0.09
142
0.0
143
25.4
144
1.0
145
0.0
146
1.0
147
0.09
170
     0
171
     2
172
     1
173
     0
174
     0
175
     0
176
     0
177
     0
178
     0
270
     2
271
     4
272
     4
273
     2
274
     2
275
     0
280
     0
281
     0
282
     0
283
     1
284
     0
285
     0
286
     0
287
     0
288
     0
340
17
  0
ENDTAB
  0
TABLE
  2
BLOCK_RECORD
  5
1
100
AcDbSymbolTable
 70
    35
  0
BLOCK_RECORD
  5
A
100
AcDbSymbolTableRecord
100
AcDbBlockTableRecord
  2
*MODEL_SPACE
  0
BLOCK_RECORD
  5
B
100
AcDbSymbolTableRecord
100
AcDbBlockTableRecord
  2
*PAPER_SPACE
  0
BLOCK_RECORD
  5
2A
100
AcDbSymbolTableRecord
100
AcDbBlockTableRecord
  2
_EX_NORM
  0
BLOCK_RECORD
  5
2B
100
AcDbSymbolTableRecord
100
AcDbBlockTableRecord
  2
_EX_BNORM
  0
BLOCK_RECORD
  5
2C
100
AcDbSymbolTableRecord
100
AcDbBlockTableRecord
  2
_EX_BCIR
  0
BLOCK_RECORD
  5
2D
100
AcDbSymbolTableRecord
100
AcDbBlockTableRecord
  2
_EX_RCIVIL
  0
BLOCK_RECORD
  5
2E
100
AcDbSymbolTableRecord
100
AcDbBlockTableRecord
  2
_EX_SLANT
  0
BLOCK_RECORD
  5
2F
100
AcDbSymbolTableRecord
100
AcDbBlockTableRecord
  2
_EX_NONE
  0
BLOCK_RECORD
  5
30
100
AcDbSymbolTableRecord
100
AcDbBlockTableRecord
  2
_EX_CIVIL
  0
BLOCK_RECORD
  5
31
100
AcDbSymbolTableRecord
100
AcDbBlockTableRecord
  2
_EX_WCIR
  0
BLOCK_RECORD
  5
32
100
AcDbSymbolTableRecord
100
AcDbBlockTableRecord
  2
_EX_WCIR2
  0
BLOCK_RECORD
  5
33
100
AcDbSymbolTableRecord
100
AcDbBlockTableRecord
  2
_EX_WNORM
  0
BLOCK_RECORD
  5
34
100
AcDbSymbolTableRecord
100
AcDbBlockTableRecord
  2
_EX_NNORM
  0
BLOCK_RECORD
  5
35
100
AcDbSymbolTableRecord
100
AcDbBlockTableRecord
  2
_EX_BBOX
  0
BLOCK_RECORD
  5
36
100
AcDbSymbolTableRecord
100
AcDbBlockTableRecord
  2
_EX_WBOX
  0
BLOCK_RECORD
  5
37
100
AcDbSymbolTableRecord
100
AcDbBlockTableRecord
  2
_EX_INTEGRAL
  0
BLOCK_RECORD
  5
118
100
AcDbSymbolTableRecord
100
AcDbBlockTableRecord
  2
*D14
  0
BLOCK_RECORD
  5
7C9
100
AcDbSymbolTableRecord
100
AcDbBlockTableRecord
  2
*D15
  0
BLOCK_RECORD
  5
7D5
100
AcDbSymbolTableRecord
100
AcDbBlockTableRecord
  2
*D16
  0
BLOCK_RECORD
  5
7E1
100
AcDbSymbolTableRecord
100
AcDbBlockTableRecord
  2
*D17
  0
BLOCK_RECORD
  5
7EC
100
AcDbSymbolTableRecord
100
AcDbBlockTableRecord
  2
*D18
  0
BLOCK_RECORD
  5
7F8
100
AcDbSymbolTableRecord
100
AcDbBlockTableRecord
  2
*D19
  0
BLOCK_RECORD
  5
803
100
AcDbSymbolTableRecord
100
AcDbBlockTableRecord
  2
*D20
  0
BLOCK_RECORD
  5
80E
100
AcDbSymbolTableRecord
100
AcDbBlockTableRecord
  2
*D21
  0
BLOCK_RECORD
  5
819
100
AcDbSymbolTableRecord
100
AcDbBlockTableRecord
  2
*D22
  0
BLOCK_RECORD
  5
825
100
AcDbSymbolTableRecord
100
AcDbBlockTableRecord
  2
*D23
  0
BLOCK_RECORD
  5
831
100
AcDbSymbolTableRecord
100
AcDbBlockTableRecord
  2
*D24
  0
BLOCK_RECORD
  5
83D
100
AcDbSymbolTableRecord
100
AcDbBlockTableRecord
  2
*D25
  0
BLOCK_RECORD
  5
849
100
AcDbSymbolTableRecord
100
AcDbBlockTableRecord
  2
*D26
  0
BLOCK_RECORD
  5
854
100
AcDbSymbolTableRecord
100
AcDbBlockTableRecord
  2
*D27
  0
BLOCK_RECORD
  5
860
100
AcDbSymbolTableRecord
100
AcDbBlockTableRecord
  2
*D28
  0
BLOCK_RECORD
  5
86D
100
AcDbSymbolTableRecord
100
AcDbBlockTableRecord
  2
*D29
  0
BLOCK_RECORD
  5
879
100
AcDbSymbolTableRecord
100
AcDbBlockTableRecord
  2
*D30
  0
BLOCK_RECORD
  5
885
100
AcDbSymbolTableRecord
100
AcDbBlockTableRecord
  2
*D31
  0
BLOCK_RECORD
  5
891
100
AcDbSymbolTableRecord
100
AcDbBlockTableRecord
  2
*D32
  0
BLOCK_RECORD
  5
89D
100
AcDbSymbolTableRecord
100
AcDbBlockTableRecord
  2
*D33
  0
BLOCK_RECORD
  5
8A9
100
AcDbSymbolTableRecord
100
AcDbBlockTableRecord
  2
*D34
  0
ENDTAB
  0
ENDSEC
  0
SECTION
  2
BLOCKS
  0
BLOCK
  5
D
100
AcDbEntity
  8
0
100
AcDbBlockBegin
  2
*MODEL_SPACE
 70
     0
 10
0.0
 20
0.0
 30
0.0
  3
*MODEL_SPACE
  1

  0
ENDBLK
  5
E
100
AcDbEntity
  8
0
100
AcDbBlockEnd
  0
BLOCK
  5
F
100
AcDbEntity
 67
     1
  8
0
100
AcDbBlockBegin
  2
*PAPER_SPACE
 70
     0
 10
0.0
 20
0.0
 30
0.0
  3
*PAPER_SPACE
  1

  0
ENDBLK
  5
10
100
AcDbEntity
 67
     1
  8
0
100
AcDbBlockEnd
  0
BLOCK
  5
38
100
AcDbEntity
  8
0
100
AcDbBlockBegin
  2
_EX_NORM
 70
     0
 10
0.0
 20
0.0
 30
0.0
  3
_EX_NORM
  1

  0
LINE
  5
39
100
AcDbEntity
  8
0
  6
CONTINUOUS
 62
     0
100
AcDbLine
 10
0.0
 20
0.0
 30
0.0
 11
-1.0
 21
0.0
 31
0.0
  0
LINE
  5
3A
100
AcDbEntity
  8
0
  6
CONTINUOUS
 62
     0
100
AcDbLine
 10
0.0
 20
0.0
 30
0.0
 11
-1.0
 21
0.166667
 31
0.0
  0
LINE
  5
3B
100
AcDbEntity
  8
0
  6
CONTINUOUS
 62
     0
100
AcDbLine
 10
0.0
 20
0.0
 30
0.0
 11
-1.0
 21
-0.166667
 31
0.0
  0
ENDBLK
  5
3C
100
AcDbEntity
  8
0
100
AcDbBlockEnd
  0
BLOCK
  5
3D
100
AcDbEntity
  8
0
100
AcDbBlockBegin
  2
_EX_BNORM
 70
     0
 10
0.0
 20
0.0
 30
0.0
  3
_EX_BNORM
  1

  0
LINE
  5
3E
100
AcDbEntity
  8
0
  6
CONTINUOUS
 62
     0
100
AcDbLine
 10
0.0
 20
0.0
 30
0.0
 11
-1.0
 21
0.0
 31
0.0
  0
LINE
  5
3F
100
AcDbEntity
  8
0
  6
CONTINUOUS
 62
     0
100
AcDbLine
 10
0.0
 20
0.0
 30
0.0
 11
-1.0
 21
0.166667
 31
0.0
  0
LINE
  5
40
100
AcDbEntity
  8
0
  6
CONTINUOUS
 62
     0
100
AcDbLine
 10
0.0
 20
0.0
 30
0.0
 11
-1.0
 21
-0.166667
 31
0.0
  0
LINE
  5
41
100
AcDbEntity
  8
0
  6
CONTINUOUS
 62
     0
100
AcDbLine
 10
0.0
 20
0.0
 30
0.0
 11
-1.0
 21
0.083333
 31
0.0
  0
LINE
  5
42
100
AcDbEntity
  8
0
  6
CONTINUOUS
 62
     0
100
AcDbLine
 10
0.0
 20
0.0
 30
0.0
 11
-1.0
 21
-0.083333
 31
0.0
  0
LINE
  5
43
100
AcDbEntity
  8
0
  6
CONTINUOUS
 62
     0
100
AcDbLine
 10
-1.0
 20
0.166667
 30
0.0
 11
-1.0
 21
-0.166667
 31
0.0
  0
ENDBLK
  5
44
100
AcDbEntity
  8
0
100
AcDbBlockEnd
  0
BLOCK
  5
45
100
AcDbEntity
  8
0
100
AcDbBlockBegin
  2
_EX_BCIR
 70
     0
 10
0.0
 20
0.0
 30
0.0
  3
_EX_BCIR
  1

  0
LINE
  5
46
100
AcDbEntity
  8
0
  6
CONTINUOUS
 62
     0
100
AcDbLine
 10
0.0
 20
0.0
 30
0.0
 11
-1.0
 21
0.0
 31
0.0
  0
CIRCLE
  5
47
100
AcDbEntity
  8
0
  6
CONTINUOUS
 62
     0
100
AcDbCircle
 10
0.0
 20
0.0
 30
0.0
 40
0.5
  0
CIRCLE
  5
48
100
AcDbEntity
  8
0
  6
CONTINUOUS
 62
     0
100
AcDbCircle
 10
0.0
 20
0.0
 30
0.0
 40
0.25
  0
ENDBLK
  5
49
100
AcDbEntity
  8
0
100
AcDbBlockEnd
  0
BLOCK
  5
4A
100
AcDbEntity
  8
0
100
AcDbBlockBegin
  2
_EX_RCIVIL
 70
     0
 10
0.0
 20
0.0
 30
0.0
  3
_EX_RCIVIL
  1

  0
LINE
  5
4B
100
AcDbEntity
  8
0
  6
CONTINUOUS
 62
     0
100
AcDbLine
 10
0.0
 20
0.0
 30
0.0
 11
-1.0
 21
0.0
 31
0.0
  0
LINE
  5
4C
100
AcDbEntity
  8
0
  6
CONTINUOUS
 62
     0
100
AcDbLine
 10
-1.0
 20
-0.25
 30
0.0
 11
0.0
 21
-0.25
 31
0.0
  0
LINE
  5
4D
100
AcDbEntity
  8
0
  6
CONTINUOUS
 62
     0
100
AcDbLine
 10
-1.0
 20
-0.125
 30
0.0
 11
0.0
 21
-0.125
 31
0.0
  0
ENDBLK
  5
4E
100
AcDbEntity
  8
0
100
AcDbBlockEnd
  0
BLOCK
  5
4F
100
AcDbEntity
  8
0
100
AcDbBlockBegin
  2
_EX_SLANT
 70
     0
 10
0.0
 20
0.0
 30
0.0
  3
_EX_SLANT
  1

  0
LINE
  5
50
100
AcDbEntity
  8
0
  6
CONTINUOUS
 62
     0
100
AcDbLine
 10
0.0
 20
0.0
 30
0.0
 11
-1.0
 21
0.0
 31
0.0
  0
LINE
  5
51
100
AcDbEntity
  8
0
  6
CONTINUOUS
 62
     0
100
AcDbLine
 10
0.707107
 20
0.707107
 30
0.0
 11
-0.707107
 21
-0.707107
 31
0.0
  0
ENDBLK
  5
52
100
AcDbEntity
  8
0
100
AcDbBlockEnd
  0
BLOCK
  5
53
100
AcDbEntity
  8
0
100
AcDbBlockBegin
  2
_EX_NONE
 70
     0
 10
0.0
 20
0.0
 30
0.0
  3
_EX_NONE
  1

  0
LINE
  5
54
100
AcDbEntity
  8
0
  6
CONTINUOUS
 62
     0
100
AcDbLine
 10
0.0
 20
0.0
 30
0.0
 11
-1.0
 21
0.0
 31
0.0
  0
ENDBLK
  5
55
100
AcDbEntity
  8
0
100
AcDbBlockEnd
  0
BLOCK
  5
56
100
AcDbEntity
  8
0
100
AcDbBlockBegin
  2
_EX_CIVIL
 70
     0
 10
0.0
 20
0.0
 30
0.0
  3
_EX_CIVIL
  1

  0
LINE
  5
57
100
AcDbEntity
  8
0
  6
CONTINUOUS
 62
     0
100
AcDbLine
 10
0.0
 20
0.0
 30
0.0
 11
-1.0
 21
0.0
 31
0.0
  0
LINE
  5
58
100
AcDbEntity
  8
0
  6
CONTINUOUS
 62
     0
100
AcDbLine
 10
-1.0
 20
0.25
 30
0.0
 11
0.0
 21
0.25
 31
0.0
  0
LINE
  5
59
100
AcDbEntity
  8
0
  6
CONTINUOUS
 62
     0
100
AcDbLine
 10
-1.0
 20
0.125
 30
0.0
 11
0.0
 21
0.125
 31
0.0
  0
ENDBLK
  5
5A
100
AcDbEntity
  8
0
100
AcDbBlockEnd
  0
BLOCK
  5
5B
100
AcDbEntity
  8
0
100
AcDbBlockBegin
  2
_EX_WCIR
 70
     0
 10
0.0
 20
0.0
 30
0.0
  3
_EX_WCIR
  1

  0
LINE
  5
5C
100
AcDbEntity
  8
0
  6
CONTINUOUS
 62
     0
100
AcDbLine
 10
0.0
 20
0.0
 30
0.0
 11
-1.0
 21
0.0
 31
0.0
  0
CIRCLE
  5
5D
100
AcDbEntity
  8
0
  6
CONTINUOUS
 62
     0
100
AcDbCircle
 10
0.0
 20
0.0
 30
0.0
 40
0.5
  0
ENDBLK
  5
5E
100
AcDbEntity
  8
0
100
AcDbBlockEnd
  0
BLOCK
  5
5F
100
AcDbEntity
  8
0
100
AcDbBlockBegin
  2
_EX_WCIR2
 70
     0
 10
0.0
 20
0.0
 30
0.0
  3
_EX_WCIR2
  1

  0
LINE
  5
60
100
AcDbEntity
  8
0
  6
CONTINUOUS
 62
     0
100
AcDbLine
 10
-0.5
 20
0.0
 30
0.0
 11
-1.0
 21
0.0
 31
0.0
  0
CIRCLE
  5
61
100
AcDbEntity
  8
0
  6
CONTINUOUS
 62
     0
100
AcDbCircle
 10
0.0
 20
0.0
 30
0.0
 40
0.5
  0
ENDBLK
  5
62
100
AcDbEntity
  8
0
100
AcDbBlockEnd
  0
BLOCK
  5
63
100
AcDbEntity
  8
0
100
AcDbBlockBegin
  2
_EX_WNORM
 70
     0
 10
0.0
 20
0.0
 30
0.0
  3
_EX_WNORM
  1

  0
LINE
  5
64
100
AcDbEntity
  8
0
  6
CONTINUOUS
 62
     0
100
AcDbLine
 10
-1.0
 20
0.0
 30
0.0
 11
-1.0
 21
0.0
 31
0.0
  0
LINE
  5
65
100
AcDbEntity
  8
0
  6
CONTINUOUS
 62
     0
100
AcDbLine
 10
0.0
 20
0.0
 30
0.0
 11
-1.0
 21
0.166667
 31
0.0
  0
LINE
  5
66
100
AcDbEntity
  8
0
  6
CONTINUOUS
 62
     0
100
AcDbLine
 10
0.0
 20
0.0
 30
0.0
 11
-1.0
 21
-0.166667
 31
0.0
  0
LINE
  5
67
100
AcDbEntity
  8
0
  6
CONTINUOUS
 62
     0
100
AcDbLine
 10
-1.0
 20
0.166667
 30
0.0
 11
-1.0
 21
-0.166667
 31
0.0
  0
ENDBLK
  5
68
100
AcDbEntity
  8
0
100
AcDbBlockEnd
  0
BLOCK
  5
69
100
AcDbEntity
  8
0
100
AcDbBlockBegin
  2
_EX_NNORM
 70
     0
 10
0.0
 20
0.0
 30
0.0
  3
_EX_NNORM
  1

  0
LINE
  5
6A
100
AcDbEntity
  8
0
  6
CONTINUOUS
 62
     0
100
AcDbLine
 10
0.0
 20
0.0
 30
0.0
 11
-1.0
 21
0.0
 31
0.0
  0
LINE
  5
6B
100
AcDbEntity
  8
0
  6
CONTINUOUS
 62
     0
100
AcDbLine
 10
0.0
 20
0.0
 30
0.0
 11
-1.0
 21
0.166667
 31
0.0
  0
LINE
  5
6C
100
AcDbEntity
  8
0
  6
CONTINUOUS
 62
     0
100
AcDbLine
 10
0.0
 20
0.0
 30
0.0
 11
-1.0
 21
-0.166667
 31
0.0
  0
LINE
  5
6D
100
AcDbEntity
  8
0
  6
CONTINUOUS
 62
     0
100
AcDbLine
 10
-1.0
 20
0.166667
 30
0.0
 11
-1.0
 21
-0.166667
 31
0.0
  0
ENDBLK
  5
6E
100
AcDbEntity
  8
0
100
AcDbBlockEnd
  0
BLOCK
  5
6F
100
AcDbEntity
  8
0
100
AcDbBlockBegin
  2
_EX_BBOX
 70
     0
 10
0.0
 20
0.0
 30
0.0
  3
_EX_BBOX
  1

  0
LINE
  5
70
100
AcDbEntity
  8
0
  6
CONTINUOUS
 62
     0
100
AcDbLine
 10
0.0
 20
0.0
 30
0.0
 11
-1.0
 21
0.0
 31
0.0
  0
LINE
  5
71
100
AcDbEntity
  8
0
  6
CONTINUOUS
 62
     0
100
AcDbLine
 10
-0.5
 20
0.5
 30
0.0
 11
0.5
 21
0.5
 31
0.0
  0
LINE
  5
72
100
AcDbEntity
  8
0
  6
CONTINUOUS
 62
     0
100
AcDbLine
 10
0.5
 20
0.5
 30
0.0
 11
0.5
 21
-0.5
 31
0.0
  0
LINE
  5
73
100
AcDbEntity
  8
0
  6
CONTINUOUS
 62
     0
100
AcDbLine
 10
0.5
 20
-0.5
 30
0.0
 11
-0.5
 21
-0.5
 31
0.0
  0
LINE
  5
74
100
AcDbEntity
  8
0
  6
CONTINUOUS
 62
     0
100
AcDbLine
 10
-0.5
 20
-0.5
 30
0.0
 11
-0.5
 21
0.5
 31
0.0
  0
LINE
  5
75
100
AcDbEntity
  8
0
  6
CONTINUOUS
 62
     0
100
AcDbLine
 10
-0.25
 20
0.25
 30
0.0
 11
0.25
 21
0.25
 31
0.0
  0
LINE
  5
76
100
AcDbEntity
  8
0
  6
CONTINUOUS
 62
     0
100
AcDbLine
 10
0.25
 20
0.25
 30
0.0
 11
0.25
 21
-0.25
 31
0.0
  0
LINE
  5
77
100
AcDbEntity
  8
0
  6
CONTINUOUS
 62
     0
100
AcDbLine
 10
0.25
 20
-0.25
 30
0.0
 11
-0.25
 21
-0.25
 31
0.0
  0
LINE
  5
78
100
AcDbEntity
  8
0
  6
CONTINUOUS
 62
     0
100
AcDbLine
 10
-0.25
 20
-0.25
 30
0.0
 11
-0.25
 21
0.25
 31
0.0
  0
ENDBLK
  5
79
100
AcDbEntity
  8
0
100
AcDbBlockEnd
  0
BLOCK
  5
7A
100
AcDbEntity
  8
0
100
AcDbBlockBegin
  2
_EX_WBOX
 70
     0
 10
0.0
 20
0.0
 30
0.0
  3
_EX_WBOX
  1

  0
LINE
  5
7B
100
AcDbEntity
  8
0
  6
CONTINUOUS
 62
     0
100
AcDbLine
 10
-0.5
 20
0.0
 30
0.0
 11
-1.0
 21
0.0
 31
0.0
  0
LINE
  5
7C
100
AcDbEntity
  8
0
  6
CONTINUOUS
 62
     0
100
AcDbLine
 10
-0.5
 20
0.5
 30
0.0
 11
0.5
 21
0.5
 31
0.0
  0
LINE
  5
7D
100
AcDbEntity
  8
0
  6
CONTINUOUS
 62
     0
100
AcDbLine
 10
0.5
 20
0.5
 30
0.0
 11
0.5
 21
-0.5
 31
0.0
  0
LINE
  5
7E
100
AcDbEntity
  8
0
  6
CONTINUOUS
 62
     0
100
AcDbLine
 10
0.5
 20
-0.5
 30
0.0
 11
-0.5
 21
-0.5
 31
0.0
  0
LINE
  5
7F
100
AcDbEntity
  8
0
  6
CONTINUOUS
 62
     0
100
AcDbLine
 10
-0.5
 20
-0.5
 30
0.0
 11
-0.5
 21
0.5
 31
0.0
  0
ENDBLK
  5
80
100
AcDbEntity
  8
0
100
AcDbBlockEnd
  0
BLOCK
  5
81
100
AcDbEntity
  8
0
100
AcDbBlockBegin
  2
_EX_INTEGRAL
 70
     0
 10
0.0
 20
0.0
 30
0.0
  3
_EX_INTEGRAL
  1

  0
LINE
  5
82
100
AcDbEntity
  8
0
  6
CONTINUOUS
 62
     0
100
AcDbLine
 10
0.0
 20
0.0
 30
0.0
 11
-1.0
 21
0.0
 31
0.0
  0
ARC
  5
83
100
AcDbEntity
  8
0
  6
CONTINUOUS
 62
     0
100
AcDbCircle
 10
0.542115
 20
0.164992
 30
0.0
 40
0.56667
100
AcDbArc
 50
73.07249
 51
196.927513
  0
ARC
  5
84
100
AcDbEntity
  8
0
  6
CONTINUOUS
 62
     0
100
AcDbCircle
 10
-0.542115
 20
-0.164992
 30
0.0
 40
0.56667
100
AcDbArc
 50
253.072487
 51
16.927513
  0
ENDBLK
  5
85
100
AcDbEntity
  8
0
100
AcDbBlockEnd
  0
BLOCK
  5
119
100
AcDbEntity
  8
0
100
AcDbBlockBegin
  2
*D14
 70
    65
 10
0.0
 20
0.0
 30
0.0
  3
*D14
  1

  0
LINE
  5
11A
100
AcDbEntity
  8
化粧台
  6
CONTINUOUS
 62
     3
100
AcDbLine
 10
2457.5
 20
1283.5
 30
0.0
 11
2585.0
 21
1283.5
 31
0.0
  0
TEXT
  5
11B
100
AcDbEntity
  8
化粧台
  6
CONTINUOUS
 62
     2
100
AcDbText
 10
2564.75
 20
961.5
 30
0.0
 40
60.0
  1
350（壁給水）
 50
90.0
 41
0.84
  7
EXCADSTD
 72
     1
 11
2564.75
 21
1119.0
 31
0.0
100
AcDbText
  0
LINE
  5
11C
100
AcDbEntity
  8
化粧台
  6
CONTINUOUS
 62
     3
100
AcDbLine
 10
2570.0
 20
1283.5
 30
0.0
 11
2570.0
 21
933.5
 31
0.0
  0
LINE
  5
11D
100
AcDbEntity
  8
化粧台
  6
CONTINUOUS
 62
     3
100
AcDbLine
 10
2577.5
 20
1238.5
 30
0.0
 11
2570.0
 21
1283.5
 31
0.0
  0
LINE
  5
11E
100
AcDbEntity
  8
化粧台
  6
CONTINUOUS
 62
     3
100
AcDbLine
 10
2570.0
 20
1283.5
 30
0.0
 11
2562.5
 21
1238.5
 31
0.0
  0
LINE
  5
11F
100
AcDbEntity
  8
化粧台
  6
CONTINUOUS
 62
     3
100
AcDbLine
 10
2562.5
 20
978.5
 30
0.0
 11
2570.0
 21
933.5
 31
0.0
  0
LINE
  5
120
100
AcDbEntity
  8
化粧台
  6
CONTINUOUS
 62
     3
100
AcDbLine
 10
2570.0
 20
933.5
 30
0.0
 11
2577.5
 21
978.5
 31
0.0
  0
ENDBLK
  5
121
100
AcDbEntity
  8
0
100
AcDbBlockEnd
  0
BLOCK
  5
7CA
100
AcDbEntity
  8
0
100
AcDbBlockBegin
  2
*D15
 70
    65
 10
0.0
 20
0.0
 30
0.0
  3
*D15
  1

  0
LINE
  5
7CB
100
AcDbEntity
  8
寸法
  6
CONTINUOUS
 62
     3
100
AcDbLine
 10
770.0
 20
3960.5
 30
0.0
 11
770.0
 21
4022.5
 31
0.0
  0
LINE
  5
7CC
100
AcDbEntity
  8
寸法
  6
CONTINUOUS
 62
     3
100
AcDbLine
 10
1070.0
 20
3960.5
 30
0.0
 11
1070.0
 21
4022.5
 31
0.0
  0
TEXT
  5
7CD
100
AcDbEntity
  8
寸法
  6
CONTINUOUS
 62
     2
100
AcDbText
 10
857.0
 20
4012.75
 30
0.0
 40
60.0
  1
300
 41
0.84
  7
EXCADSTD
 72
     1
 11
920.0
 21
4012.75
 31
0.0
100
AcDbText
  0
LINE
  5
7CE
100
AcDbEntity
  8
寸法
  6
CONTINUOUS
 62
     3
100
AcDbLine
 10
770.0
 20
4007.5
 30
0.0
 11
1070.0
 21
4007.5
 31
0.0
  0
LINE
  5
7CF
100
AcDbEntity
  8
寸法
  6
CONTINUOUS
 62
     3
100
AcDbLine
 10
815.0
 20
4015.0
 30
0.0
 11
770.0
 21
4007.5
 31
0.0
  0
LINE
  5
7D0
100
AcDbEntity
  8
寸法
  6
CONTINUOUS
 62
     3
100
AcDbLine
 10
770.0
 20
4007.5
 30
0.0
 11
815.0
 21
4000.0
 31
0.0
  0
LINE
  5
7D1
100
AcDbEntity
  8
寸法
  6
CONTINUOUS
 62
     3
100
AcDbLine
 10
1025.0
 20
4000.0
 30
0.0
 11
1070.0
 21
4007.5
 31
0.0
  0
LINE
  5
7D2
100
AcDbEntity
  8
寸法
  6
CONTINUOUS
 62
     3
100
AcDbLine
 10
1070.0
 20
4007.5
 30
0.0
 11
1025.0
 21
4015.0
 31
0.0
  0
ENDBLK
  5
7D3
100
AcDbEntity
  8
0
100
AcDbBlockEnd
  0
BLOCK
  5
7D6
100
AcDbEntity
  8
0
100
AcDbBlockBegin
  2
*D16
 70
    65
 10
0.0
 20
0.0
 30
0.0
  3
*D16
  1

  0
LINE
  5
7D7
100
AcDbEntity
  8
寸法
  6
CONTINUOUS
 62
     3
100
AcDbLine
 10
670.0
 20
3543.809311
 30
0.0
 11
670.0
 21
3362.5
 31
0.0
  0
LINE
  5
7D8
100
AcDbEntity
  8
寸法
  6
CONTINUOUS
 62
     3
100
AcDbLine
 10
1170.0
 20
3543.809311
 30
0.0
 11
1170.0
 21
3362.5
 31
0.0
  0
TEXT
  5
7D9
100
AcDbEntity
  8
寸法
  6
CONTINUOUS
 62
     2
100
AcDbText
 10
857.0
 20
3382.75
 30
0.0
 40
60.0
  1
500
 41
0.84
  7
EXCADSTD
 72
     1
 11
920.0
 21
3382.75
 31
0.0
100
AcDbText
  0
LINE
  5
7DA
100
AcDbEntity
  8
寸法
  6
CONTINUOUS
 62
     3
100
AcDbLine
 10
670.0
 20
3377.5
 30
0.0
 11
1170.0
 21
3377.5
 31
0.0
  0
LINE
  5
7DB
100
AcDbEntity
  8
寸法
  6
CONTINUOUS
 62
     3
100
AcDbLine
 10
715.0
 20
3385.0
 30
0.0
 11
670.0
 21
3377.5
 31
0.0
  0
LINE
  5
7DC
100
AcDbEntity
  8
寸法
  6
CONTINUOUS
 62
     3
100
AcDbLine
 10
670.0
 20
3377.5
 30
0.0
 11
715.0
 21
3370.0
 31
0.0
  0
LINE
  5
7DD
100
AcDbEntity
  8
寸法
  6
CONTINUOUS
 62
     3
100
AcDbLine
 10
1125.0
 20
3370.0
 30
0.0
 11
1170.0
 21
3377.5
 31
0.0
  0
LINE
  5
7DE
100
AcDbEntity
  8
寸法
  6
CONTINUOUS
 62
     3
100
AcDbLine
 10
1170.0
 20
3377.5
 30
0.0
 11
1125.0
 21
3385.0
 31
0.0
  0
ENDBLK
  5
7DF
100
AcDbEntity
  8
0
100
AcDbBlockEnd
  0
BLOCK
  5
7E2
100
AcDbEntity
  8
0
100
AcDbBlockBegin
  2
*D17
 70
    65
 10
0.0
 20
0.0
 30
0.0
  3
*D17
  1

  0
LINE
  5
7E3
100
AcDbEntity
  8
寸法
  6
CONTINUOUS
 62
     3
100
AcDbLine
 10
930.5
 20
3467.5
 30
0.0
 11
1305.0
 21
3467.5
 31
0.0
  0
TEXT
  5
7E4
100
AcDbEntity
  8
寸法
  6
CONTINUOUS
 62
     2
100
AcDbText
 10
1284.75
 20
3629.5
 30
0.0
 40
60.0
  1
450
 50
90.0
 41
0.84
  7
EXCADSTD
 72
     1
 11
1284.75
 21
3692.5
 31
0.0
100
AcDbText
  0
LINE
  5
7E5
100
AcDbEntity
  8
寸法
  6
CONTINUOUS
 62
     3
100
AcDbLine
 10
1290.0
 20
3467.5
 30
0.0
 11
1290.0
 21
3917.5
 31
0.0
  0
LINE
  5
7E6
100
AcDbEntity
  8
寸法
  6
CONTINUOUS
 62
     3
100
AcDbLine
 10
1282.5
 20
3512.5
 30
0.0
 11
1290.0
 21
3467.5
 31
0.0
  0
LINE
  5
7E7
100
AcDbEntity
  8
寸法
  6
CONTINUOUS
 62
     3
100
AcDbLine
 10
1290.0
 20
3467.5
 30
0.0
 11
1297.5
 21
3512.5
 31
0.0
  0
LINE
  5
7E8
100
AcDbEntity
  8
寸法
  6
CONTINUOUS
 62
     3
100
AcDbLine
 10
1297.5
 20
3872.5
 30
0.0
 11
1290.0
 21
3917.5
 31
0.0
  0
LINE
  5
7E9
100
AcDbEntity
  8
寸法
  6
CONTINUOUS
 62
     3
100
AcDbLine
 10
1290.0
 20
3917.5
 30
0.0
 11
1282.5
 21
3872.5
 31
0.0
  0
ENDBLK
  5
7EA
100
AcDbEntity
  8
0
100
AcDbBlockEnd
  0
BLOCK
  5
7ED
100
AcDbEntity
  8
0
100
AcDbBlockBegin
  2
*D18
 70
    65
 10
0.0
 20
0.0
 30
0.0
  3
*D18
  1

  0
LINE
  5
7EE
100
AcDbEntity
  8
寸法
  6
CONTINUOUS
 62
     3
100
AcDbLine
 10
715.0
 20
2697.5
 30
0.0
 11
715.0
 21
2838.5
 31
0.0
  0
LINE
  5
7EF
100
AcDbEntity
  8
寸法
  6
CONTINUOUS
 62
     3
100
AcDbLine
 10
1125.0
 20
2697.5
 30
0.0
 11
1125.0
 21
2838.5
 31
0.0
  0
TEXT
  5
7F0
100
AcDbEntity
  8
寸法
  6
CONTINUOUS
 62
     2
100
AcDbText
 10
857.0
 20
2828.75
 30
0.0
 40
60.0
  1
410
 41
0.84
  7
EXCADSTD
 72
     1
 11
920.0
 21
2828.75
 31
0.0
100
AcDbText
  0
LINE
  5
7F1
100
AcDbEntity
  8
寸法
  6
CONTINUOUS
 62
     3
100
AcDbLine
 10
715.0
 20
2823.5
 30
0.0
 11
1125.0
 21
2823.5
 31
0.0
  0
LINE
  5
7F2
100
AcDbEntity
  8
寸法
  6
CONTINUOUS
 62
     3
100
AcDbLine
 10
760.0
 20
2831.0
 30
0.0
 11
715.0
 21
2823.5
 31
0.0
  0
LINE
  5
7F3
100
AcDbEntity
  8
寸法
  6
CONTINUOUS
 62
     3
100
AcDbLine
 10
715.0
 20
2823.5
 30
0.0
 11
760.0
 21
2816.0
 31
0.0
  0
LINE
  5
7F4
100
AcDbEntity
  8
寸法
  6
CONTINUOUS
 62
     3
100
AcDbLine
 10
1080.0
 20
2816.0
 30
0.0
 11
1125.0
 21
2823.5
 31
0.0
  0
LINE
  5
7F5
100
AcDbEntity
  8
寸法
  6
CONTINUOUS
 62
     3
100
AcDbLine
 10
1125.0
 20
2823.5
 30
0.0
 11
1080.0
 21
2831.0
 31
0.0
  0
ENDBLK
  5
7F6
100
AcDbEntity
  8
0
100
AcDbBlockEnd
  0
BLOCK
  5
7F9
100
AcDbEntity
  8
0
100
AcDbBlockBegin
  2
*D19
 70
    65
 10
0.0
 20
0.0
 30
0.0
  3
*D19
  1

  0
LINE
  5
7FA
100
AcDbEntity
  8
寸法
  6
CONTINUOUS
 62
     3
100
AcDbLine
 10
930.5
 20
1683.5
 30
0.0
 11
1335.0
 21
1683.5
 31
0.0
  0
TEXT
  5
7FB
100
AcDbEntity
  8
寸法
  6
CONTINUOUS
 62
     2
100
AcDbText
 10
1314.75
 20
1245.5
 30
0.0
 40
60.0
  1
750
 50
90.0
 41
0.84
  7
EXCADSTD
 72
     1
 11
1314.75
 21
1308.5
 31
0.0
100
AcDbText
  0
LINE
  5
7FC
100
AcDbEntity
  8
寸法
  6
CONTINUOUS
 62
     3
100
AcDbLine
 10
1320.0
 20
933.5
 30
0.0
 11
1320.0
 21
1683.5
 31
0.0
  0
LINE
  5
7FD
100
AcDbEntity
  8
寸法
  6
CONTINUOUS
 62
     3
100
AcDbLine
 10
1312.5
 20
978.5
 30
0.0
 11
1320.0
 21
933.5
 31
0.0
  0
LINE
  5
7FE
100
AcDbEntity
  8
寸法
  6
CONTINUOUS
 62
     3
100
AcDbLine
 10
1320.0
 20
933.5
 30
0.0
 11
1327.5
 21
978.5
 31
0.0
  0
LINE
  5
7FF
100
AcDbEntity
  8
寸法
  6
CONTINUOUS
 62
     3
100
AcDbLine
 10
1327.5
 20
1638.5
 30
0.0
 11
1320.0
 21
1683.5
 31
0.0
  0
LINE
  5
800
100
AcDbEntity
  8
寸法
  6
CONTINUOUS
 62
     3
100
AcDbLine
 10
1320.0
 20
1683.5
 30
0.0
 11
1312.5
 21
1638.5
 31
0.0
  0
ENDBLK
  5
801
100
AcDbEntity
  8
0
100
AcDbBlockEnd
  0
BLOCK
  5
804
100
AcDbEntity
  8
0
100
AcDbBlockBegin
  2
*D20
 70
    65
 10
0.0
 20
0.0
 30
0.0
  3
*D20
  1

  0
LINE
  5
805
100
AcDbEntity
  8
寸法
  6
CONTINUOUS
 62
     3
100
AcDbLine
 10
1170.0
 20
1733.5
 30
0.0
 11
1425.0
 21
1733.5
 31
0.0
  0
TEXT
  5
806
100
AcDbEntity
  8
寸法
  6
CONTINUOUS
 62
     2
100
AcDbText
 10
1404.75
 20
1270.5
 30
0.0
 40
60.0
  1
800
 50
90.0
 41
0.84
  7
EXCADSTD
 72
     1
 11
1404.75
 21
1333.5
 31
0.0
100
AcDbText
  0
LINE
  5
807
100
AcDbEntity
  8
寸法
  6
CONTINUOUS
 62
     3
100
AcDbLine
 10
1410.0
 20
933.5
 30
0.0
 11
1410.0
 21
1733.5
 31
0.0
  0
LINE
  5
808
100
AcDbEntity
  8
寸法
  6
CONTINUOUS
 62
     3
100
AcDbLine
 10
1402.5
 20
978.5
 30
0.0
 11
1410.0
 21
933.5
 31
0.0
  0
LINE
  5
809
100
AcDbEntity
  8
寸法
  6
CONTINUOUS
 62
     3
100
AcDbLine
 10
1410.0
 20
933.5
 30
0.0
 11
1417.5
 21
978.5
 31
0.0
  0
LINE
  5
80A
100
AcDbEntity
  8
寸法
  6
CONTINUOUS
 62
     3
100
AcDbLine
 10
1417.5
 20
1688.5
 30
0.0
 11
1410.0
 21
1733.5
 31
0.0
  0
LINE
  5
80B
100
AcDbEntity
  8
寸法
  6
CONTINUOUS
 62
     3
100
AcDbLine
 10
1410.0
 20
1733.5
 30
0.0
 11
1402.5
 21
1688.5
 31
0.0
  0
ENDBLK
  5
80C
100
AcDbEntity
  8
0
100
AcDbBlockEnd
  0
BLOCK
  5
80F
100
AcDbEntity
  8
0
100
AcDbBlockBegin
  2
*D21
 70
    65
 10
0.0
 20
0.0
 30
0.0
  3
*D21
  1

  0
LINE
  5
810
100
AcDbEntity
  8
寸法
  6
CONTINUOUS
 62
     3
100
AcDbLine
 10
1175.5
 20
2733.5
 30
0.0
 11
1515.0
 21
2733.5
 31
0.0
  0
TEXT
  5
811
100
AcDbEntity
  8
寸法
  6
CONTINUOUS
 62
     2
100
AcDbText
 10
1494.75
 20
1751.6
 30
0.0
 40
60.0
  1
1800
 50
90.0
 41
0.84
  7
EXCADSTD
 72
     1
 11
1494.75
 21
1833.5
 31
0.0
100
AcDbText
  0
LINE
  5
812
100
AcDbEntity
  8
寸法
  6
CONTINUOUS
 62
     3
100
AcDbLine
 10
1500.0
 20
933.5
 30
0.0
 11
1500.0
 21
2733.5
 31
0.0
  0
LINE
  5
813
100
AcDbEntity
  8
寸法
  6
CONTINUOUS
 62
     3
100
AcDbLine
 10
1492.5
 20
978.5
 30
0.0
 11
1500.0
 21
933.5
 31
0.0
  0
LINE
  5
814
100
AcDbEntity
  8
寸法
  6
CONTINUOUS
 62
     3
100
AcDbLine
 10
1500.0
 20
933.5
 30
0.0
 11
1507.5
 21
978.5
 31
0.0
  0
LINE
  5
815
100
AcDbEntity
  8
寸法
  6
CONTINUOUS
 62
     3
100
AcDbLine
 10
1507.5
 20
2688.5
 30
0.0
 11
1500.0
 21
2733.5
 31
0.0
  0
LINE
  5
816
100
AcDbEntity
  8
寸法
  6
CONTINUOUS
 62
     3
100
AcDbLine
 10
1500.0
 20
2733.5
 30
0.0
 11
1492.5
 21
2688.5
 31
0.0
  0
ENDBLK
  5
817
100
AcDbEntity
  8
0
100
AcDbBlockEnd
  0
BLOCK
  5
81A
100
AcDbEntity
  8
0
100
AcDbBlockBegin
  2
*D22
 70
    65
 10
0.0
 20
0.0
 30
0.0
  3
*D22
  1

  0
LINE
  5
81B
100
AcDbEntity
  8
寸法
  6
CONTINUOUS
 62
     3
100
AcDbLine
 10
1193.576697
 20
1863.5
 30
0.0
 11
1335.0
 21
1863.5
 31
0.0
  0
TEXT
  5
81C
100
AcDbEntity
  8
寸法
  6
CONTINUOUS
 62
     2
100
AcDbText
 10
1314.75
 20
1735.5
 30
0.0
 40
60.0
  1
130
 50
90.0
 41
0.84
  7
EXCADSTD
 72
     1
 11
1314.75
 21
1798.5
 31
0.0
100
AcDbText
  0
LINE
  5
81D
100
AcDbEntity
  8
寸法
  6
CONTINUOUS
 62
     3
100
AcDbLine
 10
1320.0
 20
1688.5
 30
0.0
 11
1320.0
 21
1908.5
 31
0.0
  0
LINE
  5
81E
100
AcDbEntity
  8
寸法
  6
CONTINUOUS
 62
     3
100
AcDbLine
 10
1327.5
 20
1688.5
 30
0.0
 11
1320.0
 21
1733.5
 31
0.0
  0
LINE
  5
81F
100
AcDbEntity
  8
寸法
  6
CONTINUOUS
 62
     3
100
AcDbLine
 10
1320.0
 20
1733.5
 30
0.0
 11
1312.5
 21
1688.5
 31
0.0
  0
LINE
  5
820
100
AcDbEntity
  8
寸法
  6
CONTINUOUS
 62
     3
100
AcDbLine
 10
1312.5
 20
1908.5
 30
0.0
 11
1320.0
 21
1863.5
 31
0.0
  0
LINE
  5
821
100
AcDbEntity
  8
寸法
  6
CONTINUOUS
 62
     3
100
AcDbLine
 10
1320.0
 20
1863.5
 30
0.0
 11
1327.5
 21
1908.5
 31
0.0
  0
ENDBLK
  5
822
100
AcDbEntity
  8
0
100
AcDbBlockEnd
  0
BLOCK
  5
826
100
AcDbEntity
  8
0
100
AcDbBlockBegin
  2
*D23
 70
    65
 10
0.0
 20
0.0
 30
0.0
  3
*D23
  1

  0
LINE
  5
827
100
AcDbEntity
  8
寸法
  6
CONTINUOUS
 62
     3
100
AcDbLine
 10
2460.5
 20
933.5
 30
0.0
 11
2675.0
 21
933.5
 31
0.0
  0
LINE
  5
828
100
AcDbEntity
  8
寸法
  6
CONTINUOUS
 62
     3
100
AcDbLine
 10
2493.0
 20
1458.5
 30
0.0
 11
2675.0
 21
1458.5
 31
0.0
  0
TEXT
  5
829
100
AcDbEntity
  8
寸法
  6
CONTINUOUS
 62
     2
100
AcDbText
 10
2654.75
 20
1133.0
 30
0.0
 40
60.0
  1
525
 50
90.0
 41
0.84
  7
EXCADSTD
 72
     1
 11
2654.75
 21
1196.0
 31
0.0
100
AcDbText
  0
LINE
  5
82A
100
AcDbEntity
  8
寸法
  6
CONTINUOUS
 62
     3
100
AcDbLine
 10
2660.0
 20
933.5
 30
0.0
 11
2660.0
 21
1458.5
 31
0.0
  0
LINE
  5
82B
100
AcDbEntity
  8
寸法
  6
CONTINUOUS
 62
     3
100
AcDbLine
 10
2652.5
 20
978.5
 30
0.0
 11
2660.0
 21
933.5
 31
0.0
  0
LINE
  5
82C
100
AcDbEntity
  8
寸法
  6
CONTINUOUS
 62
     3
100
AcDbLine
 10
2660.0
 20
933.5
 30
0.0
 11
2667.5
 21
978.5
 31
0.0
  0
LINE
  5
82D
100
AcDbEntity
  8
寸法
  6
CONTINUOUS
 62
     3
100
AcDbLine
 10
2667.5
 20
1413.5
 30
0.0
 11
2660.0
 21
1458.5
 31
0.0
  0
LINE
  5
82E
100
AcDbEntity
  8
寸法
  6
CONTINUOUS
 62
     3
100
AcDbLine
 10
2660.0
 20
1458.5
 30
0.0
 11
2652.5
 21
1413.5
 31
0.0
  0
ENDBLK
  5
82F
100
AcDbEntity
  8
0
100
AcDbBlockEnd
  0
BLOCK
  5
832
100
AcDbEntity
  8
0
100
AcDbBlockBegin
  2
*D24
 70
    65
 10
0.0
 20
0.0
 30
0.0
  3
*D24
  1

  0
LINE
  5
833
100
AcDbEntity
  8
寸法
  6
CONTINUOUS
 62
     3
100
AcDbLine
 10
2460.5
 20
933.5
 30
0.0
 11
2765.0
 21
933.5
 31
0.0
  0
LINE
  5
834
100
AcDbEntity
  8
寸法
  6
CONTINUOUS
 62
     3
100
AcDbLine
 10
2493.0
 20
1798.5
 30
0.0
 11
2765.0
 21
1798.5
 31
0.0
  0
TEXT
  5
835
100
AcDbEntity
  8
寸法
  6
CONTINUOUS
 62
     2
100
AcDbText
 10
2744.75
 20
1303.0
 30
0.0
 40
60.0
  1
865
 50
90.0
 41
0.84
  7
EXCADSTD
 72
     1
 11
2744.75
 21
1366.0
 31
0.0
100
AcDbText
  0
LINE
  5
836
100
AcDbEntity
  8
寸法
  6
CONTINUOUS
 62
     3
100
AcDbLine
 10
2750.0
 20
933.5
 30
0.0
 11
2750.0
 21
1798.5
 31
0.0
  0
LINE
  5
837
100
AcDbEntity
  8
寸法
  6
CONTINUOUS
 62
     3
100
AcDbLine
 10
2742.5
 20
978.5
 30
0.0
 11
2750.0
 21
933.5
 31
0.0
  0
LINE
  5
838
100
AcDbEntity
  8
寸法
  6
CONTINUOUS
 62
     3
100
AcDbLine
 10
2750.0
 20
933.5
 30
0.0
 11
2757.5
 21
978.5
 31
0.0
  0
LINE
  5
839
100
AcDbEntity
  8
寸法
  6
CONTINUOUS
 62
     3
100
AcDbLine
 10
2757.5
 20
1753.5
 30
0.0
 11
2750.0
 21
1798.5
 31
0.0
  0
LINE
  5
83A
100
AcDbEntity
  8
寸法
  6
CONTINUOUS
 62
     3
100
AcDbLine
 10
2750.0
 20
1798.5
 30
0.0
 11
2742.5
 21
1753.5
 31
0.0
  0
ENDBLK
  5
83B
100
AcDbEntity
  8
0
100
AcDbBlockEnd
  0
BLOCK
  5
83E
100
AcDbEntity
  8
0
100
AcDbBlockBegin
  2
*D25
 70
    65
 10
0.0
 20
0.0
 30
0.0
  3
*D25
  1

  0
LINE
  5
83F
100
AcDbEntity
  8
寸法
  6
CONTINUOUS
 62
     3
100
AcDbLine
 10
2493.0
 20
1798.5
 30
0.0
 11
2765.0
 21
1798.5
 31
0.0
  0
LINE
  5
840
100
AcDbEntity
  8
寸法
  6
CONTINUOUS
 62
     3
100
AcDbLine
 10
2493.0
 20
2678.5
 30
0.0
 11
2765.0
 21
2678.5
 31
0.0
  0
TEXT
  5
841
100
AcDbEntity
  8
寸法
  6
CONTINUOUS
 62
     2
100
AcDbText
 10
2744.75
 20
2175.5
 30
0.0
 40
60.0
  1
880
 50
90.0
 41
0.84
  7
EXCADSTD
 72
     1
 11
2744.75
 21
2238.5
 31
0.0
100
AcDbText
  0
LINE
  5
842
100
AcDbEntity
  8
寸法
  6
CONTINUOUS
 62
     3
100
AcDbLine
 10
2750.0
 20
1798.5
 30
0.0
 11
2750.0
 21
2678.5
 31
0.0
  0
LINE
  5
843
100
AcDbEntity
  8
寸法
  6
CONTINUOUS
 62
     3
100
AcDbLine
 10
2742.5
 20
1843.5
 30
0.0
 11
2750.0
 21
1798.5
 31
0.0
  0
LINE
  5
844
100
AcDbEntity
  8
寸法
  6
CONTINUOUS
 62
     3
100
AcDbLine
 10
2750.0
 20
1798.5
 30
0.0
 11
2757.5
 21
1843.5
 31
0.0
  0
LINE
  5
845
100
AcDbEntity
  8
寸法
  6
CONTINUOUS
 62
     3
100
AcDbLine
 10
2757.5
 20
2633.5
 30
0.0
 11
2750.0
 21
2678.5
 31
0.0
  0
LINE
  5
846
100
AcDbEntity
  8
寸法
  6
CONTINUOUS
 62
     3
100
AcDbLine
 10
2750.0
 20
2678.5
 30
0.0
 11
2742.5
 21
2633.5
 31
0.0
  0
ENDBLK
  5
847
100
AcDbEntity
  8
0
100
AcDbBlockEnd
  0
BLOCK
  5
84A
100
AcDbEntity
  8
0
100
AcDbBlockBegin
  2
*D26
 70
    65
 10
0.0
 20
0.0
 30
0.0
  3
*D26
  1

  0
LINE
  5
84B
100
AcDbEntity
  8
寸法
  6
CONTINUOUS
 62
     3
100
AcDbLine
 10
2298.74118
 20
2715.702357
 30
0.0
 11
2298.74118
 21
2838.5
 31
0.0
  0
TEXT
  5
84C
100
AcDbEntity
  8
寸法
  6
CONTINUOUS
 62
     2
100
AcDbText
 10
2311.37059
 20
2828.75
 30
0.0
 40
60.0
  1
151
 41
0.84
  7
EXCADSTD
 72
     1
 11
2374.37059
 21
2828.75
 31
0.0
100
AcDbText
  0
LINE
  5
84D
100
AcDbEntity
  8
寸法
  6
CONTINUOUS
 62
     3
100
AcDbLine
 10
2253.74118
 20
2823.5
 30
0.0
 11
2495.0
 21
2823.5
 31
0.0
  0
LINE
  5
84E
100
AcDbEntity
  8
寸法
  6
CONTINUOUS
 62
     3
100
AcDbLine
 10
2253.74118
 20
2816.0
 30
0.0
 11
2298.74118
 21
2823.5
 31
0.0
  0
LINE
  5
84F
100
AcDbEntity
  8
寸法
  6
CONTINUOUS
 62
     3
100
AcDbLine
 10
2298.74118
 20
2823.5
 30
0.0
 11
2253.74118
 21
2831.0
 31
0.0
  0
LINE
  5
850
100
AcDbEntity
  8
寸法
  6
CONTINUOUS
 62
     3
100
AcDbLine
 10
2495.0
 20
2831.0
 30
0.0
 11
2450.0
 21
2823.5
 31
0.0
  0
LINE
  5
851
100
AcDbEntity
  8
寸法
  6
CONTINUOUS
 62
     3
100
AcDbLine
 10
2450.0
 20
2823.5
 30
0.0
 11
2495.0
 21
2816.0
 31
0.0
  0
ENDBLK
  5
852
100
AcDbEntity
  8
0
100
AcDbBlockEnd
  0
BLOCK
  5
855
100
AcDbEntity
  8
0
100
AcDbBlockBegin
  2
*D27
 70
    65
 10
0.0
 20
0.0
 30
0.0
  3
*D27
  1

  0
LINE
  5
856
100
AcDbEntity
  8
寸法
  6
CONTINUOUS
 62
     3
100
AcDbLine
 10
869.0
 20
1744.0
 30
0.0
 11
869.0
 21
1903.0
 31
0.0
  0
LINE
  5
857
100
AcDbEntity
  8
寸法
  6
CONTINUOUS
 62
     3
100
AcDbLine
 10
971.0
 20
1744.0
 30
0.0
 11
971.0
 21
1903.0
 31
0.0
  0
TEXT
  5
858
100
AcDbEntity
  8
寸法
  6
CONTINUOUS
 62
     2
100
AcDbText
 10
857.0
 20
1893.25
 30
0.0
 40
60.0
  1
102
 41
0.84
  7
EXCADSTD
 72
     1
 11
920.0
 21
1893.25
 31
0.0
100
AcDbText
  0
LINE
  5
859
100
AcDbEntity
  8
寸法
  6
CONTINUOUS
 62
     3
100
AcDbLine
 10
824.0
 20
1888.0
 30
0.0
 11
1016.0
 21
1888.0
 31
0.0
  0
LINE
  5
85A
100
AcDbEntity
  8
寸法
  6
CONTINUOUS
 62
     3
100
AcDbLine
 10
824.0
 20
1880.5
 30
0.0
 11
869.0
 21
1888.0
 31
0.0
  0
LINE
  5
85B
100
AcDbEntity
  8
寸法
  6
CONTINUOUS
 62
     3
100
AcDbLine
 10
869.0
 20
1888.0
 30
0.0
 11
824.0
 21
1895.5
 31
0.0
  0
LINE
  5
85C
100
AcDbEntity
  8
寸法
  6
CONTINUOUS
 62
     3
100
AcDbLine
 10
1016.0
 20
1895.5
 30
0.0
 11
971.0
 21
1888.0
 31
0.0
  0
LINE
  5
85D
100
AcDbEntity
  8
寸法
  6
CONTINUOUS
 62
     3
100
AcDbLine
 10
971.0
 20
1888.0
 30
0.0
 11
1016.0
 21
1880.5
 31
0.0
  0
ENDBLK
  5
85E
100
AcDbEntity
  8
0
100
AcDbBlockEnd
  0
BLOCK
  5
861
100
AcDbEntity
  8
0
100
AcDbBlockBegin
  2
*D28
 70
    65
 10
0.0
 20
0.0
 30
0.0
  3
*D28
  1

  0
LINE
  5
862
100
AcDbEntity
  8
寸法
  6
CONTINUOUS
 62
     3
100
AcDbLine
 10
2370.0
 20
1726.040766
 30
0.0
 11
2370.0
 21
1903.0
 31
0.0
  0
TEXT
  5
863
100
AcDbEntity
  8
寸法
  6
CONTINUOUS
 62
     2
100
AcDbText
 10
2228.4
 20
1893.25
 30
0.0
 40
60.0
  1
80
 41
0.84
  7
EXCADSTD
 72
     1
 11
2272.5
 21
1893.25
 31
0.0
100
AcDbText
  0
LINE
  5
864
100
AcDbEntity
  8
寸法
  6
CONTINUOUS
 62
     3
100
AcDbLine
 10
2214.749994
 20
1888.0
 30
0.0
 11
2495.0
 21
1888.0
 31
0.0
  0
LINE
  5
865
100
AcDbEntity
  8
寸法
  6
CONTINUOUS
 62
     3
100
AcDbLine
 10
2325.0
 20
1880.5
 30
0.0
 11
2370.0
 21
1888.0
 31
0.0
  0
LINE
  5
866
100
AcDbEntity
  8
寸法
  6
CONTINUOUS
 62
     3
100
AcDbLine
 10
2370.0
 20
1888.0
 30
0.0
 11
2325.0
 21
1895.5
 31
0.0
  0
LINE
  5
867
100
AcDbEntity
  8
寸法
  6
CONTINUOUS
 62
     3
100
AcDbLine
 10
2495.0
 20
1895.5
 30
0.0
 11
2450.0
 21
1888.0
 31
0.0
  0
LINE
  5
868
100
AcDbEntity
  8
寸法
  6
CONTINUOUS
 62
     3
100
AcDbLine
 10
2450.0
 20
1888.0
 30
0.0
 11
2495.0
 21
1880.5
 31
0.0
  0
ENDBLK
  5
869
100
AcDbEntity
  8
0
100
AcDbBlockEnd
  0
BLOCK
  5
86E
100
AcDbEntity
  8
0
100
AcDbBlockBegin
  2
*D29
 70
    65
 10
0.0
 20
0.0
 30
0.0
  3
*D29
  1

  0
LINE
  5
86F
100
AcDbEntity
  8
寸法
  6
CONTINUOUS
 62
     3
100
AcDbLine
 10
1170.0
 20
1733.5
 30
0.0
 11
1425.0
 21
1733.5
 31
0.0
  0
LINE
  5
870
100
AcDbEntity
  8
寸法
  6
CONTINUOUS
 62
     3
100
AcDbLine
 10
1175.5
 20
2733.5
 30
0.0
 11
1425.0
 21
2733.5
 31
0.0
  0
TEXT
  5
871
100
AcDbEntity
  8
寸法
  6
CONTINUOUS
 62
     2
100
AcDbText
 10
1404.75
 20
2151.6
 30
0.0
 40
60.0
  1
1000
 50
90.0
 41
0.84
  7
EXCADSTD
 72
     1
 11
1404.75
 21
2233.5
 31
0.0
100
AcDbText
  0
LINE
  5
872
100
AcDbEntity
  8
寸法
  6
CONTINUOUS
 62
     3
100
AcDbLine
 10
1410.0
 20
1733.5
 30
0.0
 11
1410.0
 21
2733.5
 31
0.0
  0
LINE
  5
873
100
AcDbEntity
  8
寸法
  6
CONTINUOUS
 62
     3
100
AcDbLine
 10
1402.5
 20
1778.5
 30
0.0
 11
1410.0
 21
1733.5
 31
0.0
  0
LINE
  5
874
100
AcDbEntity
  8
寸法
  6
CONTINUOUS
 62
     3
100
AcDbLine
 10
1410.0
 20
1733.5
 30
0.0
 11
1417.5
 21
1778.5
 31
0.0
  0
LINE
  5
875
100
AcDbEntity
  8
寸法
  6
CONTINUOUS
 62
     3
100
AcDbLine
 10
1417.5
 20
2688.5
 30
0.0
 11
1410.0
 21
2733.5
 31
0.0
  0
LINE
  5
876
100
AcDbEntity
  8
寸法
  6
CONTINUOUS
 62
     3
100
AcDbLine
 10
1410.0
 20
2733.5
 30
0.0
 11
1402.5
 21
2688.5
 31
0.0
  0
ENDBLK
  5
877
100
AcDbEntity
  8
0
100
AcDbBlockEnd
  0
BLOCK
  5
87A
100
AcDbEntity
  8
0
100
AcDbBlockBegin
  2
*D30
 70
    65
 10
0.0
 20
0.0
 30
0.0
  3
*D30
  1

  0
LINE
  5
87B
100
AcDbEntity
  8
寸法
  6
CONTINUOUS
 62
     3
100
AcDbLine
 10
845.0
 20
914.99997
 30
0.0
 11
845.0
 21
738.5
 31
0.0
  0
LINE
  5
87C
100
AcDbEntity
  8
寸法
  6
CONTINUOUS
 62
     3
100
AcDbLine
 10
995.0
 20
914.99997
 30
0.0
 11
995.0
 21
738.5
 31
0.0
  0
TEXT
  5
87D
100
AcDbEntity
  8
寸法
  6
CONTINUOUS
 62
     2
100
AcDbText
 10
857.0
 20
758.75
 30
0.0
 40
60.0
  1
150
 41
0.84
  7
EXCADSTD
 72
     1
 11
920.0
 21
758.75
 31
0.0
100
AcDbText
  0
LINE
  5
87E
100
AcDbEntity
  8
寸法
  6
CONTINUOUS
 62
     3
100
AcDbLine
 10
800.0
 20
753.5
 30
0.0
 11
1040.0
 21
753.5
 31
0.0
  0
LINE
  5
87F
100
AcDbEntity
  8
寸法
  6
CONTINUOUS
 62
     3
100
AcDbLine
 10
800.0
 20
746.0
 30
0.0
 11
845.0
 21
753.5
 31
0.0
  0
LINE
  5
880
100
AcDbEntity
  8
寸法
  6
CONTINUOUS
 62
     3
100
AcDbLine
 10
845.0
 20
753.5
 30
0.0
 11
800.0
 21
761.0
 31
0.0
  0
LINE
  5
881
100
AcDbEntity
  8
寸法
  6
CONTINUOUS
 62
     3
100
AcDbLine
 10
1040.0
 20
761.0
 30
0.0
 11
995.0
 21
753.5
 31
0.0
  0
LINE
  5
882
100
AcDbEntity
  8
寸法
  6
CONTINUOUS
 62
     3
100
AcDbLine
 10
995.0
 20
753.5
 30
0.0
 11
1040.0
 21
746.0
 31
0.0
  0
ENDBLK
  5
883
100
AcDbEntity
  8
0
100
AcDbBlockEnd
  0
BLOCK
  5
886
100
AcDbEntity
  8
0
100
AcDbBlockBegin
  2
*D31
 70
    65
 10
0.0
 20
0.0
 30
0.0
  3
*D31
  1

  0
LINE
  5
887
100
AcDbEntity
  8
寸法
  6
CONTINUOUS
 62
     3
100
AcDbLine
 10
687.5
 20
923.0
 30
0.0
 11
687.5
 21
648.5
 31
0.0
  0
LINE
  5
888
100
AcDbEntity
  8
寸法
  6
CONTINUOUS
 62
     3
100
AcDbLine
 10
1152.5
 20
923.0
 30
0.0
 11
1152.5
 21
648.5
 31
0.0
  0
TEXT
  5
889
100
AcDbEntity
  8
寸法
  6
CONTINUOUS
 62
     2
100
AcDbText
 10
857.0
 20
668.75
 30
0.0
 40
60.0
  1
465
 41
0.84
  7
EXCADSTD
 72
     1
 11
920.0
 21
668.75
 31
0.0
100
AcDbText
  0
LINE
  5
88A
100
AcDbEntity
  8
寸法
  6
CONTINUOUS
 62
     3
100
AcDbLine
 10
687.5
 20
663.5
 30
0.0
 11
1152.5
 21
663.5
 31
0.0
  0
LINE
  5
88B
100
AcDbEntity
  8
寸法
  6
CONTINUOUS
 62
     3
100
AcDbLine
 10
732.5
 20
671.0
 30
0.0
 11
687.5
 21
663.5
 31
0.0
  0
LINE
  5
88C
100
AcDbEntity
  8
寸法
  6
CONTINUOUS
 62
     3
100
AcDbLine
 10
687.5
 20
663.5
 30
0.0
 11
732.5
 21
656.0
 31
0.0
  0
LINE
  5
88D
100
AcDbEntity
  8
寸法
  6
CONTINUOUS
 62
     3
100
AcDbLine
 10
1107.5
 20
656.0
 30
0.0
 11
1152.5
 21
663.5
 31
0.0
  0
LINE
  5
88E
100
AcDbEntity
  8
寸法
  6
CONTINUOUS
 62
     3
100
AcDbLine
 10
1152.5
 20
663.5
 30
0.0
 11
1107.5
 21
671.0
 31
0.0
  0
ENDBLK
  5
88F
100
AcDbEntity
  8
0
100
AcDbBlockEnd
  0
BLOCK
  5
892
100
AcDbEntity
  8
0
100
AcDbBlockBegin
  2
*D32
 70
    65
 10
0.0
 20
0.0
 30
0.0
  3
*D32
  1

  0
LINE
  5
893
100
AcDbEntity
  8
寸法
  6
CONTINUOUS
 62
     3
100
AcDbLine
 10
2117.0
 20
923.0
 30
0.0
 11
2117.0
 21
558.5
 31
0.0
  0
LINE
  5
894
100
AcDbEntity
  8
寸法
  6
CONTINUOUS
 62
     3
100
AcDbLine
 10
2450.0
 20
923.0
 30
0.0
 11
2450.0
 21
558.5
 31
0.0
  0
TEXT
  5
895
100
AcDbEntity
  8
寸法
  6
CONTINUOUS
 62
     2
100
AcDbText
 10
2220.5
 20
578.75
 30
0.0
 40
60.0
  1
333
 41
0.84
  7
EXCADSTD
 72
     1
 11
2283.5
 21
578.75
 31
0.0
100
AcDbText
  0
LINE
  5
896
100
AcDbEntity
  8
寸法
  6
CONTINUOUS
 62
     3
100
AcDbLine
 10
2117.0
 20
573.5
 30
0.0
 11
2450.0
 21
573.5
 31
0.0
  0
LINE
  5
897
100
AcDbEntity
  8
寸法
  6
CONTINUOUS
 62
     3
100
AcDbLine
 10
2162.0
 20
581.0
 30
0.0
 11
2117.0
 21
573.5
 31
0.0
  0
LINE
  5
898
100
AcDbEntity
  8
寸法
  6
CONTINUOUS
 62
     3
100
AcDbLine
 10
2117.0
 20
573.5
 30
0.0
 11
2162.0
 21
566.0
 31
0.0
  0
LINE
  5
899
100
AcDbEntity
  8
寸法
  6
CONTINUOUS
 62
     3
100
AcDbLine
 10
2405.0
 20
566.0
 30
0.0
 11
2450.0
 21
573.5
 31
0.0
  0
LINE
  5
89A
100
AcDbEntity
  8
寸法
  6
CONTINUOUS
 62
     3
100
AcDbLine
 10
2450.0
 20
573.5
 30
0.0
 11
2405.0
 21
581.0
 31
0.0
  0
ENDBLK
  5
89B
100
AcDbEntity
  8
0
100
AcDbBlockEnd
  0
BLOCK
  5
89E
100
AcDbEntity
  8
0
100
AcDbBlockBegin
  2
*D33
 70
    65
 10
0.0
 20
0.0
 30
0.0
  3
*D33
  1

  0
LINE
  5
89F
100
AcDbEntity
  8
寸法
  6
CONTINUOUS
 62
     3
100
AcDbLine
 10
2450.0
 20
923.0
 30
0.0
 11
2450.0
 21
648.5
 31
0.0
  0
TEXT
  5
8A0
100
AcDbEntity
  8
寸法
  6
CONTINUOUS
 62
     2
100
AcDbText
 10
2507.0
 20
668.75
 30
0.0
 40
60.0
  1
120
 41
0.84
  7
EXCADSTD
 72
     1
 11
2570.0
 21
668.75
 31
0.0
100
AcDbText
  0
LINE
  5
8A1
100
AcDbEntity
  8
寸法
  6
CONTINUOUS
 62
     3
100
AcDbLine
 10
2285.0
 20
663.5
 30
0.0
 11
2650.250006
 21
663.5
 31
0.0
  0
LINE
  5
8A2
100
AcDbEntity
  8
寸法
  6
CONTINUOUS
 62
     3
100
AcDbLine
 10
2285.0
 20
656.0
 30
0.0
 11
2330.0
 21
663.5
 31
0.0
  0
LINE
  5
8A3
100
AcDbEntity
  8
寸法
  6
CONTINUOUS
 62
     3
100
AcDbLine
 10
2330.0
 20
663.5
 30
0.0
 11
2285.0
 21
671.0
 31
0.0
  0
LINE
  5
8A4
100
AcDbEntity
  8
寸法
  6
CONTINUOUS
 62
     3
100
AcDbLine
 10
2495.0
 20
671.0
 30
0.0
 11
2450.0
 21
663.5
 31
0.0
  0
LINE
  5
8A5
100
AcDbEntity
  8
寸法
  6
CONTINUOUS
 62
     3
100
AcDbLine
 10
2450.0
 20
663.5
 30
0.0
 11
2495.0
 21
656.0
 31
0.0
  0
LINE
  5
8A6
100
AcDbEntity
  8
寸法
  6
CONTINUOUS
 62
     3
100
AcDbLine
 10
2330.0
 20
819.75
 30
0.0
 11
2330.0
 21
648.5
 31
0.0
  0
ENDBLK
  5
8A7
100
AcDbEntity
  8
0
100
AcDbBlockEnd
  0
BLOCK
  5
8AA
100
AcDbEntity
  8
0
100
AcDbBlockBegin
  2
*D34
 70
    65
 10
0.0
 20
0.0
 30
0.0
  3
*D34
  1

  0
LINE
  5
8AB
100
AcDbEntity
  8
寸法
  6
CONTINUOUS
 62
     3
100
AcDbLine
 10
2375.0
 20
914.99997
 30
0.0
 11
2375.0
 21
738.5
 31
0.0
  0
LINE
  5
8AC
100
AcDbEntity
  8
寸法
  6
CONTINUOUS
 62
     3
100
AcDbLine
 10
2450.0
 20
923.0
 30
0.0
 11
2450.0
 21
738.5
 31
0.0
  0
TEXT
  5
8AD
100
AcDbEntity
  8
寸法
  6
CONTINUOUS
 62
     2
100
AcDbText
 10
2503.4
 20
756.0
 30
0.0
 40
60.0
  1
75（床給水）
 41
0.84
  7
EXCADSTD
 72
     1
 11
2642.0
 21
756.0
 31
0.0
100
AcDbText
  0
LINE
  5
8AE
100
AcDbEntity
  8
寸法
  6
CONTINUOUS
 62
     3
100
AcDbLine
 10
2330.0
 20
753.5
 30
0.0
 11
2776.000004
 21
753.5
 31
0.0
  0
LINE
  5
8AF
100
AcDbEntity
  8
寸法
  6
CONTINUOUS
 62
     3
100
AcDbLine
 10
2330.0
 20
746.0
 30
0.0
 11
2375.0
 21
753.5
 31
0.0
  0
LINE
  5
8B0
100
AcDbEntity
  8
寸法
  6
CONTINUOUS
 62
     3
100
AcDbLine
 10
2375.0
 20
753.5
 30
0.0
 11
2330.0
 21
761.0
 31
0.0
  0
LINE
  5
8B1
100
AcDbEntity
  8
寸法
  6
CONTINUOUS
 62
     3
100
AcDbLine
 10
2495.0
 20
761.0
 30
0.0
 11
2450.0
 21
753.5
 31
0.0
  0
LINE
  5
8B2
100
AcDbEntity
  8
寸法
  6
CONTINUOUS
 62
     3
100
AcDbLine
 10
2450.0
 20
753.5
 30
0.0
 11
2495.0
 21
746.0
 31
0.0
  0
ENDBLK
  5
8B3
100
AcDbEntity
  8
0
100
AcDbBlockEnd
  0
ENDSEC
  0
SECTION
  2
ENTITIES
  0
LINE
  5
86
100
AcDbEntity
  8
枠・表
  6
CONTINUOUS
 62
     7
100
AcDbLine
 10
270.0
 20
202.5
 30
0.0
 11
3000.0
 21
202.5
 31
0.0
  0
LINE
  5
87
100
AcDbEntity
  8
枠・表
  6
CONTINUOUS
 62
     7
100
AcDbLine
 10
3000.0
 20
202.5
 30
0.0
 11
3000.0
 21
4327.5
 31
0.0
  0
LINE
  5
88
100
AcDbEntity
  8
枠・表
  6
CONTINUOUS
 62
     7
100
AcDbLine
 10
270.0
 20
202.5
 30
0.0
 11
270.0
 21
4327.5
 31
0.0
  0
LINE
  5
89
100
AcDbEntity
  8
枠・表
  6
CONTINUOUS
 62
     7
100
AcDbLine
 10
270.0
 20
4327.5
 30
0.0
 11
3000.0
 21
4327.5
 31
0.0
  0
LINE
  5
8A
100
AcDbEntity
  8
枠・表
  6
CONTINUOUS
 62
     7
100
AcDbLine
 10
270.0
 20
532.5
 30
0.0
 11
3000.0
 21
532.5
 31
0.0
  0
LINE
  5
8B
100
AcDbEntity
  8
枠・表
  6
CONTINUOUS
 62
     6
100
AcDbLine
 10
3000.0
 20
352.5
 30
0.0
 11
1125.0
 21
352.5
 31
0.0
  0
LINE
  5
8C
100
AcDbEntity
  8
枠・表
  6
CONTINUOUS
 62
     6
100
AcDbLine
 10
2790.0
 20
532.5
 30
0.0
 11
2790.0
 21
352.5
 31
0.0
  0
LINE
  5
8D
100
AcDbEntity
  8
枠・表
  6
CONTINUOUS
 62
     6
100
AcDbLine
 10
2715.0
 20
532.5
 30
0.0
 11
2715.0
 21
352.5
 31
0.0
  0
LINE
  5
8E
100
AcDbEntity
  8
枠・表
  6
CONTINUOUS
 62
     6
100
AcDbLine
 10
2160.0
 20
532.5
 30
0.0
 11
2160.0
 21
202.5
 31
0.0
  0
LINE
  5
8F
100
AcDbEntity
  8
枠・表
  6
CONTINUOUS
 62
     6
100
AcDbLine
 10
2085.0
 20
532.5
 30
0.0
 11
2085.0
 21
202.5
 31
0.0
  0
LINE
  5
90
100
AcDbEntity
  8
枠・表
  6
CONTINUOUS
 62
     6
100
AcDbLine
 10
1200.0
 20
532.5
 30
0.0
 11
1200.0
 21
352.5
 31
0.0
  0
LINE
  5
91
100
AcDbEntity
  8
枠・表
  6
CONTINUOUS
 62
     6
100
AcDbLine
 10
1125.0
 20
532.5
 30
0.0
 11
1125.0
 21
202.5
 31
0.0
  0
LINE
  5
92
100
AcDbEntity
  8
枠・表
  6
CONTINUOUS
 62
     6
100
AcDbLine
 10
930.0
 20
532.5
 30
0.0
 11
930.0
 21
202.5
 31
0.0
  0
LINE
  5
93
100
AcDbEntity
  8
枠・表
  6
CONTINUOUS
 62
     6
100
AcDbLine
 10
735.0
 20
532.5
 30
0.0
 11
735.0
 21
202.5
 31
0.0
  0
LINE
  5
94
100
AcDbEntity
  8
枠・表
  6
CONTINUOUS
 62
     6
100
AcDbLine
 10
502.5
 20
532.5
 30
0.0
 11
502.5
 21
202.5
 31
0.0
  0
LINE
  5
95
100
AcDbEntity
  8
枠・表
  6
CONTINUOUS
 62
     6
100
AcDbLine
 10
270.0
 20
457.5
 30
0.0
 11
1125.0
 21
457.5
 31
0.0
  0
LINE
  5
96
100
AcDbEntity
  8
枠・表
  6
CONTINUOUS
 62
     6
100
AcDbLine
 10
2838.980713
 20
387.004395
 30
0.0
 11
2954.990845
 21
505.049744
 31
0.0
  0
TEXT
  5
97
100
AcDbEntity
  8
枠・表
  6
CONTINUOUS
 62
     2
100
AcDbText
 10
2835.805664
 20
454.084167
 30
0.0
 40
45.0
  1
１
 41
0.826
  7
EXCADSTD
 72
     5
 11
2871.205665
 21
454.084167
 31
0.0
100
AcDbText
  0
TEXT
  5
98
100
AcDbEntity
  8
枠・表
  6
CONTINUOUS
 62
     2
100
AcDbText
 10
2896.918945
 20
387.52327
 30
0.0
 40
45.0
  1
１５
 41
0.791
  7
EXCADSTD
 72
     5
 11
2974.600797
 21
387.52327
 31
0.0
100
AcDbText
  0
TEXT
  5
99
100
AcDbEntity
  8
枠・表
  6
CONTINUOUS
 62
     2
100
AcDbText
 10
303.75
 20
463.125
 30
0.0
 40
63.75
  1
製図
 41
1.087059
  7
EXCADSTD
 72
     5
 11
454.989
 21
463.125
 31
0.0
100
AcDbText
  0
TEXT
  5
9A
100
AcDbEntity
  8
枠・表
  6
CONTINUOUS
 62
     2
100
AcDbText
 10
536.25
 20
463.125
 30
0.0
 40
63.75
  1
写図
 41
1.087059
  7
EXCADSTD
 72
     5
 11
687.489
 21
463.125
 31
0.0
100
AcDbText
  0
TEXT
  5
9B
100
AcDbEntity
  8
枠・表
  6
CONTINUOUS
 62
     2
100
AcDbText
 10
761.25
 20
463.125
 30
0.0
 40
63.75
  1
検図
 41
0.938824
  7
EXCADSTD
 72
     5
 11
891.8655
 21
463.125
 31
0.0
100
AcDbText
  0
TEXT
  5
9C
100
AcDbEntity
  8
枠・表
  6
CONTINUOUS
 62
     2
100
AcDbText
 10
956.25
 20
463.125
 30
0.0
 40
63.75
  1
承認
 41
0.938824
  7
EXCADSTD
 72
     5
 11
1086.8655
 21
463.125
 31
0.0
100
AcDbText
  0
TEXT
  5
9D
100
AcDbEntity
  8
枠・表
  6
CONTINUOUS
 62
     2
100
AcDbText
 10
1133.625
 20
448.125
 30
0.0
 40
63.75
  1
品
 41
0.84
  7
EXCADSTD
 72
     5
 11
1184.625
 21
448.125
 31
0.0
100
AcDbText
  0
TEXT
  5
9E
100
AcDbEntity
  8
枠・表
  6
CONTINUOUS
 62
     2
100
AcDbText
 10
1133.625
 20
373.125
 30
0.0
 40
63.75
  1
名
 41
0.84
  7
EXCADSTD
 72
     5
 11
1184.625
 21
373.125
 31
0.0
100
AcDbText
  0
TEXT
  5
9F
100
AcDbEntity
  8
枠・表
  6
CONTINUOUS
 62
     2
100
AcDbText
 10
2093.625
 20
448.125
 30
0.0
 40
63.75
  1
品
 41
0.84
  7
EXCADSTD
 72
     5
 11
2144.625
 21
448.125
 31
0.0
100
AcDbText
  0
TEXT
  5
A0
100
AcDbEntity
  8
枠・表
  6
CONTINUOUS
 62
     2
100
AcDbText
 10
2093.625
 20
373.125
 30
0.0
 40
63.75
  1
番
 41
0.84
  7
EXCADSTD
 72
     5
 11
2144.625
 21
373.125
 31
0.0
100
AcDbText
  0
TEXT
  5
A1
100
AcDbEntity
  8
枠・表
  6
CONTINUOUS
 62
     2
100
AcDbText
 10
2725.125
 20
448.125
 30
0.0
 40
63.75
  1
尺
 41
0.84
  7
EXCADSTD
 72
     5
 11
2776.125
 21
448.125
 31
0.0
100
AcDbText
  0
TEXT
  5
A2
100
AcDbEntity
  8
枠・表
  6
CONTINUOUS
 62
     2
100
AcDbText
 10
2725.125
 20
373.125
 30
0.0
 40
63.75
  1
度
 41
0.84
  7
EXCADSTD
 72
     5
 11
2776.125
 21
373.125
 31
0.0
100
AcDbText
  0
TEXT
  5
A3
100
AcDbEntity
  8
枠・表
  6
CONTINUOUS
 62
     2
100
AcDbText
 10
2093.625
 20
278.625
 30
0.0
 40
63.75
  1
図
 41
0.84
  7
EXCADSTD
 72
     5
 11
2144.625
 21
278.625
 31
0.0
100
AcDbText
  0
TEXT
  5
A4
100
AcDbEntity
  8
枠・表
  6
CONTINUOUS
 62
     2
100
AcDbText
 10
2093.625
 20
214.125
 30
0.0
 40
63.75
  1
番
 41
0.84
  7
EXCADSTD
 72
     5
 11
2144.625
 21
214.125
 31
0.0
100
AcDbText
  0
TEXT
  5
A5
100
AcDbEntity
  8
枠・表
  6
CONTINUOUS
 62
     2
100
AcDbText
 10
1215.0
 20
442.5
 30
0.0
 40
75.0
  1
500㎜幅
 41
0.72072
  7
EXCADSTD
 72
     5
 11
1503.75
 21
442.5
 31
0.0
100
AcDbText
  0
TEXT
  5
A6
100
AcDbEntity
  8
枠・表
  6
CONTINUOUS
 62
     2
100
AcDbText
 10
1215.0
 20
367.5
 30
0.0
 40
75.0
  1
　洗面化粧ユニット
 41
0.924
  7
EXCADSTD
 72
     5
 11
1957.5
 21
367.5
 31
0.0
100
AcDbText
  0
LINE
  5
A7
100
AcDbEntity
  8
枠・表
  6
EXLTYPE2
 62
     6
100
AcDbLine
 10
270.0
 20
277.5
 30
0.0
 11
735.0
 21
277.5
 31
0.0
  0
CIRCLE
  5
A8
100
AcDbEntity
  8
枠・表
  6
CONTINUOUS
 62
     6
100
AcDbCircle
 10
345.0
 20
240.0
 30
0.0
 40
1.5
  0
CIRCLE
  5
A9
100
AcDbEntity
  8
枠・表
  6
CONTINUOUS
 62
     6
100
AcDbCircle
 10
420.0
 20
240.0
 30
0.0
 40
1.5
  0
CIRCLE
  5
AA
100
AcDbEntity
  8
枠・表
  6
CONTINUOUS
 62
     6
100
AcDbCircle
 10
577.5
 20
240.0
 30
0.0
 40
1.5
  0
CIRCLE
  5
AB
100
AcDbEntity
  8
枠・表
  6
CONTINUOUS
 62
     6
100
AcDbCircle
 10
652.5
 20
240.0
 30
0.0
 40
1.5
  0
TEXT
  5
AC
100
AcDbEntity
  8
枠・表
  6
CONTINUOUS
 62
     2
100
AcDbText
 10
311.25
 20
330.0
 30
0.0
 40
75.0
  1
間瀬
 41
0.882
  7
EXCADSTD
 72
     5
 11
455.6145
 21
330.0
 31
0.0
100
AcDbText
  0
LINE
  5
AD
100
AcDbEntity
  8
枠・表
  6
EXLTYPE2
 62
     6
100
AcDbLine
 10
0.0
 20
2265.0
 30
0.0
 11
270.0
 21
2265.0
 31
0.0
  0
TEXT
  5
AE
100
AcDbEntity
  8
枠・表
  6
CONTINUOUS
 62
     2
100
AcDbText
 10
952.5
 20
330.0
 30
0.0
 40
75.0
  1
古林
 41
0.882
  7
EXCADSTD
 72
     5
 11
1096.8645
 21
330.0
 31
0.0
100
AcDbText
  0
LINE
  5
AF
100
AcDbEntity
  8
枠・表
  6
CONTINUOUS
 62
     6
100
AcDbLine
 10
1875.0
 20
4287.0
 30
0.0
 11
2925.0
 21
4287.0
 31
0.0
  0
LINE
  5
B0
100
AcDbEntity
  8
枠・表
  6
CONTINUOUS
 62
     6
100
AcDbLine
 10
1875.0
 20
4204.5
 30
0.0
 11
2925.0
 21
4204.5
 31
0.0
  0
TEXT
  5
B1
100
AcDbEntity
  8
枠・表
  6
CONTINUOUS
 62
     2
100
AcDbText
 10
1995.0
 20
4215.75
 30
0.0
 40
60.0
  1
品番
 41
1.47
  7
EXCADSTD
 72
     5
 11
2187.486
 21
4215.75
 31
0.0
100
AcDbText
  0
TEXT
  5
B2
100
AcDbEntity
  8
枠・表
  6
CONTINUOUS
 62
     2
100
AcDbText
 10
2445.0
 20
4215.75
 30
0.0
 40
60.0
  1
品名
 41
1.47
  7
EXCADSTD
 72
     5
 11
2637.486
 21
4215.75
 31
0.0
100
AcDbText
  0
TEXT
  5
B3
100
AcDbEntity
  8
枠・表
  6
CONTINUOUS
 62
     2
100
AcDbText
 10
2788.5
 20
4215.75
 30
0.0
 40
60.0
  1
個数
 41
0.861
  7
EXCADSTD
 72
     5
 11
2901.2418
 21
4215.75
 31
0.0
100
AcDbText
  0
TEXT
  5
B4
100
AcDbEntity
  8
枠・表
  6
CONTINUOUS
 62
     2
100
AcDbText
 10
2340.0
 20
4133.25
 30
0.0
 40
60.0
  1
洗面化粧台
 41
0.8106
  7
EXCADSTD
 72
     5
 11
2629.499999
 21
4133.25
 31
0.0
100
AcDbText
  0
TEXT
  5
B5
100
AcDbEntity
  8
枠・表
  6
CONTINUOUS
 62
     2
100
AcDbText
 10
2816.25
 20
4133.25
 30
0.0
 40
60.0
  1
１
 41
0.945
  7
EXCADSTD
 72
     5
 11
2870.25
 21
4133.25
 31
0.0
100
AcDbText
  0
LINE
  5
B6
100
AcDbEntity
  8
枠・表
  6
CONTINUOUS
 62
     6
100
AcDbLine
 10
1875.0
 20
4122.0
 30
0.0
 11
2925.0
 21
4122.0
 31
0.0
  0
LINE
  5
B7
100
AcDbEntity
  8
枠・表
  6
CONTINUOUS
 62
     6
100
AcDbLine
 10
1875.0
 20
4039.5
 30
0.0
 11
2925.0
 21
4039.5
 31
0.0
  0
TEXT
  5
B8
100
AcDbEntity
  8
枠・表
  6
CONTINUOUS
 62
     2
100
AcDbText
 10
2340.0
 20
4050.75
 30
0.0
 40
60.0
  1
化粧鏡台
 41
0.819
  7
EXCADSTD
 72
     5
 11
2573.999999
 21
4050.75
 31
0.0
100
AcDbText
  0
TEXT
  5
B9
100
AcDbEntity
  8
枠・表
  6
CONTINUOUS
 62
     2
100
AcDbText
 10
2816.25
 20
4050.75
 30
0.0
 40
60.0
  1
１
 41
0.945
  7
EXCADSTD
 72
     5
 11
2870.25
 21
4050.75
 31
0.0
100
AcDbText
  0
TEXT
  5
BA
100
AcDbEntity
  8
枠・表
  6
CONTINUOUS
 62
     2
100
AcDbText
 10
1890.0
 20
4050.75
 30
0.0
 40
60.0
  1
ＬＵＭ５０１Ｋ
 41
0.696
  7
EXCADSTD
 72
     5
 11
2237.999999
 21
4050.75
 31
0.0
100
AcDbText
  0
TEXT
  5
BC
100
AcDbEntity
  8
枠・表
  6
CONTINUOUS
 62
     2
100
AcDbText
 10
1155.0
 20
232.5
 30
0.0
 40
67.5
  1
ジャニス工業株式会社
 41
1.0
  7
EXCADTTF1
 72
     5
 11
2055.0
 21
232.5
 31
0.0
100
AcDbText
  0
TEXT
  5
BD
100
AcDbEntity
  8
枠・表
  6
CONTINUOUS
 62
     7
100
AcDbText
 10
2178.000003
 20
227.25
 30
0.0
 40
105.0
  1
ＬＵ１１０８２０
 41
0.804
  7
EXCADSTD
 72
     5
 11
2981.999997
 21
227.25
 31
0.0
100
AcDbText
  0
TEXT
  5
BE
100
AcDbEntity
  8
枠・表
  6
CONTINUOUS
 62
     2
100
AcDbText
 10
365.625
 20
210.0
 30
0.0
 40
60.0
  1
7
 41
0.5625
  7
EXCADSTD
 72
     5
 11
387.5625
 21
210.0
 31
0.0
100
AcDbText
  0
TEXT
  5
BF
100
AcDbEntity
  8
枠・表
  6
CONTINUOUS
 62
     2
100
AcDbText
 10
432.0
 20
210.0
 30
0.0
 40
60.0
  1
16
 41
0.5
  7
EXCADSTD
 72
     5
 11
480.0
 21
210.0
 31
0.0
100
AcDbText
  0
TEXT
  5
C0
100
AcDbEntity
  8
枠・表
  6
CONTINUOUS
 62
     2
100
AcDbText
 10
276.75
 20
210.0
 30
0.0
 40
60.0
  1
21
 41
0.5
  7
EXCADSTD
 72
     5
 11
324.75
 21
210.0
 31
0.0
100
AcDbText
  0
TEXT
  5
C1
100
AcDbEntity
  8
枠・表
  6
CONTINUOUS
 62
     2
100
AcDbText
 10
2175.0
 20
442.5
 30
0.0
 40
75.0
  1
ＬＵ５０２ＦＥＤＲ１
 41
0.6048
  7
EXCADSTD
 72
     5
 11
2715.0
 21
442.5
 31
0.0
100
AcDbText
  0
TEXT
  5
C2
100
AcDbEntity
  8
枠・表
  6
CONTINUOUS
 62
     2
100
AcDbText
 10
2175.0
 20
367.5
 30
0.0
 40
75.0
  1
ＬＵＭ５０１Ｋ
 41
0.612
  7
EXCADSTD
 72
     5
 11
2557.5
 21
367.5
 31
0.0
100
AcDbText
  0
TEXT
  5
C3
100
AcDbEntity
  8
枠・表
  6
CONTINUOUS
 62
     2
100
AcDbText
 10
1890.0
 20
4133.25
 30
0.0
 40
60.0
  1
ＬＵ５０２ＦＥＤＲ１
 41
0.609
  7
EXCADSTD
 72
     5
 11
2324.999993
 21
4133.25
 31
0.0
100
AcDbText
  0
LINE
  5
C4
100
AcDbEntity
  8
枠・表
  6
CONTINUOUS
 62
     6
100
AcDbLine
 10
1875.0
 20
4039.5
 30
0.0
 11
1875.0
 21
4287.0
 31
0.0
  0
LINE
  5
C5
100
AcDbEntity
  8
枠・表
  6
CONTINUOUS
 62
     6
100
AcDbLine
 10
2325.0
 20
4039.5
 30
0.0
 11
2325.0
 21
4287.0
 31
0.0
  0
LINE
  5
C6
100
AcDbEntity
  8
枠・表
  6
CONTINUOUS
 62
     6
100
AcDbLine
 10
2775.0
 20
4039.5
 30
0.0
 11
2775.0
 21
4287.0
 31
0.0
  0
LINE
  5
C7
100
AcDbEntity
  8
枠・表
  6
CONTINUOUS
 62
     6
100
AcDbLine
 10
2925.0
 20
4039.5
 30
0.0
 11
2925.0
 21
4287.0
 31
0.0
  0
TEXT
  5
C8
100
AcDbEntity
  8
枠・表
  6
CONTINUOUS
 62
     2
100
AcDbText
 10
1905.0
 20
3463.5
 30
0.0
 40
60.0
  1
※止水栓は別途
 41
0.801
  7
EXCADSTD
 72
     5
 11
2305.499999
 21
3463.5
 31
0.0
100
AcDbText
  0
TEXT
  5
C9
100
AcDbEntity
  8
枠・表
  6
CONTINUOUS
 62
     2
100
AcDbText
 10
1905.0
 20
3403.5
 30
0.0
 40
60.0
  1
※化粧鏡台
 41
0.8106
  7
EXCADSTD
 72
     5
 11
2194.499999
 21
3403.5
 31
0.0
100
AcDbText
  0
TEXT
  5
CA
100
AcDbEntity
  8
枠・表
  6
CONTINUOUS
 62
     2
100
AcDbText
 10
1905.0
 20
3343.5
 30
0.0
 40
60.0
  1
　　電源：１００Ｖ，５０/６０Ｈｚ
 41
0.767593
  7
EXCADSTD
 72
     5
 11
2826.749997
 21
3343.5
 31
0.0
100
AcDbText
  0
TEXT
  5
CB
100
AcDbEntity
  8
枠・表
  6
CONTINUOUS
 62
     2
100
AcDbText
 10
1905.0
 20
3283.5
 30
0.0
 40
60.0
  1
　　コンセント容量：１２００Ｗ
 41
0.7882
  7
EXCADSTD
 72
     5
 11
2749.499997
 21
3283.5
 31
0.0
100
AcDbText
  0
TEXT
  5
CC
100
AcDbEntity
  8
枠・表
  6
CONTINUOUS
 62
     2
100
AcDbText
 10
1905.0
 20
3223.5
 30
0.0
 40
60.0
  1
　　電源コードの取出しは、左右及び上側
 41
0.785842
  7
EXCADSTD
 72
     5
 11
2971.499997
 21
3223.5
 31
0.0
100
AcDbText
  0
POLYLINE
  5
CD
100
AcDbEntity
  8
化粧台
  6
CONTINUOUS
 62
     3
100
AcDb2dPolyline
 66
     1
 10
0.0
 20
0.0
 30
0.0
 70
   128
  0
VERTEX
  5
CE
100
AcDbEntity
  8
化粧台
  6
CONTINUOUS
 62
     3
100
AcDbVertex
100
AcDb2dVertex
 10
1452.0
 20
3917.5
 30
0.0
  0
VERTEX
  5
CF
100
AcDbEntity
  8
化粧台
  6
CONTINUOUS
 62
     3
100
AcDbVertex
100
AcDb2dVertex
 10
1475.0
 20
3868.0
 30
0.0
  0
SEQEND
  5
D0
100
AcDbEntity
  8
化粧台
  6
CONTINUOUS
 62
     3
  0
LINE
  5
D1
100
AcDbEntity
  8
化粧台
  6
CONTINUOUS
 62
     3
100
AcDbLine
 10
1477.763749
 20
3879.850575
 30
0.0
 11
1452.0
 21
3917.5
 31
0.0
  0
LINE
  5
D2
100
AcDbEntity
  8
化粧台
  6
CONTINUOUS
 62
     3
100
AcDbLine
 10
1452.0
 20
3917.5
 30
0.0
 11
1464.16049
 21
3873.529868
 31
0.0
  0
POLYLINE
  5
D3
100
AcDbEntity
  8
化粧台
  6
CONTINUOUS
 62
     3
100
AcDb2dPolyline
 66
     1
 10
0.0
 20
0.0
 30
0.0
 70
   128
  0
VERTEX
  5
D4
100
AcDbEntity
  8
化粧台
  6
CONTINUOUS
 62
     3
100
AcDbVertex
100
AcDb2dVertex
 10
2450.0
 20
2909.5
 30
0.0
  0
VERTEX
  5
D5
100
AcDbEntity
  8
化粧台
  6
CONTINUOUS
 62
     3
100
AcDbVertex
100
AcDb2dVertex
 10
2404.0
 20
2929.5
 30
0.0
  0
SEQEND
  5
D6
100
AcDbEntity
  8
化粧台
  6
CONTINUOUS
 62
     3
  0
LINE
  5
D7
100
AcDbEntity
  8
化粧台
  6
CONTINUOUS
 62
     3
100
AcDbLine
 10
2405.741402
 20
2920.56465
 30
0.0
 11
2450.0
 21
2909.5
 31
0.0
  0
LINE
  5
D8
100
AcDbEntity
  8
化粧台
  6
CONTINUOUS
 62
     3
100
AcDbLine
 10
2450.0
 20
2909.5
 30
0.0
 11
2411.722293
 21
2934.3207
 31
0.0
  0
POLYLINE
  5
D9
100
AcDbEntity
  8
化粧台
  6
CONTINUOUS
 62
     3
100
AcDb2dPolyline
 66
     1
 10
0.0
 20
0.0
 30
0.0
 70
   128
  0
VERTEX
  5
DA
100
AcDbEntity
  8
化粧台
  6
CONTINUOUS
 62
     3
100
AcDbVertex
100
AcDb2dVertex
 10
1948.0
 20
933.5
 30
0.0
  0
VERTEX
  5
DB
100
AcDbEntity
  8
化粧台
  6
CONTINUOUS
 62
     3
100
AcDbVertex
100
AcDb2dVertex
 10
1929.0
 20
982.5
 30
0.0
  0
SEQEND
  5
DC
100
AcDbEntity
  8
化粧台
  6
CONTINUOUS
 62
     3
  0
LINE
  5
DD
100
AcDbEntity
  8
化粧台
  6
CONTINUOUS
 62
     3
100
AcDbLine
 10
1924.738537
 20
972.7448
 30
0.0
 11
1948.0
 21
933.5
 31
0.0
  0
LINE
  5
DE
100
AcDbEntity
  8
化粧台
  6
CONTINUOUS
 62
     3
100
AcDbLine
 10
1948.0
 20
933.5
 30
0.0
 11
1938.723956
 21
978.167718
 31
0.0
  0
TEXT
  5
DF
100
AcDbEntity
  8
化粧台
  6
CONTINUOUS
 62
     2
100
AcDbText
 10
1494.000001
 20
3857.5
 30
0.0
 40
60.0
  1
W.L.
 41
0.4125
  7
EXCADSTD
 72
     5
 11
1584.7434
 21
3857.5
 31
0.0
100
AcDbText
  0
ARC
  5
E0
100
AcDbEntity
  8
化粧台
  6
CONTINUOUS
 62
     2
100
AcDbCircle
 10
763.539596
 20
3571.004592
 30
0.0
 40
45.0
100
AcDbArc
 50
181.173696
 51
242.905609
  0
ARC
  5
E1
100
AcDbEntity
  8
化粧台
  6
CONTINUOUS
 62
     2
100
AcDbCircle
 10
960.318676
 20
3798.020229
 30
0.0
 40
300.0
100
AcDbArc
 50
285.592347
 51
297.094391
  0
ARC
  5
E2
100
AcDbEntity
  8
化粧台
  6
CONTINUOUS
 62
     2
100
AcDbCircle
 10
1076.460404
 20
3571.004592
 30
0.0
 40
45.0
100
AcDbArc
 50
297.094391
 51
358.826304
  0
ARC
  5
E3
100
AcDbEntity
  8
化粧台
  6
CONTINUOUS
 62
     2
100
AcDbCircle
 10
920.0
 20
4067.5
 30
0.0
 40
600.0
100
AcDbArc
 50
255.226949
 51
284.773051
  0
ARC
  5
E4
100
AcDbEntity
  8
化粧台
  6
CONTINUOUS
 62
     2
100
AcDbCircle
 10
879.681324
 20
3798.020229
 30
0.0
 40
300.0
100
AcDbArc
 50
242.905609
 51
254.407653
  0
ARC
  5
E5
100
AcDbEntity
  8
化粧台
  6
CONTINUOUS
 62
     2
100
AcDbCircle
 10
920.0
 20
3942.5
 30
0.0
 40
450.0
100
AcDbArc
 50
254.407653
 51
285.592347
  0
LINE
  5
E6
100
AcDbEntity
  8
化粧台
  6
CONTINUOUS
 62
     2
100
AcDbLine
 10
670.0
 20
3917.5
 30
0.0
 11
1170.0
 21
3917.5
 31
0.0
  0
ARC
  5
E7
100
AcDbEntity
  8
化粧台
  6
CONTINUOUS
 62
     2
100
AcDbCircle
 10
843.502705
 20
3777.416971
 30
0.0
 40
300.0
100
AcDbArc
 50
239.104628
 51
255.226949
  0
ARC
  5
E8
100
AcDbEntity
  8
化粧台
  6
CONTINUOUS
 62
     2
100
AcDbCircle
 10
996.497295
 20
3777.416971
 30
0.0
 40
300.0
100
AcDbArc
 50
284.773051
 51
300.895372
  0
ARC
  5
E9
100
AcDbEntity
  8
化粧台
  6
CONTINUOUS
 62
     2
100
AcDbCircle
 10
5717.5
 20
3672.5
 30
0.0
 40
5000.0
100
AcDbArc
 50
179.413503
 51
181.173696
  0
LINE
  5
EA
100
AcDbEntity
  8
化粧台
  6
CONTINUOUS
 62
     2
100
AcDbLine
 10
670.0
 20
3917.5
 30
0.0
 11
670.0
 21
3554.309311
 31
0.0
  0
ARC
  5
EB
100
AcDbEntity
  8
化粧台
  6
CONTINUOUS
 62
     2
100
AcDbCircle
 10
710.0
 20
3554.309311
 30
0.0
 40
40.0
100
AcDbArc
 50
180.0
 51
239.104628
  0
ARC
  5
EC
100
AcDbEntity
  8
化粧台
  6
CONTINUOUS
 62
     2
100
AcDbCircle
 10
-3877.5
 20
3672.5
 30
0.0
 40
5000.0
100
AcDbArc
 50
358.826304
 51
0.586497
  0
LINE
  5
ED
100
AcDbEntity
  8
化粧台
  6
CONTINUOUS
 62
     2
100
AcDbLine
 10
1170.0
 20
3917.5
 30
0.0
 11
1170.0
 21
3554.309311
 31
0.0
  0
ARC
  5
EE
100
AcDbEntity
  8
化粧台
  6
CONTINUOUS
 62
     2
100
AcDbCircle
 10
1130.0
 20
3554.309311
 30
0.0
 40
40.0
100
AcDbArc
 50
300.895372
 51
0.0
  0
CIRCLE
  5
EF
100
AcDbEntity
  8
化粧台
  6
CONTINUOUS
 62
     6
100
AcDbCircle
 10
879.4
 20
3760.6
 30
0.0
 40
3.0
  0
LINE
  5
F0
100
AcDbEntity
  8
化粧台
  6
CONTINUOUS
 62
     6
100
AcDbLine
 10
1068.0
 20
3917.5
 30
0.0
 11
1070.0
 21
3950.0
 31
0.0
  0
LINE
  5
F1
100
AcDbEntity
  8
化粧台
  6
CONTINUOUS
 62
     6
100
AcDbLine
 10
1070.0
 20
3950.0
 30
0.0
 11
1072.0
 21
3917.5
 31
0.0
  0
LINE
  5
F2
100
AcDbEntity
  8
化粧台
  6
CONTINUOUS
 62
     6
100
AcDbLine
 10
768.0
 20
3917.5
 30
0.0
 11
770.0
 21
3950.0
 31
0.0
  0
LINE
  5
F3
100
AcDbEntity
  8
化粧台
  6
CONTINUOUS
 62
     6
100
AcDbLine
 10
770.0
 20
3950.0
 30
0.0
 11
772.0
 21
3917.5
 31
0.0
  0
LINE
  5
F4
100
AcDbEntity
  8
化粧台
  6
CONTINUOUS
 62
     6
100
AcDbLine
 10
1070.0
 20
3907.5
 30
0.0
 11
1070.0
 21
3965.0
 31
0.0
  0
LINE
  5
F5
100
AcDbEntity
  8
化粧台
  6
CONTINUOUS
 62
     6
100
AcDbLine
 10
770.0
 20
3907.5
 30
0.0
 11
770.0
 21
3965.0
 31
0.0
  0
LINE
  5
F6
100
AcDbEntity
  8
化粧台
  6
CONTINUOUS
 62
     6
100
AcDbLine
 10
869.0
 20
3792.5
 30
0.0
 11
869.0
 21
3882.5
 31
0.0
  0
LINE
  5
F7
100
AcDbEntity
  8
化粧台
  6
CONTINUOUS
 62
     6
100
AcDbLine
 10
1016.0
 20
3837.5
 30
0.0
 11
824.0
 21
3837.5
 31
0.0
  0
LINE
  5
F8
100
AcDbEntity
  8
化粧台
  6
CONTINUOUS
 62
     6
100
AcDbLine
 10
971.0
 20
3792.5
 30
0.0
 11
971.0
 21
3882.5
 31
0.0
  0
LINE
  5
F9
100
AcDbEntity
  8
化粧台
  6
EXLTYPE3
 62
     6
100
AcDbLine
 10
920.0
 20
3932.5
 30
0.0
 11
920.0
 21
3452.5
 31
0.0
  0
LINE
  5
FA
100
AcDbEntity
  8
化粧台
  6
CONTINUOUS
 62
     6
100
AcDbLine
 10
962.0
 20
3717.5
 30
0.0
 11
878.0
 21
3717.5
 31
0.0
  0
CIRCLE
  5
FB
100
AcDbEntity
  8
化粧台
  6
CONTINUOUS
 62
     6
100
AcDbCircle
 10
894.8
 20
3723.756585
 30
0.0
 40
3.0
  0
CIRCLE
  5
FC
100
AcDbEntity
  8
化粧台
  6
CONTINUOUS
 62
     6
100
AcDbCircle
 10
888.6
 20
3729.0
 30
0.0
 40
3.0
  0
CIRCLE
  5
FD
100
AcDbEntity
  8
化粧台
  6
CONTINUOUS
 62
     6
100
AcDbCircle
 10
883.1
 20
3736.3
 30
0.0
 40
3.0
  0
CIRCLE
  5
FE
100
AcDbEntity
  8
化粧台
  6
CONTINUOUS
 62
     6
100
AcDbCircle
 10
879.8
 20
3743.6
 30
0.0
 40
3.0
  0
CIRCLE
  5
FF
100
AcDbEntity
  8
化粧台
  6
CONTINUOUS
 62
     6
100
AcDbCircle
 10
878.5
 20
3751.0
 30
0.0
 40
3.0
  0
LINE
  5
100
100
AcDbEntity
  8
化粧台
  6
EXLTYPE4
 62
     6
100
AcDbLine
 10
1170.0
 20
3917.5
 30
0.0
 11
1593.0
 21
3917.5
 31
0.0
  0
ARC
  5
101
100
AcDbEntity
  8
化粧台
  6
CONTINUOUS
 62
     2
100
AcDbCircle
 10
1052.241714
 20
3722.964133
 30
0.0
 40
70.0
100
AcDbArc
 50
0.586497
 51
60.589662
  0
ARC
  5
102
100
AcDbEntity
  8
化粧台
  6
CONTINUOUS
 62
     2
100
AcDbCircle
 10
787.758286
 20
3722.964133
 30
0.0
 40
70.0
100
AcDbArc
 50
119.410338
 51
179.413503
  0
ARC
  5
103
100
AcDbEntity
  8
化粧台
  6
CONTINUOUS
 62
     6
100
AcDbCircle
 10
679.0
 20
3901.5
 30
0.0
 40
9.0
100
AcDbArc
 50
180.0
 51
270.0
  0
ARC
  5
104
100
AcDbEntity
  8
化粧台
  6
CONTINUOUS
 62
     6
100
AcDbCircle
 10
1161.0
 20
3901.5
 30
0.0
 40
9.0
100
AcDbArc
 50
270.0
 51
0.0
  0
LINE
  5
105
100
AcDbEntity
  8
化粧台
  6
EXLTYPE2
 62
     6
100
AcDbLine
 10
679.0
 20
3892.5
 30
0.0
 11
1161.0
 21
3892.5
 31
0.0
  0
LINE
  5
106
100
AcDbEntity
  8
化粧台
  6
EXLTYPE2
 62
     6
100
AcDbLine
 10
717.5
 20
3867.5
 30
0.0
 11
717.5
 21
3791.179097
 31
0.0
  0
ARC
  5
107
100
AcDbEntity
  8
化粧台
  6
EXLTYPE2
 62
     6
100
AcDbCircle
 10
737.5
 20
3867.5
 30
0.0
 40
20.0
100
AcDbArc
 50
90.0
 51
180.0
  0
LINE
  5
108
100
AcDbEntity
  8
化粧台
  6
EXLTYPE2
 62
     6
100
AcDbLine
 10
737.5
 20
3887.5
 30
0.0
 11
1102.5
 21
3887.5
 31
0.0
  0
ARC
  5
109
100
AcDbEntity
  8
化粧台
  6
EXLTYPE2
 62
     6
100
AcDbCircle
 10
1102.5
 20
3867.5
 30
0.0
 40
20.0
100
AcDbArc
 50
0.0
 51
90.0
  0
LINE
  5
10A
100
AcDbEntity
  8
化粧台
  6
EXLTYPE2
 62
     6
100
AcDbLine
 10
1122.5
 20
3867.5
 30
0.0
 11
1122.5
 21
3791.177634
 31
0.0
  0
ARC
  5
10B
100
AcDbEntity
  8
化粧台
  6
EXLTYPE2
 62
     6
100
AcDbCircle
 10
1052.241714
 20
3722.964133
 30
0.0
 40
70.0
100
AcDbArc
 50
60.589662
 51
86.071071
  0
ARC
  5
10C
100
AcDbEntity
  8
化粧台
  6
EXLTYPE2
 62
     6
100
AcDbCircle
 10
787.758286
 20
3722.964133
 30
0.0
 40
70.0
100
AcDbArc
 50
93.928929
 51
119.410338
  0
LINE
  5
10D
100
AcDbEntity
  8
化粧台
  6
CONTINUOUS
 62
     6
100
AcDbLine
 10
717.5
 20
3791.179097
 30
0.0
 11
717.5
 21
3762.5
 31
0.0
  0
LINE
  5
10E
100
AcDbEntity
  8
化粧台
  6
CONTINUOUS
 62
     6
100
AcDbLine
 10
1122.5
 20
3791.177634
 30
0.0
 11
1122.5
 21
3762.5
 31
0.0
  0
LINE
  5
10F
100
AcDbEntity
  8
化粧台
  6
EXLTYPE4
 62
     6
100
AcDbLine
 10
447.0
 20
3917.5
 30
0.0
 11
670.0
 21
3917.5
 31
0.0
  0
CIRCLE
  5
110
100
AcDbEntity
  8
化粧台
  6
EXLTYPE2
 62
     6
100
AcDbCircle
 10
883.1
 20
3768.8
 30
0.0
 40
3.0
  0
CIRCLE
  5
111
100
AcDbEntity
  8
化粧台
  6
EXLTYPE2
 62
     6
100
AcDbCircle
 10
887.2
 20
3777.1
 30
0.0
 40
3.0
  0
ARC
  5
112
100
AcDbEntity
  8
化粧台
  6
CONTINUOUS
 62
     2
100
AcDbCircle
 10
920.0
 20
3717.5
 30
0.0
 40
27.0
100
AcDbArc
 50
133.483532
 51
46.516468
  0
ARC
  5
113
100
AcDbEntity
  8
化粧台
  6
CONTINUOUS
 62
     2
100
AcDbCircle
 10
920.0
 20
3717.5
 30
0.0
 40
17.0
100
AcDbArc
 50
164.611335
 51
15.388665
  0
ARC
  5
114
100
AcDbEntity
  8
化粧台
  6
EXLTYPE2
 62
     6
100
AcDbCircle
 10
920.0
 20
1797.5
 30
0.0
 40
2000.0
100
AcDbArc
 50
86.071071
 51
89.245964
  0
ARC
  5
115
100
AcDbEntity
  8
化粧台
  6
EXLTYPE2
 62
     6
100
AcDbCircle
 10
920.0
 20
1797.5
 30
0.0
 40
2000.0
100
AcDbArc
 50
90.754036
 51
93.928929
  0
TEXT
  5
116
100
AcDbEntity
  8
化粧台
  6
CONTINUOUS
 62
     2
100
AcDbText
 10
2544.5
 20
1495.25
 30
0.0
 40
60.0
  1
Ｒ１/２
 41
0.73425
  7
EXCADSTD
 72
     5
 11
2744.749999
 21
1495.25
 31
0.0
100
AcDbText
  0
LEADER
  5
117
100
AcDbEntity
  8
化粧台
  6
CONTINUOUS
 62
     3
100
AcDbLeader
  3
STANDARD
 73
     3
 74
     1
 75
     0
 40
0.0
 76
     3
 10
2458.0
 20
1294.0
 30
0.0
 10
2537.0
 20
1490.0
 30
0.0
 10
2730.0
 20
1490.0
 30
0.0
 77
     3
1001
ACAD
1000
DSTYLE
1002
{
1070
    41
1040
52.5
1070
     5
1000
_EX_NORM
1070
     6
1000
_EX_NORM
1070
     7
1000
_EX_NORM
1070
   341
1005
2A
1002
}
  0
DIMENSION
  5
123
100
AcDbEntity
  8
化粧台
  6
CONTINUOUS
 62
     3
100
AcDbDimension
  2
*D14
 10
2570.0
 20
933.5
 30
0.0
 11
2534.75
 21
1119.0
 31
0.0
 70
   160
  1
350（壁給水）
  3
STANDARD
100
AcDbAlignedDimension
 13
2450.0
 23
1283.5
 33
0.0
 14
2450.0
 24
933.5
 34
0.0
 50
90.0
100
AcDbRotatedDimension
1001
ACAD
1000
DSTYLE
1002
{
1070
     6
1000
_EX_NORM
1070
     7
1000
_EX_NORM
1070
    41
1040
45.0
1070
    42
1040
7.5
1070
    44
1040
15.0
1070
    73
1070
     0
1070
    74
1070
     0
1070
    75
1070
     0
1070
    76
1070
     1
1070
    77
1070
     1
1070
    78
1070
     8
1070
   140
1040
60.0
1070
   147
1040
5.25
1070
   173
1070
     1
1070
   176
1070
     3
1070
   177
1070
     3
1070
   178
1070
     2
1070
   271
1070
     2
1070
   279
1070
     2
1070
   280
1070
     0
1070
   287
1070
     5
1070
   340
1005
122
1002
}
  0
TEXT
  5
124
100
AcDbEntity
  8
化粧台
  6
CONTINUOUS
 62
     2
100
AcDbText
 10
1821.5
 20
933.5
 30
0.0
 40
60.0
  1
F.L.
 41
0.4125
  7
EXCADSTD
 72
     5
 11
1912.2434
 21
933.5
 31
0.0
100
AcDbText
  0
ARC
  5
125
100
AcDbEntity
  8
化粧台
  6
CONTINUOUS
 62
     2
100
AcDbCircle
 10
680.5
 20
1725.5
 30
0.0
 40
8.0
100
AcDbArc
 50
90.0
 51
180.0
  0
ARC
  5
126
100
AcDbEntity
  8
化粧台
  6
CONTINUOUS
 62
     2
100
AcDbCircle
 10
681.5
 20
1689.5
 30
0.0
 40
9.0
100
AcDbArc
 50
82.802464
 51
181.539891
  0
ARC
  5
127
100
AcDbEntity
  8
化粧台
  6
CONTINUOUS
 62
     2
100
AcDbCircle
 10
714.761542
 20
1645.261814
 30
0.0
 40
40.0
100
AcDbArc
 50
184.233549
 51
236.712724
  0
ARC
  5
128
100
AcDbEntity
  8
化粧台
  6
CONTINUOUS
 62
     2
100
AcDbCircle
 10
1672.142108
 20
1716.131077
 30
0.0
 40
1000.0
100
AcDbArc
 50
181.539891
 51
184.233549
  0
ARC
  5
129
100
AcDbEntity
  8
化粧台
  6
CONTINUOUS
 62
     2
100
AcDbCircle
 10
835.505724
 20
1829.166252
 30
0.0
 40
260.0
100
AcDbArc
 50
236.712724
 51
255.610488
  0
ARC
  5
12A
100
AcDbEntity
  8
化粧台
  6
CONTINUOUS
 62
     2
100
AcDbCircle
 10
681.5
 20
1709.5
 30
0.0
 40
9.0
100
AcDbArc
 50
71.491849
 51
180.0
  0
LINE
  5
12B
100
AcDbEntity
  8
化粧台
  6
CONTINUOUS
 62
     2
100
AcDbLine
 10
672.5
 20
1689.5
 30
0.0
 11
672.5
 21
1725.5
 31
0.0
  0
ARC
  5
12C
100
AcDbEntity
  8
化粧台
  6
CONTINUOUS
 62
     2
100
AcDbCircle
 10
1159.5
 20
1725.5
 30
0.0
 40
8.0
100
AcDbArc
 50
0.0
 51
90.0
  0
ARC
  5
12D
100
AcDbEntity
  8
化粧台
  6
CONTINUOUS
 62
     2
100
AcDbCircle
 10
1125.238458
 20
1645.261814
 30
0.0
 40
40.0
100
AcDbArc
 50
303.287276
 51
355.766451
  0
ARC
  5
12E
100
AcDbEntity
  8
化粧台
  6
CONTINUOUS
 62
     2
100
AcDbCircle
 10
167.857892
 20
1716.131077
 30
0.0
 40
1000.0
100
AcDbArc
 50
355.766451
 51
358.460109
  0
ARC
  5
12F
100
AcDbEntity
  8
化粧台
  6
CONTINUOUS
 62
     2
100
AcDbCircle
 10
1158.5
 20
1709.5
 30
0.0
 40
9.0
100
AcDbArc
 50
0.0
 51
108.508151
  0
LINE
  5
130
100
AcDbEntity
  8
化粧台
  6
CONTINUOUS
 62
     2
100
AcDbLine
 10
1167.5
 20
1689.5
 30
0.0
 11
1167.5
 21
1725.5
 31
0.0
  0
ARC
  5
131
100
AcDbEntity
  8
化粧台
  6
CONTINUOUS
 62
     2
100
AcDbCircle
 10
1004.494276
 20
1829.166252
 30
0.0
 40
260.0
100
AcDbArc
 50
284.389512
 51
303.287276
  0
ARC
  5
132
100
AcDbEntity
  8
化粧台
  6
CONTINUOUS
 62
     2
100
AcDbCircle
 10
920.0
 20
3578.075
 30
0.0
 40
1894.575
100
AcDbArc
 50
262.802464
 51
277.197536
  0
ARC
  5
133
100
AcDbEntity
  8
化粧台
  6
CONTINUOUS
 62
     2
100
AcDbCircle
 10
1158.5
 20
1689.5
 30
0.0
 40
9.0
100
AcDbArc
 50
358.460109
 51
97.197536
  0
ARC
  5
134
100
AcDbEntity
  8
化粧台
  6
CONTINUOUS
 62
     2
100
AcDbCircle
 10
658.961791
 20
1642.172226
 30
0.0
 40
80.0
100
AcDbArc
 50
40.479094
 51
71.491849
  0
ARC
  5
135
100
AcDbEntity
  8
化粧台
  6
CONTINUOUS
 62
     2
100
AcDbCircle
 10
1181.038209
 20
1642.172226
 30
0.0
 40
80.0
100
AcDbArc
 50
108.508151
 51
139.520906
  0
LINE
  5
136
100
AcDbEntity
  8
化粧台
  6
CONTINUOUS
 62
     2
100
AcDbLine
 10
725.59964
 20
1693.5
 30
0.0
 11
1114.40036
 21
1693.5
 31
0.0
  0
LINE
  5
137
100
AcDbEntity
  8
化粧台
  6
CONTINUOUS
 62
     2
100
AcDbLine
 10
1152.5
 20
1486.5
 30
0.0
 11
687.5
 21
1486.5
 31
0.0
  0
LINE
  5
138
100
AcDbEntity
  8
化粧台
  6
CONTINUOUS
 62
     2
100
AcDbLine
 10
1152.5
 20
1479.5
 30
0.0
 11
687.5
 21
1479.5
 31
0.0
  0
LINE
  5
139
100
AcDbEntity
  8
化粧台
  6
CONTINUOUS
 62
     2
100
AcDbLine
 10
687.5
 20
1033.5
 30
0.0
 11
1152.5
 21
1033.5
 31
0.0
  0
LINE
  5
13A
100
AcDbEntity
  8
化粧台
  6
CONTINUOUS
 62
     2
100
AcDbLine
 10
687.5
 20
933.5
 30
0.0
 11
1152.5
 21
933.5
 31
0.0
  0
LINE
  5
13B
100
AcDbEntity
  8
化粧台
  6
CONTINUOUS
 62
     2
100
AcDbLine
 10
687.5
 20
1615.990525
 30
0.0
 11
687.5
 21
933.5
 31
0.0
  0
LINE
  5
13C
100
AcDbEntity
  8
化粧台
  6
CONTINUOUS
 62
     2
100
AcDbLine
 10
1152.5
 20
1615.990525
 30
0.0
 11
1152.5
 21
933.5
 31
0.0
  0
ARC
  5
13D
100
AcDbEntity
  8
化粧台
  6
EXLTYPE2
 62
     2
100
AcDbCircle
 10
770.142291
 20
1549.5
 30
0.0
 40
6.0
100
AcDbArc
 50
270.0
 51
347.988522
  0
ARC
  5
13E
100
AcDbEntity
  8
化粧台
  6
EXLTYPE2
 62
     2
100
AcDbCircle
 10
740.237346
 20
1549.5
 30
0.0
 40
6.0
100
AcDbArc
 50
187.765166
 51
270.0
  0
ARC
  5
13F
100
AcDbEntity
  8
化粧台
  6
EXLTYPE2
 62
     2
100
AcDbCircle
 10
765.246951
 20
1549.5
 30
0.0
 40
6.0
100
AcDbArc
 50
217.979872
 51
270.0
  0
LINE
  5
140
100
AcDbEntity
  8
化粧台
  6
EXLTYPE2
 62
     2
100
AcDbLine
 10
765.246951
 20
1543.5
 30
0.0
 11
770.142291
 21
1543.5
 31
0.0
  0
ARC
  5
141
100
AcDbEntity
  8
化粧台
  6
EXLTYPE2
 62
     2
100
AcDbCircle
 10
744.753049
 20
1549.5
 30
0.0
 40
6.0
100
AcDbArc
 50
270.0
 51
322.020128
  0
LINE
  5
142
100
AcDbEntity
  8
化粧台
  6
EXLTYPE2
 62
     2
100
AcDbLine
 10
740.237346
 20
1543.5
 30
0.0
 11
744.753049
 21
1543.5
 31
0.0
  0
ARC
  5
143
100
AcDbEntity
  8
化粧台
  6
EXLTYPE2
 62
     2
100
AcDbCircle
 10
755.0
 20
1541.5
 30
0.0
 40
7.0
100
AcDbArc
 50
37.979872
 51
142.020128
  0
LINE
  5
144
100
AcDbEntity
  8
化粧台
  6
EXLTYPE2
 62
     2
100
AcDbLine
 10
728.348846
 20
1592.275131
 30
0.0
 11
734.292365
 21
1548.689321
 31
0.0
  0
ARC
  5
145
100
AcDbEntity
  8
化粧台
  6
EXLTYPE2
 62
     2
100
AcDbCircle
 10
870.993071
 20
1531.023494
 30
0.0
 40
8.0
100
AcDbArc
 50
10.243427
 51
81.292168
  0
ARC
  5
146
100
AcDbEntity
  8
化粧台
  6
EXLTYPE2
 62
     2
100
AcDbCircle
 10
1024.659956
 20
2534.323792
 30
0.0
 40
1007.0
100
AcDbArc
 50
256.591773
 51
261.292168
  0
LINE
  5
147
100
AcDbEntity
  8
化粧台
  6
EXLTYPE2
 62
     2
100
AcDbLine
 10
878.86556
 20
1532.446139
 30
0.0
 11
884.257125
 21
1502.610847
 31
0.0
  0
ARC
  5
148
100
AcDbEntity
  8
化粧台
  6
EXLTYPE2
 62
     2
100
AcDbCircle
 10
811.323386
 20
1639.400606
 30
0.0
 40
87.0
100
AcDbArc
 50
247.669349
 51
256.591773
  0
ARC
  5
149
100
AcDbEntity
  8
化粧台
  6
EXLTYPE2
 62
     2
100
AcDbCircle
 10
776.367888
 20
1554.3
 30
0.0
 40
5.0
100
AcDbArc
 50
67.669349
 51
141.493511
  0
LINE
  5
14A
100
AcDbEntity
  8
化粧台
  6
EXLTYPE2
 62
     2
100
AcDbLine
 10
778.280775
 20
1558.919641
 30
0.0
 11
776.010926
 21
1548.251354
 31
0.0
  0
ARC
  5
14B
100
AcDbEntity
  8
化粧台
  6
EXLTYPE2
 62
     2
100
AcDbCircle
 10
1069.857709
 20
1549.5
 30
0.0
 40
6.0
100
AcDbArc
 50
192.011478
 51
270.0
  0
ARC
  5
14C
100
AcDbEntity
  8
化粧台
  6
EXLTYPE2
 62
     2
100
AcDbCircle
 10
1099.762654
 20
1549.5
 30
0.0
 40
6.0
100
AcDbArc
 50
270.0
 51
352.234834
  0
ARC
  5
14D
100
AcDbEntity
  8
化粧台
  6
EXLTYPE2
 62
     2
100
AcDbCircle
 10
1074.753049
 20
1549.5
 30
0.0
 40
6.0
100
AcDbArc
 50
270.0
 51
322.020128
  0
LINE
  5
14E
100
AcDbEntity
  8
化粧台
  6
EXLTYPE2
 62
     2
100
AcDbLine
 10
1074.753049
 20
1543.5
 30
0.0
 11
1069.857709
 21
1543.5
 31
0.0
  0
ARC
  5
14F
100
AcDbEntity
  8
化粧台
  6
EXLTYPE2
 62
     2
100
AcDbCircle
 10
1095.246951
 20
1549.5
 30
0.0
 40
6.0
100
AcDbArc
 50
217.979872
 51
270.0
  0
LINE
  5
150
100
AcDbEntity
  8
化粧台
  6
EXLTYPE2
 62
     2
100
AcDbLine
 10
1099.762654
 20
1543.5
 30
0.0
 11
1095.246951
 21
1543.5
 31
0.0
  0
ARC
  5
151
100
AcDbEntity
  8
化粧台
  6
EXLTYPE2
 62
     2
100
AcDbCircle
 10
1085.0
 20
1541.5
 30
0.0
 40
7.0
100
AcDbArc
 50
37.979872
 51
142.020128
  0
LINE
  5
152
100
AcDbEntity
  8
化粧台
  6
EXLTYPE2
 62
     2
100
AcDbLine
 10
1111.651154
 20
1592.275131
 30
0.0
 11
1105.707635
 21
1548.689321
 31
0.0
  0
ARC
  5
153
100
AcDbEntity
  8
化粧台
  6
EXLTYPE2
 62
     2
100
AcDbCircle
 10
969.006929
 20
1531.023494
 30
0.0
 40
8.0
100
AcDbArc
 50
98.707832
 51
169.756573
  0
ARC
  5
154
100
AcDbEntity
  8
化粧台
  6
EXLTYPE2
 62
     2
100
AcDbCircle
 10
815.340044
 20
2534.323792
 30
0.0
 40
1007.0
100
AcDbArc
 50
278.707832
 51
283.408227
  0
LINE
  5
155
100
AcDbEntity
  8
化粧台
  6
EXLTYPE2
 62
     2
100
AcDbLine
 10
961.13444
 20
1532.446139
 30
0.0
 11
955.742875
 21
1502.610847
 31
0.0
  0
ARC
  5
156
100
AcDbEntity
  8
化粧台
  6
EXLTYPE2
 62
     2
100
AcDbCircle
 10
1028.676614
 20
1639.400606
 30
0.0
 40
87.0
100
AcDbArc
 50
283.408227
 51
292.330651
  0
ARC
  5
157
100
AcDbEntity
  8
化粧台
  6
EXLTYPE2
 62
     2
100
AcDbCircle
 10
1063.632112
 20
1554.3
 30
0.0
 40
5.0
100
AcDbArc
 50
38.506489
 51
112.330651
  0
LINE
  5
158
100
AcDbEntity
  8
化粧台
  6
EXLTYPE2
 62
     2
100
AcDbLine
 10
1061.719225
 20
1558.919641
 30
0.0
 11
1063.989074
 21
1548.251354
 31
0.0
  0
LINE
  5
159
100
AcDbEntity
  8
化粧台
  6
EXLTYPE2
 62
     2
100
AcDbLine
 10
877.846844
 20
1538.083404
 30
0.0
 11
962.153156
 21
1538.083404
 31
0.0
  0
ARC
  5
15A
100
AcDbEntity
  8
化粧台
  6
EXLTYPE2
 62
     2
100
AcDbCircle
 10
889.17743
 20
1503.5
 30
0.0
 40
5.0
100
AcDbArc
 50
190.243427
 51
270.0
  0
LINE
  5
15B
100
AcDbEntity
  8
化粧台
  6
EXLTYPE2
 62
     2
100
AcDbLine
 10
889.17743
 20
1498.5
 30
0.0
 11
950.82257
 21
1498.5
 31
0.0
  0
ARC
  5
15C
100
AcDbEntity
  8
化粧台
  6
EXLTYPE2
 62
     2
100
AcDbCircle
 10
950.82257
 20
1503.5
 30
0.0
 40
5.0
100
AcDbArc
 50
270.0
 51
349.756573
  0
ARC
  5
15D
100
AcDbEntity
  8
化粧台
  6
CONTINUOUS
 62
     2
100
AcDbCircle
 10
920.0
 20
2158.5
 30
0.0
 40
600.0
100
AcDbArc
 50
255.610488
 51
284.389512
  0
LINE
  5
15E
100
AcDbEntity
  8
化粧台
  6
CONTINUOUS
 62
     2
100
AcDbLine
 10
798.0
 20
1444.5
 30
0.0
 11
719.0
 21
1444.5
 31
0.0
  0
LINE
  5
15F
100
AcDbEntity
  8
化粧台
  6
CONTINUOUS
 62
     2
100
AcDbLine
 10
798.0
 20
1454.5
 30
0.0
 11
719.0
 21
1454.5
 31
0.0
  0
ELLIPSE
  5
160
100
AcDbEntity
  8
化粧台
  6
CONTINUOUS
 62
     2
100
AcDbEllipse
 10
798.0
 20
1449.5
 30
0.0
 11
5.9999999999999485
 21
0.0
 31
0.0
210
0.0
220
0.0
230
1.0
 40
0.833333
 41
4.7123889803846923
 42
1.5707963267948972
  0
ELLIPSE
  5
161
100
AcDbEntity
  8
化粧台
  6
CONTINUOUS
 62
     2
100
AcDbEllipse
 10
719.0
 20
1449.5
 30
0.0
 11
5.9999999999999485
 21
0.0
 31
0.0
210
0.0
220
0.0
230
1.0
 40
0.833333
 41
1.5707963267948972
 42
4.7123889803846923
  0
LINE
  5
162
100
AcDbEntity
  8
化粧台
  6
CONTINUOUS
 62
     6
100
AcDbLine
 10
770.0
 20
1488.5
 30
0.0
 11
770.0
 21
1428.5
 31
0.0
  0
LINE
  5
163
100
AcDbEntity
  8
化粧台
  6
CONTINUOUS
 62
     6
100
AcDbLine
 10
800.0
 20
1458.5
 30
0.0
 11
740.0
 21
1458.5
 31
0.0
  0
CIRCLE
  5
164
100
AcDbEntity
  8
化粧台
  6
EXLTYPE2
 62
     6
100
AcDbCircle
 10
770.0
 20
1458.5
 30
0.0
 40
7.5
  0
LINE
  5
165
100
AcDbEntity
  8
化粧台
  6
CONTINUOUS
 62
     6
100
AcDbLine
 10
1070.0
 20
1488.5
 30
0.0
 11
1070.0
 21
1428.5
 31
0.0
  0
LINE
  5
166
100
AcDbEntity
  8
化粧台
  6
CONTINUOUS
 62
     6
100
AcDbLine
 10
1100.0
 20
1458.5
 30
0.0
 11
1040.0
 21
1458.5
 31
0.0
  0
CIRCLE
  5
167
100
AcDbEntity
  8
化粧台
  6
EXLTYPE2
 62
     6
100
AcDbCircle
 10
1070.0
 20
1458.5
 30
0.0
 40
7.5
  0
LINE
  5
168
100
AcDbEntity
  8
化粧台
  6
CONTINUOUS
 62
     6
100
AcDbLine
 10
869.0
 20
1748.5
 30
0.0
 11
869.0
 21
1663.5
 31
0.0
  0
LINE
  5
169
100
AcDbEntity
  8
化粧台
  6
CONTINUOUS
 62
     6
100
AcDbLine
 10
971.0
 20
1748.5
 30
0.0
 11
971.0
 21
1663.5
 31
0.0
  0
LINE
  5
16A
100
AcDbEntity
  8
化粧台
  6
CONTINUOUS
 62
     2
100
AcDbLine
 10
2085.080853
 20
1577.668531
 30
0.0
 11
2082.949467
 21
1562.790932
 31
0.0
  0
ARC
  5
16B
100
AcDbEntity
  8
化粧台
  6
CONTINUOUS
 62
     2
100
AcDbCircle
 10
2158.464689
 20
1695.97805
 30
0.0
 40
160.0
100
AcDbArc
 50
188.177413
 51
238.726288
  0
ARC
  5
16C
100
AcDbEntity
  8
化粧台
  6
CONTINUOUS
 62
     2
100
AcDbCircle
 10
2114.207891
 20
1617.5
 30
0.0
 40
30.0
100
AcDbArc
 50
90.0
 51
178.727754
  0
LINE
  5
16D
100
AcDbEntity
  8
化粧台
  6
CONTINUOUS
 62
     2
100
AcDbLine
 10
2084.215286
 20
1618.166091
 30
0.0
 11
2082.998767
 21
1563.388985
 31
0.0
  0
ARC
  5
16E
100
AcDbEntity
  8
化粧台
  6
CONTINUOUS
 62
     2
100
AcDbCircle
 10
2414.191436
 20
1728.025398
 30
0.0
 40
10.0
100
AcDbArc
 50
273.197869
 51
349.306958
  0
ARC
  5
16F
100
AcDbEntity
  8
化粧台
  6
CONTINUOUS
 62
     2
100
AcDbCircle
 10
2084.595144
 20
1599.438849
 30
0.0
 40
100.0
100
AcDbArc
 50
93.197869
 51
108.102737
  0
ARC
  5
170
100
AcDbEntity
  8
化粧台
  6
CONTINUOUS
 62
     2
100
AcDbCircle
 10
1960.306412
 20
1979.639205
 30
0.0
 40
300.0
100
AcDbArc
 50
279.066715
 51
288.102737
  0
LINE
  5
171
100
AcDbEntity
  8
化粧台
  6
CONTINUOUS
 62
     2
100
AcDbLine
 10
2079.016708
 20
1699.283133
 30
0.0
 11
2414.749279
 21
1718.04097
 31
0.0
  0
ARC
  5
172
100
AcDbEntity
  8
化粧台
  6
CONTINUOUS
 62
     2
100
AcDbCircle
 10
2093.0
 20
1576.534023
 30
0.0
 40
8.0
100
AcDbArc
 50
65.094706
 51
171.847199
  0
LINE
  5
173
100
AcDbEntity
  8
化粧台
  6
CONTINUOUS
 62
     2
100
AcDbLine
 10
2432.861507
 20
1733.5
 30
0.0
 11
2450.0
 21
1733.5
 31
0.0
  0
ARC
  5
174
100
AcDbEntity
  8
化粧台
  6
CONTINUOUS
 62
     2
100
AcDbCircle
 10
2009.0
 20
1674.5
 30
0.0
 40
9.0
100
AcDbArc
 50
99.066715
 51
188.177413
  0
ARC
  5
175
100
AcDbEntity
  8
化粧台
  6
CONTINUOUS
 62
     2
100
AcDbCircle
 10
2432.861507
 20
1724.5
 30
0.0
 40
9.0
100
AcDbArc
 50
90.0
 51
169.306958
  0
ARC
  5
176
100
AcDbEntity
  8
化粧台
  6
CONTINUOUS
 62
     2
100
AcDbCircle
 10
2078.0
 20
1563.5
 30
0.0
 40
5.0
100
AcDbArc
 50
238.726288
 51
0.0
  0
LINE
  5
177
100
AcDbEntity
  8
化粧台
  6
CONTINUOUS
 62
     2
100
AcDbLine
 10
2114.207891
 20
1647.5
 30
0.0
 11
2450.0
 21
1647.5
 31
0.0
  0
ARC
  5
178
100
AcDbEntity
  8
化粧台
  6
EXLTYPE2
 62
     2
100
AcDbCircle
 10
2440.0
 20
1553.5
 30
0.0
 40
10.0
100
AcDbArc
 50
265.677841
 51
0.0
  0
ARC
  5
179
100
AcDbEntity
  8
化粧台
  6
EXLTYPE2
 62
     2
100
AcDbCircle
 10
2180.84212
 20
1573.086977
 30
0.0
 40
10.0
100
AcDbArc
 50
211.607502
 51
265.677841
  0
ARC
  5
17A
100
AcDbEntity
  8
化粧台
  6
EXLTYPE2
 62
     2
100
AcDbCircle
 10
2219.17743
 20
1503.5
 30
0.0
 40
5.0
100
AcDbArc
 50
190.243427
 51
270.0
  0
LINE
  5
17B
100
AcDbEntity
  8
化粧台
  6
EXLTYPE2
 62
     2
100
AcDbLine
 10
2219.17743
 20
1498.5
 30
0.0
 11
2280.82257
 21
1498.5
 31
0.0
  0
ARC
  5
17C
100
AcDbEntity
  8
化粧台
  6
EXLTYPE2
 62
     2
100
AcDbCircle
 10
2290.145485
 20
1499.882923
 30
0.0
 40
5.0
100
AcDbArc
 50
97.129169
 51
158.794892
  0
ARC
  5
17D
100
AcDbEntity
  8
化粧台
  6
EXLTYPE2
 62
     2
100
AcDbCircle
 10
2280.82257
 20
1503.5
 30
0.0
 40
5.0
100
AcDbArc
 50
270.0
 51
338.794892
  0
LINE
  5
17E
100
AcDbEntity
  8
化粧台
  6
EXLTYPE2
 62
     2
100
AcDbLine
 10
2208.346659
 20
1535.31758
 30
0.0
 11
2214.257125
 21
1502.610847
 31
0.0
  0
ARC
  5
17F
100
AcDbEntity
  8
化粧台
  6
EXLTYPE2
 62
     2
100
AcDbCircle
 10
2280.837487
 20
1574.30309
 30
0.0
 40
70.0
100
AcDbArc
 50
277.129169
 51
340.142115
  0
LINE
  5
180
100
AcDbEntity
  8
化粧台
  6
EXLTYPE2
 62
     2
100
AcDbLine
 10
2135.0
 20
1628.5
 30
0.0
 11
2172.325537
 21
1567.846003
 31
0.0
  0
LINE
  5
181
100
AcDbEntity
  8
化粧台
  6
EXLTYPE2
 62
     2
100
AcDbLine
 10
2180.088476
 20
1563.115416
 30
0.0
 11
2439.246356
 21
1543.528439
 31
0.0
  0
ARC
  5
182
100
AcDbEntity
  8
化粧台
  6
EXLTYPE2
 62
     2
100
AcDbCircle
 10
2200.47417
 20
1533.894934
 30
0.0
 40
8.0
100
AcDbArc
 50
10.243427
 51
71.625075
  0
ARC
  5
183
100
AcDbEntity
  8
化粧台
  6
EXLTYPE2
 62
     2
100
AcDbCircle
 10
2267.134457
 20
1591.680517
 30
0.0
 40
57.0
100
AcDbArc
 50
294.956582
 51
317.739904
  0
LINE
  5
184
100
AcDbEntity
  8
化粧台
  6
EXLTYPE2
 62
     2
100
AcDbLine
 10
2207.5
 20
1540.002734
 30
0.0
 11
2291.184544
 21
1540.002734
 31
0.0
  0
ARC
  5
185
100
AcDbEntity
  8
化粧台
  6
EXLTYPE2
 62
     2
100
AcDbCircle
 10
2520.436415
 20
2497.144207
 30
0.0
 40
1007.0
100
AcDbArc
 50
245.094706
 51
251.625075
  0
LINE
  5
186
100
AcDbEntity
  8
化粧台
  6
CONTINUOUS
 62
     2
100
AcDbLine
 10
2114.0
 20
1647.5
 30
0.0
 11
2114.0
 21
1033.5
 31
0.0
  0
LINE
  5
187
100
AcDbEntity
  8
化粧台
  6
CONTINUOUS
 62
     2
100
AcDbLine
 10
2117.0
 20
1033.5
 30
0.0
 11
2117.0
 21
933.5
 31
0.0
  0
LINE
  5
188
100
AcDbEntity
  8
化粧台
  6
CONTINUOUS
 62
     2
100
AcDbLine
 10
2091.5
 20
1486.5
 30
0.0
 11
2114.0
 21
1486.5
 31
0.0
  0
LINE
  5
189
100
AcDbEntity
  8
化粧台
  6
CONTINUOUS
 62
     2
100
AcDbLine
 10
2091.5
 20
1637.10489
 30
0.0
 11
2091.5
 21
1486.5
 31
0.0
  0
LINE
  5
18A
100
AcDbEntity
  8
化粧台
  6
CONTINUOUS
 62
     2
100
AcDbLine
 10
2450.0
 20
1733.5
 30
0.0
 11
2450.0
 21
933.5
 31
0.0
  0
LINE
  5
18B
100
AcDbEntity
  8
化粧台
  6
CONTINUOUS
 62
     2
100
AcDbLine
 10
2093.0
 20
1479.5
 30
0.0
 11
2110.0
 21
1479.5
 31
0.0
  0
LINE
  5
18C
100
AcDbEntity
  8
化粧台
  6
CONTINUOUS
 62
     2
100
AcDbLine
 10
2093.0
 20
1033.5
 30
0.0
 11
2110.0
 21
1033.5
 31
0.0
  0
LINE
  5
18D
100
AcDbEntity
  8
化粧台
  6
CONTINUOUS
 62
     2
100
AcDbLine
 10
2110.0
 20
1479.5
 30
0.0
 11
2110.0
 21
1033.5
 31
0.0
  0
LINE
  5
18E
100
AcDbEntity
  8
化粧台
  6
CONTINUOUS
 62
     2
100
AcDbLine
 10
2093.0
 20
1479.5
 30
0.0
 11
2093.0
 21
1033.5
 31
0.0
  0
LINE
  5
18F
100
AcDbEntity
  8
化粧台
  6
EXLTYPE2
 62
     6
100
AcDbLine
 10
2432.5
 20
1470.5
 30
0.0
 11
2450.0
 21
1470.5
 31
0.0
  0
LINE
  5
190
100
AcDbEntity
  8
化粧台
  6
EXLTYPE2
 62
     6
100
AcDbLine
 10
2432.5
 20
1033.5
 30
0.0
 11
2432.5
 21
1470.5
 31
0.0
  0
LINE
  5
191
100
AcDbEntity
  8
化粧台
  6
EXLTYPE2
 62
     6
100
AcDbLine
 10
2436.5
 20
1445.5
 30
0.0
 11
2450.0
 21
1445.5
 31
0.0
  0
LINE
  5
192
100
AcDbEntity
  8
化粧台
  6
EXLTYPE2
 62
     6
100
AcDbLine
 10
2436.5
 20
1033.5
 30
0.0
 11
2436.5
 21
1445.5
 31
0.0
  0
LINE
  5
193
100
AcDbEntity
  8
化粧台
  6
EXLTYPE2
 62
     6
100
AcDbLine
 10
2144.0
 20
1047.0
 30
0.0
 11
2144.0
 21
1033.5
 31
0.0
  0
LINE
  5
194
100
AcDbEntity
  8
化粧台
  6
EXLTYPE2
 62
     6
100
AcDbLine
 10
2144.0
 20
1047.0
 30
0.0
 11
2402.5
 21
1047.0
 31
0.0
  0
LINE
  5
195
100
AcDbEntity
  8
化粧台
  6
EXLTYPE2
 62
     6
100
AcDbLine
 10
2402.5
 20
1047.0
 30
0.0
 11
2402.5
 21
1033.5
 31
0.0
  0
LINE
  5
196
100
AcDbEntity
  8
化粧台
  6
EXLTYPE2
 62
     6
100
AcDbLine
 10
2402.5
 20
1033.5
 30
0.0
 11
2436.5
 21
1033.5
 31
0.0
  0
LINE
  5
197
100
AcDbEntity
  8
化粧台
  6
EXLTYPE2
 62
     6
100
AcDbLine
 10
2114.0
 20
1051.0
 30
0.0
 11
2432.5
 21
1051.0
 31
0.0
  0
LINE
  5
198
100
AcDbEntity
  8
化粧台
  6
CONTINUOUS
 62
     2
100
AcDbLine
 10
2128.5
 20
1033.5
 30
0.0
 11
2128.5
 21
933.5
 31
0.0
  0
LINE
  5
199
100
AcDbEntity
  8
化粧台
  6
CONTINUOUS
 62
     2
100
AcDbLine
 10
2117.0
 20
933.5
 30
0.0
 11
2450.0
 21
933.5
 31
0.0
  0
ARC
  5
19A
100
AcDbEntity
  8
化粧台
  6
CONTINUOUS
 62
     2
100
AcDbCircle
 10
2073.0
 20
1449.5
 30
0.0
 40
5.0
100
AcDbArc
 50
90.0
 51
270.0
  0
LINE
  5
19B
100
AcDbEntity
  8
化粧台
  6
CONTINUOUS
 62
     2
100
AcDbLine
 10
2073.0
 20
1454.5
 30
0.0
 11
2093.0
 21
1454.5
 31
0.0
  0
LINE
  5
19C
100
AcDbEntity
  8
化粧台
  6
CONTINUOUS
 62
     2
100
AcDbLine
 10
2073.0
 20
1444.5
 30
0.0
 11
2093.0
 21
1444.5
 31
0.0
  0
LINE
  5
19D
100
AcDbEntity
  8
化粧台
  6
CONTINUOUS
 62
     6
100
AcDbLine
 10
2417.5
 20
1458.5
 30
0.0
 11
2497.5
 21
1458.5
 31
0.0
  0
LINE
  5
19E
100
AcDbEntity
  8
化粧台
  6
CONTINUOUS
 62
     6
100
AcDbLine
 10
2450.0
 20
1460.5
 30
0.0
 11
2482.5
 21
1458.5
 31
0.0
  0
LINE
  5
19F
100
AcDbEntity
  8
化粧台
  6
CONTINUOUS
 62
     6
100
AcDbLine
 10
2482.5
 20
1458.5
 30
0.0
 11
2450.0
 21
1456.5
 31
0.0
  0
LINE
  5
1A0
100
AcDbEntity
  8
化粧台
  6
EXLTYPE2
 62
     6
100
AcDbLine
 10
2128.5
 20
1033.5
 30
0.0
 11
2144.0
 21
1033.5
 31
0.0
  0
LINE
  5
1A1
100
AcDbEntity
  8
化粧台
  6
CONTINUOUS
 62
     2
100
AcDbLine
 10
2128.5
 20
1033.5
 30
0.0
 11
2114.0
 21
1033.5
 31
0.0
  0
LINE
  5
1A2
100
AcDbEntity
  8
化粧台
  6
EXLTYPE4
 62
     6
100
AcDbLine
 10
2117.0
 20
933.5
 30
0.0
 11
1821.5
 21
933.5
 31
0.0
  0
LINE
  5
1A3
100
AcDbEntity
  8
化粧台
  6
EXLTYPE3
 62
     6
100
AcDbLine
 10
2250.0
 20
1513.5
 30
0.0
 11
2250.0
 21
1345.093255
 31
0.0
  0
LINE
  5
1A4
100
AcDbEntity
  8
化粧台
  6
EXLTYPE4
 62
     6
100
AcDbLine
 10
687.5
 20
933.5
 30
0.0
 11
447.0
 21
933.5
 31
0.0
  0
LINE
  5
1A5
100
AcDbEntity
  8
化粧台
  6
EXLTYPE4
 62
     6
100
AcDbLine
 10
1572.0
 20
933.5
 30
0.0
 11
1152.5
 21
933.5
 31
0.0
  0
LINE
  5
1A6
100
AcDbEntity
  8
化粧台
  6
EXLTYPE2
 62
     6
100
AcDbLine
 10
887.0
 20
943.5
 30
0.0
 11
953.0
 21
943.5
 31
0.0
  0
LINE
  5
1A7
100
AcDbEntity
  8
化粧台
  6
EXLTYPE2
 62
     6
100
AcDbLine
 10
887.0
 20
959.0
 30
0.0
 11
887.0
 21
943.5
 31
0.0
  0
ARC
  5
1A8
100
AcDbEntity
  8
化粧台
  6
EXLTYPE2
 62
     6
100
AcDbCircle
 10
889.5
 20
959.0
 30
0.0
 40
2.5
100
AcDbArc
 50
90.0
 51
180.0
  0
ARC
  5
1A9
100
AcDbEntity
  8
化粧台
  6
EXLTYPE2
 62
     6
100
AcDbCircle
 10
895.5
 20
971.0
 30
0.0
 40
2.5
100
AcDbArc
 50
90.0
 51
180.0
  0
LINE
  5
1AA
100
AcDbEntity
  8
化粧台
  6
EXLTYPE2
 62
     6
100
AcDbLine
 10
895.5
 20
973.5
 30
0.0
 11
944.5
 21
973.5
 31
0.0
  0
ARC
  5
1AB
100
AcDbEntity
  8
化粧台
  6
EXLTYPE2
 62
     6
100
AcDbCircle
 10
944.5
 20
971.0
 30
0.0
 40
2.5
100
AcDbArc
 50
0.0
 51
90.0
  0
LINE
  5
1AC
100
AcDbEntity
  8
化粧台
  6
EXLTYPE2
 62
     6
100
AcDbLine
 10
953.0
 20
959.0
 30
0.0
 11
953.0
 21
943.5
 31
0.0
  0
LINE
  5
1AD
100
AcDbEntity
  8
化粧台
  6
EXLTYPE2
 62
     6
100
AcDbLine
 10
889.5
 20
961.5
 30
0.0
 11
950.5
 21
961.5
 31
0.0
  0
ARC
  5
1AE
100
AcDbEntity
  8
化粧台
  6
EXLTYPE2
 62
     6
100
AcDbCircle
 10
950.5
 20
959.0
 30
0.0
 40
2.5
100
AcDbArc
 50
0.0
 51
90.0
  0
LINE
  5
1AF
100
AcDbEntity
  8
化粧台
  6
EXLTYPE2
 62
     6
100
AcDbLine
 10
893.0
 20
971.0
 30
0.0
 11
893.0
 21
964.0
 31
0.0
  0
ARC
  5
1B0
100
AcDbEntity
  8
化粧台
  6
EXLTYPE2
 62
     6
100
AcDbCircle
 10
890.5
 20
964.0
 30
0.0
 40
2.5
100
AcDbArc
 50
270.0
 51
0.0
  0
LINE
  5
1B1
100
AcDbEntity
  8
化粧台
  6
EXLTYPE2
 62
     6
100
AcDbLine
 10
947.0
 20
971.0
 30
0.0
 11
947.0
 21
964.0
 31
0.0
  0
ARC
  5
1B2
100
AcDbEntity
  8
化粧台
  6
EXLTYPE2
 62
     6
100
AcDbCircle
 10
949.5
 20
964.0
 30
0.0
 40
2.5
100
AcDbArc
 50
180.0
 51
270.0
  0
LINE
  5
1B3
100
AcDbEntity
  8
化粧台
  6
CONTINUOUS
 62
     6
100
AcDbLine
 10
2365.147858
 20
926.727081
 30
0.0
 11
2365.0
 21
933.5
 31
0.0
  0
LINE
  5
1B4
100
AcDbEntity
  8
化粧台
  6
EXLTYPE2
 62
     6
100
AcDbLine
 10
2297.0
 20
943.5
 30
0.0
 11
2363.0
 21
943.5
 31
0.0
  0
LINE
  5
1B5
100
AcDbEntity
  8
化粧台
  6
EXLTYPE2
 62
     6
100
AcDbLine
 10
2297.0
 20
959.0
 30
0.0
 11
2297.0
 21
943.5
 31
0.0
  0
ARC
  5
1B6
100
AcDbEntity
  8
化粧台
  6
EXLTYPE2
 62
     6
100
AcDbCircle
 10
2299.5
 20
959.0
 30
0.0
 40
2.5
100
AcDbArc
 50
90.0
 51
180.0
  0
ARC
  5
1B7
100
AcDbEntity
  8
化粧台
  6
EXLTYPE2
 62
     6
100
AcDbCircle
 10
2305.5
 20
971.0
 30
0.0
 40
2.5
100
AcDbArc
 50
90.0
 51
180.0
  0
LINE
  5
1B8
100
AcDbEntity
  8
化粧台
  6
EXLTYPE2
 62
     6
100
AcDbLine
 10
2305.5
 20
973.5
 30
0.0
 11
2354.5
 21
973.5
 31
0.0
  0
ARC
  5
1B9
100
AcDbEntity
  8
化粧台
  6
EXLTYPE2
 62
     6
100
AcDbCircle
 10
2354.5
 20
971.0
 30
0.0
 40
2.5
100
AcDbArc
 50
0.0
 51
90.0
  0
LINE
  5
1BA
100
AcDbEntity
  8
化粧台
  6
EXLTYPE2
 62
     6
100
AcDbLine
 10
2363.0
 20
959.0
 30
0.0
 11
2363.0
 21
943.5
 31
0.0
  0
LINE
  5
1BB
100
AcDbEntity
  8
化粧台
  6
EXLTYPE2
 62
     6
100
AcDbLine
 10
2299.5
 20
961.5
 30
0.0
 11
2360.5
 21
961.5
 31
0.0
  0
ARC
  5
1BC
100
AcDbEntity
  8
化粧台
  6
EXLTYPE2
 62
     6
100
AcDbCircle
 10
2360.5
 20
959.0
 30
0.0
 40
2.5
100
AcDbArc
 50
0.0
 51
90.0
  0
LINE
  5
1BD
100
AcDbEntity
  8
化粧台
  6
EXLTYPE2
 62
     6
100
AcDbLine
 10
2303.0
 20
971.0
 30
0.0
 11
2303.0
 21
964.0
 31
0.0
  0
ARC
  5
1BE
100
AcDbEntity
  8
化粧台
  6
EXLTYPE2
 62
     6
100
AcDbCircle
 10
2300.5
 20
964.0
 30
0.0
 40
2.5
100
AcDbArc
 50
270.0
 51
0.0
  0
LINE
  5
1BF
100
AcDbEntity
  8
化粧台
  6
EXLTYPE2
 62
     6
100
AcDbLine
 10
2357.0
 20
971.0
 30
0.0
 11
2357.0
 21
964.0
 31
0.0
  0
ARC
  5
1C0
100
AcDbEntity
  8
化粧台
  6
EXLTYPE2
 62
     6
100
AcDbCircle
 10
2359.5
 20
964.0
 30
0.0
 40
2.5
100
AcDbArc
 50
180.0
 51
270.0
  0
LINE
  5
1C1
100
AcDbEntity
  8
化粧台
  6
CONTINUOUS
 62
     6
100
AcDbLine
 10
1008.0
 20
1277.663691
 30
0.0
 11
1008.0
 21
1289.336309
 31
0.0
  0
LINE
  5
1C2
100
AcDbEntity
  8
化粧台
  6
CONTINUOUS
 62
     6
100
AcDbLine
 10
993.554392
 20
1297.676485
 30
0.0
 11
983.445608
 21
1291.840176
 31
0.0
  0
LINE
  5
1C3
100
AcDbEntity
  8
化粧台
  6
CONTINUOUS
 62
     6
100
AcDbLine
 10
983.445608
 20
1275.159824
 30
0.0
 11
993.554392
 21
1269.323515
 31
0.0
  0
ARC
  5
1C4
100
AcDbEntity
  8
化粧台
  6
CONTINUOUS
 62
     6
100
AcDbCircle
 10
995.0
 20
1283.5
 30
0.0
 40
14.25
100
AcDbArc
 50
264.177545
 51
275.822455
  0
ARC
  5
1C5
100
AcDbEntity
  8
化粧台
  6
CONTINUOUS
 62
     6
100
AcDbCircle
 10
995.0
 20
1283.5
 30
0.0
 40
14.25
100
AcDbArc
 50
324.177545
 51
335.822455
  0
ARC
  5
1C6
100
AcDbEntity
  8
化粧台
  6
CONTINUOUS
 62
     6
100
AcDbCircle
 10
995.0
 20
1283.5
 30
0.0
 40
14.25
100
AcDbArc
 50
24.177545
 51
35.822455
  0
ARC
  5
1C7
100
AcDbEntity
  8
化粧台
  6
CONTINUOUS
 62
     6
100
AcDbCircle
 10
995.0
 20
1283.5
 30
0.0
 40
14.25
100
AcDbArc
 50
84.177545
 51
95.822455
  0
ARC
  5
1C8
100
AcDbEntity
  8
化粧台
  6
CONTINUOUS
 62
     6
100
AcDbCircle
 10
995.0
 20
1283.5
 30
0.0
 40
14.25
100
AcDbArc
 50
144.177545
 51
155.822455
  0
ARC
  5
1C9
100
AcDbEntity
  8
化粧台
  6
CONTINUOUS
 62
     6
100
AcDbCircle
 10
995.0
 20
1283.5
 30
0.0
 40
14.25
100
AcDbArc
 50
204.177545
 51
215.822455
  0
LINE
  5
1CA
100
AcDbEntity
  8
化粧台
  6
CONTINUOUS
 62
     6
100
AcDbLine
 10
983.5
 20
1317.292887
 30
0.0
 11
983.5
 21
1307.107113
 31
0.0
  0
LINE
  5
1CB
100
AcDbEntity
  8
化粧台
  6
CONTINUOUS
 62
     6
100
AcDbLine
 10
1006.5
 20
1317.292887
 30
0.0
 11
1006.5
 21
1307.107113
 31
0.0
  0
ARC
  5
1CC
100
AcDbEntity
  8
化粧台
  6
CONTINUOUS
 62
     6
100
AcDbCircle
 10
993.25
 20
1312.2
 30
0.0
 40
11.0
100
AcDbArc
 50
207.580199
 51
213.055731
  0
ARC
  5
1CD
100
AcDbEntity
  8
化粧台
  6
CONTINUOUS
 62
     6
100
AcDbCircle
 10
996.75
 20
1312.2
 30
0.0
 40
11.0
100
AcDbArc
 50
326.944269
 51
332.419801
  0
CIRCLE
  5
1CE
100
AcDbEntity
  8
化粧台
  6
EXLTYPE2
 62
     6
100
AcDbCircle
 10
995.0
 20
1283.5
 30
0.0
 40
12.074349
  0
LINE
  5
1CF
100
AcDbEntity
  8
化粧台
  6
CONTINUOUS
 62
     6
100
AcDbLine
 10
984.5
 20
1306.2
 30
0.0
 11
984.5
 21
1298.358333
 31
0.0
  0
LINE
  5
1D0
100
AcDbEntity
  8
化粧台
  6
CONTINUOUS
 62
     6
100
AcDbLine
 10
1005.5
 20
1298.858333
 30
0.0
 11
1005.5
 21
1292.448929
 31
0.0
  0
LINE
  5
1D1
100
AcDbEntity
  8
化粧台
  6
EXLTYPE2
 62
     6
100
AcDbLine
 10
984.030456
 20
1306.2
 30
0.0
 11
1005.969544
 21
1306.2
 31
0.0
  0
CIRCLE
  5
1D2
100
AcDbEntity
  8
化粧台
  6
EXLTYPE2
 62
     6
100
AcDbCircle
 10
995.0
 20
1283.5
 30
0.0
 40
4.75
  0
ARC
  5
1D3
100
AcDbEntity
  8
化粧台
  6
EXLTYPE2
 62
     6
100
AcDbCircle
 10
993.25
 20
1312.2
 30
0.0
 40
11.0
100
AcDbArc
 50
146.944269
 51
152.419801
  0
ARC
  5
1D4
100
AcDbEntity
  8
化粧台
  6
EXLTYPE2
 62
     6
100
AcDbCircle
 10
996.75
 20
1312.2
 30
0.0
 40
11.0
100
AcDbArc
 50
27.580199
 51
33.055731
  0
LINE
  5
1D5
100
AcDbEntity
  8
化粧台
  6
EXLTYPE2
 62
     6
100
AcDbLine
 10
984.030456
 20
1318.2
 30
0.0
 11
1005.969544
 21
1318.2
 31
0.0
  0
LINE
  5
1D6
100
AcDbEntity
  8
化粧台
  6
CONTINUOUS
 62
     6
100
AcDbLine
 10
952.5
 20
1283.5
 30
0.0
 11
1037.5
 21
1283.5
 31
0.0
  0
LINE
  5
1D7
100
AcDbEntity
  8
化粧台
  6
CONTINUOUS
 62
     6
100
AcDbLine
 10
995.0
 20
1326.0
 30
0.0
 11
995.0
 21
1241.0
 31
0.0
  0
LINE
  5
1D8
100
AcDbEntity
  8
化粧台
  6
CONTINUOUS
 62
     6
100
AcDbLine
 10
845.0
 20
1326.0
 30
0.0
 11
845.0
 21
1241.0
 31
0.0
  0
LINE
  5
1D9
100
AcDbEntity
  8
化粧台
  6
CONTINUOUS
 62
     6
100
AcDbLine
 10
887.5
 20
1283.5
 30
0.0
 11
802.5
 21
1283.5
 31
0.0
  0
LINE
  5
1DA
100
AcDbEntity
  8
化粧台
  6
CONTINUOUS
 62
     6
100
AcDbLine
 10
832.0
 20
1277.663691
 30
0.0
 11
832.0
 21
1289.336309
 31
0.0
  0
ARC
  5
1DB
100
AcDbEntity
  8
化粧台
  6
CONTINUOUS
 62
     6
100
AcDbCircle
 10
845.0
 20
1283.5
 30
0.0
 40
14.25
100
AcDbArc
 50
264.177545
 51
275.822455
  0
ARC
  5
1DC
100
AcDbEntity
  8
化粧台
  6
CONTINUOUS
 62
     6
100
AcDbCircle
 10
845.0
 20
1283.5
 30
0.0
 40
14.25
100
AcDbArc
 50
204.177545
 51
215.822455
  0
ARC
  5
1DD
100
AcDbEntity
  8
化粧台
  6
CONTINUOUS
 62
     6
100
AcDbCircle
 10
845.0
 20
1283.5
 30
0.0
 40
14.25
100
AcDbArc
 50
144.177545
 51
155.822455
  0
ARC
  5
1DE
100
AcDbEntity
  8
化粧台
  6
CONTINUOUS
 62
     6
100
AcDbCircle
 10
845.0
 20
1283.5
 30
0.0
 40
14.25
100
AcDbArc
 50
84.177545
 51
95.822455
  0
LINE
  5
1DF
100
AcDbEntity
  8
化粧台
  6
CONTINUOUS
 62
     6
100
AcDbLine
 10
833.5
 20
1317.292887
 30
0.0
 11
833.5
 21
1307.107113
 31
0.0
  0
ARC
  5
1E0
100
AcDbEntity
  8
化粧台
  6
CONTINUOUS
 62
     6
100
AcDbCircle
 10
843.25
 20
1312.2
 30
0.0
 40
11.0
100
AcDbArc
 50
207.580199
 51
213.055731
  0
LINE
  5
1E1
100
AcDbEntity
  8
化粧台
  6
CONTINUOUS
 62
     6
100
AcDbLine
 10
855.5
 20
1306.2
 30
0.0
 11
855.5
 21
1298.358333
 31
0.0
  0
LINE
  5
1E2
100
AcDbEntity
  8
化粧台
  6
CONTINUOUS
 62
     6
100
AcDbLine
 10
834.5
 20
1298.858333
 30
0.0
 11
834.5
 21
1292.448929
 31
0.0
  0
LINE
  5
1E3
100
AcDbEntity
  8
化粧台
  6
EXLTYPE2
 62
     6
100
AcDbLine
 10
855.969544
 20
1306.2
 30
0.0
 11
834.030456
 21
1306.2
 31
0.0
  0
CIRCLE
  5
1E4
100
AcDbEntity
  8
化粧台
  6
EXLTYPE2
 62
     6
100
AcDbCircle
 10
845.0
 20
1283.5
 30
0.0
 40
4.75
  0
ARC
  5
1E5
100
AcDbEntity
  8
化粧台
  6
EXLTYPE2
 62
     6
100
AcDbCircle
 10
843.25
 20
1312.2
 30
0.0
 40
11.0
100
AcDbArc
 50
146.944269
 51
152.419801
  0
LINE
  5
1E6
100
AcDbEntity
  8
化粧台
  6
EXLTYPE2
 62
     6
100
AcDbLine
 10
855.969544
 20
1318.2
 30
0.0
 11
834.030456
 21
1318.2
 31
0.0
  0
CIRCLE
  5
1E7
100
AcDbEntity
  8
化粧台
  6
EXLTYPE2
 62
     6
100
AcDbCircle
 10
845.0
 20
1283.5
 30
0.0
 40
12.074349
  0
LINE
  5
1E8
100
AcDbEntity
  8
化粧台
  6
CONTINUOUS
 62
     6
100
AcDbLine
 10
846.445608
 20
1297.676485
 30
0.0
 11
856.554392
 21
1291.840176
 31
0.0
  0
LINE
  5
1E9
100
AcDbEntity
  8
化粧台
  6
CONTINUOUS
 62
     6
100
AcDbLine
 10
856.554392
 20
1275.159824
 30
0.0
 11
846.445608
 21
1269.323515
 31
0.0
  0
ARC
  5
1EA
100
AcDbEntity
  8
化粧台
  6
CONTINUOUS
 62
     6
100
AcDbCircle
 10
845.0
 20
1283.5
 30
0.0
 40
14.25
100
AcDbArc
 50
24.177545
 51
35.822455
  0
ARC
  5
1EB
100
AcDbEntity
  8
化粧台
  6
CONTINUOUS
 62
     6
100
AcDbCircle
 10
845.0
 20
1283.5
 30
0.0
 40
14.25
100
AcDbArc
 50
324.177545
 51
335.822455
  0
LINE
  5
1EC
100
AcDbEntity
  8
化粧台
  6
CONTINUOUS
 62
     6
100
AcDbLine
 10
856.5
 20
1317.292887
 30
0.0
 11
856.5
 21
1307.107113
 31
0.0
  0
LINE
  5
1ED
100
AcDbEntity
  8
化粧台
  6
EXLTYPE2
 62
     6
100
AcDbLine
 10
851.35
 20
1318.2
 30
0.0
 11
851.35
 21
1449.441667
 31
0.0
  0
LINE
  5
1EE
100
AcDbEntity
  8
化粧台
  6
EXLTYPE2
 62
     6
100
AcDbLine
 10
838.65
 20
1318.2
 30
0.0
 11
838.65
 21
1451.558333
 31
0.0
  0
LINE
  5
1EF
100
AcDbEntity
  8
化粧台
  6
EXLTYPE2
 62
     6
100
AcDbLine
 10
988.65
 20
1318.2
 30
0.0
 11
988.65
 21
1449.441667
 31
0.0
  0
LINE
  5
1F0
100
AcDbEntity
  8
化粧台
  6
EXLTYPE2
 62
     6
100
AcDbLine
 10
1001.35
 20
1318.2
 30
0.0
 11
1001.35
 21
1451.558333
 31
0.0
  0
LINE
  5
1F1
100
AcDbEntity
  8
化粧台
  6
EXLTYPE2
 62
     6
100
AcDbLine
 10
868.787897
 20
1539.460534
 30
0.0
 11
838.65
 21
1451.558333
 31
0.0
  0
LINE
  5
1F2
100
AcDbEntity
  8
化粧台
  6
EXLTYPE2
 62
     6
100
AcDbLine
 10
879.191079
 20
1530.644814
 30
0.0
 11
851.35
 21
1449.441667
 31
0.0
  0
LINE
  5
1F3
100
AcDbEntity
  8
化粧台
  6
EXLTYPE2
 62
     6
100
AcDbLine
 10
960.808921
 20
1530.644814
 30
0.0
 11
988.65
 21
1449.441667
 31
0.0
  0
LINE
  5
1F4
100
AcDbEntity
  8
化粧台
  6
EXLTYPE2
 62
     6
100
AcDbLine
 10
971.212103
 20
1539.460534
 30
0.0
 11
1001.35
 21
1451.558333
 31
0.0
  0
LINE
  5
1F5
100
AcDbEntity
  8
化粧台
  6
CONTINUOUS
 62
     6
100
AcDbLine
 10
2370.0
 20
1733.5
 30
0.0
 11
2370.0
 21
1686.0
 31
0.0
  0
ARC
  5
1F6
100
AcDbEntity
  8
化粧台
  6
CONTINUOUS
 62
     6
100
AcDbCircle
 10
2381.10588
 20
1302.5
 30
0.0
 40
6.5
100
AcDbArc
 50
270.0
 51
318.84583
  0
ARC
  5
1F7
100
AcDbEntity
  8
化粧台
  6
CONTINUOUS
 62
     6
100
AcDbCircle
 10
2381.10588
 20
1264.5
 30
0.0
 40
6.5
100
AcDbArc
 50
41.15417
 51
90.0
  0
LINE
  5
1F8
100
AcDbEntity
  8
化粧台
  6
CONTINUOUS
 62
     6
100
AcDbLine
 10
2391.572541
 20
1298.222432
 30
0.0
 11
2386.0
 21
1298.222432
 31
0.0
  0
LINE
  5
1F9
100
AcDbEntity
  8
化粧台
  6
CONTINUOUS
 62
     6
100
AcDbLine
 10
2391.572541
 20
1268.777568
 30
0.0
 11
2386.0
 21
1268.777568
 31
0.0
  0
ARC
  5
1FA
100
AcDbEntity
  8
化粧台
  6
CONTINUOUS
 62
     6
100
AcDbCircle
 10
2351.0
 20
1299.5
 30
0.0
 40
3.5
100
AcDbArc
 50
270.0
 51
0.0
  0
LINE
  5
1FB
100
AcDbEntity
  8
化粧台
  6
CONTINUOUS
 62
     6
100
AcDbLine
 10
2379.0
 20
1296.0
 30
0.0
 11
2381.10588
 21
1296.0
 31
0.0
  0
LINE
  5
1FC
100
AcDbEntity
  8
化粧台
  6
CONTINUOUS
 62
     6
100
AcDbLine
 10
2337.6
 20
1278.2
 30
0.0
 11
2337.6
 21
1288.8
 31
0.0
  0
ARC
  5
1FD
100
AcDbEntity
  8
化粧台
  6
CONTINUOUS
 62
     6
100
AcDbCircle
 10
2346.725083
 20
1274.75
 30
0.0
 40
5.5
100
AcDbArc
 50
217.187626
 51
313.341758
  0
ARC
  5
1FE
100
AcDbEntity
  8
化粧台
  6
CONTINUOUS
 62
     6
100
AcDbCircle
 10
2346.725083
 20
1292.25
 30
0.0
 40
5.5
100
AcDbArc
 50
46.658242
 51
142.812374
  0
LINE
  5
1FF
100
AcDbEntity
  8
化粧台
  6
CONTINUOUS
 62
     6
100
AcDbLine
 10
2350.5
 20
1296.0
 30
0.0
 11
2351.0
 21
1296.0
 31
0.0
  0
LINE
  5
200
100
AcDbEntity
  8
化粧台
  6
CONTINUOUS
 62
     6
100
AcDbLine
 10
2354.5
 20
1299.5
 30
0.0
 11
2354.5
 21
1306.2
 31
0.0
  0
LINE
  5
201
100
AcDbEntity
  8
化粧台
  6
CONTINUOUS
 62
     6
100
AcDbLine
 10
2375.5
 20
1299.5
 30
0.0
 11
2375.5
 21
1306.2
 31
0.0
  0
LINE
  5
202
100
AcDbEntity
  8
化粧台
  6
CONTINUOUS
 62
     6
100
AcDbLine
 10
2332.0
 20
1288.25
 30
0.0
 11
2337.6
 21
1288.25
 31
0.0
  0
LINE
  5
203
100
AcDbEntity
  8
化粧台
  6
CONTINUOUS
 62
     6
100
AcDbLine
 10
2332.0
 20
1278.75
 30
0.0
 11
2337.6
 21
1278.75
 31
0.0
  0
LINE
  5
204
100
AcDbEntity
  8
化粧台
  6
CONTINUOUS
 62
     6
100
AcDbLine
 10
2332.0
 20
1288.25
 30
0.0
 11
2332.0
 21
1278.75
 31
0.0
  0
LINE
  5
205
100
AcDbEntity
  8
化粧台
  6
EXLTYPE2
 62
     6
100
AcDbLine
 10
2350.5
 20
1271.0
 30
0.0
 11
2381.10588
 21
1271.0
 31
0.0
  0
LINE
  5
206
100
AcDbEntity
  8
化粧台
  6
EXLTYPE2
 62
     6
100
AcDbLine
 10
2350.5
 20
1270.75
 30
0.0
 11
2350.5
 21
1296.25
 31
0.0
  0
LINE
  5
207
100
AcDbEntity
  8
化粧台
  6
EXLTYPE2
 62
     6
100
AcDbLine
 10
2337.6
 20
1288.8
 30
0.0
 11
2342.34345
 21
1295.574349
 31
0.0
  0
LINE
  5
208
100
AcDbEntity
  8
化粧台
  6
EXLTYPE2
 62
     6
100
AcDbLine
 10
2337.6
 20
1278.2
 30
0.0
 11
2342.34345
 21
1271.425651
 31
0.0
  0
LINE
  5
209
100
AcDbEntity
  8
化粧台
  6
EXLTYPE2
 62
     6
100
AcDbLine
 10
2354.030456
 20
1306.2
 30
0.0
 11
2375.969544
 21
1306.2
 31
0.0
  0
ARC
  5
20A
100
AcDbEntity
  8
化粧台
  6
EXLTYPE2
 62
     6
100
AcDbCircle
 10
2363.25
 20
1312.2
 30
0.0
 40
11.0
100
AcDbArc
 50
146.944269
 51
213.055731
  0
ARC
  5
20B
100
AcDbEntity
  8
化粧台
  6
EXLTYPE2
 62
     6
100
AcDbCircle
 10
2366.75
 20
1312.2
 30
0.0
 40
11.0
100
AcDbArc
 50
326.944269
 51
33.055731
  0
LINE
  5
20C
100
AcDbEntity
  8
化粧台
  6
EXLTYPE2
 62
     6
100
AcDbLine
 10
2342.34345
 20
1295.574349
 30
0.0
 11
2342.34345
 21
1271.425651
 31
0.0
  0
LINE
  5
20D
100
AcDbEntity
  8
化粧台
  6
EXLTYPE2
 62
     6
100
AcDbLine
 10
2354.030456
 20
1318.2
 30
0.0
 11
2375.969544
 21
1318.2
 31
0.0
  0
LINE
  5
20E
100
AcDbEntity
  8
化粧台
  6
CONTINUOUS
 62
     6
100
AcDbLine
 10
2450.0
 20
1273.0
 30
0.0
 11
2458.0
 21
1273.0
 31
0.0
  0
LINE
  5
20F
100
AcDbEntity
  8
化粧台
  6
CONTINUOUS
 62
     6
100
AcDbLine
 10
2458.0
 20
1294.0
 30
0.0
 11
2458.0
 21
1273.0
 31
0.0
  0
LINE
  5
210
100
AcDbEntity
  8
化粧台
  6
CONTINUOUS
 62
     6
100
AcDbLine
 10
2450.0
 20
1294.0
 30
0.0
 11
2458.0
 21
1294.0
 31
0.0
  0
LINE
  5
211
100
AcDbEntity
  8
化粧台
  6
EXLTYPE2
 62
     6
100
AcDbLine
 10
2393.0
 20
1294.0
 30
0.0
 11
2450.0
 21
1294.0
 31
0.0
  0
LINE
  5
212
100
AcDbEntity
  8
化粧台
  6
EXLTYPE2
 62
     6
100
AcDbLine
 10
2393.0
 20
1273.0
 30
0.0
 11
2450.0
 21
1273.0
 31
0.0
  0
LINE
  5
213
100
AcDbEntity
  8
化粧台
  6
EXLTYPE2
 62
     6
100
AcDbLine
 10
2393.0
 20
1295.75
 30
0.0
 11
2393.0
 21
1271.25
 31
0.0
  0
LINE
  5
214
100
AcDbEntity
  8
化粧台
  6
CONTINUOUS
 62
     6
100
AcDbLine
 10
2393.0
 20
1295.75
 30
0.0
 11
2391.572541
 21
1298.222432
 31
0.0
  0
LINE
  5
215
100
AcDbEntity
  8
化粧台
  6
CONTINUOUS
 62
     6
100
AcDbLine
 10
2393.0
 20
1271.25
 30
0.0
 11
2391.572541
 21
1268.777568
 31
0.0
  0
LINE
  5
216
100
AcDbEntity
  8
化粧台
  6
EXLTYPE2
 62
     6
100
AcDbLine
 10
2371.35
 20
1318.2
 30
0.0
 11
2371.35
 21
1450.951281
 31
0.0
  0
LINE
  5
217
100
AcDbEntity
  8
化粧台
  6
EXLTYPE2
 62
     6
100
AcDbLine
 10
2358.65
 20
1318.2
 30
0.0
 11
2358.65
 21
1450.048719
 31
0.0
  0
LINE
  5
218
100
AcDbEntity
  8
化粧台
  6
EXLTYPE2
 62
     6
100
AcDbLine
 10
2344.922539
 20
1546.14095
 30
0.0
 11
2358.65
 21
1450.048719
 31
0.0
  0
LINE
  5
219
100
AcDbEntity
  8
化粧台
  6
EXLTYPE2
 62
     6
100
AcDbLine
 10
2357.239257
 20
1549.72648
 30
0.0
 11
2371.35
 21
1450.951281
 31
0.0
  0
TEXT
  5
21A
100
AcDbEntity
  8
化粧台
  6
CONTINUOUS
 62
     2
100
AcDbText
 10
2450.0
 20
2945.500001
 30
0.0
 40
60.0
  1
W.L.
 50
90.0
 41
0.4125
  7
EXCADSTD
 72
     5
 11
2450.0
 21
3036.2434
 31
0.0
100
AcDbText
  0
LINE
  5
21B
100
AcDbEntity
  8
化粧台
  6
EXLTYPE4
 62
     6
100
AcDbLine
 10
2450.0
 20
2733.5
 30
0.0
 11
2450.0
 21
3055.5
 31
0.0
  0
LINE
  5
21C
100
AcDbEntity
  8
化粧台
  6
EXLTYPE3
 62
     6
100
AcDbLine
 10
2317.0
 20
1283.5
 30
0.0
 11
2473.0
 21
1283.5
 31
0.0
  0
LINE
  5
21D
100
AcDbEntity
  8
化粧台
  6
CONTINUOUS
 62
     6
100
AcDbLine
 10
1875.0
 20
3957.0
 30
0.0
 11
2925.0
 21
3957.0
 31
0.0
  0
TEXT
  5
21E
100
AcDbEntity
  8
化粧台
  6
CONTINUOUS
 62
     2
100
AcDbText
 10
1890.0
 20
3885.75
 30
0.0
 40
60.0
  1
ＮＬ３０Ｓ４０
 41
0.528
  7
EXCADSTD
 72
     5
 11
2154.000004
 21
3885.75
 31
0.0
100
AcDbText
  0
TEXT
  5
21F
100
AcDbEntity
  8
化粧台
  6
CONTINUOUS
 62
     2
100
AcDbText
 10
2340.0
 20
3885.75
 30
0.0
 40
60.0
  1
フレキシブルパイプ
 41
0.648667
  7
EXCADSTD
 72
     5
 11
2756.999992
 21
3885.75
 31
0.0
100
AcDbText
  0
LINE
  5
220
100
AcDbEntity
  8
化粧台
  6
CONTINUOUS
 62
     6
100
AcDbLine
 10
1875.0
 20
3792.0
 30
0.0
 11
2925.0
 21
3792.0
 31
0.0
  0
TEXT
  5
221
100
AcDbEntity
  8
化粧台
  6
CONTINUOUS
 62
     2
100
AcDbText
 10
1890.0
 20
3803.25
 30
0.0
 40
60.0
  1
ＮＬ２２１-７５ＷＭＹ
 41
0.49719
  7
EXCADSTD
 72
     5
 11
2274.000006
 21
3803.25
 31
0.0
100
AcDbText
  0
TEXT
  5
222
100
AcDbEntity
  8
化粧台
  6
CONTINUOUS
 62
     2
100
AcDbText
 10
2816.25
 20
3803.25
 30
0.0
 40
60.0
  1
２
 41
0.945
  7
EXCADSTD
 72
     5
 11
2870.25
 21
3803.25
 31
0.0
100
AcDbText
  0
TEXT
  5
223
100
AcDbEntity
  8
化粧台
  6
CONTINUOUS
 62
     2
100
AcDbText
 10
2340.0
 20
3803.25
 30
0.0
 40
60.0
  1
アングル形止水栓（共用形）
 41
0.474923
  7
EXCADSTD
 72
     5
 11
2781.000023
 21
3803.25
 31
0.0
100
AcDbText
  0
LINE
  5
224
100
AcDbEntity
  8
化粧台
  6
CONTINUOUS
 62
     6
100
AcDbLine
 10
1875.0
 20
3874.5
 30
0.0
 11
2925.0
 21
3874.5
 31
0.0
  0
LINE
  5
225
100
AcDbEntity
  8
化粧台
  6
CONTINUOUS
 62
     6
100
AcDbLine
 10
1875.0
 20
3792.0
 30
0.0
 11
1875.0
 21
3957.0
 31
0.0
  0
LINE
  5
226
100
AcDbEntity
  8
化粧台
  6
CONTINUOUS
 62
     6
100
AcDbLine
 10
2325.0
 20
3792.0
 30
0.0
 11
2325.0
 21
3957.0
 31
0.0
  0
LINE
  5
227
100
AcDbEntity
  8
化粧台
  6
CONTINUOUS
 62
     6
100
AcDbLine
 10
2775.0
 20
3792.0
 30
0.0
 11
2775.0
 21
3957.0
 31
0.0
  0
LINE
  5
228
100
AcDbEntity
  8
化粧台
  6
CONTINUOUS
 62
     6
100
AcDbLine
 10
2925.0
 20
3792.0
 30
0.0
 11
2925.0
 21
3957.0
 31
0.0
  0
TEXT
  5
229
100
AcDbEntity
  8
化粧台
  6
CONTINUOUS
 62
     2
100
AcDbText
 10
2816.25
 20
3885.75
 30
0.0
 40
60.0
  1
２
 41
0.945
  7
EXCADSTD
 72
     5
 11
2870.25
 21
3885.75
 31
0.0
100
AcDbText
  0
TEXT
  5
22A
100
AcDbEntity
  8
化粧台
  6
CONTINUOUS
 62
     2
100
AcDbText
 10
1890.0
 20
3968.25
 30
0.0
 40
60.0
  1
止水栓手配品番（アングル形の場合）
 41
0.681882
  7
EXCADSTD
 72
     5
 11
2717.999997
 21
3968.25
 31
0.0
100
AcDbText
  0
LINE
  5
22B
100
AcDbEntity
  8
化粧台
  6
CONTINUOUS
 62
     6
100
AcDbLine
 10
1875.0
 20
3709.5
 30
0.0
 11
2925.0
 21
3709.5
 31
0.0
  0
TEXT
  5
22C
100
AcDbEntity
  8
化粧台
  6
CONTINUOUS
 62
     2
100
AcDbText
 10
1890.0
 20
3638.25
 30
0.0
 40
60.0
  1
ＮＬ３０Ｓ４０
 41
0.528
  7
EXCADSTD
 72
     5
 11
2154.000004
 21
3638.25
 31
0.0
100
AcDbText
  0
LINE
  5
22D
100
AcDbEntity
  8
化粧台
  6
CONTINUOUS
 62
     6
100
AcDbLine
 10
1875.0
 20
3544.5
 30
0.0
 11
2925.0
 21
3544.5
 31
0.0
  0
TEXT
  5
22E
100
AcDbEntity
  8
化粧台
  6
CONTINUOUS
 62
     2
100
AcDbText
 10
2816.25
 20
3555.75
 30
0.0
 40
60.0
  1
２
 41
0.945
  7
EXCADSTD
 72
     5
 11
2870.25
 21
3555.75
 31
0.0
100
AcDbText
  0
LINE
  5
22F
100
AcDbEntity
  8
化粧台
  6
CONTINUOUS
 62
     6
100
AcDbLine
 10
1875.0
 20
3627.0
 30
0.0
 11
2925.0
 21
3627.0
 31
0.0
  0
LINE
  5
230
100
AcDbEntity
  8
化粧台
  6
CONTINUOUS
 62
     6
100
AcDbLine
 10
1875.0
 20
3544.5
 30
0.0
 11
1875.0
 21
3709.5
 31
0.0
  0
LINE
  5
231
100
AcDbEntity
  8
化粧台
  6
CONTINUOUS
 62
     6
100
AcDbLine
 10
2325.0
 20
3544.5
 30
0.0
 11
2325.0
 21
3709.5
 31
0.0
  0
LINE
  5
232
100
AcDbEntity
  8
化粧台
  6
CONTINUOUS
 62
     6
100
AcDbLine
 10
2775.0
 20
3544.5
 30
0.0
 11
2775.0
 21
3709.5
 31
0.0
  0
LINE
  5
233
100
AcDbEntity
  8
化粧台
  6
CONTINUOUS
 62
     6
100
AcDbLine
 10
2925.0
 20
3544.5
 30
0.0
 11
2925.0
 21
3709.5
 31
0.0
  0
TEXT
  5
234
100
AcDbEntity
  8
化粧台
  6
CONTINUOUS
 62
     2
100
AcDbText
 10
2816.25
 20
3638.25
 30
0.0
 40
60.0
  1
２
 41
0.945
  7
EXCADSTD
 72
     5
 11
2870.25
 21
3638.25
 31
0.0
100
AcDbText
  0
TEXT
  5
235
100
AcDbEntity
  8
化粧台
  6
CONTINUOUS
 62
     2
100
AcDbText
 10
1890.0
 20
3720.75
 30
0.0
 40
60.0
  1
止水栓手配品番（ストレート形の場合）
 41
0.681333
  7
EXCADSTD
 72
     5
 11
2765.999997
 21
3720.75
 31
0.0
100
AcDbText
  0
TEXT
  5
236
100
AcDbEntity
  8
化粧台
  6
CONTINUOUS
 62
     2
100
AcDbText
 10
1890.0
 20
3555.75
 30
0.0
 40
60.0
  1
ＮＬ２１１-３３０ＷＭＹ
 41
0.518222
  7
EXCADSTD
 72
     5
 11
2327.24999
 21
3555.75
 31
0.0
100
AcDbText
  0
TEXT
  5
237
100
AcDbEntity
  8
化粧台
  6
CONTINUOUS
 62
     2
100
AcDbText
 10
2340.0
 20
3555.75
 30
0.0
 40
60.0
  1
ストレート形止水栓（共用形）
 41
0.435
  7
EXCADSTD
 72
     5
 11
2775.00005
 21
3555.75
 31
0.0
100
AcDbText
  0
TEXT
  5
238
100
AcDbEntity
  8
化粧台
  6
CONTINUOUS
 62
     2
100
AcDbText
 10
2340.0
 20
3638.25
 30
0.0
 40
60.0
  1
フレキシブルパイプ
 41
0.648667
  7
EXCADSTD
 72
     5
 11
2756.999992
 21
3638.25
 31
0.0
100
AcDbText
  0
POLYLINE
  5
239
100
AcDbEntity
  8
化粧台
  6
EXLTYPE2
 62
     6
100
AcDb2dPolyline
 66
     1
 10
0.0
 20
0.0
 30
0.0
 70
   128
  0
VERTEX
  5
23A
100
AcDbEntity
  8
化粧台
  6
EXLTYPE2
 62
     6
100
AcDbVertex
100
AcDb2dVertex
 10
935.843666
 20
1353.183096
 30
0.0
  0
VERTEX
  5
23B
100
AcDbEntity
  8
化粧台
  6
EXLTYPE2
 62
     6
100
AcDbVertex
100
AcDb2dVertex
 10
937.5
 20
1352.0
 30
0.0
  0
VERTEX
  5
23C
100
AcDbEntity
  8
化粧台
  6
EXLTYPE2
 62
     6
100
AcDbVertex
100
AcDb2dVertex
 10
934.0
 20
1349.5
 30
0.0
  0
VERTEX
  5
23D
100
AcDbEntity
  8
化粧台
  6
EXLTYPE2
 62
     6
100
AcDbVertex
100
AcDb2dVertex
 10
937.5
 20
1347.0
 30
0.0
  0
VERTEX
  5
23E
100
AcDbEntity
  8
化粧台
  6
EXLTYPE2
 62
     6
100
AcDbVertex
100
AcDb2dVertex
 10
934.0
 20
1344.5
 30
0.0
  0
VERTEX
  5
23F
100
AcDbEntity
  8
化粧台
  6
EXLTYPE2
 62
     6
100
AcDbVertex
100
AcDb2dVertex
 10
937.5
 20
1342.0
 30
0.0
  0
VERTEX
  5
240
100
AcDbEntity
  8
化粧台
  6
EXLTYPE2
 62
     6
100
AcDbVertex
100
AcDb2dVertex
 10
934.0
 20
1339.5
 30
0.0
  0
VERTEX
  5
241
100
AcDbEntity
  8
化粧台
  6
EXLTYPE2
 62
     6
100
AcDbVertex
100
AcDb2dVertex
 10
937.5
 20
1337.0
 30
0.0
  0
VERTEX
  5
242
100
AcDbEntity
  8
化粧台
  6
EXLTYPE2
 62
     6
100
AcDbVertex
100
AcDb2dVertex
 10
934.0
 20
1334.5
 30
0.0
  0
VERTEX
  5
243
100
AcDbEntity
  8
化粧台
  6
EXLTYPE2
 62
     6
100
AcDbVertex
100
AcDb2dVertex
 10
937.5
 20
1332.0
 30
0.0
  0
VERTEX
  5
244
100
AcDbEntity
  8
化粧台
  6
EXLTYPE2
 62
     6
100
AcDbVertex
100
AcDb2dVertex
 10
934.0
 20
1329.5
 30
0.0
  0
VERTEX
  5
245
100
AcDbEntity
  8
化粧台
  6
EXLTYPE2
 62
     6
100
AcDbVertex
100
AcDb2dVertex
 10
937.5
 20
1327.0
 30
0.0
  0
VERTEX
  5
246
100
AcDbEntity
  8
化粧台
  6
EXLTYPE2
 62
     6
100
AcDbVertex
100
AcDb2dVertex
 10
934.0
 20
1324.5
 30
0.0
  0
VERTEX
  5
247
100
AcDbEntity
  8
化粧台
  6
EXLTYPE2
 62
     6
100
AcDbVertex
100
AcDb2dVertex
 10
937.5
 20
1322.0
 30
0.0
  0
VERTEX
  5
248
100
AcDbEntity
  8
化粧台
  6
EXLTYPE2
 62
     6
100
AcDbVertex
100
AcDb2dVertex
 10
934.0
 20
1319.5
 30
0.0
  0
VERTEX
  5
249
100
AcDbEntity
  8
化粧台
  6
EXLTYPE2
 62
     6
100
AcDbVertex
100
AcDb2dVertex
 10
937.5
 20
1317.0
 30
0.0
  0
VERTEX
  5
24A
100
AcDbEntity
  8
化粧台
  6
EXLTYPE2
 62
     6
100
AcDbVertex
100
AcDb2dVertex
 10
934.0
 20
1314.5
 30
0.0
  0
VERTEX
  5
24B
100
AcDbEntity
  8
化粧台
  6
EXLTYPE2
 62
     6
100
AcDbVertex
100
AcDb2dVertex
 10
937.5
 20
1312.0
 30
0.0
  0
VERTEX
  5
24C
100
AcDbEntity
  8
化粧台
  6
EXLTYPE2
 62
     6
100
AcDbVertex
100
AcDb2dVertex
 10
934.0
 20
1309.5
 30
0.0
  0
VERTEX
  5
24D
100
AcDbEntity
  8
化粧台
  6
EXLTYPE2
 62
     6
100
AcDbVertex
100
AcDb2dVertex
 10
937.5
 20
1307.0
 30
0.0
  0
VERTEX
  5
24E
100
AcDbEntity
  8
化粧台
  6
EXLTYPE2
 62
     6
100
AcDbVertex
100
AcDb2dVertex
 10
934.0
 20
1304.5
 30
0.0
  0
VERTEX
  5
24F
100
AcDbEntity
  8
化粧台
  6
EXLTYPE2
 62
     6
100
AcDbVertex
100
AcDb2dVertex
 10
937.5
 20
1302.0
 30
0.0
  0
VERTEX
  5
250
100
AcDbEntity
  8
化粧台
  6
EXLTYPE2
 62
     6
100
AcDbVertex
100
AcDb2dVertex
 10
934.0
 20
1299.5
 30
0.0
  0
VERTEX
  5
251
100
AcDbEntity
  8
化粧台
  6
EXLTYPE2
 62
     6
100
AcDbVertex
100
AcDb2dVertex
 10
937.5
 20
1297.0
 30
0.0
  0
VERTEX
  5
252
100
AcDbEntity
  8
化粧台
  6
EXLTYPE2
 62
     6
100
AcDbVertex
100
AcDb2dVertex
 10
934.0
 20
1294.5
 30
0.0
  0
VERTEX
  5
253
100
AcDbEntity
  8
化粧台
  6
EXLTYPE2
 62
     6
100
AcDbVertex
100
AcDb2dVertex
 10
937.5
 20
1292.0
 30
0.0
  0
VERTEX
  5
254
100
AcDbEntity
  8
化粧台
  6
EXLTYPE2
 62
     6
100
AcDbVertex
100
AcDb2dVertex
 10
934.0
 20
1289.5
 30
0.0
  0
VERTEX
  5
255
100
AcDbEntity
  8
化粧台
  6
EXLTYPE2
 62
     6
100
AcDbVertex
100
AcDb2dVertex
 10
937.5
 20
1287.0
 30
0.0
  0
VERTEX
  5
256
100
AcDbEntity
  8
化粧台
  6
EXLTYPE2
 62
     6
100
AcDbVertex
100
AcDb2dVertex
 10
934.0
 20
1284.5
 30
0.0
  0
VERTEX
  5
257
100
AcDbEntity
  8
化粧台
  6
EXLTYPE2
 62
     6
100
AcDbVertex
100
AcDb2dVertex
 10
937.5
 20
1282.0
 30
0.0
  0
VERTEX
  5
258
100
AcDbEntity
  8
化粧台
  6
EXLTYPE2
 62
     6
100
AcDbVertex
100
AcDb2dVertex
 10
934.0
 20
1279.5
 30
0.0
  0
VERTEX
  5
259
100
AcDbEntity
  8
化粧台
  6
EXLTYPE2
 62
     6
100
AcDbVertex
100
AcDb2dVertex
 10
937.5
 20
1277.0
 30
0.0
  0
VERTEX
  5
25A
100
AcDbEntity
  8
化粧台
  6
EXLTYPE2
 62
     6
100
AcDbVertex
100
AcDb2dVertex
 10
934.0
 20
1274.5
 30
0.0
  0
VERTEX
  5
25B
100
AcDbEntity
  8
化粧台
  6
EXLTYPE2
 62
     6
100
AcDbVertex
100
AcDb2dVertex
 10
937.5
 20
1272.0
 30
0.0
  0
VERTEX
  5
25C
100
AcDbEntity
  8
化粧台
  6
EXLTYPE2
 62
     6
100
AcDbVertex
100
AcDb2dVertex
 10
934.0
 20
1269.5
 30
0.0
  0
VERTEX
  5
25D
100
AcDbEntity
  8
化粧台
  6
EXLTYPE2
 62
     6
100
AcDbVertex
100
AcDb2dVertex
 10
937.5
 20
1267.0
 30
0.0
  0
VERTEX
  5
25E
100
AcDbEntity
  8
化粧台
  6
EXLTYPE2
 62
     6
100
AcDbVertex
100
AcDb2dVertex
 10
934.0
 20
1264.5
 30
0.0
  0
VERTEX
  5
25F
100
AcDbEntity
  8
化粧台
  6
EXLTYPE2
 62
     6
100
AcDbVertex
100
AcDb2dVertex
 10
937.5
 20
1262.0
 30
0.0
  0
VERTEX
  5
260
100
AcDbEntity
  8
化粧台
  6
EXLTYPE2
 62
     6
100
AcDbVertex
100
AcDb2dVertex
 10
934.0
 20
1259.5
 30
0.0
  0
VERTEX
  5
261
100
AcDbEntity
  8
化粧台
  6
EXLTYPE2
 62
     6
100
AcDbVertex
100
AcDb2dVertex
 10
937.5
 20
1257.0
 30
0.0
  0
VERTEX
  5
262
100
AcDbEntity
  8
化粧台
  6
EXLTYPE2
 62
     6
100
AcDbVertex
100
AcDb2dVertex
 10
934.0
 20
1254.5
 30
0.0
  0
VERTEX
  5
263
100
AcDbEntity
  8
化粧台
  6
EXLTYPE2
 62
     6
100
AcDbVertex
100
AcDb2dVertex
 10
937.5
 20
1252.0
 30
0.0
  0
VERTEX
  5
264
100
AcDbEntity
  8
化粧台
  6
EXLTYPE2
 62
     6
100
AcDbVertex
100
AcDb2dVertex
 10
934.0
 20
1249.5
 30
0.0
  0
VERTEX
  5
265
100
AcDbEntity
  8
化粧台
  6
EXLTYPE2
 62
     6
100
AcDbVertex
100
AcDb2dVertex
 10
937.5
 20
1247.0
 30
0.0
  0
VERTEX
  5
266
100
AcDbEntity
  8
化粧台
  6
EXLTYPE2
 62
     6
100
AcDbVertex
100
AcDb2dVertex
 10
934.0
 20
1244.5
 30
0.0
  0
VERTEX
  5
267
100
AcDbEntity
  8
化粧台
  6
EXLTYPE2
 62
     6
100
AcDbVertex
100
AcDb2dVertex
 10
937.5
 20
1242.0
 30
0.0
  0
VERTEX
  5
268
100
AcDbEntity
  8
化粧台
  6
EXLTYPE2
 62
     6
100
AcDbVertex
100
AcDb2dVertex
 10
934.0
 20
1239.5
 30
0.0
  0
VERTEX
  5
269
100
AcDbEntity
  8
化粧台
  6
EXLTYPE2
 62
     6
100
AcDbVertex
100
AcDb2dVertex
 10
937.5
 20
1237.0
 30
0.0
  0
VERTEX
  5
26A
100
AcDbEntity
  8
化粧台
  6
EXLTYPE2
 62
     6
100
AcDbVertex
100
AcDb2dVertex
 10
934.0
 20
1234.5
 30
0.0
  0
VERTEX
  5
26B
100
AcDbEntity
  8
化粧台
  6
EXLTYPE2
 62
     6
100
AcDbVertex
100
AcDb2dVertex
 10
937.5
 20
1232.0
 30
0.0
  0
VERTEX
  5
26C
100
AcDbEntity
  8
化粧台
  6
EXLTYPE2
 62
     6
100
AcDbVertex
100
AcDb2dVertex
 10
934.0
 20
1229.5
 30
0.0
  0
VERTEX
  5
26D
100
AcDbEntity
  8
化粧台
  6
EXLTYPE2
 62
     6
100
AcDbVertex
100
AcDb2dVertex
 10
937.5
 20
1227.0
 30
0.0
  0
VERTEX
  5
26E
100
AcDbEntity
  8
化粧台
  6
EXLTYPE2
 62
     6
100
AcDbVertex
100
AcDb2dVertex
 10
934.0
 20
1224.5
 30
0.0
  0
VERTEX
  5
26F
100
AcDbEntity
  8
化粧台
  6
EXLTYPE2
 62
     6
100
AcDbVertex
100
AcDb2dVertex
 10
937.5
 20
1222.0
 30
0.0
  0
VERTEX
  5
270
100
AcDbEntity
  8
化粧台
  6
EXLTYPE2
 62
     6
100
AcDbVertex
100
AcDb2dVertex
 10
934.0
 20
1219.5
 30
0.0
  0
VERTEX
  5
271
100
AcDbEntity
  8
化粧台
  6
EXLTYPE2
 62
     6
100
AcDbVertex
100
AcDb2dVertex
 10
937.5
 20
1217.0
 30
0.0
  0
VERTEX
  5
272
100
AcDbEntity
  8
化粧台
  6
EXLTYPE2
 62
     6
100
AcDbVertex
100
AcDb2dVertex
 10
934.0
 20
1214.5
 30
0.0
  0
VERTEX
  5
273
100
AcDbEntity
  8
化粧台
  6
EXLTYPE2
 62
     6
100
AcDbVertex
100
AcDb2dVertex
 10
937.5
 20
1212.0
 30
0.0
  0
VERTEX
  5
274
100
AcDbEntity
  8
化粧台
  6
EXLTYPE2
 62
     6
100
AcDbVertex
100
AcDb2dVertex
 10
934.0
 20
1209.5
 30
0.0
  0
VERTEX
  5
275
100
AcDbEntity
  8
化粧台
  6
EXLTYPE2
 62
     6
100
AcDbVertex
100
AcDb2dVertex
 10
937.5
 20
1207.0
 30
0.0
  0
VERTEX
  5
276
100
AcDbEntity
  8
化粧台
  6
EXLTYPE2
 62
     6
100
AcDbVertex
100
AcDb2dVertex
 10
934.0
 20
1204.5
 30
0.0
  0
VERTEX
  5
277
100
AcDbEntity
  8
化粧台
  6
EXLTYPE2
 62
     6
100
AcDbVertex
100
AcDb2dVertex
 10
937.5
 20
1202.0
 30
0.0
  0
VERTEX
  5
278
100
AcDbEntity
  8
化粧台
  6
EXLTYPE2
 62
     6
100
AcDbVertex
100
AcDb2dVertex
 10
934.0
 20
1199.5
 30
0.0
  0
VERTEX
  5
279
100
AcDbEntity
  8
化粧台
  6
EXLTYPE2
 62
     6
100
AcDbVertex
100
AcDb2dVertex
 10
937.5
 20
1197.0
 30
0.0
  0
VERTEX
  5
27A
100
AcDbEntity
  8
化粧台
  6
EXLTYPE2
 62
     6
100
AcDbVertex
100
AcDb2dVertex
 10
934.0
 20
1194.5
 30
0.0
  0
VERTEX
  5
27B
100
AcDbEntity
  8
化粧台
  6
EXLTYPE2
 62
     6
100
AcDbVertex
100
AcDb2dVertex
 10
937.5
 20
1192.0
 30
0.0
  0
VERTEX
  5
27C
100
AcDbEntity
  8
化粧台
  6
EXLTYPE2
 62
     6
100
AcDbVertex
100
AcDb2dVertex
 10
934.0
 20
1189.5
 30
0.0
  0
VERTEX
  5
27D
100
AcDbEntity
  8
化粧台
  6
EXLTYPE2
 62
     6
100
AcDbVertex
100
AcDb2dVertex
 10
937.5
 20
1187.0
 30
0.0
  0
VERTEX
  5
27E
100
AcDbEntity
  8
化粧台
  6
EXLTYPE2
 62
     6
100
AcDbVertex
100
AcDb2dVertex
 10
934.0
 20
1184.5
 30
0.0
  0
VERTEX
  5
27F
100
AcDbEntity
  8
化粧台
  6
EXLTYPE2
 62
     6
100
AcDbVertex
100
AcDb2dVertex
 10
937.5
 20
1182.0
 30
0.0
  0
VERTEX
  5
280
100
AcDbEntity
  8
化粧台
  6
EXLTYPE2
 62
     6
100
AcDbVertex
100
AcDb2dVertex
 10
934.0
 20
1179.5
 30
0.0
  0
VERTEX
  5
281
100
AcDbEntity
  8
化粧台
  6
EXLTYPE2
 62
     6
100
AcDbVertex
100
AcDb2dVertex
 10
937.5
 20
1177.0
 30
0.0
  0
VERTEX
  5
282
100
AcDbEntity
  8
化粧台
  6
EXLTYPE2
 62
     6
100
AcDbVertex
100
AcDb2dVertex
 10
934.0
 20
1174.5
 30
0.0
  0
VERTEX
  5
283
100
AcDbEntity
  8
化粧台
  6
EXLTYPE2
 62
     6
100
AcDbVertex
100
AcDb2dVertex
 10
937.5
 20
1172.0
 30
0.0
  0
VERTEX
  5
284
100
AcDbEntity
  8
化粧台
  6
EXLTYPE2
 62
     6
100
AcDbVertex
100
AcDb2dVertex
 10
934.0
 20
1169.5
 30
0.0
  0
VERTEX
  5
285
100
AcDbEntity
  8
化粧台
  6
EXLTYPE2
 62
     6
100
AcDbVertex
100
AcDb2dVertex
 10
937.5
 20
1167.0
 30
0.0
  0
VERTEX
  5
286
100
AcDbEntity
  8
化粧台
  6
EXLTYPE2
 62
     6
100
AcDbVertex
100
AcDb2dVertex
 10
934.0
 20
1164.5
 30
0.0
  0
VERTEX
  5
287
100
AcDbEntity
  8
化粧台
  6
EXLTYPE2
 62
     6
100
AcDbVertex
100
AcDb2dVertex
 10
937.5
 20
1162.0
 30
0.0
  0
VERTEX
  5
288
100
AcDbEntity
  8
化粧台
  6
EXLTYPE2
 62
     6
100
AcDbVertex
100
AcDb2dVertex
 10
934.0
 20
1159.5
 30
0.0
  0
VERTEX
  5
289
100
AcDbEntity
  8
化粧台
  6
EXLTYPE2
 62
     6
100
AcDbVertex
100
AcDb2dVertex
 10
937.5
 20
1157.0
 30
0.0
  0
VERTEX
  5
28A
100
AcDbEntity
  8
化粧台
  6
EXLTYPE2
 62
     6
100
AcDbVertex
100
AcDb2dVertex
 10
934.0
 20
1154.5
 30
0.0
  0
VERTEX
  5
28B
100
AcDbEntity
  8
化粧台
  6
EXLTYPE2
 62
     6
100
AcDbVertex
100
AcDb2dVertex
 10
937.5
 20
1152.0
 30
0.0
  0
VERTEX
  5
28C
100
AcDbEntity
  8
化粧台
  6
EXLTYPE2
 62
     6
100
AcDbVertex
100
AcDb2dVertex
 10
934.0
 20
1149.5
 30
0.0
  0
VERTEX
  5
28D
100
AcDbEntity
  8
化粧台
  6
EXLTYPE2
 62
     6
100
AcDbVertex
100
AcDb2dVertex
 10
937.5
 20
1147.0
 30
0.0
  0
VERTEX
  5
28E
100
AcDbEntity
  8
化粧台
  6
EXLTYPE2
 62
     6
100
AcDbVertex
100
AcDb2dVertex
 10
934.0
 20
1144.5
 30
0.0
  0
VERTEX
  5
28F
100
AcDbEntity
  8
化粧台
  6
EXLTYPE2
 62
     6
100
AcDbVertex
100
AcDb2dVertex
 10
937.5
 20
1142.0
 30
0.0
  0
VERTEX
  5
290
100
AcDbEntity
  8
化粧台
  6
EXLTYPE2
 62
     6
100
AcDbVertex
100
AcDb2dVertex
 10
934.0
 20
1139.5
 30
0.0
  0
VERTEX
  5
291
100
AcDbEntity
  8
化粧台
  6
EXLTYPE2
 62
     6
100
AcDbVertex
100
AcDb2dVertex
 10
937.5
 20
1137.0
 30
0.0
  0
VERTEX
  5
292
100
AcDbEntity
  8
化粧台
  6
EXLTYPE2
 62
     6
100
AcDbVertex
100
AcDb2dVertex
 10
934.0
 20
1134.5
 30
0.0
  0
VERTEX
  5
293
100
AcDbEntity
  8
化粧台
  6
EXLTYPE2
 62
     6
100
AcDbVertex
100
AcDb2dVertex
 10
937.5
 20
1132.0
 30
0.0
  0
VERTEX
  5
294
100
AcDbEntity
  8
化粧台
  6
EXLTYPE2
 62
     6
100
AcDbVertex
100
AcDb2dVertex
 10
934.0
 20
1129.5
 30
0.0
  0
VERTEX
  5
295
100
AcDbEntity
  8
化粧台
  6
EXLTYPE2
 62
     6
100
AcDbVertex
100
AcDb2dVertex
 10
937.5
 20
1127.0
 30
0.0
  0
VERTEX
  5
296
100
AcDbEntity
  8
化粧台
  6
EXLTYPE2
 62
     6
100
AcDbVertex
100
AcDb2dVertex
 10
934.0
 20
1124.5
 30
0.0
  0
VERTEX
  5
297
100
AcDbEntity
  8
化粧台
  6
EXLTYPE2
 62
     6
100
AcDbVertex
100
AcDb2dVertex
 10
937.5
 20
1122.0
 30
0.0
  0
VERTEX
  5
298
100
AcDbEntity
  8
化粧台
  6
EXLTYPE2
 62
     6
100
AcDbVertex
100
AcDb2dVertex
 10
934.0
 20
1119.5
 30
0.0
  0
VERTEX
  5
299
100
AcDbEntity
  8
化粧台
  6
EXLTYPE2
 62
     6
100
AcDbVertex
100
AcDb2dVertex
 10
937.5
 20
1117.0
 30
0.0
  0
VERTEX
  5
29A
100
AcDbEntity
  8
化粧台
  6
EXLTYPE2
 62
     6
100
AcDbVertex
100
AcDb2dVertex
 10
934.0
 20
1114.5
 30
0.0
  0
VERTEX
  5
29B
100
AcDbEntity
  8
化粧台
  6
EXLTYPE2
 62
     6
100
AcDbVertex
100
AcDb2dVertex
 10
937.5
 20
1112.0
 30
0.0
  0
VERTEX
  5
29C
100
AcDbEntity
  8
化粧台
  6
EXLTYPE2
 62
     6
100
AcDbVertex
100
AcDb2dVertex
 10
934.0
 20
1109.5
 30
0.0
  0
VERTEX
  5
29D
100
AcDbEntity
  8
化粧台
  6
EXLTYPE2
 62
     6
100
AcDbVertex
100
AcDb2dVertex
 10
937.5
 20
1107.0
 30
0.0
  0
VERTEX
  5
29E
100
AcDbEntity
  8
化粧台
  6
EXLTYPE2
 62
     6
100
AcDbVertex
100
AcDb2dVertex
 10
934.0
 20
1104.5
 30
0.0
  0
VERTEX
  5
29F
100
AcDbEntity
  8
化粧台
  6
EXLTYPE2
 62
     6
100
AcDbVertex
100
AcDb2dVertex
 10
937.5
 20
1102.0
 30
0.0
  0
VERTEX
  5
2A0
100
AcDbEntity
  8
化粧台
  6
EXLTYPE2
 62
     6
100
AcDbVertex
100
AcDb2dVertex
 10
934.0
 20
1099.5
 30
0.0
  0
VERTEX
  5
2A1
100
AcDbEntity
  8
化粧台
  6
EXLTYPE2
 62
     6
100
AcDbVertex
100
AcDb2dVertex
 10
937.5
 20
1097.0
 30
0.0
  0
VERTEX
  5
2A2
100
AcDbEntity
  8
化粧台
  6
EXLTYPE2
 62
     6
100
AcDbVertex
100
AcDb2dVertex
 10
934.0
 20
1094.5
 30
0.0
  0
VERTEX
  5
2A3
100
AcDbEntity
  8
化粧台
  6
EXLTYPE2
 62
     6
100
AcDbVertex
100
AcDb2dVertex
 10
937.5
 20
1092.0
 30
0.0
  0
VERTEX
  5
2A4
100
AcDbEntity
  8
化粧台
  6
EXLTYPE2
 62
     6
100
AcDbVertex
100
AcDb2dVertex
 10
934.0
 20
1089.5
 30
0.0
  0
VERTEX
  5
2A5
100
AcDbEntity
  8
化粧台
  6
EXLTYPE2
 62
     6
100
AcDbVertex
100
AcDb2dVertex
 10
937.5
 20
1087.0
 30
0.0
  0
VERTEX
  5
2A6
100
AcDbEntity
  8
化粧台
  6
EXLTYPE2
 62
     6
100
AcDbVertex
100
AcDb2dVertex
 10
934.0
 20
1084.5
 30
0.0
  0
VERTEX
  5
2A7
100
AcDbEntity
  8
化粧台
  6
EXLTYPE2
 62
     6
100
AcDbVertex
100
AcDb2dVertex
 10
937.5
 20
1082.0
 30
0.0
  0
VERTEX
  5
2A8
100
AcDbEntity
  8
化粧台
  6
EXLTYPE2
 62
     6
100
AcDbVertex
100
AcDb2dVertex
 10
934.0
 20
1079.5
 30
0.0
  0
VERTEX
  5
2A9
100
AcDbEntity
  8
化粧台
  6
EXLTYPE2
 62
     6
100
AcDbVertex
100
AcDb2dVertex
 10
937.5
 20
1077.0
 30
0.0
  0
VERTEX
  5
2AA
100
AcDbEntity
  8
化粧台
  6
EXLTYPE2
 62
     6
100
AcDbVertex
100
AcDb2dVertex
 10
934.0
 20
1074.5
 30
0.0
  0
VERTEX
  5
2AB
100
AcDbEntity
  8
化粧台
  6
EXLTYPE2
 62
     6
100
AcDbVertex
100
AcDb2dVertex
 10
937.5
 20
1072.0
 30
0.0
  0
VERTEX
  5
2AC
100
AcDbEntity
  8
化粧台
  6
EXLTYPE2
 62
     6
100
AcDbVertex
100
AcDb2dVertex
 10
934.0
 20
1069.5
 30
0.0
  0
VERTEX
  5
2AD
100
AcDbEntity
  8
化粧台
  6
EXLTYPE2
 62
     6
100
AcDbVertex
100
AcDb2dVertex
 10
937.5
 20
1067.0
 30
0.0
  0
VERTEX
  5
2AE
100
AcDbEntity
  8
化粧台
  6
EXLTYPE2
 62
     6
100
AcDbVertex
100
AcDb2dVertex
 10
934.0
 20
1064.5
 30
0.0
  0
VERTEX
  5
2AF
100
AcDbEntity
  8
化粧台
  6
EXLTYPE2
 62
     6
100
AcDbVertex
100
AcDb2dVertex
 10
937.5
 20
1062.0
 30
0.0
  0
VERTEX
  5
2B0
100
AcDbEntity
  8
化粧台
  6
EXLTYPE2
 62
     6
100
AcDbVertex
100
AcDb2dVertex
 10
934.0
 20
1059.5
 30
0.0
  0
VERTEX
  5
2B1
100
AcDbEntity
  8
化粧台
  6
EXLTYPE2
 62
     6
100
AcDbVertex
100
AcDb2dVertex
 10
937.5
 20
1057.0
 30
0.0
  0
VERTEX
  5
2B2
100
AcDbEntity
  8
化粧台
  6
EXLTYPE2
 62
     6
100
AcDbVertex
100
AcDb2dVertex
 10
934.0
 20
1054.5
 30
0.0
  0
VERTEX
  5
2B3
100
AcDbEntity
  8
化粧台
  6
EXLTYPE2
 62
     6
100
AcDbVertex
100
AcDb2dVertex
 10
937.5
 20
1052.0
 30
0.0
  0
VERTEX
  5
2B4
100
AcDbEntity
  8
化粧台
  6
EXLTYPE2
 62
     6
100
AcDbVertex
100
AcDb2dVertex
 10
934.0
 20
1049.5
 30
0.0
  0
VERTEX
  5
2B5
100
AcDbEntity
  8
化粧台
  6
EXLTYPE2
 62
     6
100
AcDbVertex
100
AcDb2dVertex
 10
937.5
 20
1047.0
 30
0.0
  0
VERTEX
  5
2B6
100
AcDbEntity
  8
化粧台
  6
EXLTYPE2
 62
     6
100
AcDbVertex
100
AcDb2dVertex
 10
934.0
 20
1044.5
 30
0.0
  0
VERTEX
  5
2B7
100
AcDbEntity
  8
化粧台
  6
EXLTYPE2
 62
     6
100
AcDbVertex
100
AcDb2dVertex
 10
937.5
 20
1042.0
 30
0.0
  0
VERTEX
  5
2B8
100
AcDbEntity
  8
化粧台
  6
EXLTYPE2
 62
     6
100
AcDbVertex
100
AcDb2dVertex
 10
934.0
 20
1039.5
 30
0.0
  0
VERTEX
  5
2B9
100
AcDbEntity
  8
化粧台
  6
EXLTYPE2
 62
     6
100
AcDbVertex
100
AcDb2dVertex
 10
937.5
 20
1037.0
 30
0.0
  0
VERTEX
  5
2BA
100
AcDbEntity
  8
化粧台
  6
EXLTYPE2
 62
     6
100
AcDbVertex
100
AcDb2dVertex
 10
934.0
 20
1034.5
 30
0.0
  0
VERTEX
  5
2BB
100
AcDbEntity
  8
化粧台
  6
EXLTYPE2
 62
     6
100
AcDbVertex
100
AcDb2dVertex
 10
937.5
 20
1032.0
 30
0.0
  0
VERTEX
  5
2BC
100
AcDbEntity
  8
化粧台
  6
EXLTYPE2
 62
     6
100
AcDbVertex
100
AcDb2dVertex
 10
934.0
 20
1029.5
 30
0.0
  0
VERTEX
  5
2BD
100
AcDbEntity
  8
化粧台
  6
EXLTYPE2
 62
     6
100
AcDbVertex
100
AcDb2dVertex
 10
937.5
 20
1027.0
 30
0.0
  0
VERTEX
  5
2BE
100
AcDbEntity
  8
化粧台
  6
EXLTYPE2
 62
     6
100
AcDbVertex
100
AcDb2dVertex
 10
934.0
 20
1024.5
 30
0.0
  0
VERTEX
  5
2BF
100
AcDbEntity
  8
化粧台
  6
EXLTYPE2
 62
     6
100
AcDbVertex
100
AcDb2dVertex
 10
937.5
 20
1022.0
 30
0.0
  0
VERTEX
  5
2C0
100
AcDbEntity
  8
化粧台
  6
EXLTYPE2
 62
     6
100
AcDbVertex
100
AcDb2dVertex
 10
934.0
 20
1019.5
 30
0.0
  0
VERTEX
  5
2C1
100
AcDbEntity
  8
化粧台
  6
EXLTYPE2
 62
     6
100
AcDbVertex
100
AcDb2dVertex
 10
937.5
 20
1017.0
 30
0.0
  0
VERTEX
  5
2C2
100
AcDbEntity
  8
化粧台
  6
EXLTYPE2
 62
     6
100
AcDbVertex
100
AcDb2dVertex
 10
934.0
 20
1014.5
 30
0.0
  0
VERTEX
  5
2C3
100
AcDbEntity
  8
化粧台
  6
EXLTYPE2
 62
     6
100
AcDbVertex
100
AcDb2dVertex
 10
937.5
 20
1012.0
 30
0.0
  0
VERTEX
  5
2C4
100
AcDbEntity
  8
化粧台
  6
EXLTYPE2
 62
     6
100
AcDbVertex
100
AcDb2dVertex
 10
934.0
 20
1009.5
 30
0.0
  0
VERTEX
  5
2C5
100
AcDbEntity
  8
化粧台
  6
EXLTYPE2
 62
     6
100
AcDbVertex
100
AcDb2dVertex
 10
937.5
 20
1007.0
 30
0.0
  0
VERTEX
  5
2C6
100
AcDbEntity
  8
化粧台
  6
EXLTYPE2
 62
     6
100
AcDbVertex
100
AcDb2dVertex
 10
934.0
 20
1004.5
 30
0.0
  0
VERTEX
  5
2C7
100
AcDbEntity
  8
化粧台
  6
EXLTYPE2
 62
     6
100
AcDbVertex
100
AcDb2dVertex
 10
937.5
 20
1002.0
 30
0.0
  0
VERTEX
  5
2C8
100
AcDbEntity
  8
化粧台
  6
EXLTYPE2
 62
     6
100
AcDbVertex
100
AcDb2dVertex
 10
934.0
 20
999.5
 30
0.0
  0
VERTEX
  5
2C9
100
AcDbEntity
  8
化粧台
  6
EXLTYPE2
 62
     6
100
AcDbVertex
100
AcDb2dVertex
 10
937.5
 20
997.0
 30
0.0
  0
VERTEX
  5
2CA
100
AcDbEntity
  8
化粧台
  6
EXLTYPE2
 62
     6
100
AcDbVertex
100
AcDb2dVertex
 10
934.0
 20
994.5
 30
0.0
  0
VERTEX
  5
2CB
100
AcDbEntity
  8
化粧台
  6
EXLTYPE2
 62
     6
100
AcDbVertex
100
AcDb2dVertex
 10
937.5
 20
992.0
 30
0.0
  0
VERTEX
  5
2CC
100
AcDbEntity
  8
化粧台
  6
EXLTYPE2
 62
     6
100
AcDbVertex
100
AcDb2dVertex
 10
934.0
 20
989.5
 30
0.0
  0
VERTEX
  5
2CD
100
AcDbEntity
  8
化粧台
  6
EXLTYPE2
 62
     6
100
AcDbVertex
100
AcDb2dVertex
 10
937.5
 20
987.0
 30
0.0
  0
VERTEX
  5
2CE
100
AcDbEntity
  8
化粧台
  6
EXLTYPE2
 62
     6
100
AcDbVertex
100
AcDb2dVertex
 10
934.0
 20
984.5
 30
0.0
  0
VERTEX
  5
2CF
100
AcDbEntity
  8
化粧台
  6
EXLTYPE2
 62
     6
100
AcDbVertex
100
AcDb2dVertex
 10
937.5
 20
982.0
 30
0.0
  0
VERTEX
  5
2D0
100
AcDbEntity
  8
化粧台
  6
EXLTYPE2
 62
     6
100
AcDbVertex
100
AcDb2dVertex
 10
934.0
 20
979.5
 30
0.0
  0
VERTEX
  5
2D1
100
AcDbEntity
  8
化粧台
  6
EXLTYPE2
 62
     6
100
AcDbVertex
100
AcDb2dVertex
 10
937.5
 20
977.0
 30
0.0
  0
VERTEX
  5
2D2
100
AcDbEntity
  8
化粧台
  6
EXLTYPE2
 62
     6
100
AcDbVertex
100
AcDb2dVertex
 10
934.0
 20
974.5
 30
0.0
  0
VERTEX
  5
2D3
100
AcDbEntity
  8
化粧台
  6
EXLTYPE2
 62
     6
100
AcDbVertex
100
AcDb2dVertex
 10
937.5
 20
972.0
 30
0.0
  0
VERTEX
  5
2D4
100
AcDbEntity
  8
化粧台
  6
EXLTYPE2
 62
     6
100
AcDbVertex
100
AcDb2dVertex
 10
934.0
 20
969.5
 30
0.0
  0
VERTEX
  5
2D5
100
AcDbEntity
  8
化粧台
  6
EXLTYPE2
 62
     6
100
AcDbVertex
100
AcDb2dVertex
 10
937.5
 20
967.0
 30
0.0
  0
VERTEX
  5
2D6
100
AcDbEntity
  8
化粧台
  6
EXLTYPE2
 62
     6
100
AcDbVertex
100
AcDb2dVertex
 10
934.0
 20
964.5
 30
0.0
  0
VERTEX
  5
2D7
100
AcDbEntity
  8
化粧台
  6
EXLTYPE2
 62
     6
100
AcDbVertex
100
AcDb2dVertex
 10
937.5
 20
962.0
 30
0.0
  0
VERTEX
  5
2D8
100
AcDbEntity
  8
化粧台
  6
EXLTYPE2
 62
     6
100
AcDbVertex
100
AcDb2dVertex
 10
934.0
 20
959.5
 30
0.0
  0
VERTEX
  5
2D9
100
AcDbEntity
  8
化粧台
  6
EXLTYPE2
 62
     6
100
AcDbVertex
100
AcDb2dVertex
 10
937.5
 20
957.0
 30
0.0
  0
VERTEX
  5
2DA
100
AcDbEntity
  8
化粧台
  6
EXLTYPE2
 62
     6
100
AcDbVertex
100
AcDb2dVertex
 10
934.0
 20
954.5
 30
0.0
  0
VERTEX
  5
2DB
100
AcDbEntity
  8
化粧台
  6
EXLTYPE2
 62
     6
100
AcDbVertex
100
AcDb2dVertex
 10
937.5
 20
952.0
 30
0.0
  0
VERTEX
  5
2DC
100
AcDbEntity
  8
化粧台
  6
EXLTYPE2
 62
     6
100
AcDbVertex
100
AcDb2dVertex
 10
934.0
 20
949.5
 30
0.0
  0
VERTEX
  5
2DD
100
AcDbEntity
  8
化粧台
  6
EXLTYPE2
 62
     6
100
AcDbVertex
100
AcDb2dVertex
 10
937.5
 20
947.0
 30
0.0
  0
VERTEX
  5
2DE
100
AcDbEntity
  8
化粧台
  6
EXLTYPE2
 62
     6
100
AcDbVertex
100
AcDb2dVertex
 10
934.0
 20
944.5
 30
0.0
  0
VERTEX
  5
2DF
100
AcDbEntity
  8
化粧台
  6
EXLTYPE2
 62
     6
100
AcDbVertex
100
AcDb2dVertex
 10
937.5
 20
942.0
 30
0.0
  0
VERTEX
  5
2E0
100
AcDbEntity
  8
化粧台
  6
EXLTYPE2
 62
     6
100
AcDbVertex
100
AcDb2dVertex
 10
935.85
 20
939.5
 30
0.0
  0
SEQEND
  5
2E1
100
AcDbEntity
  8
化粧台
  6
EXLTYPE2
 62
     6
  0
LINE
  5
2E2
100
AcDbEntity
  8
化粧台
  6
CONTINUOUS
 62
     6
100
AcDbLine
 10
926.809939
 20
1329.5
 30
0.0
 11
934.0
 21
1329.5
 31
0.0
  0
LINE
  5
2E3
100
AcDbEntity
  8
化粧台
  6
CONTINUOUS
 62
     6
100
AcDbLine
 10
920.0
 20
1319.5
 30
0.0
 11
934.0
 21
1319.5
 31
0.0
  0
LINE
  5
2E4
100
AcDbEntity
  8
化粧台
  6
CONTINUOUS
 62
     6
100
AcDbLine
 10
920.0
 20
1309.5
 30
0.0
 11
934.0
 21
1309.5
 31
0.0
  0
LINE
  5
2E5
100
AcDbEntity
  8
化粧台
  6
CONTINUOUS
 62
     6
100
AcDbLine
 10
920.0
 20
1299.5
 30
0.0
 11
934.0
 21
1299.5
 31
0.0
  0
POLYLINE
  5
2E6
100
AcDbEntity
  8
化粧台
  6
EXLTYPE2
 62
     6
100
AcDb2dPolyline
 66
     1
 10
0.0
 20
0.0
 30
0.0
 70
   128
  0
VERTEX
  5
2E7
100
AcDbEntity
  8
化粧台
  6
EXLTYPE2
 62
     6
100
AcDbVertex
100
AcDb2dVertex
 10
903.2
 20
1296.5
 30
0.0
  0
VERTEX
  5
2E8
100
AcDbEntity
  8
化粧台
  6
EXLTYPE2
 62
     6
100
AcDbVertex
100
AcDb2dVertex
 10
906.0
 20
1294.5
 30
0.0
  0
VERTEX
  5
2E9
100
AcDbEntity
  8
化粧台
  6
EXLTYPE2
 62
     6
100
AcDbVertex
100
AcDb2dVertex
 10
902.5
 20
1292.0
 30
0.0
  0
VERTEX
  5
2EA
100
AcDbEntity
  8
化粧台
  6
EXLTYPE2
 62
     6
100
AcDbVertex
100
AcDb2dVertex
 10
906.0
 20
1289.5
 30
0.0
  0
VERTEX
  5
2EB
100
AcDbEntity
  8
化粧台
  6
EXLTYPE2
 62
     6
100
AcDbVertex
100
AcDb2dVertex
 10
902.5
 20
1287.0
 30
0.0
  0
VERTEX
  5
2EC
100
AcDbEntity
  8
化粧台
  6
EXLTYPE2
 62
     6
100
AcDbVertex
100
AcDb2dVertex
 10
906.0
 20
1284.5
 30
0.0
  0
VERTEX
  5
2ED
100
AcDbEntity
  8
化粧台
  6
EXLTYPE2
 62
     6
100
AcDbVertex
100
AcDb2dVertex
 10
902.5
 20
1282.0
 30
0.0
  0
VERTEX
  5
2EE
100
AcDbEntity
  8
化粧台
  6
EXLTYPE2
 62
     6
100
AcDbVertex
100
AcDb2dVertex
 10
906.0
 20
1279.5
 30
0.0
  0
VERTEX
  5
2EF
100
AcDbEntity
  8
化粧台
  6
EXLTYPE2
 62
     6
100
AcDbVertex
100
AcDb2dVertex
 10
902.5
 20
1277.0
 30
0.0
  0
VERTEX
  5
2F0
100
AcDbEntity
  8
化粧台
  6
EXLTYPE2
 62
     6
100
AcDbVertex
100
AcDb2dVertex
 10
906.0
 20
1274.5
 30
0.0
  0
VERTEX
  5
2F1
100
AcDbEntity
  8
化粧台
  6
EXLTYPE2
 62
     6
100
AcDbVertex
100
AcDb2dVertex
 10
902.5
 20
1272.0
 30
0.0
  0
VERTEX
  5
2F2
100
AcDbEntity
  8
化粧台
  6
EXLTYPE2
 62
     6
100
AcDbVertex
100
AcDb2dVertex
 10
906.0
 20
1269.5
 30
0.0
  0
VERTEX
  5
2F3
100
AcDbEntity
  8
化粧台
  6
EXLTYPE2
 62
     6
100
AcDbVertex
100
AcDb2dVertex
 10
902.5
 20
1267.0
 30
0.0
  0
VERTEX
  5
2F4
100
AcDbEntity
  8
化粧台
  6
EXLTYPE2
 62
     6
100
AcDbVertex
100
AcDb2dVertex
 10
906.0
 20
1264.5
 30
0.0
  0
VERTEX
  5
2F5
100
AcDbEntity
  8
化粧台
  6
EXLTYPE2
 62
     6
100
AcDbVertex
100
AcDb2dVertex
 10
902.5
 20
1262.0
 30
0.0
  0
VERTEX
  5
2F6
100
AcDbEntity
  8
化粧台
  6
EXLTYPE2
 62
     6
100
AcDbVertex
100
AcDb2dVertex
 10
906.0
 20
1259.5
 30
0.0
  0
VERTEX
  5
2F7
100
AcDbEntity
  8
化粧台
  6
EXLTYPE2
 62
     6
100
AcDbVertex
100
AcDb2dVertex
 10
902.5
 20
1257.0
 30
0.0
  0
VERTEX
  5
2F8
100
AcDbEntity
  8
化粧台
  6
EXLTYPE2
 62
     6
100
AcDbVertex
100
AcDb2dVertex
 10
906.0
 20
1254.5
 30
0.0
  0
VERTEX
  5
2F9
100
AcDbEntity
  8
化粧台
  6
EXLTYPE2
 62
     6
100
AcDbVertex
100
AcDb2dVertex
 10
902.5
 20
1252.0
 30
0.0
  0
VERTEX
  5
2FA
100
AcDbEntity
  8
化粧台
  6
EXLTYPE2
 62
     6
100
AcDbVertex
100
AcDb2dVertex
 10
906.0
 20
1249.5
 30
0.0
  0
VERTEX
  5
2FB
100
AcDbEntity
  8
化粧台
  6
EXLTYPE2
 62
     6
100
AcDbVertex
100
AcDb2dVertex
 10
902.5
 20
1247.0
 30
0.0
  0
VERTEX
  5
2FC
100
AcDbEntity
  8
化粧台
  6
EXLTYPE2
 62
     6
100
AcDbVertex
100
AcDb2dVertex
 10
906.0
 20
1244.5
 30
0.0
  0
VERTEX
  5
2FD
100
AcDbEntity
  8
化粧台
  6
EXLTYPE2
 62
     6
100
AcDbVertex
100
AcDb2dVertex
 10
902.5
 20
1242.0
 30
0.0
  0
VERTEX
  5
2FE
100
AcDbEntity
  8
化粧台
  6
EXLTYPE2
 62
     6
100
AcDbVertex
100
AcDb2dVertex
 10
906.0
 20
1239.5
 30
0.0
  0
VERTEX
  5
2FF
100
AcDbEntity
  8
化粧台
  6
EXLTYPE2
 62
     6
100
AcDbVertex
100
AcDb2dVertex
 10
902.5
 20
1237.0
 30
0.0
  0
VERTEX
  5
300
100
AcDbEntity
  8
化粧台
  6
EXLTYPE2
 62
     6
100
AcDbVertex
100
AcDb2dVertex
 10
906.0
 20
1234.5
 30
0.0
  0
VERTEX
  5
301
100
AcDbEntity
  8
化粧台
  6
EXLTYPE2
 62
     6
100
AcDbVertex
100
AcDb2dVertex
 10
902.5
 20
1232.0
 30
0.0
  0
VERTEX
  5
302
100
AcDbEntity
  8
化粧台
  6
EXLTYPE2
 62
     6
100
AcDbVertex
100
AcDb2dVertex
 10
906.0
 20
1229.5
 30
0.0
  0
VERTEX
  5
303
100
AcDbEntity
  8
化粧台
  6
EXLTYPE2
 62
     6
100
AcDbVertex
100
AcDb2dVertex
 10
902.5
 20
1227.0
 30
0.0
  0
VERTEX
  5
304
100
AcDbEntity
  8
化粧台
  6
EXLTYPE2
 62
     6
100
AcDbVertex
100
AcDb2dVertex
 10
906.0
 20
1224.5
 30
0.0
  0
VERTEX
  5
305
100
AcDbEntity
  8
化粧台
  6
EXLTYPE2
 62
     6
100
AcDbVertex
100
AcDb2dVertex
 10
902.5
 20
1222.0
 30
0.0
  0
VERTEX
  5
306
100
AcDbEntity
  8
化粧台
  6
EXLTYPE2
 62
     6
100
AcDbVertex
100
AcDb2dVertex
 10
906.0
 20
1219.5
 30
0.0
  0
VERTEX
  5
307
100
AcDbEntity
  8
化粧台
  6
EXLTYPE2
 62
     6
100
AcDbVertex
100
AcDb2dVertex
 10
902.5
 20
1217.0
 30
0.0
  0
VERTEX
  5
308
100
AcDbEntity
  8
化粧台
  6
EXLTYPE2
 62
     6
100
AcDbVertex
100
AcDb2dVertex
 10
906.0
 20
1214.5
 30
0.0
  0
VERTEX
  5
309
100
AcDbEntity
  8
化粧台
  6
EXLTYPE2
 62
     6
100
AcDbVertex
100
AcDb2dVertex
 10
902.5
 20
1212.0
 30
0.0
  0
VERTEX
  5
30A
100
AcDbEntity
  8
化粧台
  6
EXLTYPE2
 62
     6
100
AcDbVertex
100
AcDb2dVertex
 10
906.0
 20
1209.5
 30
0.0
  0
VERTEX
  5
30B
100
AcDbEntity
  8
化粧台
  6
EXLTYPE2
 62
     6
100
AcDbVertex
100
AcDb2dVertex
 10
902.5
 20
1207.0
 30
0.0
  0
VERTEX
  5
30C
100
AcDbEntity
  8
化粧台
  6
EXLTYPE2
 62
     6
100
AcDbVertex
100
AcDb2dVertex
 10
906.0
 20
1204.5
 30
0.0
  0
VERTEX
  5
30D
100
AcDbEntity
  8
化粧台
  6
EXLTYPE2
 62
     6
100
AcDbVertex
100
AcDb2dVertex
 10
902.5
 20
1202.0
 30
0.0
  0
VERTEX
  5
30E
100
AcDbEntity
  8
化粧台
  6
EXLTYPE2
 62
     6
100
AcDbVertex
100
AcDb2dVertex
 10
906.0
 20
1199.5
 30
0.0
  0
VERTEX
  5
30F
100
AcDbEntity
  8
化粧台
  6
EXLTYPE2
 62
     6
100
AcDbVertex
100
AcDb2dVertex
 10
902.5
 20
1197.0
 30
0.0
  0
VERTEX
  5
310
100
AcDbEntity
  8
化粧台
  6
EXLTYPE2
 62
     6
100
AcDbVertex
100
AcDb2dVertex
 10
906.0
 20
1194.5
 30
0.0
  0
VERTEX
  5
311
100
AcDbEntity
  8
化粧台
  6
EXLTYPE2
 62
     6
100
AcDbVertex
100
AcDb2dVertex
 10
902.5
 20
1192.0
 30
0.0
  0
VERTEX
  5
312
100
AcDbEntity
  8
化粧台
  6
EXLTYPE2
 62
     6
100
AcDbVertex
100
AcDb2dVertex
 10
906.0
 20
1189.5
 30
0.0
  0
VERTEX
  5
313
100
AcDbEntity
  8
化粧台
  6
EXLTYPE2
 62
     6
100
AcDbVertex
100
AcDb2dVertex
 10
902.5
 20
1187.0
 30
0.0
  0
VERTEX
  5
314
100
AcDbEntity
  8
化粧台
  6
EXLTYPE2
 62
     6
100
AcDbVertex
100
AcDb2dVertex
 10
906.0
 20
1184.5
 30
0.0
  0
VERTEX
  5
315
100
AcDbEntity
  8
化粧台
  6
EXLTYPE2
 62
     6
100
AcDbVertex
100
AcDb2dVertex
 10
902.5
 20
1182.0
 30
0.0
  0
VERTEX
  5
316
100
AcDbEntity
  8
化粧台
  6
EXLTYPE2
 62
     6
100
AcDbVertex
100
AcDb2dVertex
 10
906.0
 20
1179.5
 30
0.0
  0
VERTEX
  5
317
100
AcDbEntity
  8
化粧台
  6
EXLTYPE2
 62
     6
100
AcDbVertex
100
AcDb2dVertex
 10
902.5
 20
1177.0
 30
0.0
  0
VERTEX
  5
318
100
AcDbEntity
  8
化粧台
  6
EXLTYPE2
 62
     6
100
AcDbVertex
100
AcDb2dVertex
 10
906.0
 20
1174.5
 30
0.0
  0
VERTEX
  5
319
100
AcDbEntity
  8
化粧台
  6
EXLTYPE2
 62
     6
100
AcDbVertex
100
AcDb2dVertex
 10
902.5
 20
1172.0
 30
0.0
  0
VERTEX
  5
31A
100
AcDbEntity
  8
化粧台
  6
EXLTYPE2
 62
     6
100
AcDbVertex
100
AcDb2dVertex
 10
906.0
 20
1169.5
 30
0.0
  0
VERTEX
  5
31B
100
AcDbEntity
  8
化粧台
  6
EXLTYPE2
 62
     6
100
AcDbVertex
100
AcDb2dVertex
 10
902.5
 20
1167.0
 30
0.0
  0
VERTEX
  5
31C
100
AcDbEntity
  8
化粧台
  6
EXLTYPE2
 62
     6
100
AcDbVertex
100
AcDb2dVertex
 10
906.0
 20
1164.5
 30
0.0
  0
VERTEX
  5
31D
100
AcDbEntity
  8
化粧台
  6
EXLTYPE2
 62
     6
100
AcDbVertex
100
AcDb2dVertex
 10
902.5
 20
1162.0
 30
0.0
  0
VERTEX
  5
31E
100
AcDbEntity
  8
化粧台
  6
EXLTYPE2
 62
     6
100
AcDbVertex
100
AcDb2dVertex
 10
906.0
 20
1159.5
 30
0.0
  0
VERTEX
  5
31F
100
AcDbEntity
  8
化粧台
  6
EXLTYPE2
 62
     6
100
AcDbVertex
100
AcDb2dVertex
 10
902.5
 20
1157.0
 30
0.0
  0
VERTEX
  5
320
100
AcDbEntity
  8
化粧台
  6
EXLTYPE2
 62
     6
100
AcDbVertex
100
AcDb2dVertex
 10
906.0
 20
1154.5
 30
0.0
  0
VERTEX
  5
321
100
AcDbEntity
  8
化粧台
  6
EXLTYPE2
 62
     6
100
AcDbVertex
100
AcDb2dVertex
 10
902.5
 20
1152.0
 30
0.0
  0
VERTEX
  5
322
100
AcDbEntity
  8
化粧台
  6
EXLTYPE2
 62
     6
100
AcDbVertex
100
AcDb2dVertex
 10
906.0
 20
1149.5
 30
0.0
  0
VERTEX
  5
323
100
AcDbEntity
  8
化粧台
  6
EXLTYPE2
 62
     6
100
AcDbVertex
100
AcDb2dVertex
 10
902.5
 20
1147.0
 30
0.0
  0
VERTEX
  5
324
100
AcDbEntity
  8
化粧台
  6
EXLTYPE2
 62
     6
100
AcDbVertex
100
AcDb2dVertex
 10
906.0
 20
1144.5
 30
0.0
  0
VERTEX
  5
325
100
AcDbEntity
  8
化粧台
  6
EXLTYPE2
 62
     6
100
AcDbVertex
100
AcDb2dVertex
 10
902.5
 20
1142.0
 30
0.0
  0
VERTEX
  5
326
100
AcDbEntity
  8
化粧台
  6
EXLTYPE2
 62
     6
100
AcDbVertex
100
AcDb2dVertex
 10
906.0
 20
1139.5
 30
0.0
  0
VERTEX
  5
327
100
AcDbEntity
  8
化粧台
  6
EXLTYPE2
 62
     6
100
AcDbVertex
100
AcDb2dVertex
 10
902.5
 20
1137.0
 30
0.0
  0
VERTEX
  5
328
100
AcDbEntity
  8
化粧台
  6
EXLTYPE2
 62
     6
100
AcDbVertex
100
AcDb2dVertex
 10
906.0
 20
1134.5
 30
0.0
  0
VERTEX
  5
329
100
AcDbEntity
  8
化粧台
  6
EXLTYPE2
 62
     6
100
AcDbVertex
100
AcDb2dVertex
 10
902.5
 20
1132.0
 30
0.0
  0
VERTEX
  5
32A
100
AcDbEntity
  8
化粧台
  6
EXLTYPE2
 62
     6
100
AcDbVertex
100
AcDb2dVertex
 10
906.0
 20
1129.5
 30
0.0
  0
VERTEX
  5
32B
100
AcDbEntity
  8
化粧台
  6
EXLTYPE2
 62
     6
100
AcDbVertex
100
AcDb2dVertex
 10
902.5
 20
1127.0
 30
0.0
  0
VERTEX
  5
32C
100
AcDbEntity
  8
化粧台
  6
EXLTYPE2
 62
     6
100
AcDbVertex
100
AcDb2dVertex
 10
906.0
 20
1124.5
 30
0.0
  0
VERTEX
  5
32D
100
AcDbEntity
  8
化粧台
  6
EXLTYPE2
 62
     6
100
AcDbVertex
100
AcDb2dVertex
 10
902.5
 20
1122.0
 30
0.0
  0
VERTEX
  5
32E
100
AcDbEntity
  8
化粧台
  6
EXLTYPE2
 62
     6
100
AcDbVertex
100
AcDb2dVertex
 10
906.0
 20
1119.5
 30
0.0
  0
VERTEX
  5
32F
100
AcDbEntity
  8
化粧台
  6
EXLTYPE2
 62
     6
100
AcDbVertex
100
AcDb2dVertex
 10
902.5
 20
1117.0
 30
0.0
  0
VERTEX
  5
330
100
AcDbEntity
  8
化粧台
  6
EXLTYPE2
 62
     6
100
AcDbVertex
100
AcDb2dVertex
 10
906.0
 20
1114.5
 30
0.0
  0
VERTEX
  5
331
100
AcDbEntity
  8
化粧台
  6
EXLTYPE2
 62
     6
100
AcDbVertex
100
AcDb2dVertex
 10
902.5
 20
1112.0
 30
0.0
  0
VERTEX
  5
332
100
AcDbEntity
  8
化粧台
  6
EXLTYPE2
 62
     6
100
AcDbVertex
100
AcDb2dVertex
 10
906.0
 20
1109.5
 30
0.0
  0
VERTEX
  5
333
100
AcDbEntity
  8
化粧台
  6
EXLTYPE2
 62
     6
100
AcDbVertex
100
AcDb2dVertex
 10
902.5
 20
1107.0
 30
0.0
  0
VERTEX
  5
334
100
AcDbEntity
  8
化粧台
  6
EXLTYPE2
 62
     6
100
AcDbVertex
100
AcDb2dVertex
 10
906.0
 20
1104.5
 30
0.0
  0
VERTEX
  5
335
100
AcDbEntity
  8
化粧台
  6
EXLTYPE2
 62
     6
100
AcDbVertex
100
AcDb2dVertex
 10
902.5
 20
1102.0
 30
0.0
  0
VERTEX
  5
336
100
AcDbEntity
  8
化粧台
  6
EXLTYPE2
 62
     6
100
AcDbVertex
100
AcDb2dVertex
 10
906.0
 20
1099.5
 30
0.0
  0
VERTEX
  5
337
100
AcDbEntity
  8
化粧台
  6
EXLTYPE2
 62
     6
100
AcDbVertex
100
AcDb2dVertex
 10
902.5
 20
1097.0
 30
0.0
  0
VERTEX
  5
338
100
AcDbEntity
  8
化粧台
  6
EXLTYPE2
 62
     6
100
AcDbVertex
100
AcDb2dVertex
 10
906.0
 20
1094.5
 30
0.0
  0
VERTEX
  5
339
100
AcDbEntity
  8
化粧台
  6
EXLTYPE2
 62
     6
100
AcDbVertex
100
AcDb2dVertex
 10
902.5
 20
1092.0
 30
0.0
  0
VERTEX
  5
33A
100
AcDbEntity
  8
化粧台
  6
EXLTYPE2
 62
     6
100
AcDbVertex
100
AcDb2dVertex
 10
906.0
 20
1089.5
 30
0.0
  0
VERTEX
  5
33B
100
AcDbEntity
  8
化粧台
  6
EXLTYPE2
 62
     6
100
AcDbVertex
100
AcDb2dVertex
 10
902.5
 20
1087.0
 30
0.0
  0
VERTEX
  5
33C
100
AcDbEntity
  8
化粧台
  6
EXLTYPE2
 62
     6
100
AcDbVertex
100
AcDb2dVertex
 10
906.0
 20
1084.5
 30
0.0
  0
VERTEX
  5
33D
100
AcDbEntity
  8
化粧台
  6
EXLTYPE2
 62
     6
100
AcDbVertex
100
AcDb2dVertex
 10
902.5
 20
1082.0
 30
0.0
  0
VERTEX
  5
33E
100
AcDbEntity
  8
化粧台
  6
EXLTYPE2
 62
     6
100
AcDbVertex
100
AcDb2dVertex
 10
906.0
 20
1079.5
 30
0.0
  0
VERTEX
  5
33F
100
AcDbEntity
  8
化粧台
  6
EXLTYPE2
 62
     6
100
AcDbVertex
100
AcDb2dVertex
 10
902.5
 20
1077.0
 30
0.0
  0
VERTEX
  5
340
100
AcDbEntity
  8
化粧台
  6
EXLTYPE2
 62
     6
100
AcDbVertex
100
AcDb2dVertex
 10
906.0
 20
1074.5
 30
0.0
  0
VERTEX
  5
341
100
AcDbEntity
  8
化粧台
  6
EXLTYPE2
 62
     6
100
AcDbVertex
100
AcDb2dVertex
 10
902.5
 20
1072.0
 30
0.0
  0
VERTEX
  5
342
100
AcDbEntity
  8
化粧台
  6
EXLTYPE2
 62
     6
100
AcDbVertex
100
AcDb2dVertex
 10
906.0
 20
1069.5
 30
0.0
  0
VERTEX
  5
343
100
AcDbEntity
  8
化粧台
  6
EXLTYPE2
 62
     6
100
AcDbVertex
100
AcDb2dVertex
 10
902.5
 20
1067.0
 30
0.0
  0
VERTEX
  5
344
100
AcDbEntity
  8
化粧台
  6
EXLTYPE2
 62
     6
100
AcDbVertex
100
AcDb2dVertex
 10
906.0
 20
1064.5
 30
0.0
  0
VERTEX
  5
345
100
AcDbEntity
  8
化粧台
  6
EXLTYPE2
 62
     6
100
AcDbVertex
100
AcDb2dVertex
 10
902.5
 20
1062.0
 30
0.0
  0
VERTEX
  5
346
100
AcDbEntity
  8
化粧台
  6
EXLTYPE2
 62
     6
100
AcDbVertex
100
AcDb2dVertex
 10
906.0
 20
1059.5
 30
0.0
  0
VERTEX
  5
347
100
AcDbEntity
  8
化粧台
  6
EXLTYPE2
 62
     6
100
AcDbVertex
100
AcDb2dVertex
 10
902.5
 20
1057.0
 30
0.0
  0
VERTEX
  5
348
100
AcDbEntity
  8
化粧台
  6
EXLTYPE2
 62
     6
100
AcDbVertex
100
AcDb2dVertex
 10
906.0
 20
1054.5
 30
0.0
  0
VERTEX
  5
349
100
AcDbEntity
  8
化粧台
  6
EXLTYPE2
 62
     6
100
AcDbVertex
100
AcDb2dVertex
 10
902.5
 20
1052.0
 30
0.0
  0
VERTEX
  5
34A
100
AcDbEntity
  8
化粧台
  6
EXLTYPE2
 62
     6
100
AcDbVertex
100
AcDb2dVertex
 10
906.0
 20
1049.5
 30
0.0
  0
VERTEX
  5
34B
100
AcDbEntity
  8
化粧台
  6
EXLTYPE2
 62
     6
100
AcDbVertex
100
AcDb2dVertex
 10
902.5
 20
1047.0
 30
0.0
  0
VERTEX
  5
34C
100
AcDbEntity
  8
化粧台
  6
EXLTYPE2
 62
     6
100
AcDbVertex
100
AcDb2dVertex
 10
906.0
 20
1044.5
 30
0.0
  0
VERTEX
  5
34D
100
AcDbEntity
  8
化粧台
  6
EXLTYPE2
 62
     6
100
AcDbVertex
100
AcDb2dVertex
 10
902.5
 20
1042.0
 30
0.0
  0
VERTEX
  5
34E
100
AcDbEntity
  8
化粧台
  6
EXLTYPE2
 62
     6
100
AcDbVertex
100
AcDb2dVertex
 10
906.0
 20
1039.5
 30
0.0
  0
VERTEX
  5
34F
100
AcDbEntity
  8
化粧台
  6
EXLTYPE2
 62
     6
100
AcDbVertex
100
AcDb2dVertex
 10
902.5
 20
1037.0
 30
0.0
  0
VERTEX
  5
350
100
AcDbEntity
  8
化粧台
  6
EXLTYPE2
 62
     6
100
AcDbVertex
100
AcDb2dVertex
 10
906.0
 20
1034.5
 30
0.0
  0
VERTEX
  5
351
100
AcDbEntity
  8
化粧台
  6
EXLTYPE2
 62
     6
100
AcDbVertex
100
AcDb2dVertex
 10
902.5
 20
1032.0
 30
0.0
  0
VERTEX
  5
352
100
AcDbEntity
  8
化粧台
  6
EXLTYPE2
 62
     6
100
AcDbVertex
100
AcDb2dVertex
 10
906.0
 20
1029.5
 30
0.0
  0
VERTEX
  5
353
100
AcDbEntity
  8
化粧台
  6
EXLTYPE2
 62
     6
100
AcDbVertex
100
AcDb2dVertex
 10
902.5
 20
1027.0
 30
0.0
  0
VERTEX
  5
354
100
AcDbEntity
  8
化粧台
  6
EXLTYPE2
 62
     6
100
AcDbVertex
100
AcDb2dVertex
 10
906.0
 20
1024.5
 30
0.0
  0
VERTEX
  5
355
100
AcDbEntity
  8
化粧台
  6
EXLTYPE2
 62
     6
100
AcDbVertex
100
AcDb2dVertex
 10
902.5
 20
1022.0
 30
0.0
  0
VERTEX
  5
356
100
AcDbEntity
  8
化粧台
  6
EXLTYPE2
 62
     6
100
AcDbVertex
100
AcDb2dVertex
 10
906.0
 20
1019.5
 30
0.0
  0
VERTEX
  5
357
100
AcDbEntity
  8
化粧台
  6
EXLTYPE2
 62
     6
100
AcDbVertex
100
AcDb2dVertex
 10
902.5
 20
1017.0
 30
0.0
  0
VERTEX
  5
358
100
AcDbEntity
  8
化粧台
  6
EXLTYPE2
 62
     6
100
AcDbVertex
100
AcDb2dVertex
 10
906.0
 20
1014.5
 30
0.0
  0
VERTEX
  5
359
100
AcDbEntity
  8
化粧台
  6
EXLTYPE2
 62
     6
100
AcDbVertex
100
AcDb2dVertex
 10
902.5
 20
1012.0
 30
0.0
  0
VERTEX
  5
35A
100
AcDbEntity
  8
化粧台
  6
EXLTYPE2
 62
     6
100
AcDbVertex
100
AcDb2dVertex
 10
906.0
 20
1009.5
 30
0.0
  0
VERTEX
  5
35B
100
AcDbEntity
  8
化粧台
  6
EXLTYPE2
 62
     6
100
AcDbVertex
100
AcDb2dVertex
 10
902.5
 20
1007.0
 30
0.0
  0
VERTEX
  5
35C
100
AcDbEntity
  8
化粧台
  6
EXLTYPE2
 62
     6
100
AcDbVertex
100
AcDb2dVertex
 10
906.0
 20
1004.5
 30
0.0
  0
VERTEX
  5
35D
100
AcDbEntity
  8
化粧台
  6
EXLTYPE2
 62
     6
100
AcDbVertex
100
AcDb2dVertex
 10
902.5
 20
1002.0
 30
0.0
  0
VERTEX
  5
35E
100
AcDbEntity
  8
化粧台
  6
EXLTYPE2
 62
     6
100
AcDbVertex
100
AcDb2dVertex
 10
906.0
 20
999.5
 30
0.0
  0
VERTEX
  5
35F
100
AcDbEntity
  8
化粧台
  6
EXLTYPE2
 62
     6
100
AcDbVertex
100
AcDb2dVertex
 10
902.5
 20
997.0
 30
0.0
  0
VERTEX
  5
360
100
AcDbEntity
  8
化粧台
  6
EXLTYPE2
 62
     6
100
AcDbVertex
100
AcDb2dVertex
 10
906.0
 20
994.5
 30
0.0
  0
VERTEX
  5
361
100
AcDbEntity
  8
化粧台
  6
EXLTYPE2
 62
     6
100
AcDbVertex
100
AcDb2dVertex
 10
902.5
 20
992.0
 30
0.0
  0
VERTEX
  5
362
100
AcDbEntity
  8
化粧台
  6
EXLTYPE2
 62
     6
100
AcDbVertex
100
AcDb2dVertex
 10
906.0
 20
989.5
 30
0.0
  0
VERTEX
  5
363
100
AcDbEntity
  8
化粧台
  6
EXLTYPE2
 62
     6
100
AcDbVertex
100
AcDb2dVertex
 10
902.5
 20
987.0
 30
0.0
  0
VERTEX
  5
364
100
AcDbEntity
  8
化粧台
  6
EXLTYPE2
 62
     6
100
AcDbVertex
100
AcDb2dVertex
 10
906.0
 20
984.5
 30
0.0
  0
VERTEX
  5
365
100
AcDbEntity
  8
化粧台
  6
EXLTYPE2
 62
     6
100
AcDbVertex
100
AcDb2dVertex
 10
902.5
 20
982.0
 30
0.0
  0
VERTEX
  5
366
100
AcDbEntity
  8
化粧台
  6
EXLTYPE2
 62
     6
100
AcDbVertex
100
AcDb2dVertex
 10
906.0
 20
979.5
 30
0.0
  0
VERTEX
  5
367
100
AcDbEntity
  8
化粧台
  6
EXLTYPE2
 62
     6
100
AcDbVertex
100
AcDb2dVertex
 10
902.5
 20
977.0
 30
0.0
  0
VERTEX
  5
368
100
AcDbEntity
  8
化粧台
  6
EXLTYPE2
 62
     6
100
AcDbVertex
100
AcDb2dVertex
 10
906.0
 20
974.5
 30
0.0
  0
VERTEX
  5
369
100
AcDbEntity
  8
化粧台
  6
EXLTYPE2
 62
     6
100
AcDbVertex
100
AcDb2dVertex
 10
902.5
 20
972.0
 30
0.0
  0
VERTEX
  5
36A
100
AcDbEntity
  8
化粧台
  6
EXLTYPE2
 62
     6
100
AcDbVertex
100
AcDb2dVertex
 10
906.0
 20
969.5
 30
0.0
  0
VERTEX
  5
36B
100
AcDbEntity
  8
化粧台
  6
EXLTYPE2
 62
     6
100
AcDbVertex
100
AcDb2dVertex
 10
902.5
 20
967.0
 30
0.0
  0
VERTEX
  5
36C
100
AcDbEntity
  8
化粧台
  6
EXLTYPE2
 62
     6
100
AcDbVertex
100
AcDb2dVertex
 10
906.0
 20
964.5
 30
0.0
  0
VERTEX
  5
36D
100
AcDbEntity
  8
化粧台
  6
EXLTYPE2
 62
     6
100
AcDbVertex
100
AcDb2dVertex
 10
902.5
 20
962.0
 30
0.0
  0
VERTEX
  5
36E
100
AcDbEntity
  8
化粧台
  6
EXLTYPE2
 62
     6
100
AcDbVertex
100
AcDb2dVertex
 10
906.0
 20
959.5
 30
0.0
  0
VERTEX
  5
36F
100
AcDbEntity
  8
化粧台
  6
EXLTYPE2
 62
     6
100
AcDbVertex
100
AcDb2dVertex
 10
902.5
 20
957.0
 30
0.0
  0
VERTEX
  5
370
100
AcDbEntity
  8
化粧台
  6
EXLTYPE2
 62
     6
100
AcDbVertex
100
AcDb2dVertex
 10
906.0
 20
954.5
 30
0.0
  0
VERTEX
  5
371
100
AcDbEntity
  8
化粧台
  6
EXLTYPE2
 62
     6
100
AcDbVertex
100
AcDb2dVertex
 10
902.5
 20
952.0
 30
0.0
  0
VERTEX
  5
372
100
AcDbEntity
  8
化粧台
  6
EXLTYPE2
 62
     6
100
AcDbVertex
100
AcDb2dVertex
 10
906.0
 20
949.5
 30
0.0
  0
VERTEX
  5
373
100
AcDbEntity
  8
化粧台
  6
EXLTYPE2
 62
     6
100
AcDbVertex
100
AcDb2dVertex
 10
902.5
 20
947.0
 30
0.0
  0
VERTEX
  5
374
100
AcDbEntity
  8
化粧台
  6
EXLTYPE2
 62
     6
100
AcDbVertex
100
AcDb2dVertex
 10
906.0
 20
944.5
 30
0.0
  0
VERTEX
  5
375
100
AcDbEntity
  8
化粧台
  6
EXLTYPE2
 62
     6
100
AcDbVertex
100
AcDb2dVertex
 10
902.5
 20
942.0
 30
0.0
  0
VERTEX
  5
376
100
AcDbEntity
  8
化粧台
  6
EXLTYPE2
 62
     6
100
AcDbVertex
100
AcDb2dVertex
 10
904.15
 20
939.5
 30
0.0
  0
SEQEND
  5
377
100
AcDbEntity
  8
化粧台
  6
EXLTYPE2
 62
     6
  0
LINE
  5
378
100
AcDbEntity
  8
化粧台
  6
CONTINUOUS
 62
     6
100
AcDbLine
 10
906.0
 20
1294.5
 30
0.0
 11
920.0
 21
1294.5
 31
0.0
  0
LINE
  5
379
100
AcDbEntity
  8
化粧台
  6
CONTINUOUS
 62
     6
100
AcDbLine
 10
920.0
 20
1289.5
 30
0.0
 11
934.0
 21
1289.5
 31
0.0
  0
LINE
  5
37A
100
AcDbEntity
  8
化粧台
  6
CONTINUOUS
 62
     6
100
AcDbLine
 10
906.0
 20
1284.5
 30
0.0
 11
920.0
 21
1284.5
 31
0.0
  0
LINE
  5
37B
100
AcDbEntity
  8
化粧台
  6
CONTINUOUS
 62
     6
100
AcDbLine
 10
920.0
 20
1279.5
 30
0.0
 11
934.0
 21
1279.5
 31
0.0
  0
LINE
  5
37C
100
AcDbEntity
  8
化粧台
  6
CONTINUOUS
 62
     6
100
AcDbLine
 10
906.0
 20
1274.5
 30
0.0
 11
920.0
 21
1274.5
 31
0.0
  0
LINE
  5
37D
100
AcDbEntity
  8
化粧台
  6
CONTINUOUS
 62
     6
100
AcDbLine
 10
920.0
 20
1269.5
 30
0.0
 11
934.0
 21
1269.5
 31
0.0
  0
LINE
  5
37E
100
AcDbEntity
  8
化粧台
  6
CONTINUOUS
 62
     6
100
AcDbLine
 10
906.0
 20
1264.5
 30
0.0
 11
920.0
 21
1264.5
 31
0.0
  0
LINE
  5
37F
100
AcDbEntity
  8
化粧台
  6
CONTINUOUS
 62
     6
100
AcDbLine
 10
920.0
 20
1259.5
 30
0.0
 11
934.0
 21
1259.5
 31
0.0
  0
LINE
  5
380
100
AcDbEntity
  8
化粧台
  6
CONTINUOUS
 62
     6
100
AcDbLine
 10
906.0
 20
1254.5
 30
0.0
 11
920.0
 21
1254.5
 31
0.0
  0
LINE
  5
381
100
AcDbEntity
  8
化粧台
  6
CONTINUOUS
 62
     6
100
AcDbLine
 10
920.0
 20
1249.5
 30
0.0
 11
934.0
 21
1249.5
 31
0.0
  0
LINE
  5
382
100
AcDbEntity
  8
化粧台
  6
CONTINUOUS
 62
     6
100
AcDbLine
 10
906.0
 20
1244.5
 30
0.0
 11
920.0
 21
1244.5
 31
0.0
  0
LINE
  5
383
100
AcDbEntity
  8
化粧台
  6
CONTINUOUS
 62
     6
100
AcDbLine
 10
920.0
 20
1239.5
 30
0.0
 11
934.0
 21
1239.5
 31
0.0
  0
LINE
  5
384
100
AcDbEntity
  8
化粧台
  6
CONTINUOUS
 62
     6
100
AcDbLine
 10
906.0
 20
1234.5
 30
0.0
 11
920.0
 21
1234.5
 31
0.0
  0
LINE
  5
385
100
AcDbEntity
  8
化粧台
  6
CONTINUOUS
 62
     6
100
AcDbLine
 10
920.0
 20
1229.5
 30
0.0
 11
934.0
 21
1229.5
 31
0.0
  0
LINE
  5
386
100
AcDbEntity
  8
化粧台
  6
CONTINUOUS
 62
     6
100
AcDbLine
 10
906.0
 20
1224.5
 30
0.0
 11
920.0
 21
1224.5
 31
0.0
  0
LINE
  5
387
100
AcDbEntity
  8
化粧台
  6
CONTINUOUS
 62
     6
100
AcDbLine
 10
920.0
 20
1219.5
 30
0.0
 11
934.0
 21
1219.5
 31
0.0
  0
LINE
  5
388
100
AcDbEntity
  8
化粧台
  6
CONTINUOUS
 62
     6
100
AcDbLine
 10
906.0
 20
1214.5
 30
0.0
 11
920.0
 21
1214.5
 31
0.0
  0
LINE
  5
389
100
AcDbEntity
  8
化粧台
  6
CONTINUOUS
 62
     6
100
AcDbLine
 10
920.0
 20
1209.5
 30
0.0
 11
934.0
 21
1209.5
 31
0.0
  0
LINE
  5
38A
100
AcDbEntity
  8
化粧台
  6
CONTINUOUS
 62
     6
100
AcDbLine
 10
906.0
 20
1204.5
 30
0.0
 11
920.0
 21
1204.5
 31
0.0
  0
LINE
  5
38B
100
AcDbEntity
  8
化粧台
  6
CONTINUOUS
 62
     6
100
AcDbLine
 10
920.0
 20
1199.5
 30
0.0
 11
934.0
 21
1199.5
 31
0.0
  0
LINE
  5
38C
100
AcDbEntity
  8
化粧台
  6
CONTINUOUS
 62
     6
100
AcDbLine
 10
906.0
 20
1194.5
 30
0.0
 11
920.0
 21
1194.5
 31
0.0
  0
LINE
  5
38D
100
AcDbEntity
  8
化粧台
  6
CONTINUOUS
 62
     6
100
AcDbLine
 10
920.0
 20
1189.5
 30
0.0
 11
934.0
 21
1189.5
 31
0.0
  0
LINE
  5
38E
100
AcDbEntity
  8
化粧台
  6
CONTINUOUS
 62
     6
100
AcDbLine
 10
906.0
 20
1184.5
 30
0.0
 11
920.0
 21
1184.5
 31
0.0
  0
LINE
  5
38F
100
AcDbEntity
  8
化粧台
  6
CONTINUOUS
 62
     6
100
AcDbLine
 10
920.0
 20
1179.5
 30
0.0
 11
934.0
 21
1179.5
 31
0.0
  0
LINE
  5
390
100
AcDbEntity
  8
化粧台
  6
CONTINUOUS
 62
     6
100
AcDbLine
 10
906.0
 20
1174.5
 30
0.0
 11
920.0
 21
1174.5
 31
0.0
  0
LINE
  5
391
100
AcDbEntity
  8
化粧台
  6
CONTINUOUS
 62
     6
100
AcDbLine
 10
920.0
 20
1169.5
 30
0.0
 11
934.0
 21
1169.5
 31
0.0
  0
LINE
  5
392
100
AcDbEntity
  8
化粧台
  6
CONTINUOUS
 62
     6
100
AcDbLine
 10
906.0
 20
1164.5
 30
0.0
 11
920.0
 21
1164.5
 31
0.0
  0
LINE
  5
393
100
AcDbEntity
  8
化粧台
  6
CONTINUOUS
 62
     6
100
AcDbLine
 10
920.0
 20
1159.5
 30
0.0
 11
934.0
 21
1159.5
 31
0.0
  0
LINE
  5
394
100
AcDbEntity
  8
化粧台
  6
CONTINUOUS
 62
     6
100
AcDbLine
 10
906.0
 20
1154.5
 30
0.0
 11
920.0
 21
1154.5
 31
0.0
  0
LINE
  5
395
100
AcDbEntity
  8
化粧台
  6
CONTINUOUS
 62
     6
100
AcDbLine
 10
920.0
 20
1149.5
 30
0.0
 11
934.0
 21
1149.5
 31
0.0
  0
LINE
  5
396
100
AcDbEntity
  8
化粧台
  6
CONTINUOUS
 62
     6
100
AcDbLine
 10
906.0
 20
1144.5
 30
0.0
 11
920.0
 21
1144.5
 31
0.0
  0
LINE
  5
397
100
AcDbEntity
  8
化粧台
  6
CONTINUOUS
 62
     6
100
AcDbLine
 10
920.0
 20
1139.5
 30
0.0
 11
934.0
 21
1139.5
 31
0.0
  0
LINE
  5
398
100
AcDbEntity
  8
化粧台
  6
CONTINUOUS
 62
     6
100
AcDbLine
 10
906.0
 20
1134.5
 30
0.0
 11
920.0
 21
1134.5
 31
0.0
  0
LINE
  5
399
100
AcDbEntity
  8
化粧台
  6
CONTINUOUS
 62
     6
100
AcDbLine
 10
920.0
 20
1129.5
 30
0.0
 11
934.0
 21
1129.5
 31
0.0
  0
LINE
  5
39A
100
AcDbEntity
  8
化粧台
  6
CONTINUOUS
 62
     6
100
AcDbLine
 10
906.0
 20
1124.5
 30
0.0
 11
920.0
 21
1124.5
 31
0.0
  0
LINE
  5
39B
100
AcDbEntity
  8
化粧台
  6
CONTINUOUS
 62
     6
100
AcDbLine
 10
920.0
 20
1119.5
 30
0.0
 11
934.0
 21
1119.5
 31
0.0
  0
LINE
  5
39C
100
AcDbEntity
  8
化粧台
  6
CONTINUOUS
 62
     6
100
AcDbLine
 10
906.0
 20
1114.5
 30
0.0
 11
920.0
 21
1114.5
 31
0.0
  0
LINE
  5
39D
100
AcDbEntity
  8
化粧台
  6
CONTINUOUS
 62
     6
100
AcDbLine
 10
920.0
 20
1109.5
 30
0.0
 11
934.0
 21
1109.5
 31
0.0
  0
LINE
  5
39E
100
AcDbEntity
  8
化粧台
  6
CONTINUOUS
 62
     6
100
AcDbLine
 10
906.0
 20
1104.5
 30
0.0
 11
920.0
 21
1104.5
 31
0.0
  0
LINE
  5
39F
100
AcDbEntity
  8
化粧台
  6
CONTINUOUS
 62
     6
100
AcDbLine
 10
920.0
 20
1099.5
 30
0.0
 11
934.0
 21
1099.5
 31
0.0
  0
LINE
  5
3A0
100
AcDbEntity
  8
化粧台
  6
CONTINUOUS
 62
     6
100
AcDbLine
 10
906.0
 20
1094.5
 30
0.0
 11
920.0
 21
1094.5
 31
0.0
  0
LINE
  5
3A1
100
AcDbEntity
  8
化粧台
  6
CONTINUOUS
 62
     6
100
AcDbLine
 10
920.0
 20
1089.5
 30
0.0
 11
934.0
 21
1089.5
 31
0.0
  0
LINE
  5
3A2
100
AcDbEntity
  8
化粧台
  6
CONTINUOUS
 62
     6
100
AcDbLine
 10
906.0
 20
1084.5
 30
0.0
 11
920.0
 21
1084.5
 31
0.0
  0
LINE
  5
3A3
100
AcDbEntity
  8
化粧台
  6
CONTINUOUS
 62
     6
100
AcDbLine
 10
920.0
 20
1079.5
 30
0.0
 11
934.0
 21
1079.5
 31
0.0
  0
LINE
  5
3A4
100
AcDbEntity
  8
化粧台
  6
CONTINUOUS
 62
     6
100
AcDbLine
 10
906.0
 20
1074.5
 30
0.0
 11
920.0
 21
1074.5
 31
0.0
  0
LINE
  5
3A5
100
AcDbEntity
  8
化粧台
  6
CONTINUOUS
 62
     6
100
AcDbLine
 10
920.0
 20
1069.5
 30
0.0
 11
934.0
 21
1069.5
 31
0.0
  0
LINE
  5
3A6
100
AcDbEntity
  8
化粧台
  6
CONTINUOUS
 62
     6
100
AcDbLine
 10
906.0
 20
1064.5
 30
0.0
 11
920.0
 21
1064.5
 31
0.0
  0
LINE
  5
3A7
100
AcDbEntity
  8
化粧台
  6
CONTINUOUS
 62
     6
100
AcDbLine
 10
920.0
 20
1059.5
 30
0.0
 11
934.0
 21
1059.5
 31
0.0
  0
LINE
  5
3A8
100
AcDbEntity
  8
化粧台
  6
CONTINUOUS
 62
     6
100
AcDbLine
 10
906.0
 20
1054.5
 30
0.0
 11
920.0
 21
1054.5
 31
0.0
  0
LINE
  5
3A9
100
AcDbEntity
  8
化粧台
  6
CONTINUOUS
 62
     6
100
AcDbLine
 10
920.0
 20
1049.5
 30
0.0
 11
934.0
 21
1049.5
 31
0.0
  0
LINE
  5
3AA
100
AcDbEntity
  8
化粧台
  6
CONTINUOUS
 62
     6
100
AcDbLine
 10
906.0
 20
1044.5
 30
0.0
 11
920.0
 21
1044.5
 31
0.0
  0
LINE
  5
3AB
100
AcDbEntity
  8
化粧台
  6
CONTINUOUS
 62
     6
100
AcDbLine
 10
920.0
 20
1039.5
 30
0.0
 11
934.0
 21
1039.5
 31
0.0
  0
LINE
  5
3AC
100
AcDbEntity
  8
化粧台
  6
CONTINUOUS
 62
     6
100
AcDbLine
 10
906.0
 20
1034.5
 30
0.0
 11
920.0
 21
1034.5
 31
0.0
  0
LINE
  5
3AD
100
AcDbEntity
  8
化粧台
  6
CONTINUOUS
 62
     6
100
AcDbLine
 10
920.0
 20
1029.5
 30
0.0
 11
934.0
 21
1029.5
 31
0.0
  0
LINE
  5
3AE
100
AcDbEntity
  8
化粧台
  6
CONTINUOUS
 62
     6
100
AcDbLine
 10
906.0
 20
1024.5
 30
0.0
 11
920.0
 21
1024.5
 31
0.0
  0
LINE
  5
3AF
100
AcDbEntity
  8
化粧台
  6
CONTINUOUS
 62
     6
100
AcDbLine
 10
920.0
 20
1019.5
 30
0.0
 11
934.0
 21
1019.5
 31
0.0
  0
LINE
  5
3B0
100
AcDbEntity
  8
化粧台
  6
CONTINUOUS
 62
     6
100
AcDbLine
 10
906.0
 20
1014.5
 30
0.0
 11
920.0
 21
1014.5
 31
0.0
  0
LINE
  5
3B1
100
AcDbEntity
  8
化粧台
  6
CONTINUOUS
 62
     6
100
AcDbLine
 10
920.0
 20
1009.5
 30
0.0
 11
934.0
 21
1009.5
 31
0.0
  0
LINE
  5
3B2
100
AcDbEntity
  8
化粧台
  6
CONTINUOUS
 62
     6
100
AcDbLine
 10
906.0
 20
1004.5
 30
0.0
 11
920.0
 21
1004.5
 31
0.0
  0
LINE
  5
3B3
100
AcDbEntity
  8
化粧台
  6
CONTINUOUS
 62
     6
100
AcDbLine
 10
920.0
 20
999.5
 30
0.0
 11
934.0
 21
999.5
 31
0.0
  0
LINE
  5
3B4
100
AcDbEntity
  8
化粧台
  6
CONTINUOUS
 62
     6
100
AcDbLine
 10
906.0
 20
994.5
 30
0.0
 11
920.0
 21
994.5
 31
0.0
  0
LINE
  5
3B5
100
AcDbEntity
  8
化粧台
  6
CONTINUOUS
 62
     6
100
AcDbLine
 10
920.0
 20
989.5
 30
0.0
 11
934.0
 21
989.5
 31
0.0
  0
LINE
  5
3B6
100
AcDbEntity
  8
化粧台
  6
CONTINUOUS
 62
     6
100
AcDbLine
 10
906.0
 20
984.5
 30
0.0
 11
920.0
 21
984.5
 31
0.0
  0
LINE
  5
3B7
100
AcDbEntity
  8
化粧台
  6
CONTINUOUS
 62
     6
100
AcDbLine
 10
920.0
 20
979.5
 30
0.0
 11
934.0
 21
979.5
 31
0.0
  0
LINE
  5
3B8
100
AcDbEntity
  8
化粧台
  6
CONTINUOUS
 62
     6
100
AcDbLine
 10
906.0
 20
974.5
 30
0.0
 11
920.0
 21
974.5
 31
0.0
  0
LINE
  5
3B9
100
AcDbEntity
  8
化粧台
  6
CONTINUOUS
 62
     6
100
AcDbLine
 10
920.0
 20
969.5
 30
0.0
 11
934.0
 21
969.5
 31
0.0
  0
LINE
  5
3BA
100
AcDbEntity
  8
化粧台
  6
CONTINUOUS
 62
     6
100
AcDbLine
 10
906.0
 20
964.5
 30
0.0
 11
920.0
 21
964.5
 31
0.0
  0
LINE
  5
3BB
100
AcDbEntity
  8
化粧台
  6
CONTINUOUS
 62
     6
100
AcDbLine
 10
920.0
 20
959.5
 30
0.0
 11
934.0
 21
959.5
 31
0.0
  0
LINE
  5
3BC
100
AcDbEntity
  8
化粧台
  6
CONTINUOUS
 62
     6
100
AcDbLine
 10
906.0
 20
954.5
 30
0.0
 11
920.0
 21
954.5
 31
0.0
  0
LINE
  5
3BD
100
AcDbEntity
  8
化粧台
  6
CONTINUOUS
 62
     6
100
AcDbLine
 10
920.0
 20
949.5
 30
0.0
 11
934.0
 21
949.5
 31
0.0
  0
LINE
  5
3BE
100
AcDbEntity
  8
化粧台
  6
CONTINUOUS
 62
     6
100
AcDbLine
 10
906.0
 20
944.5
 30
0.0
 11
920.0
 21
944.5
 31
0.0
  0
LINE
  5
3BF
100
AcDbEntity
  8
化粧台
  6
EXLTYPE2
 62
     6
100
AcDbLine
 10
920.0
 20
939.5
 30
0.0
 11
935.85
 21
939.5
 31
0.0
  0
LINE
  5
3C0
100
AcDbEntity
  8
化粧台
  6
EXLTYPE2
 62
     6
100
AcDbLine
 10
895.5
 20
973.5
 30
0.0
 11
944.5
 21
973.5
 31
0.0
  0
LINE
  5
3C1
100
AcDbEntity
  8
化粧台
  6
CONTINUOUS
 62
     2
100
AcDbLine
 10
904.15
 20
939.5
 30
0.0
 11
904.15
 21
839.5
 31
0.0
  0
LINE
  5
3C2
100
AcDbEntity
  8
化粧台
  6
CONTINUOUS
 62
     2
100
AcDbLine
 10
904.15
 20
839.5
 30
0.0
 11
935.85
 21
839.5
 31
0.0
  0
LINE
  5
3C3
100
AcDbEntity
  8
化粧台
  6
CONTINUOUS
 62
     2
100
AcDbLine
 10
935.85
 20
839.5
 30
0.0
 11
935.85
 21
939.5
 31
0.0
  0
LINE
  5
3C4
100
AcDbEntity
  8
化粧台
  6
EXLTYPE3
 62
     6
100
AcDbLine
 10
920.0
 20
1854.0
 30
0.0
 11
920.0
 21
826.5
 31
0.0
  0
LINE
  5
3C5
100
AcDbEntity
  8
化粧台
  6
EXLTYPE3
 62
     6
100
AcDbLine
 10
2330.0
 20
1081.0
 30
0.0
 11
2330.0
 21
824.5
 31
0.0
  0
LINE
  5
3C6
100
AcDbEntity
  8
化粧台
  6
EXLTYPE2
 62
     6
100
AcDbLine
 10
2314.15
 20
1369.5
 30
0.0
 11
2345.85
 21
1369.5
 31
0.0
  0
LINE
  5
3C7
100
AcDbEntity
  8
化粧台
  6
CONTINUOUS
 62
     6
100
AcDbLine
 10
2316.0
 20
1364.5
 30
0.0
 11
2330.0
 21
1364.5
 31
0.0
  0
LINE
  5
3C8
100
AcDbEntity
  8
化粧台
  6
CONTINUOUS
 62
     6
100
AcDbLine
 10
2330.0
 20
1359.5
 30
0.0
 11
2344.0
 21
1359.5
 31
0.0
  0
LINE
  5
3C9
100
AcDbEntity
  8
化粧台
  6
CONTINUOUS
 62
     6
100
AcDbLine
 10
2316.0
 20
1354.5
 30
0.0
 11
2330.0
 21
1354.5
 31
0.0
  0
LINE
  5
3CA
100
AcDbEntity
  8
化粧台
  6
CONTINUOUS
 62
     6
100
AcDbLine
 10
2330.0
 20
1349.5
 30
0.0
 11
2344.0
 21
1349.5
 31
0.0
  0
LINE
  5
3CB
100
AcDbEntity
  8
化粧台
  6
CONTINUOUS
 62
     6
100
AcDbLine
 10
2316.0
 20
1344.5
 30
0.0
 11
2330.0
 21
1344.5
 31
0.0
  0
LINE
  5
3CC
100
AcDbEntity
  8
化粧台
  6
CONTINUOUS
 62
     6
100
AcDbLine
 10
2330.0
 20
1339.5
 30
0.0
 11
2344.0
 21
1339.5
 31
0.0
  0
LINE
  5
3CD
100
AcDbEntity
  8
化粧台
  6
CONTINUOUS
 62
     6
100
AcDbLine
 10
2316.0
 20
1334.5
 30
0.0
 11
2330.0
 21
1334.5
 31
0.0
  0
LINE
  5
3CE
100
AcDbEntity
  8
化粧台
  6
CONTINUOUS
 62
     6
100
AcDbLine
 10
2330.0
 20
1329.5
 30
0.0
 11
2344.0
 21
1329.5
 31
0.0
  0
LINE
  5
3CF
100
AcDbEntity
  8
化粧台
  6
CONTINUOUS
 62
     6
100
AcDbLine
 10
2316.0
 20
1324.5
 30
0.0
 11
2330.0
 21
1324.5
 31
0.0
  0
LINE
  5
3D0
100
AcDbEntity
  8
化粧台
  6
CONTINUOUS
 62
     6
100
AcDbLine
 10
2330.0
 20
1319.5
 30
0.0
 11
2344.0
 21
1319.5
 31
0.0
  0
LINE
  5
3D1
100
AcDbEntity
  8
化粧台
  6
CONTINUOUS
 62
     6
100
AcDbLine
 10
2316.0
 20
1314.5
 30
0.0
 11
2330.0
 21
1314.5
 31
0.0
  0
LINE
  5
3D2
100
AcDbEntity
  8
化粧台
  6
CONTINUOUS
 62
     6
100
AcDbLine
 10
2330.0
 20
1309.5
 30
0.0
 11
2344.0
 21
1309.5
 31
0.0
  0
LINE
  5
3D3
100
AcDbEntity
  8
化粧台
  6
CONTINUOUS
 62
     6
100
AcDbLine
 10
2316.0
 20
1304.5
 30
0.0
 11
2330.0
 21
1304.5
 31
0.0
  0
LINE
  5
3D4
100
AcDbEntity
  8
化粧台
  6
CONTINUOUS
 62
     6
100
AcDbLine
 10
2330.0
 20
1299.5
 30
0.0
 11
2344.0
 21
1299.5
 31
0.0
  0
LINE
  5
3D5
100
AcDbEntity
  8
化粧台
  6
CONTINUOUS
 62
     6
100
AcDbLine
 10
2316.0
 20
1294.5
 30
0.0
 11
2330.0
 21
1294.5
 31
0.0
  0
LINE
  5
3D6
100
AcDbEntity
  8
化粧台
  6
CONTINUOUS
 62
     6
100
AcDbLine
 10
2330.0
 20
1289.5
 30
0.0
 11
2344.0
 21
1289.5
 31
0.0
  0
LINE
  5
3D7
100
AcDbEntity
  8
化粧台
  6
CONTINUOUS
 62
     6
100
AcDbLine
 10
2316.0
 20
1284.5
 30
0.0
 11
2330.0
 21
1284.5
 31
0.0
  0
LINE
  5
3D8
100
AcDbEntity
  8
化粧台
  6
CONTINUOUS
 62
     6
100
AcDbLine
 10
2330.0
 20
1279.5
 30
0.0
 11
2344.0
 21
1279.5
 31
0.0
  0
LINE
  5
3D9
100
AcDbEntity
  8
化粧台
  6
CONTINUOUS
 62
     6
100
AcDbLine
 10
2316.0
 20
1274.5
 30
0.0
 11
2330.0
 21
1274.5
 31
0.0
  0
LINE
  5
3DA
100
AcDbEntity
  8
化粧台
  6
CONTINUOUS
 62
     6
100
AcDbLine
 10
2330.0
 20
1269.5
 30
0.0
 11
2344.0
 21
1269.5
 31
0.0
  0
LINE
  5
3DB
100
AcDbEntity
  8
化粧台
  6
CONTINUOUS
 62
     6
100
AcDbLine
 10
2316.0
 20
1264.5
 30
0.0
 11
2330.0
 21
1264.5
 31
0.0
  0
LINE
  5
3DC
100
AcDbEntity
  8
化粧台
  6
CONTINUOUS
 62
     6
100
AcDbLine
 10
2330.0
 20
1259.5
 30
0.0
 11
2344.0
 21
1259.5
 31
0.0
  0
LINE
  5
3DD
100
AcDbEntity
  8
化粧台
  6
CONTINUOUS
 62
     6
100
AcDbLine
 10
2316.0
 20
1254.5
 30
0.0
 11
2330.0
 21
1254.5
 31
0.0
  0
LINE
  5
3DE
100
AcDbEntity
  8
化粧台
  6
CONTINUOUS
 62
     6
100
AcDbLine
 10
2330.0
 20
1249.5
 30
0.0
 11
2344.0
 21
1249.5
 31
0.0
  0
LINE
  5
3DF
100
AcDbEntity
  8
化粧台
  6
CONTINUOUS
 62
     6
100
AcDbLine
 10
2316.0
 20
1244.5
 30
0.0
 11
2330.0
 21
1244.5
 31
0.0
  0
LINE
  5
3E0
100
AcDbEntity
  8
化粧台
  6
CONTINUOUS
 62
     6
100
AcDbLine
 10
2330.0
 20
1239.5
 30
0.0
 11
2344.0
 21
1239.5
 31
0.0
  0
LINE
  5
3E1
100
AcDbEntity
  8
化粧台
  6
CONTINUOUS
 62
     6
100
AcDbLine
 10
2316.0
 20
1234.5
 30
0.0
 11
2330.0
 21
1234.5
 31
0.0
  0
LINE
  5
3E2
100
AcDbEntity
  8
化粧台
  6
CONTINUOUS
 62
     6
100
AcDbLine
 10
2330.0
 20
1229.5
 30
0.0
 11
2344.0
 21
1229.5
 31
0.0
  0
LINE
  5
3E3
100
AcDbEntity
  8
化粧台
  6
CONTINUOUS
 62
     6
100
AcDbLine
 10
2316.0
 20
1224.5
 30
0.0
 11
2330.0
 21
1224.5
 31
0.0
  0
LINE
  5
3E4
100
AcDbEntity
  8
化粧台
  6
CONTINUOUS
 62
     6
100
AcDbLine
 10
2330.0
 20
1219.5
 30
0.0
 11
2344.0
 21
1219.5
 31
0.0
  0
LINE
  5
3E5
100
AcDbEntity
  8
化粧台
  6
CONTINUOUS
 62
     6
100
AcDbLine
 10
2316.0
 20
1214.5
 30
0.0
 11
2330.0
 21
1214.5
 31
0.0
  0
LINE
  5
3E6
100
AcDbEntity
  8
化粧台
  6
CONTINUOUS
 62
     6
100
AcDbLine
 10
2330.0
 20
1209.5
 30
0.0
 11
2344.0
 21
1209.5
 31
0.0
  0
LINE
  5
3E7
100
AcDbEntity
  8
化粧台
  6
CONTINUOUS
 62
     6
100
AcDbLine
 10
2316.0
 20
1204.5
 30
0.0
 11
2330.0
 21
1204.5
 31
0.0
  0
LINE
  5
3E8
100
AcDbEntity
  8
化粧台
  6
CONTINUOUS
 62
     6
100
AcDbLine
 10
2330.0
 20
1199.5
 30
0.0
 11
2344.0
 21
1199.5
 31
0.0
  0
LINE
  5
3E9
100
AcDbEntity
  8
化粧台
  6
CONTINUOUS
 62
     6
100
AcDbLine
 10
2316.0
 20
1194.5
 30
0.0
 11
2330.0
 21
1194.5
 31
0.0
  0
LINE
  5
3EA
100
AcDbEntity
  8
化粧台
  6
CONTINUOUS
 62
     6
100
AcDbLine
 10
2330.0
 20
1189.5
 30
0.0
 11
2344.0
 21
1189.5
 31
0.0
  0
LINE
  5
3EB
100
AcDbEntity
  8
化粧台
  6
CONTINUOUS
 62
     6
100
AcDbLine
 10
2316.0
 20
1184.5
 30
0.0
 11
2330.0
 21
1184.5
 31
0.0
  0
LINE
  5
3EC
100
AcDbEntity
  8
化粧台
  6
CONTINUOUS
 62
     6
100
AcDbLine
 10
2330.0
 20
1179.5
 30
0.0
 11
2344.0
 21
1179.5
 31
0.0
  0
LINE
  5
3ED
100
AcDbEntity
  8
化粧台
  6
CONTINUOUS
 62
     6
100
AcDbLine
 10
2316.0
 20
1174.5
 30
0.0
 11
2330.0
 21
1174.5
 31
0.0
  0
LINE
  5
3EE
100
AcDbEntity
  8
化粧台
  6
CONTINUOUS
 62
     6
100
AcDbLine
 10
2330.0
 20
1169.5
 30
0.0
 11
2344.0
 21
1169.5
 31
0.0
  0
LINE
  5
3EF
100
AcDbEntity
  8
化粧台
  6
CONTINUOUS
 62
     6
100
AcDbLine
 10
2316.0
 20
1164.5
 30
0.0
 11
2330.0
 21
1164.5
 31
0.0
  0
LINE
  5
3F0
100
AcDbEntity
  8
化粧台
  6
CONTINUOUS
 62
     6
100
AcDbLine
 10
2330.0
 20
1159.5
 30
0.0
 11
2344.0
 21
1159.5
 31
0.0
  0
LINE
  5
3F1
100
AcDbEntity
  8
化粧台
  6
CONTINUOUS
 62
     6
100
AcDbLine
 10
2316.0
 20
1154.5
 30
0.0
 11
2330.0
 21
1154.5
 31
0.0
  0
LINE
  5
3F2
100
AcDbEntity
  8
化粧台
  6
CONTINUOUS
 62
     6
100
AcDbLine
 10
2330.0
 20
1149.5
 30
0.0
 11
2344.0
 21
1149.5
 31
0.0
  0
LINE
  5
3F3
100
AcDbEntity
  8
化粧台
  6
CONTINUOUS
 62
     6
100
AcDbLine
 10
2316.0
 20
1144.5
 30
0.0
 11
2330.0
 21
1144.5
 31
0.0
  0
LINE
  5
3F4
100
AcDbEntity
  8
化粧台
  6
CONTINUOUS
 62
     6
100
AcDbLine
 10
2330.0
 20
1139.5
 30
0.0
 11
2344.0
 21
1139.5
 31
0.0
  0
LINE
  5
3F5
100
AcDbEntity
  8
化粧台
  6
CONTINUOUS
 62
     6
100
AcDbLine
 10
2316.0
 20
1134.5
 30
0.0
 11
2330.0
 21
1134.5
 31
0.0
  0
LINE
  5
3F6
100
AcDbEntity
  8
化粧台
  6
CONTINUOUS
 62
     6
100
AcDbLine
 10
2330.0
 20
1129.5
 30
0.0
 11
2344.0
 21
1129.5
 31
0.0
  0
LINE
  5
3F7
100
AcDbEntity
  8
化粧台
  6
CONTINUOUS
 62
     6
100
AcDbLine
 10
2316.0
 20
1124.5
 30
0.0
 11
2330.0
 21
1124.5
 31
0.0
  0
LINE
  5
3F8
100
AcDbEntity
  8
化粧台
  6
CONTINUOUS
 62
     6
100
AcDbLine
 10
2330.0
 20
1119.5
 30
0.0
 11
2344.0
 21
1119.5
 31
0.0
  0
LINE
  5
3F9
100
AcDbEntity
  8
化粧台
  6
CONTINUOUS
 62
     6
100
AcDbLine
 10
2316.0
 20
1114.5
 30
0.0
 11
2330.0
 21
1114.5
 31
0.0
  0
LINE
  5
3FA
100
AcDbEntity
  8
化粧台
  6
CONTINUOUS
 62
     6
100
AcDbLine
 10
2330.0
 20
1109.5
 30
0.0
 11
2344.0
 21
1109.5
 31
0.0
  0
LINE
  5
3FB
100
AcDbEntity
  8
化粧台
  6
CONTINUOUS
 62
     6
100
AcDbLine
 10
2316.0
 20
1104.5
 30
0.0
 11
2330.0
 21
1104.5
 31
0.0
  0
LINE
  5
3FC
100
AcDbEntity
  8
化粧台
  6
CONTINUOUS
 62
     6
100
AcDbLine
 10
2330.0
 20
1099.5
 30
0.0
 11
2344.0
 21
1099.5
 31
0.0
  0
LINE
  5
3FD
100
AcDbEntity
  8
化粧台
  6
CONTINUOUS
 62
     6
100
AcDbLine
 10
2316.0
 20
1094.5
 30
0.0
 11
2330.0
 21
1094.5
 31
0.0
  0
LINE
  5
3FE
100
AcDbEntity
  8
化粧台
  6
CONTINUOUS
 62
     6
100
AcDbLine
 10
2330.0
 20
1089.5
 30
0.0
 11
2344.0
 21
1089.5
 31
0.0
  0
LINE
  5
3FF
100
AcDbEntity
  8
化粧台
  6
CONTINUOUS
 62
     6
100
AcDbLine
 10
2316.0
 20
1084.5
 30
0.0
 11
2330.0
 21
1084.5
 31
0.0
  0
LINE
  5
400
100
AcDbEntity
  8
化粧台
  6
CONTINUOUS
 62
     6
100
AcDbLine
 10
2330.0
 20
1079.5
 30
0.0
 11
2344.0
 21
1079.5
 31
0.0
  0
LINE
  5
401
100
AcDbEntity
  8
化粧台
  6
CONTINUOUS
 62
     6
100
AcDbLine
 10
2316.0
 20
1074.5
 30
0.0
 11
2330.0
 21
1074.5
 31
0.0
  0
LINE
  5
402
100
AcDbEntity
  8
化粧台
  6
CONTINUOUS
 62
     6
100
AcDbLine
 10
2330.0
 20
1069.5
 30
0.0
 11
2344.0
 21
1069.5
 31
0.0
  0
LINE
  5
403
100
AcDbEntity
  8
化粧台
  6
CONTINUOUS
 62
     6
100
AcDbLine
 10
2316.0
 20
1064.5
 30
0.0
 11
2330.0
 21
1064.5
 31
0.0
  0
LINE
  5
404
100
AcDbEntity
  8
化粧台
  6
CONTINUOUS
 62
     6
100
AcDbLine
 10
2330.0
 20
1059.5
 30
0.0
 11
2344.0
 21
1059.5
 31
0.0
  0
LINE
  5
405
100
AcDbEntity
  8
化粧台
  6
CONTINUOUS
 62
     6
100
AcDbLine
 10
2316.0
 20
1054.5
 30
0.0
 11
2330.0
 21
1054.5
 31
0.0
  0
LINE
  5
406
100
AcDbEntity
  8
化粧台
  6
CONTINUOUS
 62
     6
100
AcDbLine
 10
2330.0
 20
1049.5
 30
0.0
 11
2344.0
 21
1049.5
 31
0.0
  0
LINE
  5
407
100
AcDbEntity
  8
化粧台
  6
CONTINUOUS
 62
     6
100
AcDbLine
 10
2316.0
 20
1044.5
 30
0.0
 11
2330.0
 21
1044.5
 31
0.0
  0
LINE
  5
408
100
AcDbEntity
  8
化粧台
  6
CONTINUOUS
 62
     6
100
AcDbLine
 10
2330.0
 20
1039.5
 30
0.0
 11
2344.0
 21
1039.5
 31
0.0
  0
LINE
  5
409
100
AcDbEntity
  8
化粧台
  6
CONTINUOUS
 62
     6
100
AcDbLine
 10
2316.0
 20
1034.5
 30
0.0
 11
2330.0
 21
1034.5
 31
0.0
  0
LINE
  5
40A
100
AcDbEntity
  8
化粧台
  6
CONTINUOUS
 62
     6
100
AcDbLine
 10
2330.0
 20
1029.5
 30
0.0
 11
2344.0
 21
1029.5
 31
0.0
  0
LINE
  5
40B
100
AcDbEntity
  8
化粧台
  6
CONTINUOUS
 62
     6
100
AcDbLine
 10
2316.0
 20
1024.5
 30
0.0
 11
2330.0
 21
1024.5
 31
0.0
  0
LINE
  5
40C
100
AcDbEntity
  8
化粧台
  6
CONTINUOUS
 62
     6
100
AcDbLine
 10
2330.0
 20
1019.5
 30
0.0
 11
2344.0
 21
1019.5
 31
0.0
  0
LINE
  5
40D
100
AcDbEntity
  8
化粧台
  6
CONTINUOUS
 62
     6
100
AcDbLine
 10
2316.0
 20
1014.5
 30
0.0
 11
2330.0
 21
1014.5
 31
0.0
  0
LINE
  5
40E
100
AcDbEntity
  8
化粧台
  6
CONTINUOUS
 62
     6
100
AcDbLine
 10
2330.0
 20
1009.5
 30
0.0
 11
2344.0
 21
1009.5
 31
0.0
  0
LINE
  5
40F
100
AcDbEntity
  8
化粧台
  6
CONTINUOUS
 62
     6
100
AcDbLine
 10
2316.0
 20
1004.5
 30
0.0
 11
2330.0
 21
1004.5
 31
0.0
  0
LINE
  5
410
100
AcDbEntity
  8
化粧台
  6
CONTINUOUS
 62
     6
100
AcDbLine
 10
2330.0
 20
999.5
 30
0.0
 11
2344.0
 21
999.5
 31
0.0
  0
LINE
  5
411
100
AcDbEntity
  8
化粧台
  6
CONTINUOUS
 62
     6
100
AcDbLine
 10
2316.0
 20
994.5
 30
0.0
 11
2330.0
 21
994.5
 31
0.0
  0
LINE
  5
412
100
AcDbEntity
  8
化粧台
  6
CONTINUOUS
 62
     6
100
AcDbLine
 10
2330.0
 20
989.5
 30
0.0
 11
2344.0
 21
989.5
 31
0.0
  0
LINE
  5
413
100
AcDbEntity
  8
化粧台
  6
CONTINUOUS
 62
     6
100
AcDbLine
 10
2316.0
 20
984.5
 30
0.0
 11
2330.0
 21
984.5
 31
0.0
  0
LINE
  5
414
100
AcDbEntity
  8
化粧台
  6
CONTINUOUS
 62
     6
100
AcDbLine
 10
2330.0
 20
979.5
 30
0.0
 11
2344.0
 21
979.5
 31
0.0
  0
LINE
  5
415
100
AcDbEntity
  8
化粧台
  6
CONTINUOUS
 62
     6
100
AcDbLine
 10
2316.0
 20
974.5
 30
0.0
 11
2330.0
 21
974.5
 31
0.0
  0
LINE
  5
416
100
AcDbEntity
  8
化粧台
  6
CONTINUOUS
 62
     6
100
AcDbLine
 10
2330.0
 20
969.5
 30
0.0
 11
2344.0
 21
969.5
 31
0.0
  0
POLYLINE
  5
417
100
AcDbEntity
  8
化粧台
  6
EXLTYPE2
 62
     6
100
AcDb2dPolyline
 66
     1
 10
0.0
 20
0.0
 30
0.0
 70
   128
  0
VERTEX
  5
418
100
AcDbEntity
  8
化粧台
  6
EXLTYPE2
 62
     6
100
AcDbVertex
100
AcDb2dVertex
 10
2345.85
 20
939.5
 30
0.0
  0
VERTEX
  5
419
100
AcDbEntity
  8
化粧台
  6
EXLTYPE2
 62
     6
100
AcDbVertex
100
AcDb2dVertex
 10
2347.5
 20
942.0
 30
0.0
  0
VERTEX
  5
41A
100
AcDbEntity
  8
化粧台
  6
EXLTYPE2
 62
     6
100
AcDbVertex
100
AcDb2dVertex
 10
2344.0
 20
944.5
 30
0.0
  0
VERTEX
  5
41B
100
AcDbEntity
  8
化粧台
  6
EXLTYPE2
 62
     6
100
AcDbVertex
100
AcDb2dVertex
 10
2347.5
 20
947.0
 30
0.0
  0
VERTEX
  5
41C
100
AcDbEntity
  8
化粧台
  6
EXLTYPE2
 62
     6
100
AcDbVertex
100
AcDb2dVertex
 10
2344.0
 20
949.5
 30
0.0
  0
VERTEX
  5
41D
100
AcDbEntity
  8
化粧台
  6
EXLTYPE2
 62
     6
100
AcDbVertex
100
AcDb2dVertex
 10
2347.5
 20
952.0
 30
0.0
  0
VERTEX
  5
41E
100
AcDbEntity
  8
化粧台
  6
EXLTYPE2
 62
     6
100
AcDbVertex
100
AcDb2dVertex
 10
2344.0
 20
954.5
 30
0.0
  0
VERTEX
  5
41F
100
AcDbEntity
  8
化粧台
  6
EXLTYPE2
 62
     6
100
AcDbVertex
100
AcDb2dVertex
 10
2347.5
 20
957.0
 30
0.0
  0
VERTEX
  5
420
100
AcDbEntity
  8
化粧台
  6
EXLTYPE2
 62
     6
100
AcDbVertex
100
AcDb2dVertex
 10
2344.0
 20
959.5
 30
0.0
  0
VERTEX
  5
421
100
AcDbEntity
  8
化粧台
  6
EXLTYPE2
 62
     6
100
AcDbVertex
100
AcDb2dVertex
 10
2347.5
 20
962.0
 30
0.0
  0
VERTEX
  5
422
100
AcDbEntity
  8
化粧台
  6
EXLTYPE2
 62
     6
100
AcDbVertex
100
AcDb2dVertex
 10
2344.0
 20
964.5
 30
0.0
  0
VERTEX
  5
423
100
AcDbEntity
  8
化粧台
  6
EXLTYPE2
 62
     6
100
AcDbVertex
100
AcDb2dVertex
 10
2347.5
 20
967.0
 30
0.0
  0
VERTEX
  5
424
100
AcDbEntity
  8
化粧台
  6
EXLTYPE2
 62
     6
100
AcDbVertex
100
AcDb2dVertex
 10
2344.0
 20
969.5
 30
0.0
  0
VERTEX
  5
425
100
AcDbEntity
  8
化粧台
  6
EXLTYPE2
 62
     6
100
AcDbVertex
100
AcDb2dVertex
 10
2347.5
 20
972.0
 30
0.0
  0
VERTEX
  5
426
100
AcDbEntity
  8
化粧台
  6
EXLTYPE2
 62
     6
100
AcDbVertex
100
AcDb2dVertex
 10
2344.0
 20
974.5
 30
0.0
  0
VERTEX
  5
427
100
AcDbEntity
  8
化粧台
  6
EXLTYPE2
 62
     6
100
AcDbVertex
100
AcDb2dVertex
 10
2347.5
 20
977.0
 30
0.0
  0
VERTEX
  5
428
100
AcDbEntity
  8
化粧台
  6
EXLTYPE2
 62
     6
100
AcDbVertex
100
AcDb2dVertex
 10
2344.0
 20
979.5
 30
0.0
  0
VERTEX
  5
429
100
AcDbEntity
  8
化粧台
  6
EXLTYPE2
 62
     6
100
AcDbVertex
100
AcDb2dVertex
 10
2347.5
 20
982.0
 30
0.0
  0
VERTEX
  5
42A
100
AcDbEntity
  8
化粧台
  6
EXLTYPE2
 62
     6
100
AcDbVertex
100
AcDb2dVertex
 10
2344.0
 20
984.5
 30
0.0
  0
VERTEX
  5
42B
100
AcDbEntity
  8
化粧台
  6
EXLTYPE2
 62
     6
100
AcDbVertex
100
AcDb2dVertex
 10
2347.5
 20
987.0
 30
0.0
  0
VERTEX
  5
42C
100
AcDbEntity
  8
化粧台
  6
EXLTYPE2
 62
     6
100
AcDbVertex
100
AcDb2dVertex
 10
2344.0
 20
989.5
 30
0.0
  0
VERTEX
  5
42D
100
AcDbEntity
  8
化粧台
  6
EXLTYPE2
 62
     6
100
AcDbVertex
100
AcDb2dVertex
 10
2347.5
 20
992.0
 30
0.0
  0
VERTEX
  5
42E
100
AcDbEntity
  8
化粧台
  6
EXLTYPE2
 62
     6
100
AcDbVertex
100
AcDb2dVertex
 10
2344.0
 20
994.5
 30
0.0
  0
VERTEX
  5
42F
100
AcDbEntity
  8
化粧台
  6
EXLTYPE2
 62
     6
100
AcDbVertex
100
AcDb2dVertex
 10
2347.5
 20
997.0
 30
0.0
  0
VERTEX
  5
430
100
AcDbEntity
  8
化粧台
  6
EXLTYPE2
 62
     6
100
AcDbVertex
100
AcDb2dVertex
 10
2344.0
 20
999.5
 30
0.0
  0
VERTEX
  5
431
100
AcDbEntity
  8
化粧台
  6
EXLTYPE2
 62
     6
100
AcDbVertex
100
AcDb2dVertex
 10
2347.5
 20
1002.0
 30
0.0
  0
VERTEX
  5
432
100
AcDbEntity
  8
化粧台
  6
EXLTYPE2
 62
     6
100
AcDbVertex
100
AcDb2dVertex
 10
2344.0
 20
1004.5
 30
0.0
  0
VERTEX
  5
433
100
AcDbEntity
  8
化粧台
  6
EXLTYPE2
 62
     6
100
AcDbVertex
100
AcDb2dVertex
 10
2347.5
 20
1007.0
 30
0.0
  0
VERTEX
  5
434
100
AcDbEntity
  8
化粧台
  6
EXLTYPE2
 62
     6
100
AcDbVertex
100
AcDb2dVertex
 10
2344.0
 20
1009.5
 30
0.0
  0
VERTEX
  5
435
100
AcDbEntity
  8
化粧台
  6
EXLTYPE2
 62
     6
100
AcDbVertex
100
AcDb2dVertex
 10
2347.5
 20
1012.0
 30
0.0
  0
VERTEX
  5
436
100
AcDbEntity
  8
化粧台
  6
EXLTYPE2
 62
     6
100
AcDbVertex
100
AcDb2dVertex
 10
2344.0
 20
1014.5
 30
0.0
  0
VERTEX
  5
437
100
AcDbEntity
  8
化粧台
  6
EXLTYPE2
 62
     6
100
AcDbVertex
100
AcDb2dVertex
 10
2347.5
 20
1017.0
 30
0.0
  0
VERTEX
  5
438
100
AcDbEntity
  8
化粧台
  6
EXLTYPE2
 62
     6
100
AcDbVertex
100
AcDb2dVertex
 10
2344.0
 20
1019.5
 30
0.0
  0
VERTEX
  5
439
100
AcDbEntity
  8
化粧台
  6
EXLTYPE2
 62
     6
100
AcDbVertex
100
AcDb2dVertex
 10
2347.5
 20
1022.0
 30
0.0
  0
VERTEX
  5
43A
100
AcDbEntity
  8
化粧台
  6
EXLTYPE2
 62
     6
100
AcDbVertex
100
AcDb2dVertex
 10
2344.0
 20
1024.5
 30
0.0
  0
VERTEX
  5
43B
100
AcDbEntity
  8
化粧台
  6
EXLTYPE2
 62
     6
100
AcDbVertex
100
AcDb2dVertex
 10
2347.5
 20
1027.0
 30
0.0
  0
VERTEX
  5
43C
100
AcDbEntity
  8
化粧台
  6
EXLTYPE2
 62
     6
100
AcDbVertex
100
AcDb2dVertex
 10
2344.0
 20
1029.5
 30
0.0
  0
VERTEX
  5
43D
100
AcDbEntity
  8
化粧台
  6
EXLTYPE2
 62
     6
100
AcDbVertex
100
AcDb2dVertex
 10
2347.5
 20
1032.0
 30
0.0
  0
VERTEX
  5
43E
100
AcDbEntity
  8
化粧台
  6
EXLTYPE2
 62
     6
100
AcDbVertex
100
AcDb2dVertex
 10
2344.0
 20
1034.5
 30
0.0
  0
VERTEX
  5
43F
100
AcDbEntity
  8
化粧台
  6
EXLTYPE2
 62
     6
100
AcDbVertex
100
AcDb2dVertex
 10
2347.5
 20
1037.0
 30
0.0
  0
VERTEX
  5
440
100
AcDbEntity
  8
化粧台
  6
EXLTYPE2
 62
     6
100
AcDbVertex
100
AcDb2dVertex
 10
2344.0
 20
1039.5
 30
0.0
  0
VERTEX
  5
441
100
AcDbEntity
  8
化粧台
  6
EXLTYPE2
 62
     6
100
AcDbVertex
100
AcDb2dVertex
 10
2347.5
 20
1042.0
 30
0.0
  0
VERTEX
  5
442
100
AcDbEntity
  8
化粧台
  6
EXLTYPE2
 62
     6
100
AcDbVertex
100
AcDb2dVertex
 10
2344.0
 20
1044.5
 30
0.0
  0
VERTEX
  5
443
100
AcDbEntity
  8
化粧台
  6
EXLTYPE2
 62
     6
100
AcDbVertex
100
AcDb2dVertex
 10
2347.5
 20
1047.0
 30
0.0
  0
VERTEX
  5
444
100
AcDbEntity
  8
化粧台
  6
EXLTYPE2
 62
     6
100
AcDbVertex
100
AcDb2dVertex
 10
2344.0
 20
1049.5
 30
0.0
  0
VERTEX
  5
445
100
AcDbEntity
  8
化粧台
  6
EXLTYPE2
 62
     6
100
AcDbVertex
100
AcDb2dVertex
 10
2347.5
 20
1052.0
 30
0.0
  0
VERTEX
  5
446
100
AcDbEntity
  8
化粧台
  6
EXLTYPE2
 62
     6
100
AcDbVertex
100
AcDb2dVertex
 10
2344.0
 20
1054.5
 30
0.0
  0
VERTEX
  5
447
100
AcDbEntity
  8
化粧台
  6
EXLTYPE2
 62
     6
100
AcDbVertex
100
AcDb2dVertex
 10
2347.5
 20
1057.0
 30
0.0
  0
VERTEX
  5
448
100
AcDbEntity
  8
化粧台
  6
EXLTYPE2
 62
     6
100
AcDbVertex
100
AcDb2dVertex
 10
2344.0
 20
1059.5
 30
0.0
  0
VERTEX
  5
449
100
AcDbEntity
  8
化粧台
  6
EXLTYPE2
 62
     6
100
AcDbVertex
100
AcDb2dVertex
 10
2347.5
 20
1062.0
 30
0.0
  0
VERTEX
  5
44A
100
AcDbEntity
  8
化粧台
  6
EXLTYPE2
 62
     6
100
AcDbVertex
100
AcDb2dVertex
 10
2344.0
 20
1064.5
 30
0.0
  0
VERTEX
  5
44B
100
AcDbEntity
  8
化粧台
  6
EXLTYPE2
 62
     6
100
AcDbVertex
100
AcDb2dVertex
 10
2347.5
 20
1067.0
 30
0.0
  0
VERTEX
  5
44C
100
AcDbEntity
  8
化粧台
  6
EXLTYPE2
 62
     6
100
AcDbVertex
100
AcDb2dVertex
 10
2344.0
 20
1069.5
 30
0.0
  0
VERTEX
  5
44D
100
AcDbEntity
  8
化粧台
  6
EXLTYPE2
 62
     6
100
AcDbVertex
100
AcDb2dVertex
 10
2347.5
 20
1072.0
 30
0.0
  0
VERTEX
  5
44E
100
AcDbEntity
  8
化粧台
  6
EXLTYPE2
 62
     6
100
AcDbVertex
100
AcDb2dVertex
 10
2344.0
 20
1074.5
 30
0.0
  0
VERTEX
  5
44F
100
AcDbEntity
  8
化粧台
  6
EXLTYPE2
 62
     6
100
AcDbVertex
100
AcDb2dVertex
 10
2347.5
 20
1077.0
 30
0.0
  0
VERTEX
  5
450
100
AcDbEntity
  8
化粧台
  6
EXLTYPE2
 62
     6
100
AcDbVertex
100
AcDb2dVertex
 10
2344.0
 20
1079.5
 30
0.0
  0
VERTEX
  5
451
100
AcDbEntity
  8
化粧台
  6
EXLTYPE2
 62
     6
100
AcDbVertex
100
AcDb2dVertex
 10
2347.5
 20
1082.0
 30
0.0
  0
VERTEX
  5
452
100
AcDbEntity
  8
化粧台
  6
EXLTYPE2
 62
     6
100
AcDbVertex
100
AcDb2dVertex
 10
2344.0
 20
1084.5
 30
0.0
  0
VERTEX
  5
453
100
AcDbEntity
  8
化粧台
  6
EXLTYPE2
 62
     6
100
AcDbVertex
100
AcDb2dVertex
 10
2347.5
 20
1087.0
 30
0.0
  0
VERTEX
  5
454
100
AcDbEntity
  8
化粧台
  6
EXLTYPE2
 62
     6
100
AcDbVertex
100
AcDb2dVertex
 10
2344.0
 20
1089.5
 30
0.0
  0
VERTEX
  5
455
100
AcDbEntity
  8
化粧台
  6
EXLTYPE2
 62
     6
100
AcDbVertex
100
AcDb2dVertex
 10
2347.5
 20
1092.0
 30
0.0
  0
VERTEX
  5
456
100
AcDbEntity
  8
化粧台
  6
EXLTYPE2
 62
     6
100
AcDbVertex
100
AcDb2dVertex
 10
2344.0
 20
1094.5
 30
0.0
  0
VERTEX
  5
457
100
AcDbEntity
  8
化粧台
  6
EXLTYPE2
 62
     6
100
AcDbVertex
100
AcDb2dVertex
 10
2347.5
 20
1097.0
 30
0.0
  0
VERTEX
  5
458
100
AcDbEntity
  8
化粧台
  6
EXLTYPE2
 62
     6
100
AcDbVertex
100
AcDb2dVertex
 10
2344.0
 20
1099.5
 30
0.0
  0
VERTEX
  5
459
100
AcDbEntity
  8
化粧台
  6
EXLTYPE2
 62
     6
100
AcDbVertex
100
AcDb2dVertex
 10
2347.5
 20
1102.0
 30
0.0
  0
VERTEX
  5
45A
100
AcDbEntity
  8
化粧台
  6
EXLTYPE2
 62
     6
100
AcDbVertex
100
AcDb2dVertex
 10
2344.0
 20
1104.5
 30
0.0
  0
VERTEX
  5
45B
100
AcDbEntity
  8
化粧台
  6
EXLTYPE2
 62
     6
100
AcDbVertex
100
AcDb2dVertex
 10
2347.5
 20
1107.0
 30
0.0
  0
VERTEX
  5
45C
100
AcDbEntity
  8
化粧台
  6
EXLTYPE2
 62
     6
100
AcDbVertex
100
AcDb2dVertex
 10
2344.0
 20
1109.5
 30
0.0
  0
VERTEX
  5
45D
100
AcDbEntity
  8
化粧台
  6
EXLTYPE2
 62
     6
100
AcDbVertex
100
AcDb2dVertex
 10
2347.5
 20
1112.0
 30
0.0
  0
VERTEX
  5
45E
100
AcDbEntity
  8
化粧台
  6
EXLTYPE2
 62
     6
100
AcDbVertex
100
AcDb2dVertex
 10
2344.0
 20
1114.5
 30
0.0
  0
VERTEX
  5
45F
100
AcDbEntity
  8
化粧台
  6
EXLTYPE2
 62
     6
100
AcDbVertex
100
AcDb2dVertex
 10
2347.5
 20
1117.0
 30
0.0
  0
VERTEX
  5
460
100
AcDbEntity
  8
化粧台
  6
EXLTYPE2
 62
     6
100
AcDbVertex
100
AcDb2dVertex
 10
2344.0
 20
1119.5
 30
0.0
  0
VERTEX
  5
461
100
AcDbEntity
  8
化粧台
  6
EXLTYPE2
 62
     6
100
AcDbVertex
100
AcDb2dVertex
 10
2347.5
 20
1122.0
 30
0.0
  0
VERTEX
  5
462
100
AcDbEntity
  8
化粧台
  6
EXLTYPE2
 62
     6
100
AcDbVertex
100
AcDb2dVertex
 10
2344.0
 20
1124.5
 30
0.0
  0
VERTEX
  5
463
100
AcDbEntity
  8
化粧台
  6
EXLTYPE2
 62
     6
100
AcDbVertex
100
AcDb2dVertex
 10
2347.5
 20
1127.0
 30
0.0
  0
VERTEX
  5
464
100
AcDbEntity
  8
化粧台
  6
EXLTYPE2
 62
     6
100
AcDbVertex
100
AcDb2dVertex
 10
2344.0
 20
1129.5
 30
0.0
  0
VERTEX
  5
465
100
AcDbEntity
  8
化粧台
  6
EXLTYPE2
 62
     6
100
AcDbVertex
100
AcDb2dVertex
 10
2347.5
 20
1132.0
 30
0.0
  0
VERTEX
  5
466
100
AcDbEntity
  8
化粧台
  6
EXLTYPE2
 62
     6
100
AcDbVertex
100
AcDb2dVertex
 10
2344.0
 20
1134.5
 30
0.0
  0
VERTEX
  5
467
100
AcDbEntity
  8
化粧台
  6
EXLTYPE2
 62
     6
100
AcDbVertex
100
AcDb2dVertex
 10
2347.5
 20
1137.0
 30
0.0
  0
VERTEX
  5
468
100
AcDbEntity
  8
化粧台
  6
EXLTYPE2
 62
     6
100
AcDbVertex
100
AcDb2dVertex
 10
2344.0
 20
1139.5
 30
0.0
  0
VERTEX
  5
469
100
AcDbEntity
  8
化粧台
  6
EXLTYPE2
 62
     6
100
AcDbVertex
100
AcDb2dVertex
 10
2347.5
 20
1142.0
 30
0.0
  0
VERTEX
  5
46A
100
AcDbEntity
  8
化粧台
  6
EXLTYPE2
 62
     6
100
AcDbVertex
100
AcDb2dVertex
 10
2344.0
 20
1144.5
 30
0.0
  0
VERTEX
  5
46B
100
AcDbEntity
  8
化粧台
  6
EXLTYPE2
 62
     6
100
AcDbVertex
100
AcDb2dVertex
 10
2347.5
 20
1147.0
 30
0.0
  0
VERTEX
  5
46C
100
AcDbEntity
  8
化粧台
  6
EXLTYPE2
 62
     6
100
AcDbVertex
100
AcDb2dVertex
 10
2344.0
 20
1149.5
 30
0.0
  0
VERTEX
  5
46D
100
AcDbEntity
  8
化粧台
  6
EXLTYPE2
 62
     6
100
AcDbVertex
100
AcDb2dVertex
 10
2347.5
 20
1152.0
 30
0.0
  0
VERTEX
  5
46E
100
AcDbEntity
  8
化粧台
  6
EXLTYPE2
 62
     6
100
AcDbVertex
100
AcDb2dVertex
 10
2344.0
 20
1154.5
 30
0.0
  0
VERTEX
  5
46F
100
AcDbEntity
  8
化粧台
  6
EXLTYPE2
 62
     6
100
AcDbVertex
100
AcDb2dVertex
 10
2347.5
 20
1157.0
 30
0.0
  0
VERTEX
  5
470
100
AcDbEntity
  8
化粧台
  6
EXLTYPE2
 62
     6
100
AcDbVertex
100
AcDb2dVertex
 10
2344.0
 20
1159.5
 30
0.0
  0
VERTEX
  5
471
100
AcDbEntity
  8
化粧台
  6
EXLTYPE2
 62
     6
100
AcDbVertex
100
AcDb2dVertex
 10
2347.5
 20
1162.0
 30
0.0
  0
VERTEX
  5
472
100
AcDbEntity
  8
化粧台
  6
EXLTYPE2
 62
     6
100
AcDbVertex
100
AcDb2dVertex
 10
2344.0
 20
1164.5
 30
0.0
  0
VERTEX
  5
473
100
AcDbEntity
  8
化粧台
  6
EXLTYPE2
 62
     6
100
AcDbVertex
100
AcDb2dVertex
 10
2347.5
 20
1167.0
 30
0.0
  0
VERTEX
  5
474
100
AcDbEntity
  8
化粧台
  6
EXLTYPE2
 62
     6
100
AcDbVertex
100
AcDb2dVertex
 10
2344.0
 20
1169.5
 30
0.0
  0
VERTEX
  5
475
100
AcDbEntity
  8
化粧台
  6
EXLTYPE2
 62
     6
100
AcDbVertex
100
AcDb2dVertex
 10
2347.5
 20
1172.0
 30
0.0
  0
VERTEX
  5
476
100
AcDbEntity
  8
化粧台
  6
EXLTYPE2
 62
     6
100
AcDbVertex
100
AcDb2dVertex
 10
2344.0
 20
1174.5
 30
0.0
  0
VERTEX
  5
477
100
AcDbEntity
  8
化粧台
  6
EXLTYPE2
 62
     6
100
AcDbVertex
100
AcDb2dVertex
 10
2347.5
 20
1177.0
 30
0.0
  0
VERTEX
  5
478
100
AcDbEntity
  8
化粧台
  6
EXLTYPE2
 62
     6
100
AcDbVertex
100
AcDb2dVertex
 10
2344.0
 20
1179.5
 30
0.0
  0
VERTEX
  5
479
100
AcDbEntity
  8
化粧台
  6
EXLTYPE2
 62
     6
100
AcDbVertex
100
AcDb2dVertex
 10
2347.5
 20
1182.0
 30
0.0
  0
VERTEX
  5
47A
100
AcDbEntity
  8
化粧台
  6
EXLTYPE2
 62
     6
100
AcDbVertex
100
AcDb2dVertex
 10
2344.0
 20
1184.5
 30
0.0
  0
VERTEX
  5
47B
100
AcDbEntity
  8
化粧台
  6
EXLTYPE2
 62
     6
100
AcDbVertex
100
AcDb2dVertex
 10
2347.5
 20
1187.0
 30
0.0
  0
VERTEX
  5
47C
100
AcDbEntity
  8
化粧台
  6
EXLTYPE2
 62
     6
100
AcDbVertex
100
AcDb2dVertex
 10
2344.0
 20
1189.5
 30
0.0
  0
VERTEX
  5
47D
100
AcDbEntity
  8
化粧台
  6
EXLTYPE2
 62
     6
100
AcDbVertex
100
AcDb2dVertex
 10
2347.5
 20
1192.0
 30
0.0
  0
VERTEX
  5
47E
100
AcDbEntity
  8
化粧台
  6
EXLTYPE2
 62
     6
100
AcDbVertex
100
AcDb2dVertex
 10
2344.0
 20
1194.5
 30
0.0
  0
VERTEX
  5
47F
100
AcDbEntity
  8
化粧台
  6
EXLTYPE2
 62
     6
100
AcDbVertex
100
AcDb2dVertex
 10
2347.5
 20
1197.0
 30
0.0
  0
VERTEX
  5
480
100
AcDbEntity
  8
化粧台
  6
EXLTYPE2
 62
     6
100
AcDbVertex
100
AcDb2dVertex
 10
2344.0
 20
1199.5
 30
0.0
  0
VERTEX
  5
481
100
AcDbEntity
  8
化粧台
  6
EXLTYPE2
 62
     6
100
AcDbVertex
100
AcDb2dVertex
 10
2347.5
 20
1202.0
 30
0.0
  0
VERTEX
  5
482
100
AcDbEntity
  8
化粧台
  6
EXLTYPE2
 62
     6
100
AcDbVertex
100
AcDb2dVertex
 10
2344.0
 20
1204.5
 30
0.0
  0
VERTEX
  5
483
100
AcDbEntity
  8
化粧台
  6
EXLTYPE2
 62
     6
100
AcDbVertex
100
AcDb2dVertex
 10
2347.5
 20
1207.0
 30
0.0
  0
VERTEX
  5
484
100
AcDbEntity
  8
化粧台
  6
EXLTYPE2
 62
     6
100
AcDbVertex
100
AcDb2dVertex
 10
2344.0
 20
1209.5
 30
0.0
  0
VERTEX
  5
485
100
AcDbEntity
  8
化粧台
  6
EXLTYPE2
 62
     6
100
AcDbVertex
100
AcDb2dVertex
 10
2347.5
 20
1212.0
 30
0.0
  0
VERTEX
  5
486
100
AcDbEntity
  8
化粧台
  6
EXLTYPE2
 62
     6
100
AcDbVertex
100
AcDb2dVertex
 10
2344.0
 20
1214.5
 30
0.0
  0
VERTEX
  5
487
100
AcDbEntity
  8
化粧台
  6
EXLTYPE2
 62
     6
100
AcDbVertex
100
AcDb2dVertex
 10
2347.5
 20
1217.0
 30
0.0
  0
VERTEX
  5
488
100
AcDbEntity
  8
化粧台
  6
EXLTYPE2
 62
     6
100
AcDbVertex
100
AcDb2dVertex
 10
2344.0
 20
1219.5
 30
0.0
  0
VERTEX
  5
489
100
AcDbEntity
  8
化粧台
  6
EXLTYPE2
 62
     6
100
AcDbVertex
100
AcDb2dVertex
 10
2347.5
 20
1222.0
 30
0.0
  0
VERTEX
  5
48A
100
AcDbEntity
  8
化粧台
  6
EXLTYPE2
 62
     6
100
AcDbVertex
100
AcDb2dVertex
 10
2344.0
 20
1224.5
 30
0.0
  0
VERTEX
  5
48B
100
AcDbEntity
  8
化粧台
  6
EXLTYPE2
 62
     6
100
AcDbVertex
100
AcDb2dVertex
 10
2347.5
 20
1227.0
 30
0.0
  0
VERTEX
  5
48C
100
AcDbEntity
  8
化粧台
  6
EXLTYPE2
 62
     6
100
AcDbVertex
100
AcDb2dVertex
 10
2344.0
 20
1229.5
 30
0.0
  0
VERTEX
  5
48D
100
AcDbEntity
  8
化粧台
  6
EXLTYPE2
 62
     6
100
AcDbVertex
100
AcDb2dVertex
 10
2347.5
 20
1232.0
 30
0.0
  0
VERTEX
  5
48E
100
AcDbEntity
  8
化粧台
  6
EXLTYPE2
 62
     6
100
AcDbVertex
100
AcDb2dVertex
 10
2344.0
 20
1234.5
 30
0.0
  0
VERTEX
  5
48F
100
AcDbEntity
  8
化粧台
  6
EXLTYPE2
 62
     6
100
AcDbVertex
100
AcDb2dVertex
 10
2347.5
 20
1237.0
 30
0.0
  0
VERTEX
  5
490
100
AcDbEntity
  8
化粧台
  6
EXLTYPE2
 62
     6
100
AcDbVertex
100
AcDb2dVertex
 10
2344.0
 20
1239.5
 30
0.0
  0
VERTEX
  5
491
100
AcDbEntity
  8
化粧台
  6
EXLTYPE2
 62
     6
100
AcDbVertex
100
AcDb2dVertex
 10
2347.5
 20
1242.0
 30
0.0
  0
VERTEX
  5
492
100
AcDbEntity
  8
化粧台
  6
EXLTYPE2
 62
     6
100
AcDbVertex
100
AcDb2dVertex
 10
2344.0
 20
1244.5
 30
0.0
  0
VERTEX
  5
493
100
AcDbEntity
  8
化粧台
  6
EXLTYPE2
 62
     6
100
AcDbVertex
100
AcDb2dVertex
 10
2347.5
 20
1247.0
 30
0.0
  0
VERTEX
  5
494
100
AcDbEntity
  8
化粧台
  6
EXLTYPE2
 62
     6
100
AcDbVertex
100
AcDb2dVertex
 10
2344.0
 20
1249.5
 30
0.0
  0
VERTEX
  5
495
100
AcDbEntity
  8
化粧台
  6
EXLTYPE2
 62
     6
100
AcDbVertex
100
AcDb2dVertex
 10
2347.5
 20
1252.0
 30
0.0
  0
VERTEX
  5
496
100
AcDbEntity
  8
化粧台
  6
EXLTYPE2
 62
     6
100
AcDbVertex
100
AcDb2dVertex
 10
2344.0
 20
1254.5
 30
0.0
  0
VERTEX
  5
497
100
AcDbEntity
  8
化粧台
  6
EXLTYPE2
 62
     6
100
AcDbVertex
100
AcDb2dVertex
 10
2347.5
 20
1257.0
 30
0.0
  0
VERTEX
  5
498
100
AcDbEntity
  8
化粧台
  6
EXLTYPE2
 62
     6
100
AcDbVertex
100
AcDb2dVertex
 10
2344.0
 20
1259.5
 30
0.0
  0
VERTEX
  5
499
100
AcDbEntity
  8
化粧台
  6
EXLTYPE2
 62
     6
100
AcDbVertex
100
AcDb2dVertex
 10
2347.5
 20
1262.0
 30
0.0
  0
VERTEX
  5
49A
100
AcDbEntity
  8
化粧台
  6
EXLTYPE2
 62
     6
100
AcDbVertex
100
AcDb2dVertex
 10
2344.0
 20
1264.5
 30
0.0
  0
VERTEX
  5
49B
100
AcDbEntity
  8
化粧台
  6
EXLTYPE2
 62
     6
100
AcDbVertex
100
AcDb2dVertex
 10
2347.5
 20
1267.0
 30
0.0
  0
VERTEX
  5
49C
100
AcDbEntity
  8
化粧台
  6
EXLTYPE2
 62
     6
100
AcDbVertex
100
AcDb2dVertex
 10
2344.0
 20
1269.5
 30
0.0
  0
VERTEX
  5
49D
100
AcDbEntity
  8
化粧台
  6
EXLTYPE2
 62
     6
100
AcDbVertex
100
AcDb2dVertex
 10
2347.5
 20
1272.0
 30
0.0
  0
VERTEX
  5
49E
100
AcDbEntity
  8
化粧台
  6
EXLTYPE2
 62
     6
100
AcDbVertex
100
AcDb2dVertex
 10
2344.0
 20
1274.5
 30
0.0
  0
VERTEX
  5
49F
100
AcDbEntity
  8
化粧台
  6
EXLTYPE2
 62
     6
100
AcDbVertex
100
AcDb2dVertex
 10
2347.5
 20
1277.0
 30
0.0
  0
VERTEX
  5
4A0
100
AcDbEntity
  8
化粧台
  6
EXLTYPE2
 62
     6
100
AcDbVertex
100
AcDb2dVertex
 10
2344.0
 20
1279.5
 30
0.0
  0
VERTEX
  5
4A1
100
AcDbEntity
  8
化粧台
  6
EXLTYPE2
 62
     6
100
AcDbVertex
100
AcDb2dVertex
 10
2347.5
 20
1282.0
 30
0.0
  0
VERTEX
  5
4A2
100
AcDbEntity
  8
化粧台
  6
EXLTYPE2
 62
     6
100
AcDbVertex
100
AcDb2dVertex
 10
2344.0
 20
1284.5
 30
0.0
  0
VERTEX
  5
4A3
100
AcDbEntity
  8
化粧台
  6
EXLTYPE2
 62
     6
100
AcDbVertex
100
AcDb2dVertex
 10
2347.5
 20
1287.0
 30
0.0
  0
VERTEX
  5
4A4
100
AcDbEntity
  8
化粧台
  6
EXLTYPE2
 62
     6
100
AcDbVertex
100
AcDb2dVertex
 10
2344.0
 20
1289.5
 30
0.0
  0
VERTEX
  5
4A5
100
AcDbEntity
  8
化粧台
  6
EXLTYPE2
 62
     6
100
AcDbVertex
100
AcDb2dVertex
 10
2347.5
 20
1292.0
 30
0.0
  0
VERTEX
  5
4A6
100
AcDbEntity
  8
化粧台
  6
EXLTYPE2
 62
     6
100
AcDbVertex
100
AcDb2dVertex
 10
2344.0
 20
1294.5
 30
0.0
  0
VERTEX
  5
4A7
100
AcDbEntity
  8
化粧台
  6
EXLTYPE2
 62
     6
100
AcDbVertex
100
AcDb2dVertex
 10
2347.5
 20
1297.0
 30
0.0
  0
VERTEX
  5
4A8
100
AcDbEntity
  8
化粧台
  6
EXLTYPE2
 62
     6
100
AcDbVertex
100
AcDb2dVertex
 10
2344.0
 20
1299.5
 30
0.0
  0
VERTEX
  5
4A9
100
AcDbEntity
  8
化粧台
  6
EXLTYPE2
 62
     6
100
AcDbVertex
100
AcDb2dVertex
 10
2347.5
 20
1302.0
 30
0.0
  0
VERTEX
  5
4AA
100
AcDbEntity
  8
化粧台
  6
EXLTYPE2
 62
     6
100
AcDbVertex
100
AcDb2dVertex
 10
2344.0
 20
1304.5
 30
0.0
  0
VERTEX
  5
4AB
100
AcDbEntity
  8
化粧台
  6
EXLTYPE2
 62
     6
100
AcDbVertex
100
AcDb2dVertex
 10
2347.5
 20
1307.0
 30
0.0
  0
VERTEX
  5
4AC
100
AcDbEntity
  8
化粧台
  6
EXLTYPE2
 62
     6
100
AcDbVertex
100
AcDb2dVertex
 10
2344.0
 20
1309.5
 30
0.0
  0
VERTEX
  5
4AD
100
AcDbEntity
  8
化粧台
  6
EXLTYPE2
 62
     6
100
AcDbVertex
100
AcDb2dVertex
 10
2347.5
 20
1312.0
 30
0.0
  0
VERTEX
  5
4AE
100
AcDbEntity
  8
化粧台
  6
EXLTYPE2
 62
     6
100
AcDbVertex
100
AcDb2dVertex
 10
2344.0
 20
1314.5
 30
0.0
  0
VERTEX
  5
4AF
100
AcDbEntity
  8
化粧台
  6
EXLTYPE2
 62
     6
100
AcDbVertex
100
AcDb2dVertex
 10
2347.5
 20
1317.0
 30
0.0
  0
VERTEX
  5
4B0
100
AcDbEntity
  8
化粧台
  6
EXLTYPE2
 62
     6
100
AcDbVertex
100
AcDb2dVertex
 10
2344.0
 20
1319.5
 30
0.0
  0
VERTEX
  5
4B1
100
AcDbEntity
  8
化粧台
  6
EXLTYPE2
 62
     6
100
AcDbVertex
100
AcDb2dVertex
 10
2347.5
 20
1322.0
 30
0.0
  0
VERTEX
  5
4B2
100
AcDbEntity
  8
化粧台
  6
EXLTYPE2
 62
     6
100
AcDbVertex
100
AcDb2dVertex
 10
2344.0
 20
1324.5
 30
0.0
  0
VERTEX
  5
4B3
100
AcDbEntity
  8
化粧台
  6
EXLTYPE2
 62
     6
100
AcDbVertex
100
AcDb2dVertex
 10
2347.5
 20
1327.0
 30
0.0
  0
VERTEX
  5
4B4
100
AcDbEntity
  8
化粧台
  6
EXLTYPE2
 62
     6
100
AcDbVertex
100
AcDb2dVertex
 10
2344.0
 20
1329.5
 30
0.0
  0
VERTEX
  5
4B5
100
AcDbEntity
  8
化粧台
  6
EXLTYPE2
 62
     6
100
AcDbVertex
100
AcDb2dVertex
 10
2347.5
 20
1332.0
 30
0.0
  0
VERTEX
  5
4B6
100
AcDbEntity
  8
化粧台
  6
EXLTYPE2
 62
     6
100
AcDbVertex
100
AcDb2dVertex
 10
2344.0
 20
1334.5
 30
0.0
  0
VERTEX
  5
4B7
100
AcDbEntity
  8
化粧台
  6
EXLTYPE2
 62
     6
100
AcDbVertex
100
AcDb2dVertex
 10
2347.5
 20
1337.0
 30
0.0
  0
VERTEX
  5
4B8
100
AcDbEntity
  8
化粧台
  6
EXLTYPE2
 62
     6
100
AcDbVertex
100
AcDb2dVertex
 10
2344.0
 20
1339.5
 30
0.0
  0
VERTEX
  5
4B9
100
AcDbEntity
  8
化粧台
  6
EXLTYPE2
 62
     6
100
AcDbVertex
100
AcDb2dVertex
 10
2347.5
 20
1342.0
 30
0.0
  0
VERTEX
  5
4BA
100
AcDbEntity
  8
化粧台
  6
EXLTYPE2
 62
     6
100
AcDbVertex
100
AcDb2dVertex
 10
2344.0
 20
1344.5
 30
0.0
  0
VERTEX
  5
4BB
100
AcDbEntity
  8
化粧台
  6
EXLTYPE2
 62
     6
100
AcDbVertex
100
AcDb2dVertex
 10
2347.5
 20
1347.0
 30
0.0
  0
VERTEX
  5
4BC
100
AcDbEntity
  8
化粧台
  6
EXLTYPE2
 62
     6
100
AcDbVertex
100
AcDb2dVertex
 10
2344.0
 20
1349.5
 30
0.0
  0
VERTEX
  5
4BD
100
AcDbEntity
  8
化粧台
  6
EXLTYPE2
 62
     6
100
AcDbVertex
100
AcDb2dVertex
 10
2347.5
 20
1352.0
 30
0.0
  0
VERTEX
  5
4BE
100
AcDbEntity
  8
化粧台
  6
EXLTYPE2
 62
     6
100
AcDbVertex
100
AcDb2dVertex
 10
2344.0
 20
1354.5
 30
0.0
  0
VERTEX
  5
4BF
100
AcDbEntity
  8
化粧台
  6
EXLTYPE2
 62
     6
100
AcDbVertex
100
AcDb2dVertex
 10
2347.5
 20
1357.0
 30
0.0
  0
VERTEX
  5
4C0
100
AcDbEntity
  8
化粧台
  6
EXLTYPE2
 62
     6
100
AcDbVertex
100
AcDb2dVertex
 10
2344.0
 20
1359.5
 30
0.0
  0
VERTEX
  5
4C1
100
AcDbEntity
  8
化粧台
  6
EXLTYPE2
 62
     6
100
AcDbVertex
100
AcDb2dVertex
 10
2347.5
 20
1362.0
 30
0.0
  0
VERTEX
  5
4C2
100
AcDbEntity
  8
化粧台
  6
EXLTYPE2
 62
     6
100
AcDbVertex
100
AcDb2dVertex
 10
2344.0
 20
1364.5
 30
0.0
  0
VERTEX
  5
4C3
100
AcDbEntity
  8
化粧台
  6
EXLTYPE2
 62
     6
100
AcDbVertex
100
AcDb2dVertex
 10
2347.5
 20
1367.0
 30
0.0
  0
VERTEX
  5
4C4
100
AcDbEntity
  8
化粧台
  6
EXLTYPE2
 62
     6
100
AcDbVertex
100
AcDb2dVertex
 10
2345.85
 20
1369.5
 30
0.0
  0
SEQEND
  5
4C5
100
AcDbEntity
  8
化粧台
  6
EXLTYPE2
 62
     6
  0
LINE
  5
4C6
100
AcDbEntity
  8
化粧台
  6
EXLTYPE2
 62
     6
100
AcDbLine
 10
2314.15
 20
939.5
 30
0.0
 11
2345.85
 21
939.5
 31
0.0
  0
LINE
  5
4C7
100
AcDbEntity
  8
化粧台
  6
CONTINUOUS
 62
     6
100
AcDbLine
 10
2316.0
 20
964.5
 30
0.0
 11
2330.0
 21
964.5
 31
0.0
  0
LINE
  5
4C8
100
AcDbEntity
  8
化粧台
  6
CONTINUOUS
 62
     6
100
AcDbLine
 10
2330.0
 20
959.5
 30
0.0
 11
2344.0
 21
959.5
 31
0.0
  0
LINE
  5
4C9
100
AcDbEntity
  8
化粧台
  6
CONTINUOUS
 62
     6
100
AcDbLine
 10
2316.0
 20
954.5
 30
0.0
 11
2330.0
 21
954.5
 31
0.0
  0
LINE
  5
4CA
100
AcDbEntity
  8
化粧台
  6
CONTINUOUS
 62
     6
100
AcDbLine
 10
2330.0
 20
949.5
 30
0.0
 11
2344.0
 21
949.5
 31
0.0
  0
LINE
  5
4CB
100
AcDbEntity
  8
化粧台
  6
CONTINUOUS
 62
     6
100
AcDbLine
 10
2316.0
 20
944.5
 30
0.0
 11
2330.0
 21
944.5
 31
0.0
  0
LINE
  5
4CC
100
AcDbEntity
  8
化粧台
  6
CONTINUOUS
 62
     2
100
AcDbLine
 10
2314.15
 20
939.5
 30
0.0
 11
2314.15
 21
839.5
 31
0.0
  0
LINE
  5
4CD
100
AcDbEntity
  8
化粧台
  6
CONTINUOUS
 62
     2
100
AcDbLine
 10
2314.15
 20
839.5
 30
0.0
 11
2345.85
 21
839.5
 31
0.0
  0
LINE
  5
4CE
100
AcDbEntity
  8
化粧台
  6
CONTINUOUS
 62
     2
100
AcDbLine
 10
2345.85
 20
839.5
 30
0.0
 11
2345.85
 21
939.5
 31
0.0
  0
POLYLINE
  5
4CF
100
AcDbEntity
  8
化粧台
  6
EXLTYPE2
 62
     6
100
AcDb2dPolyline
 66
     1
 10
0.0
 20
0.0
 30
0.0
 70
   128
  0
VERTEX
  5
4D0
100
AcDbEntity
  8
化粧台
  6
EXLTYPE2
 62
     6
100
AcDbVertex
100
AcDb2dVertex
 10
2314.15
 20
1369.5
 30
0.0
  0
VERTEX
  5
4D1
100
AcDbEntity
  8
化粧台
  6
EXLTYPE2
 62
     6
100
AcDbVertex
100
AcDb2dVertex
 10
2312.5
 20
1367.0
 30
0.0
  0
VERTEX
  5
4D2
100
AcDbEntity
  8
化粧台
  6
EXLTYPE2
 62
     6
100
AcDbVertex
100
AcDb2dVertex
 10
2316.0
 20
1364.5
 30
0.0
  0
VERTEX
  5
4D3
100
AcDbEntity
  8
化粧台
  6
EXLTYPE2
 62
     6
100
AcDbVertex
100
AcDb2dVertex
 10
2312.5
 20
1362.0
 30
0.0
  0
VERTEX
  5
4D4
100
AcDbEntity
  8
化粧台
  6
EXLTYPE2
 62
     6
100
AcDbVertex
100
AcDb2dVertex
 10
2316.0
 20
1359.5
 30
0.0
  0
VERTEX
  5
4D5
100
AcDbEntity
  8
化粧台
  6
EXLTYPE2
 62
     6
100
AcDbVertex
100
AcDb2dVertex
 10
2312.5
 20
1357.0
 30
0.0
  0
VERTEX
  5
4D6
100
AcDbEntity
  8
化粧台
  6
EXLTYPE2
 62
     6
100
AcDbVertex
100
AcDb2dVertex
 10
2316.0
 20
1354.5
 30
0.0
  0
VERTEX
  5
4D7
100
AcDbEntity
  8
化粧台
  6
EXLTYPE2
 62
     6
100
AcDbVertex
100
AcDb2dVertex
 10
2312.5
 20
1352.0
 30
0.0
  0
VERTEX
  5
4D8
100
AcDbEntity
  8
化粧台
  6
EXLTYPE2
 62
     6
100
AcDbVertex
100
AcDb2dVertex
 10
2316.0
 20
1349.5
 30
0.0
  0
VERTEX
  5
4D9
100
AcDbEntity
  8
化粧台
  6
EXLTYPE2
 62
     6
100
AcDbVertex
100
AcDb2dVertex
 10
2312.5
 20
1347.0
 30
0.0
  0
VERTEX
  5
4DA
100
AcDbEntity
  8
化粧台
  6
EXLTYPE2
 62
     6
100
AcDbVertex
100
AcDb2dVertex
 10
2316.0
 20
1344.5
 30
0.0
  0
VERTEX
  5
4DB
100
AcDbEntity
  8
化粧台
  6
EXLTYPE2
 62
     6
100
AcDbVertex
100
AcDb2dVertex
 10
2312.5
 20
1342.0
 30
0.0
  0
VERTEX
  5
4DC
100
AcDbEntity
  8
化粧台
  6
EXLTYPE2
 62
     6
100
AcDbVertex
100
AcDb2dVertex
 10
2316.0
 20
1339.5
 30
0.0
  0
VERTEX
  5
4DD
100
AcDbEntity
  8
化粧台
  6
EXLTYPE2
 62
     6
100
AcDbVertex
100
AcDb2dVertex
 10
2312.5
 20
1337.0
 30
0.0
  0
VERTEX
  5
4DE
100
AcDbEntity
  8
化粧台
  6
EXLTYPE2
 62
     6
100
AcDbVertex
100
AcDb2dVertex
 10
2316.0
 20
1334.5
 30
0.0
  0
VERTEX
  5
4DF
100
AcDbEntity
  8
化粧台
  6
EXLTYPE2
 62
     6
100
AcDbVertex
100
AcDb2dVertex
 10
2312.5
 20
1332.0
 30
0.0
  0
VERTEX
  5
4E0
100
AcDbEntity
  8
化粧台
  6
EXLTYPE2
 62
     6
100
AcDbVertex
100
AcDb2dVertex
 10
2316.0
 20
1329.5
 30
0.0
  0
VERTEX
  5
4E1
100
AcDbEntity
  8
化粧台
  6
EXLTYPE2
 62
     6
100
AcDbVertex
100
AcDb2dVertex
 10
2312.5
 20
1327.0
 30
0.0
  0
VERTEX
  5
4E2
100
AcDbEntity
  8
化粧台
  6
EXLTYPE2
 62
     6
100
AcDbVertex
100
AcDb2dVertex
 10
2316.0
 20
1324.5
 30
0.0
  0
VERTEX
  5
4E3
100
AcDbEntity
  8
化粧台
  6
EXLTYPE2
 62
     6
100
AcDbVertex
100
AcDb2dVertex
 10
2312.5
 20
1322.0
 30
0.0
  0
VERTEX
  5
4E4
100
AcDbEntity
  8
化粧台
  6
EXLTYPE2
 62
     6
100
AcDbVertex
100
AcDb2dVertex
 10
2316.0
 20
1319.5
 30
0.0
  0
VERTEX
  5
4E5
100
AcDbEntity
  8
化粧台
  6
EXLTYPE2
 62
     6
100
AcDbVertex
100
AcDb2dVertex
 10
2312.5
 20
1317.0
 30
0.0
  0
VERTEX
  5
4E6
100
AcDbEntity
  8
化粧台
  6
EXLTYPE2
 62
     6
100
AcDbVertex
100
AcDb2dVertex
 10
2316.0
 20
1314.5
 30
0.0
  0
VERTEX
  5
4E7
100
AcDbEntity
  8
化粧台
  6
EXLTYPE2
 62
     6
100
AcDbVertex
100
AcDb2dVertex
 10
2312.5
 20
1312.0
 30
0.0
  0
VERTEX
  5
4E8
100
AcDbEntity
  8
化粧台
  6
EXLTYPE2
 62
     6
100
AcDbVertex
100
AcDb2dVertex
 10
2316.0
 20
1309.5
 30
0.0
  0
VERTEX
  5
4E9
100
AcDbEntity
  8
化粧台
  6
EXLTYPE2
 62
     6
100
AcDbVertex
100
AcDb2dVertex
 10
2312.5
 20
1307.0
 30
0.0
  0
VERTEX
  5
4EA
100
AcDbEntity
  8
化粧台
  6
EXLTYPE2
 62
     6
100
AcDbVertex
100
AcDb2dVertex
 10
2316.0
 20
1304.5
 30
0.0
  0
VERTEX
  5
4EB
100
AcDbEntity
  8
化粧台
  6
EXLTYPE2
 62
     6
100
AcDbVertex
100
AcDb2dVertex
 10
2312.5
 20
1302.0
 30
0.0
  0
VERTEX
  5
4EC
100
AcDbEntity
  8
化粧台
  6
EXLTYPE2
 62
     6
100
AcDbVertex
100
AcDb2dVertex
 10
2316.0
 20
1299.5
 30
0.0
  0
VERTEX
  5
4ED
100
AcDbEntity
  8
化粧台
  6
EXLTYPE2
 62
     6
100
AcDbVertex
100
AcDb2dVertex
 10
2312.5
 20
1297.0
 30
0.0
  0
VERTEX
  5
4EE
100
AcDbEntity
  8
化粧台
  6
EXLTYPE2
 62
     6
100
AcDbVertex
100
AcDb2dVertex
 10
2316.0
 20
1294.5
 30
0.0
  0
VERTEX
  5
4EF
100
AcDbEntity
  8
化粧台
  6
EXLTYPE2
 62
     6
100
AcDbVertex
100
AcDb2dVertex
 10
2312.5
 20
1292.0
 30
0.0
  0
VERTEX
  5
4F0
100
AcDbEntity
  8
化粧台
  6
EXLTYPE2
 62
     6
100
AcDbVertex
100
AcDb2dVertex
 10
2316.0
 20
1289.5
 30
0.0
  0
VERTEX
  5
4F1
100
AcDbEntity
  8
化粧台
  6
EXLTYPE2
 62
     6
100
AcDbVertex
100
AcDb2dVertex
 10
2312.5
 20
1287.0
 30
0.0
  0
VERTEX
  5
4F2
100
AcDbEntity
  8
化粧台
  6
EXLTYPE2
 62
     6
100
AcDbVertex
100
AcDb2dVertex
 10
2316.0
 20
1284.5
 30
0.0
  0
VERTEX
  5
4F3
100
AcDbEntity
  8
化粧台
  6
EXLTYPE2
 62
     6
100
AcDbVertex
100
AcDb2dVertex
 10
2312.5
 20
1282.0
 30
0.0
  0
VERTEX
  5
4F4
100
AcDbEntity
  8
化粧台
  6
EXLTYPE2
 62
     6
100
AcDbVertex
100
AcDb2dVertex
 10
2316.0
 20
1279.5
 30
0.0
  0
VERTEX
  5
4F5
100
AcDbEntity
  8
化粧台
  6
EXLTYPE2
 62
     6
100
AcDbVertex
100
AcDb2dVertex
 10
2312.5
 20
1277.0
 30
0.0
  0
VERTEX
  5
4F6
100
AcDbEntity
  8
化粧台
  6
EXLTYPE2
 62
     6
100
AcDbVertex
100
AcDb2dVertex
 10
2316.0
 20
1274.5
 30
0.0
  0
VERTEX
  5
4F7
100
AcDbEntity
  8
化粧台
  6
EXLTYPE2
 62
     6
100
AcDbVertex
100
AcDb2dVertex
 10
2312.5
 20
1272.0
 30
0.0
  0
VERTEX
  5
4F8
100
AcDbEntity
  8
化粧台
  6
EXLTYPE2
 62
     6
100
AcDbVertex
100
AcDb2dVertex
 10
2316.0
 20
1269.5
 30
0.0
  0
VERTEX
  5
4F9
100
AcDbEntity
  8
化粧台
  6
EXLTYPE2
 62
     6
100
AcDbVertex
100
AcDb2dVertex
 10
2312.5
 20
1267.0
 30
0.0
  0
VERTEX
  5
4FA
100
AcDbEntity
  8
化粧台
  6
EXLTYPE2
 62
     6
100
AcDbVertex
100
AcDb2dVertex
 10
2316.0
 20
1264.5
 30
0.0
  0
VERTEX
  5
4FB
100
AcDbEntity
  8
化粧台
  6
EXLTYPE2
 62
     6
100
AcDbVertex
100
AcDb2dVertex
 10
2312.5
 20
1262.0
 30
0.0
  0
VERTEX
  5
4FC
100
AcDbEntity
  8
化粧台
  6
EXLTYPE2
 62
     6
100
AcDbVertex
100
AcDb2dVertex
 10
2316.0
 20
1259.5
 30
0.0
  0
VERTEX
  5
4FD
100
AcDbEntity
  8
化粧台
  6
EXLTYPE2
 62
     6
100
AcDbVertex
100
AcDb2dVertex
 10
2312.5
 20
1257.0
 30
0.0
  0
VERTEX
  5
4FE
100
AcDbEntity
  8
化粧台
  6
EXLTYPE2
 62
     6
100
AcDbVertex
100
AcDb2dVertex
 10
2316.0
 20
1254.5
 30
0.0
  0
VERTEX
  5
4FF
100
AcDbEntity
  8
化粧台
  6
EXLTYPE2
 62
     6
100
AcDbVertex
100
AcDb2dVertex
 10
2312.5
 20
1252.0
 30
0.0
  0
VERTEX
  5
500
100
AcDbEntity
  8
化粧台
  6
EXLTYPE2
 62
     6
100
AcDbVertex
100
AcDb2dVertex
 10
2316.0
 20
1249.5
 30
0.0
  0
VERTEX
  5
501
100
AcDbEntity
  8
化粧台
  6
EXLTYPE2
 62
     6
100
AcDbVertex
100
AcDb2dVertex
 10
2312.5
 20
1247.0
 30
0.0
  0
VERTEX
  5
502
100
AcDbEntity
  8
化粧台
  6
EXLTYPE2
 62
     6
100
AcDbVertex
100
AcDb2dVertex
 10
2316.0
 20
1244.5
 30
0.0
  0
VERTEX
  5
503
100
AcDbEntity
  8
化粧台
  6
EXLTYPE2
 62
     6
100
AcDbVertex
100
AcDb2dVertex
 10
2312.5
 20
1242.0
 30
0.0
  0
VERTEX
  5
504
100
AcDbEntity
  8
化粧台
  6
EXLTYPE2
 62
     6
100
AcDbVertex
100
AcDb2dVertex
 10
2316.0
 20
1239.5
 30
0.0
  0
VERTEX
  5
505
100
AcDbEntity
  8
化粧台
  6
EXLTYPE2
 62
     6
100
AcDbVertex
100
AcDb2dVertex
 10
2312.5
 20
1237.0
 30
0.0
  0
VERTEX
  5
506
100
AcDbEntity
  8
化粧台
  6
EXLTYPE2
 62
     6
100
AcDbVertex
100
AcDb2dVertex
 10
2316.0
 20
1234.5
 30
0.0
  0
VERTEX
  5
507
100
AcDbEntity
  8
化粧台
  6
EXLTYPE2
 62
     6
100
AcDbVertex
100
AcDb2dVertex
 10
2312.5
 20
1232.0
 30
0.0
  0
VERTEX
  5
508
100
AcDbEntity
  8
化粧台
  6
EXLTYPE2
 62
     6
100
AcDbVertex
100
AcDb2dVertex
 10
2316.0
 20
1229.5
 30
0.0
  0
VERTEX
  5
509
100
AcDbEntity
  8
化粧台
  6
EXLTYPE2
 62
     6
100
AcDbVertex
100
AcDb2dVertex
 10
2312.5
 20
1227.0
 30
0.0
  0
VERTEX
  5
50A
100
AcDbEntity
  8
化粧台
  6
EXLTYPE2
 62
     6
100
AcDbVertex
100
AcDb2dVertex
 10
2316.0
 20
1224.5
 30
0.0
  0
VERTEX
  5
50B
100
AcDbEntity
  8
化粧台
  6
EXLTYPE2
 62
     6
100
AcDbVertex
100
AcDb2dVertex
 10
2312.5
 20
1222.0
 30
0.0
  0
VERTEX
  5
50C
100
AcDbEntity
  8
化粧台
  6
EXLTYPE2
 62
     6
100
AcDbVertex
100
AcDb2dVertex
 10
2316.0
 20
1219.5
 30
0.0
  0
VERTEX
  5
50D
100
AcDbEntity
  8
化粧台
  6
EXLTYPE2
 62
     6
100
AcDbVertex
100
AcDb2dVertex
 10
2312.5
 20
1217.0
 30
0.0
  0
VERTEX
  5
50E
100
AcDbEntity
  8
化粧台
  6
EXLTYPE2
 62
     6
100
AcDbVertex
100
AcDb2dVertex
 10
2316.0
 20
1214.5
 30
0.0
  0
VERTEX
  5
50F
100
AcDbEntity
  8
化粧台
  6
EXLTYPE2
 62
     6
100
AcDbVertex
100
AcDb2dVertex
 10
2312.5
 20
1212.0
 30
0.0
  0
VERTEX
  5
510
100
AcDbEntity
  8
化粧台
  6
EXLTYPE2
 62
     6
100
AcDbVertex
100
AcDb2dVertex
 10
2316.0
 20
1209.5
 30
0.0
  0
VERTEX
  5
511
100
AcDbEntity
  8
化粧台
  6
EXLTYPE2
 62
     6
100
AcDbVertex
100
AcDb2dVertex
 10
2312.5
 20
1207.0
 30
0.0
  0
VERTEX
  5
512
100
AcDbEntity
  8
化粧台
  6
EXLTYPE2
 62
     6
100
AcDbVertex
100
AcDb2dVertex
 10
2316.0
 20
1204.5
 30
0.0
  0
VERTEX
  5
513
100
AcDbEntity
  8
化粧台
  6
EXLTYPE2
 62
     6
100
AcDbVertex
100
AcDb2dVertex
 10
2312.5
 20
1202.0
 30
0.0
  0
VERTEX
  5
514
100
AcDbEntity
  8
化粧台
  6
EXLTYPE2
 62
     6
100
AcDbVertex
100
AcDb2dVertex
 10
2316.0
 20
1199.5
 30
0.0
  0
VERTEX
  5
515
100
AcDbEntity
  8
化粧台
  6
EXLTYPE2
 62
     6
100
AcDbVertex
100
AcDb2dVertex
 10
2312.5
 20
1197.0
 30
0.0
  0
VERTEX
  5
516
100
AcDbEntity
  8
化粧台
  6
EXLTYPE2
 62
     6
100
AcDbVertex
100
AcDb2dVertex
 10
2316.0
 20
1194.5
 30
0.0
  0
VERTEX
  5
517
100
AcDbEntity
  8
化粧台
  6
EXLTYPE2
 62
     6
100
AcDbVertex
100
AcDb2dVertex
 10
2312.5
 20
1192.0
 30
0.0
  0
VERTEX
  5
518
100
AcDbEntity
  8
化粧台
  6
EXLTYPE2
 62
     6
100
AcDbVertex
100
AcDb2dVertex
 10
2316.0
 20
1189.5
 30
0.0
  0
VERTEX
  5
519
100
AcDbEntity
  8
化粧台
  6
EXLTYPE2
 62
     6
100
AcDbVertex
100
AcDb2dVertex
 10
2312.5
 20
1187.0
 30
0.0
  0
VERTEX
  5
51A
100
AcDbEntity
  8
化粧台
  6
EXLTYPE2
 62
     6
100
AcDbVertex
100
AcDb2dVertex
 10
2316.0
 20
1184.5
 30
0.0
  0
VERTEX
  5
51B
100
AcDbEntity
  8
化粧台
  6
EXLTYPE2
 62
     6
100
AcDbVertex
100
AcDb2dVertex
 10
2312.5
 20
1182.0
 30
0.0
  0
VERTEX
  5
51C
100
AcDbEntity
  8
化粧台
  6
EXLTYPE2
 62
     6
100
AcDbVertex
100
AcDb2dVertex
 10
2316.0
 20
1179.5
 30
0.0
  0
VERTEX
  5
51D
100
AcDbEntity
  8
化粧台
  6
EXLTYPE2
 62
     6
100
AcDbVertex
100
AcDb2dVertex
 10
2312.5
 20
1177.0
 30
0.0
  0
VERTEX
  5
51E
100
AcDbEntity
  8
化粧台
  6
EXLTYPE2
 62
     6
100
AcDbVertex
100
AcDb2dVertex
 10
2316.0
 20
1174.5
 30
0.0
  0
VERTEX
  5
51F
100
AcDbEntity
  8
化粧台
  6
EXLTYPE2
 62
     6
100
AcDbVertex
100
AcDb2dVertex
 10
2312.5
 20
1172.0
 30
0.0
  0
VERTEX
  5
520
100
AcDbEntity
  8
化粧台
  6
EXLTYPE2
 62
     6
100
AcDbVertex
100
AcDb2dVertex
 10
2316.0
 20
1169.5
 30
0.0
  0
VERTEX
  5
521
100
AcDbEntity
  8
化粧台
  6
EXLTYPE2
 62
     6
100
AcDbVertex
100
AcDb2dVertex
 10
2312.5
 20
1167.0
 30
0.0
  0
VERTEX
  5
522
100
AcDbEntity
  8
化粧台
  6
EXLTYPE2
 62
     6
100
AcDbVertex
100
AcDb2dVertex
 10
2316.0
 20
1164.5
 30
0.0
  0
VERTEX
  5
523
100
AcDbEntity
  8
化粧台
  6
EXLTYPE2
 62
     6
100
AcDbVertex
100
AcDb2dVertex
 10
2312.5
 20
1162.0
 30
0.0
  0
VERTEX
  5
524
100
AcDbEntity
  8
化粧台
  6
EXLTYPE2
 62
     6
100
AcDbVertex
100
AcDb2dVertex
 10
2316.0
 20
1159.5
 30
0.0
  0
VERTEX
  5
525
100
AcDbEntity
  8
化粧台
  6
EXLTYPE2
 62
     6
100
AcDbVertex
100
AcDb2dVertex
 10
2312.5
 20
1157.0
 30
0.0
  0
VERTEX
  5
526
100
AcDbEntity
  8
化粧台
  6
EXLTYPE2
 62
     6
100
AcDbVertex
100
AcDb2dVertex
 10
2316.0
 20
1154.5
 30
0.0
  0
VERTEX
  5
527
100
AcDbEntity
  8
化粧台
  6
EXLTYPE2
 62
     6
100
AcDbVertex
100
AcDb2dVertex
 10
2312.5
 20
1152.0
 30
0.0
  0
VERTEX
  5
528
100
AcDbEntity
  8
化粧台
  6
EXLTYPE2
 62
     6
100
AcDbVertex
100
AcDb2dVertex
 10
2316.0
 20
1149.5
 30
0.0
  0
VERTEX
  5
529
100
AcDbEntity
  8
化粧台
  6
EXLTYPE2
 62
     6
100
AcDbVertex
100
AcDb2dVertex
 10
2312.5
 20
1147.0
 30
0.0
  0
VERTEX
  5
52A
100
AcDbEntity
  8
化粧台
  6
EXLTYPE2
 62
     6
100
AcDbVertex
100
AcDb2dVertex
 10
2316.0
 20
1144.5
 30
0.0
  0
VERTEX
  5
52B
100
AcDbEntity
  8
化粧台
  6
EXLTYPE2
 62
     6
100
AcDbVertex
100
AcDb2dVertex
 10
2312.5
 20
1142.0
 30
0.0
  0
VERTEX
  5
52C
100
AcDbEntity
  8
化粧台
  6
EXLTYPE2
 62
     6
100
AcDbVertex
100
AcDb2dVertex
 10
2316.0
 20
1139.5
 30
0.0
  0
VERTEX
  5
52D
100
AcDbEntity
  8
化粧台
  6
EXLTYPE2
 62
     6
100
AcDbVertex
100
AcDb2dVertex
 10
2312.5
 20
1137.0
 30
0.0
  0
VERTEX
  5
52E
100
AcDbEntity
  8
化粧台
  6
EXLTYPE2
 62
     6
100
AcDbVertex
100
AcDb2dVertex
 10
2316.0
 20
1134.5
 30
0.0
  0
VERTEX
  5
52F
100
AcDbEntity
  8
化粧台
  6
EXLTYPE2
 62
     6
100
AcDbVertex
100
AcDb2dVertex
 10
2312.5
 20
1132.0
 30
0.0
  0
VERTEX
  5
530
100
AcDbEntity
  8
化粧台
  6
EXLTYPE2
 62
     6
100
AcDbVertex
100
AcDb2dVertex
 10
2316.0
 20
1129.5
 30
0.0
  0
VERTEX
  5
531
100
AcDbEntity
  8
化粧台
  6
EXLTYPE2
 62
     6
100
AcDbVertex
100
AcDb2dVertex
 10
2312.5
 20
1127.0
 30
0.0
  0
VERTEX
  5
532
100
AcDbEntity
  8
化粧台
  6
EXLTYPE2
 62
     6
100
AcDbVertex
100
AcDb2dVertex
 10
2316.0
 20
1124.5
 30
0.0
  0
VERTEX
  5
533
100
AcDbEntity
  8
化粧台
  6
EXLTYPE2
 62
     6
100
AcDbVertex
100
AcDb2dVertex
 10
2312.5
 20
1122.0
 30
0.0
  0
VERTEX
  5
534
100
AcDbEntity
  8
化粧台
  6
EXLTYPE2
 62
     6
100
AcDbVertex
100
AcDb2dVertex
 10
2316.0
 20
1119.5
 30
0.0
  0
VERTEX
  5
535
100
AcDbEntity
  8
化粧台
  6
EXLTYPE2
 62
     6
100
AcDbVertex
100
AcDb2dVertex
 10
2312.5
 20
1117.0
 30
0.0
  0
VERTEX
  5
536
100
AcDbEntity
  8
化粧台
  6
EXLTYPE2
 62
     6
100
AcDbVertex
100
AcDb2dVertex
 10
2316.0
 20
1114.5
 30
0.0
  0
VERTEX
  5
537
100
AcDbEntity
  8
化粧台
  6
EXLTYPE2
 62
     6
100
AcDbVertex
100
AcDb2dVertex
 10
2312.5
 20
1112.0
 30
0.0
  0
VERTEX
  5
538
100
AcDbEntity
  8
化粧台
  6
EXLTYPE2
 62
     6
100
AcDbVertex
100
AcDb2dVertex
 10
2316.0
 20
1109.5
 30
0.0
  0
VERTEX
  5
539
100
AcDbEntity
  8
化粧台
  6
EXLTYPE2
 62
     6
100
AcDbVertex
100
AcDb2dVertex
 10
2312.5
 20
1107.0
 30
0.0
  0
VERTEX
  5
53A
100
AcDbEntity
  8
化粧台
  6
EXLTYPE2
 62
     6
100
AcDbVertex
100
AcDb2dVertex
 10
2316.0
 20
1104.5
 30
0.0
  0
VERTEX
  5
53B
100
AcDbEntity
  8
化粧台
  6
EXLTYPE2
 62
     6
100
AcDbVertex
100
AcDb2dVertex
 10
2312.5
 20
1102.0
 30
0.0
  0
VERTEX
  5
53C
100
AcDbEntity
  8
化粧台
  6
EXLTYPE2
 62
     6
100
AcDbVertex
100
AcDb2dVertex
 10
2316.0
 20
1099.5
 30
0.0
  0
VERTEX
  5
53D
100
AcDbEntity
  8
化粧台
  6
EXLTYPE2
 62
     6
100
AcDbVertex
100
AcDb2dVertex
 10
2312.5
 20
1097.0
 30
0.0
  0
VERTEX
  5
53E
100
AcDbEntity
  8
化粧台
  6
EXLTYPE2
 62
     6
100
AcDbVertex
100
AcDb2dVertex
 10
2316.0
 20
1094.5
 30
0.0
  0
VERTEX
  5
53F
100
AcDbEntity
  8
化粧台
  6
EXLTYPE2
 62
     6
100
AcDbVertex
100
AcDb2dVertex
 10
2312.5
 20
1092.0
 30
0.0
  0
VERTEX
  5
540
100
AcDbEntity
  8
化粧台
  6
EXLTYPE2
 62
     6
100
AcDbVertex
100
AcDb2dVertex
 10
2316.0
 20
1089.5
 30
0.0
  0
VERTEX
  5
541
100
AcDbEntity
  8
化粧台
  6
EXLTYPE2
 62
     6
100
AcDbVertex
100
AcDb2dVertex
 10
2312.5
 20
1087.0
 30
0.0
  0
VERTEX
  5
542
100
AcDbEntity
  8
化粧台
  6
EXLTYPE2
 62
     6
100
AcDbVertex
100
AcDb2dVertex
 10
2316.0
 20
1084.5
 30
0.0
  0
VERTEX
  5
543
100
AcDbEntity
  8
化粧台
  6
EXLTYPE2
 62
     6
100
AcDbVertex
100
AcDb2dVertex
 10
2312.5
 20
1082.0
 30
0.0
  0
VERTEX
  5
544
100
AcDbEntity
  8
化粧台
  6
EXLTYPE2
 62
     6
100
AcDbVertex
100
AcDb2dVertex
 10
2316.0
 20
1079.5
 30
0.0
  0
VERTEX
  5
545
100
AcDbEntity
  8
化粧台
  6
EXLTYPE2
 62
     6
100
AcDbVertex
100
AcDb2dVertex
 10
2312.5
 20
1077.0
 30
0.0
  0
VERTEX
  5
546
100
AcDbEntity
  8
化粧台
  6
EXLTYPE2
 62
     6
100
AcDbVertex
100
AcDb2dVertex
 10
2316.0
 20
1074.5
 30
0.0
  0
VERTEX
  5
547
100
AcDbEntity
  8
化粧台
  6
EXLTYPE2
 62
     6
100
AcDbVertex
100
AcDb2dVertex
 10
2312.5
 20
1072.0
 30
0.0
  0
VERTEX
  5
548
100
AcDbEntity
  8
化粧台
  6
EXLTYPE2
 62
     6
100
AcDbVertex
100
AcDb2dVertex
 10
2316.0
 20
1069.5
 30
0.0
  0
VERTEX
  5
549
100
AcDbEntity
  8
化粧台
  6
EXLTYPE2
 62
     6
100
AcDbVertex
100
AcDb2dVertex
 10
2312.5
 20
1067.0
 30
0.0
  0
VERTEX
  5
54A
100
AcDbEntity
  8
化粧台
  6
EXLTYPE2
 62
     6
100
AcDbVertex
100
AcDb2dVertex
 10
2316.0
 20
1064.5
 30
0.0
  0
VERTEX
  5
54B
100
AcDbEntity
  8
化粧台
  6
EXLTYPE2
 62
     6
100
AcDbVertex
100
AcDb2dVertex
 10
2312.5
 20
1062.0
 30
0.0
  0
VERTEX
  5
54C
100
AcDbEntity
  8
化粧台
  6
EXLTYPE2
 62
     6
100
AcDbVertex
100
AcDb2dVertex
 10
2316.0
 20
1059.5
 30
0.0
  0
VERTEX
  5
54D
100
AcDbEntity
  8
化粧台
  6
EXLTYPE2
 62
     6
100
AcDbVertex
100
AcDb2dVertex
 10
2312.5
 20
1057.0
 30
0.0
  0
VERTEX
  5
54E
100
AcDbEntity
  8
化粧台
  6
EXLTYPE2
 62
     6
100
AcDbVertex
100
AcDb2dVertex
 10
2316.0
 20
1054.5
 30
0.0
  0
VERTEX
  5
54F
100
AcDbEntity
  8
化粧台
  6
EXLTYPE2
 62
     6
100
AcDbVertex
100
AcDb2dVertex
 10
2312.5
 20
1052.0
 30
0.0
  0
VERTEX
  5
550
100
AcDbEntity
  8
化粧台
  6
EXLTYPE2
 62
     6
100
AcDbVertex
100
AcDb2dVertex
 10
2316.0
 20
1049.5
 30
0.0
  0
VERTEX
  5
551
100
AcDbEntity
  8
化粧台
  6
EXLTYPE2
 62
     6
100
AcDbVertex
100
AcDb2dVertex
 10
2312.5
 20
1047.0
 30
0.0
  0
VERTEX
  5
552
100
AcDbEntity
  8
化粧台
  6
EXLTYPE2
 62
     6
100
AcDbVertex
100
AcDb2dVertex
 10
2316.0
 20
1044.5
 30
0.0
  0
VERTEX
  5
553
100
AcDbEntity
  8
化粧台
  6
EXLTYPE2
 62
     6
100
AcDbVertex
100
AcDb2dVertex
 10
2312.5
 20
1042.0
 30
0.0
  0
VERTEX
  5
554
100
AcDbEntity
  8
化粧台
  6
EXLTYPE2
 62
     6
100
AcDbVertex
100
AcDb2dVertex
 10
2316.0
 20
1039.5
 30
0.0
  0
VERTEX
  5
555
100
AcDbEntity
  8
化粧台
  6
EXLTYPE2
 62
     6
100
AcDbVertex
100
AcDb2dVertex
 10
2312.5
 20
1037.0
 30
0.0
  0
VERTEX
  5
556
100
AcDbEntity
  8
化粧台
  6
EXLTYPE2
 62
     6
100
AcDbVertex
100
AcDb2dVertex
 10
2316.0
 20
1034.5
 30
0.0
  0
VERTEX
  5
557
100
AcDbEntity
  8
化粧台
  6
EXLTYPE2
 62
     6
100
AcDbVertex
100
AcDb2dVertex
 10
2312.5
 20
1032.0
 30
0.0
  0
VERTEX
  5
558
100
AcDbEntity
  8
化粧台
  6
EXLTYPE2
 62
     6
100
AcDbVertex
100
AcDb2dVertex
 10
2316.0
 20
1029.5
 30
0.0
  0
VERTEX
  5
559
100
AcDbEntity
  8
化粧台
  6
EXLTYPE2
 62
     6
100
AcDbVertex
100
AcDb2dVertex
 10
2312.5
 20
1027.0
 30
0.0
  0
VERTEX
  5
55A
100
AcDbEntity
  8
化粧台
  6
EXLTYPE2
 62
     6
100
AcDbVertex
100
AcDb2dVertex
 10
2316.0
 20
1024.5
 30
0.0
  0
VERTEX
  5
55B
100
AcDbEntity
  8
化粧台
  6
EXLTYPE2
 62
     6
100
AcDbVertex
100
AcDb2dVertex
 10
2312.5
 20
1022.0
 30
0.0
  0
VERTEX
  5
55C
100
AcDbEntity
  8
化粧台
  6
EXLTYPE2
 62
     6
100
AcDbVertex
100
AcDb2dVertex
 10
2316.0
 20
1019.5
 30
0.0
  0
VERTEX
  5
55D
100
AcDbEntity
  8
化粧台
  6
EXLTYPE2
 62
     6
100
AcDbVertex
100
AcDb2dVertex
 10
2312.5
 20
1017.0
 30
0.0
  0
VERTEX
  5
55E
100
AcDbEntity
  8
化粧台
  6
EXLTYPE2
 62
     6
100
AcDbVertex
100
AcDb2dVertex
 10
2316.0
 20
1014.5
 30
0.0
  0
VERTEX
  5
55F
100
AcDbEntity
  8
化粧台
  6
EXLTYPE2
 62
     6
100
AcDbVertex
100
AcDb2dVertex
 10
2312.5
 20
1012.0
 30
0.0
  0
VERTEX
  5
560
100
AcDbEntity
  8
化粧台
  6
EXLTYPE2
 62
     6
100
AcDbVertex
100
AcDb2dVertex
 10
2316.0
 20
1009.5
 30
0.0
  0
VERTEX
  5
561
100
AcDbEntity
  8
化粧台
  6
EXLTYPE2
 62
     6
100
AcDbVertex
100
AcDb2dVertex
 10
2312.5
 20
1007.0
 30
0.0
  0
VERTEX
  5
562
100
AcDbEntity
  8
化粧台
  6
EXLTYPE2
 62
     6
100
AcDbVertex
100
AcDb2dVertex
 10
2316.0
 20
1004.5
 30
0.0
  0
VERTEX
  5
563
100
AcDbEntity
  8
化粧台
  6
EXLTYPE2
 62
     6
100
AcDbVertex
100
AcDb2dVertex
 10
2312.5
 20
1002.0
 30
0.0
  0
VERTEX
  5
564
100
AcDbEntity
  8
化粧台
  6
EXLTYPE2
 62
     6
100
AcDbVertex
100
AcDb2dVertex
 10
2316.0
 20
999.5
 30
0.0
  0
VERTEX
  5
565
100
AcDbEntity
  8
化粧台
  6
EXLTYPE2
 62
     6
100
AcDbVertex
100
AcDb2dVertex
 10
2312.5
 20
997.0
 30
0.0
  0
VERTEX
  5
566
100
AcDbEntity
  8
化粧台
  6
EXLTYPE2
 62
     6
100
AcDbVertex
100
AcDb2dVertex
 10
2316.0
 20
994.5
 30
0.0
  0
VERTEX
  5
567
100
AcDbEntity
  8
化粧台
  6
EXLTYPE2
 62
     6
100
AcDbVertex
100
AcDb2dVertex
 10
2312.5
 20
992.0
 30
0.0
  0
VERTEX
  5
568
100
AcDbEntity
  8
化粧台
  6
EXLTYPE2
 62
     6
100
AcDbVertex
100
AcDb2dVertex
 10
2316.0
 20
989.5
 30
0.0
  0
VERTEX
  5
569
100
AcDbEntity
  8
化粧台
  6
EXLTYPE2
 62
     6
100
AcDbVertex
100
AcDb2dVertex
 10
2312.5
 20
987.0
 30
0.0
  0
VERTEX
  5
56A
100
AcDbEntity
  8
化粧台
  6
EXLTYPE2
 62
     6
100
AcDbVertex
100
AcDb2dVertex
 10
2316.0
 20
984.5
 30
0.0
  0
VERTEX
  5
56B
100
AcDbEntity
  8
化粧台
  6
EXLTYPE2
 62
     6
100
AcDbVertex
100
AcDb2dVertex
 10
2312.5
 20
982.0
 30
0.0
  0
VERTEX
  5
56C
100
AcDbEntity
  8
化粧台
  6
EXLTYPE2
 62
     6
100
AcDbVertex
100
AcDb2dVertex
 10
2316.0
 20
979.5
 30
0.0
  0
VERTEX
  5
56D
100
AcDbEntity
  8
化粧台
  6
EXLTYPE2
 62
     6
100
AcDbVertex
100
AcDb2dVertex
 10
2312.5
 20
977.0
 30
0.0
  0
VERTEX
  5
56E
100
AcDbEntity
  8
化粧台
  6
EXLTYPE2
 62
     6
100
AcDbVertex
100
AcDb2dVertex
 10
2316.0
 20
974.5
 30
0.0
  0
VERTEX
  5
56F
100
AcDbEntity
  8
化粧台
  6
EXLTYPE2
 62
     6
100
AcDbVertex
100
AcDb2dVertex
 10
2312.5
 20
972.0
 30
0.0
  0
VERTEX
  5
570
100
AcDbEntity
  8
化粧台
  6
EXLTYPE2
 62
     6
100
AcDbVertex
100
AcDb2dVertex
 10
2316.0
 20
969.5
 30
0.0
  0
VERTEX
  5
571
100
AcDbEntity
  8
化粧台
  6
EXLTYPE2
 62
     6
100
AcDbVertex
100
AcDb2dVertex
 10
2312.5
 20
967.0
 30
0.0
  0
VERTEX
  5
572
100
AcDbEntity
  8
化粧台
  6
EXLTYPE2
 62
     6
100
AcDbVertex
100
AcDb2dVertex
 10
2316.0
 20
964.5
 30
0.0
  0
VERTEX
  5
573
100
AcDbEntity
  8
化粧台
  6
EXLTYPE2
 62
     6
100
AcDbVertex
100
AcDb2dVertex
 10
2312.5
 20
962.0
 30
0.0
  0
VERTEX
  5
574
100
AcDbEntity
  8
化粧台
  6
EXLTYPE2
 62
     6
100
AcDbVertex
100
AcDb2dVertex
 10
2316.0
 20
959.5
 30
0.0
  0
VERTEX
  5
575
100
AcDbEntity
  8
化粧台
  6
EXLTYPE2
 62
     6
100
AcDbVertex
100
AcDb2dVertex
 10
2312.5
 20
957.0
 30
0.0
  0
VERTEX
  5
576
100
AcDbEntity
  8
化粧台
  6
EXLTYPE2
 62
     6
100
AcDbVertex
100
AcDb2dVertex
 10
2316.0
 20
954.5
 30
0.0
  0
VERTEX
  5
577
100
AcDbEntity
  8
化粧台
  6
EXLTYPE2
 62
     6
100
AcDbVertex
100
AcDb2dVertex
 10
2312.5
 20
952.0
 30
0.0
  0
VERTEX
  5
578
100
AcDbEntity
  8
化粧台
  6
EXLTYPE2
 62
     6
100
AcDbVertex
100
AcDb2dVertex
 10
2316.0
 20
949.5
 30
0.0
  0
VERTEX
  5
579
100
AcDbEntity
  8
化粧台
  6
EXLTYPE2
 62
     6
100
AcDbVertex
100
AcDb2dVertex
 10
2312.5
 20
947.0
 30
0.0
  0
VERTEX
  5
57A
100
AcDbEntity
  8
化粧台
  6
EXLTYPE2
 62
     6
100
AcDbVertex
100
AcDb2dVertex
 10
2316.0
 20
944.5
 30
0.0
  0
VERTEX
  5
57B
100
AcDbEntity
  8
化粧台
  6
EXLTYPE2
 62
     6
100
AcDbVertex
100
AcDb2dVertex
 10
2312.5
 20
942.0
 30
0.0
  0
VERTEX
  5
57C
100
AcDbEntity
  8
化粧台
  6
EXLTYPE2
 62
     6
100
AcDbVertex
100
AcDb2dVertex
 10
2314.15
 20
939.5
 30
0.0
  0
SEQEND
  5
57D
100
AcDbEntity
  8
化粧台
  6
EXLTYPE2
 62
     6
  0
LINE
  5
57E
100
AcDbEntity
  8
化粧台
  6
EXLTYPE2
 62
     6
100
AcDbLine
 10
2314.15
 20
1397.328125
 30
0.0
 11
2314.15
 21
1369.5
 31
0.0
  0
LINE
  5
57F
100
AcDbEntity
  8
化粧台
  6
EXLTYPE2
 62
     6
100
AcDbLine
 10
2345.85
 20
1369.5
 30
0.0
 11
2345.85
 21
1398.0
 31
0.0
  0
TEXT
  5
580
100
AcDbEntity
  8
化粧台
  6
CONTINUOUS
 62
     2
100
AcDbText
 10
1621.500002
 20
785.25
 30
0.0
 40
60.0
  1
ＶＰ･ＶＵ４０･５０
 41
0.62784
  7
EXCADSTD
 72
     5
 11
2053.5
 21
785.25
 31
0.0
100
AcDbText
  0
LEADER
  5
581
100
AcDbEntity
  8
化粧台
  6
CONTINUOUS
 62
     3
100
AcDbLeader
  3
STANDARD
 73
     3
 74
     1
 75
     0
 40
0.0
 76
     3
 10
2297.0
 20
943.5
 30
0.0
 10
2061.0
 20
780.0
 30
0.0
 10
1618.0
 20
780.0
 30
0.0
 77
     3
1001
ACAD
1000
DSTYLE
1002
{
1070
    41
1040
45.0
1070
     5
1000
_EX_NORM
1070
     6
1000
_EX_NORM
1070
     7
1000
_EX_NORM
1070
   341
1005
2A
1002
}
  0
POINT
  5
582
100
AcDbEntity
  8
化粧台
  6
CONTINUOUS
 62
     6
100
AcDbPoint
 10
991.000114
 20
3837.5
 30
0.0
  0
POINT
  5
583
100
AcDbEntity
  8
化粧台
  6
CONTINUOUS
 62
     6
100
AcDbPoint
 10
849.000114
 20
3837.5
 30
0.0
  0
ARC
  5
584
100
AcDbEntity
  8
化粧台
  6
EXLTYPE2
 62
     6
100
AcDbCircle
 10
869.000114
 20
3837.5
 30
0.0
 40
20.0
100
AcDbArc
 50
92.981359
 51
257.188799
  0
ARC
  5
585
100
AcDbEntity
  8
化粧台
  6
EXLTYPE2
 62
     6
100
AcDbCircle
 10
971.000114
 20
3837.5
 30
0.0
 40
20.0
100
AcDbArc
 50
282.811201
 51
87.018641
  0
ARC
  5
586
100
AcDbEntity
  8
化粧台
  6
EXLTYPE2
 62
     6
100
AcDbCircle
 10
920.000114
 20
2858.266366
 30
0.0
 40
1000.560814
100
AcDbArc
 50
87.018641
 51
92.981359
  0
ARC
  5
587
100
AcDbEntity
  8
化粧台
  6
EXLTYPE2
 62
     6
100
AcDbCircle
 10
920.000114
 20
4061.747438
 30
0.0
 40
249.973724
100
AcDbArc
 50
257.18731
 51
262.203178
  0
ARC
  5
588
100
AcDbEntity
  8
化粧台
  6
EXLTYPE2
 62
     6
100
AcDbCircle
 10
920.000114
 20
4061.747438
 30
0.0
 40
249.973724
100
AcDbArc
 50
277.796822
 51
282.81269
  0
ARC
  5
589
100
AcDbEntity
  8
化粧台
  6
EXLTYPE2
 62
     6
100
AcDbCircle
 10
955.539629
 20
3802.195566
 30
0.0
 40
12.0
100
AcDbArc
 50
97.796822
 51
176.008301
  0
ARC
  5
58A
100
AcDbEntity
  8
化粧台
  6
EXLTYPE2
 62
     6
100
AcDbCircle
 10
884.460598
 20
3802.195566
 30
0.0
 40
12.0
100
AcDbArc
 50
3.991699
 51
82.203178
  0
ELLIPSE
  5
58B
100
AcDbEntity
  8
化粧台
  6
EXLTYPE2
 62
     6
100
AcDbEllipse
 10
920.000114
 20
3805.177298
 30
0.0
 11
23.446000000000002
 21
0.0
 31
0.0
210
0.0
220
0.0
230
1.0
 40
0.984816
 41
0.45368
 42
2.763067000000003
  0
ELLIPSE
  5
58C
100
AcDbEntity
  8
化粧台
  6
EXLTYPE2
 62
     6
100
AcDbEllipse
 10
920.000114
 20
3794.510488
 30
0.0
 11
-22.5
 21
0.0000000000000028
 31
0.0
210
0.0
220
0.0
230
1.0
 40
0.9848
 41
2.4586609999999993
 42
0.6829310000000005
  0
ARC
  5
58D
100
AcDbEntity
  8
化粧台
  6
EXLTYPE2
 62
     6
100
AcDbCircle
 10
865.123232
 20
3774.924443
 30
0.0
 40
37.840132
100
AcDbArc
 50
8.514811
 51
31.171388
  0
ARC
  5
58E
100
AcDbEntity
  8
化粧台
  6
EXLTYPE2
 62
     6
100
AcDbCircle
 10
974.876995
 20
3774.924443
 30
0.0
 40
37.840132
100
AcDbArc
 50
148.828612
 51
171.485189
  0
ARC
  5
58F
100
AcDbEntity
  8
化粧台
  6
CONTINUOUS
 62
     6
100
AcDbCircle
 10
920.000114
 20
3717.977349
 30
0.0
 40
8.0
100
AcDbArc
 50
188.514811
 51
351.485189
  0
ARC
  5
590
100
AcDbEntity
  8
化粧台
  6
CONTINUOUS
 62
     6
100
AcDbCircle
 10
920.000114
 20
3720.60278
 30
0.0
 40
16.0
100
AcDbArc
 50
186.414462
 51
353.585538
  0
ARC
  5
591
100
AcDbEntity
  8
化粧台
  6
EXLTYPE2
 62
     6
100
AcDbCircle
 10
2891.57978
 20
3942.2548
 30
0.0
 40
2000.0
100
AcDbArc
 50
183.991699
 51
185.036682
  0
ARC
  5
592
100
AcDbEntity
  8
化粧台
  6
EXLTYPE2
 62
     6
100
AcDbCircle
 10
-1051.579553
 20
3942.2548
 30
0.0
 40
2000.0
100
AcDbArc
 50
354.963318
 51
356.008301
  0
LINE
  5
593
100
AcDbEntity
  8
化粧台
  6
EXLTYPE2
 62
     6
100
AcDbLine
 10
935.360968
 20
3766.547488
 30
0.0
 11
937.596293
 21
3781.477998
 31
0.0
  0
LINE
  5
594
100
AcDbEntity
  8
化粧台
  6
EXLTYPE2
 62
     6
100
AcDbLine
 10
904.63926
 20
3766.547484
 30
0.0
 11
902.546276
 21
3780.527245
 31
0.0
  0
ARC
  5
595
100
AcDbEntity
  8
化粧台
  6
CONTINUOUS
 62
     6
100
AcDbCircle
 10
902.0
 20
3719.856585
 30
0.0
 40
3.0
100
AcDbArc
 50
58.944545
 51
318.222504
  0
ARC
  5
596
100
AcDbEntity
  8
化粧台
  6
CONTINUOUS
 62
     6
100
AcDbCircle
 10
2891.57978
 20
3942.2548
 30
0.0
 40
2000.0
100
AcDbArc
 50
186.304415
 51
186.414462
  0
LINE
  5
597
100
AcDbEntity
  8
化粧台
  6
CONTINUOUS
 62
     6
100
AcDbLine
 10
912.088293
 20
3716.792828
 30
0.0
 11
911.228103
 21
3722.538331
 31
0.0
  0
LINE
  5
598
100
AcDbEntity
  8
化粧台
  6
CONTINUOUS
 62
     6
100
AcDbLine
 10
927.911935
 20
3716.792828
 30
0.0
 11
928.772168
 21
3722.53862
 31
0.0
  0
ARC
  5
599
100
AcDbEntity
  8
化粧台
  6
CONTINUOUS
 62
     6
100
AcDbCircle
 10
-1051.579553
 20
3942.2548
 30
0.0
 40
2000.0
100
AcDbArc
 50
353.585538
 51
353.695601
  0
ARC
  5
59A
100
AcDbEntity
  8
化粧台
  6
CONTINUOUS
 62
     6
100
AcDbCircle
 10
2891.57978
 20
3942.2548
 30
0.0
 40
2000.0
100
AcDbArc
 50
185.036682
 51
186.304415
  0
ARC
  5
59B
100
AcDbEntity
  8
化粧台
  6
CONTINUOUS
 62
     6
100
AcDbCircle
 10
-1051.579553
 20
3942.2548
 30
0.0
 40
2000.0
100
AcDbArc
 50
353.695601
 51
354.963318
  0
LINE
  5
59C
100
AcDbEntity
  8
化粧台
  6
CONTINUOUS
 62
     6
100
AcDbLine
 10
928.772168
 20
3722.53862
 30
0.0
 11
935.360968
 21
3766.547488
 31
0.0
  0
LINE
  5
59D
100
AcDbEntity
  8
化粧台
  6
CONTINUOUS
 62
     6
100
AcDbLine
 10
911.228103
 20
3722.538331
 30
0.0
 11
904.63926
 21
3766.547484
 31
0.0
  0
ARC
  5
59E
100
AcDbEntity
  8
化粧台
  6
CONTINUOUS
 62
     6
100
AcDbCircle
 10
942.009797
 20
1683.502
 30
0.0
 40
50.0
100
AcDbArc
 50
11.534621
 51
22.021223
  0
ARC
  5
59F
100
AcDbEntity
  8
化粧台
  6
CONTINUOUS
 62
     6
100
AcDbCircle
 10
979.091598
 20
1698.5
 30
0.0
 40
10.0
100
AcDbArc
 50
22.021223
 51
84.101526
  0
ARC
  5
5A0
100
AcDbEntity
  8
化粧台
  6
CONTINUOUS
 62
     6
100
AcDbCircle
 10
951.229387
 20
1701.5
 30
0.0
 40
8.0
100
AcDbArc
 50
189.887424
 51
270.0
  0
ARC
  5
5A1
100
AcDbEntity
  8
化粧台
  6
CONTINUOUS
 62
     6
100
AcDbCircle
 10
888.770612
 20
1701.5
 30
0.0
 40
8.0
100
AcDbArc
 50
270.0
 51
350.112576
  0
ARC
  5
5A2
100
AcDbEntity
  8
化粧台
  6
CONTINUOUS
 62
     6
100
AcDbCircle
 10
876.759131
 20
1729.997147
 30
0.0
 40
20.0
100
AcDbArc
 50
274.098493
 51
358.0
  0
ARC
  5
5A3
100
AcDbEntity
  8
化粧台
  6
CONTINUOUS
 62
     6
100
AcDbCircle
 10
920.0
 20
1126.533418
 30
0.0
 40
585.010946
100
AcDbArc
 50
94.098493
 51
95.898474
  0
ARC
  5
5A4
100
AcDbEntity
  8
化粧台
  6
CONTINUOUS
 62
     6
100
AcDbCircle
 10
860.908401
 20
1698.5
 30
0.0
 40
10.0
100
AcDbArc
 50
95.898474
 51
157.978777
  0
ARC
  5
5A5
100
AcDbEntity
  8
化粧台
  6
CONTINUOUS
 62
     6
100
AcDbCircle
 10
897.990202
 20
1683.502
 30
0.0
 40
50.0
100
AcDbArc
 50
157.978777
 51
168.465379
  0
ARC
  5
5A6
100
AcDbEntity
  8
化粧台
  6
CONTINUOUS
 62
     6
100
AcDbCircle
 10
963.240868
 20
1729.997147
 30
0.0
 40
20.0
100
AcDbArc
 50
182.0
 51
265.901507
  0
ARC
  5
5A7
100
AcDbEntity
  8
化粧台
  6
CONTINUOUS
 62
     6
100
AcDbCircle
 10
920.0
 20
1126.533418
 30
0.0
 40
585.010946
100
AcDbArc
 50
84.101526
 51
85.901507
  0
ELLIPSE
  5
5A8
100
AcDbEntity
  8
化粧台
  6
CONTINUOUS
 62
     6
100
AcDbEllipse
 10
920.0
 20
1724.363754
 30
0.0
 11
3.0000000000000022
 21
0.0
 31
0.0
210
0.0
220
0.0
230
1.0
 40
0.422667
 41
0.0
 42
6.2831850000000049
  0
LINE
  5
5A9
100
AcDbEntity
  8
化粧台
  6
CONTINUOUS
 62
     6
100
AcDbLine
 10
941.5
 20
1779.5
 30
0.0
 11
943.253052
 21
1729.299157
 31
0.0
  0
ELLIPSE
  5
5AA
100
AcDbEntity
  8
化粧台
  6
CONTINUOUS
 62
     6
100
AcDbEllipse
 10
920.0
 20
1779.5
 30
0.0
 11
21.499999999999986
 21
0.0
 31
0.0
210
0.0
220
0.0
230
1.0
 40
0.173651
 41
4.7123889999999999
 42
0.2192690000000014
  0
ELLIPSE
  5
5AB
100
AcDbEntity
  8
化粧台
  6
CONTINUOUS
 62
     6
100
AcDbEllipse
 10
920.0
 20
1742.242252
 30
0.0
 11
16.0
 21
0.0
 31
0.0
210
0.0
220
0.0
230
1.0
 40
0.173625
 41
0.0302539999999974
 42
1.5707960000000001
  0
ELLIPSE
  5
5AC
100
AcDbEntity
  8
化粧台
  6
CONTINUOUS
 62
     6
100
AcDbEllipse
 10
920.0
 20
1742.242252
 30
0.0
 11
12.250000000000002
 21
0.0
 31
0.0
210
0.0
220
0.0
230
1.0
 40
0.173633
 41
6.0808099999999978
 42
1.5707959999999996
  0
ELLIPSE
  5
5AD
100
AcDbEntity
  8
化粧台
  6
CONTINUOUS
 62
     6
100
AcDbEllipse
 10
920.0
 20
1779.5
 30
0.0
 11
-21.499999999999986
 21
0.0000000000000026
 31
0.0
210
0.0
220
0.0
230
1.0
 40
0.173651
 41
6.0639170000000053
 42
1.5707959999999996
  0
ELLIPSE
  5
5AE
100
AcDbEntity
  8
化粧台
  6
CONTINUOUS
 62
     6
100
AcDbEllipse
 10
920.0
 20
1742.242252
 30
0.0
 11
-16.0
 21
0.000000000000002
 31
0.0
210
0.0
220
0.0
230
1.0
 40
0.173625
 41
4.7123889999999999
 42
6.2529310000000002
  0
ELLIPSE
  5
5AF
100
AcDbEntity
  8
化粧台
  6
CONTINUOUS
 62
     6
100
AcDbEllipse
 10
920.0
 20
1742.242252
 30
0.0
 11
-12.250000000000002
 21
0.0000000000000015
 31
0.0
210
0.0
220
0.0
230
1.0
 40
0.173633
 41
4.7123889999999999
 42
0.2023759999999976
  0
LINE
  5
5B0
100
AcDbEntity
  8
化粧台
  6
CONTINUOUS
 62
     6
100
AcDbLine
 10
898.5
 20
1779.5
 30
0.0
 11
896.746947
 21
1729.299157
 31
0.0
  0
LINE
  5
5B1
100
AcDbEntity
  8
化粧台
  6
CONTINUOUS
 62
     6
100
AcDbLine
 10
932.0
 20
1736.825284
 30
0.0
 11
932.0
 21
1742.669773
 31
0.0
  0
LINE
  5
5B2
100
AcDbEntity
  8
化粧台
  6
CONTINUOUS
 62
     6
100
AcDbLine
 10
908.0
 20
1736.825284
 30
0.0
 11
908.0
 21
1742.669773
 31
0.0
  0
ELLIPSE
  5
5B3
100
AcDbEntity
  8
化粧台
  6
CONTINUOUS
 62
     6
100
AcDbEllipse
 10
920.0
 20
1733.378457
 30
0.0
 11
9.9999999999999964
 21
0.0
 31
0.0
210
0.0
220
0.0
230
1.0
 40
0.17365
 41
0.0
 42
6.2831852538378543
  0
ARC
  5
5B4
100
AcDbEntity
  8
化粧台
  6
CONTINUOUS
 62
     6
100
AcDbCircle
 10
919.0
 20
1779.499475
 30
0.0
 40
20.0
100
AcDbArc
 50
168.353656
 51
180.0
  0
ARC
  5
5B5
100
AcDbEntity
  8
化粧台
  6
CONTINUOUS
 62
     6
100
AcDbCircle
 10
921.0
 20
1779.499475
 30
0.0
 40
20.0
100
AcDbArc
 50
0.0
 51
11.646344
  0
ELLIPSE
  5
5B6
100
AcDbEntity
  8
化粧台
  6
CONTINUOUS
 62
     6
100
AcDbEllipse
 10
920.0
 20
1779.499475
 30
0.0
 11
21.000000000000018
 21
0.0
 31
0.0
210
0.0
220
0.0
230
1.0
 40
0.173643
 41
3.1415927137415012
 42
0.0
  0
ARC
  5
5B7
100
AcDbEntity
  8
化粧台
  6
CONTINUOUS
 62
     6
100
AcDbCircle
 10
997.5
 20
1785.112879
 30
0.0
 40
100.0
100
AcDbArc
 50
170.546476
 51
180.0
  0
ARC
  5
5B8
100
AcDbEntity
  8
化粧台
  6
CONTINUOUS
 62
     6
100
AcDbCircle
 10
842.5
 20
1785.112879
 30
0.0
 40
100.0
100
AcDbArc
 50
0.0
 51
9.453524
  0
LINE
  5
5B9
100
AcDbEntity
  8
化粧台
  6
CONTINUOUS
 62
     6
100
AcDbLine
 10
928.506993
 20
1815.150646
 30
0.0
 11
937.644438
 21
1807.606508
 31
0.0
  0
ARC
  5
5BA
100
AcDbEntity
  8
化粧台
  6
CONTINUOUS
 62
     6
100
AcDbCircle
 10
931.277724
 20
1799.895156
 30
0.0
 40
10.0
100
AcDbArc
 50
9.453524
 51
50.455936
  0
ARC
  5
5BB
100
AcDbEntity
  8
化粧台
  6
CONTINUOUS
 62
     6
100
AcDbCircle
 10
920.0
 20
1786.65557
 30
0.0
 40
30.0
100
AcDbArc
 50
75.857606
 51
90.0
  0
ARC
  5
5BC
100
AcDbEntity
  8
化粧台
  6
CONTINUOUS
 62
     6
100
AcDbCircle
 10
926.596979
 20
1812.83724
 30
0.0
 40
3.0
100
AcDbArc
 50
50.455936
 51
75.857606
  0
ARC
  5
5BD
100
AcDbEntity
  8
化粧台
  6
CONTINUOUS
 62
     6
100
AcDbCircle
 10
920.0
 20
1786.65557
 30
0.0
 40
30.0
100
AcDbArc
 50
90.0
 51
104.142394
  0
ARC
  5
5BE
100
AcDbEntity
  8
化粧台
  6
CONTINUOUS
 62
     6
100
AcDbCircle
 10
913.40302
 20
1812.83724
 30
0.0
 40
3.0
100
AcDbArc
 50
104.142394
 51
129.544064
  0
LINE
  5
5BF
100
AcDbEntity
  8
化粧台
  6
CONTINUOUS
 62
     6
100
AcDbLine
 10
911.493006
 20
1815.150646
 30
0.0
 11
902.355561
 21
1807.606508
 31
0.0
  0
ARC
  5
5C0
100
AcDbEntity
  8
化粧台
  6
CONTINUOUS
 62
     6
100
AcDbCircle
 10
908.722276
 20
1799.895156
 30
0.0
 40
10.0
100
AcDbArc
 50
129.544064
 51
170.546476
  0
ELLIPSE
  5
5C1
100
AcDbEntity
  8
化粧台
  6
CONTINUOUS
 62
     6
100
AcDbEllipse
 10
920.0
 20
1785.112879
 30
0.0
 11
22.499999999999961
 21
0.0
 31
0.0
210
0.0
220
0.0
230
1.0
 40
0.173644
 41
3.1415927137418471
 42
0.0
  0
LINE
  5
5C2
100
AcDbEntity
  8
化粧台
  6
CONTINUOUS
 62
     6
100
AcDbLine
 10
931.0
 20
1732.54558
 30
0.0
 11
931.0
 21
1737.65816
 31
0.0
  0
ELLIPSE
  5
5C3
100
AcDbEntity
  8
化粧台
  6
CONTINUOUS
 62
     6
100
AcDbEllipse
 10
920.0
 20
1736.825284
 30
0.0
 11
12.000000000000002
 21
0.0
 31
0.0
210
0.0
220
0.0
230
1.0
 40
0.173667
 41
5.8720470000000189
 42
0.4111379999999977
  0
LINE
  5
5C4
100
AcDbEntity
  8
化粧台
  6
CONTINUOUS
 62
     6
100
AcDbLine
 10
909.0
 20
1732.54558
 30
0.0
 11
909.0
 21
1737.65816
 31
0.0
  0
ELLIPSE
  5
5C5
100
AcDbEntity
  8
化粧台
  6
CONTINUOUS
 62
     6
100
AcDbEllipse
 10
920.0
 20
1736.825284
 30
0.0
 11
-12.000000000000002
 21
0.0000000000000015
 31
0.0
210
0.0
220
0.0
230
1.0
 40
0.173667
 41
5.8720470000000189
 42
0.4111379999999977
  0
ELLIPSE
  5
5C6
100
AcDbEntity
  8
化粧台
  6
CONTINUOUS
 62
     6
100
AcDbEllipse
 10
920.0
 20
1733.378457
 30
0.0
 11
12.000000000000002
 21
0.0
 31
0.0
210
0.0
220
0.0
230
1.0
 40
0.173667
 41
0.4111379999999977
 42
2.7304550000000027
  0
ELLIPSE
  5
5C7
100
AcDbEntity
  8
化粧台
  6
CONTINUOUS
 62
     6
100
AcDbEllipse
 10
920.0
 20
1733.378457
 30
0.0
 11
12.000000000000002
 21
0.0
 31
0.0
210
0.0
220
0.0
230
1.0
 40
0.173667
 41
3.5527309999999983
 42
5.8720470000000189
  0
ELLIPSE
  5
5C8
100
AcDbEntity
  8
化粧台
  6
CONTINUOUS
 62
     6
100
AcDbEllipse
 10
920.0
 20
1729.801474
 30
0.0
 11
3.0000000000000022
 21
0.0
 31
0.0
210
0.0
220
0.0
230
1.0
 40
0.422667
 41
0.0
 42
3.1415930000000025
  0
ARC
  5
5C9
100
AcDbEntity
  8
化粧台
  6
CONTINUOUS
 62
     6
100
AcDbCircle
 10
926.532926
 20
1785.112879
 30
0.0
 40
29.032926
100
AcDbArc
 50
129.544064
 51
158.021405
  0
LINE
  5
5CA
100
AcDbEntity
  8
化粧台
  6
CONTINUOUS
 62
     6
100
AcDbLine
 10
927.530512
 20
1810.76367
 30
0.0
 11
912.0
 21
1810.76367
 31
0.0
  0
LINE
  5
5CB
100
AcDbEntity
  8
化粧台
  6
CONTINUOUS
 62
     6
100
AcDbLine
 10
911.664854
 20
1810.486963
 30
0.0
 11
908.04849
 21
1807.50119
 31
0.0
  0
LINE
  5
5CC
100
AcDbEntity
  8
化粧台
  6
CONTINUOUS
 62
     6
100
AcDbLine
 10
928.335146
 20
1810.486963
 30
0.0
 11
931.951509
 21
1807.50119
 31
0.0
  0
ARC
  5
5CD
100
AcDbEntity
  8
化粧台
  6
CONTINUOUS
 62
     6
100
AcDbCircle
 10
913.467073
 20
1785.112879
 30
0.0
 40
29.032926
100
AcDbArc
 50
22.880485
 51
50.455936
  0
LINE
  5
5CE
100
AcDbEntity
  8
化粧台
  6
CONTINUOUS
 62
     6
100
AcDbLine
 10
928.0
 20
1814.661541
 30
0.0
 11
928.0
 21
1811.378212
 31
0.0
  0
LINE
  5
5CF
100
AcDbEntity
  8
化粧台
  6
CONTINUOUS
 62
     6
100
AcDbLine
 10
912.0
 20
1814.661541
 30
0.0
 11
912.0
 21
1811.378212
 31
0.0
  0
ELLIPSE
  5
5D0
100
AcDbEntity
  8
化粧台
  6
CONTINUOUS
 62
     6
100
AcDbEllipse
 10
920.0
 20
1791.546276
 30
0.0
 11
5.25
 21
0.0
 31
0.0
210
0.0
220
0.0
230
1.0
 40
0.984762
 41
0.0
 42
6.283185000000004
  0
LINE
  5
5D1
100
AcDbEntity
  8
化粧台
  6
CONTINUOUS
 62
     6
100
AcDbLine
 10
920.0
 20
1796.716276
 30
0.0
 11
920.0
 21
1786.376276
 31
0.0
  0
LINE
  5
5D2
100
AcDbEntity
  8
化粧台
  6
CONTINUOUS
 62
     6
100
AcDbLine
 10
935.98576
 20
1747.69353
 30
0.0
 11
935.98576
 21
1750.360105
 31
0.0
  0
ARC
  5
5D3
100
AcDbEntity
  8
化粧台
  6
CONTINUOUS
 62
     6
100
AcDbCircle
 10
920.0
 20
1730.747853
 30
0.0
 40
30.0
100
AcDbArc
 50
72.542397
 51
90.0
  0
ARC
  5
5D4
100
AcDbEntity
  8
化粧台
  6
CONTINUOUS
 62
     6
100
AcDbCircle
 10
926.0
 20
1749.826637
 30
0.0
 40
10.0
100
AcDbArc
 50
3.057995
 51
16.608543
  0
ARC
  5
5D5
100
AcDbEntity
  8
化粧台
  6
CONTINUOUS
 62
     6
100
AcDbCircle
 10
926.0
 20
1749.826637
 30
0.0
 40
10.0
100
AcDbArc
 50
33.493313
 51
72.542397
  0
LINE
  5
5D6
100
AcDbEntity
  8
化粧台
  6
CONTINUOUS
 62
     6
100
AcDbLine
 10
934.339502
 20
1755.345034
 30
0.0
 11
939.694249
 21
1747.252842
 31
0.0
  0
ARC
  5
5D7
100
AcDbEntity
  8
化粧台
  6
CONTINUOUS
 62
     6
100
AcDbCircle
 10
914.0
 20
1749.826637
 30
0.0
 40
10.0
100
AcDbArc
 50
107.457603
 51
146.506687
  0
LINE
  5
5D8
100
AcDbEntity
  8
化粧台
  6
CONTINUOUS
 62
     6
100
AcDbLine
 10
904.014239
 20
1747.69353
 30
0.0
 11
904.014239
 21
1750.360105
 31
0.0
  0
LINE
  5
5D9
100
AcDbEntity
  8
化粧台
  6
CONTINUOUS
 62
     6
100
AcDbLine
 10
905.660497
 20
1755.345034
 30
0.0
 11
900.30575
 21
1747.252842
 31
0.0
  0
ARC
  5
5DA
100
AcDbEntity
  8
化粧台
  6
CONTINUOUS
 62
     6
100
AcDbCircle
 10
920.0
 20
1730.747853
 30
0.0
 40
30.0
100
AcDbArc
 50
90.0
 51
107.457603
  0
ARC
  5
5DB
100
AcDbEntity
  8
化粧台
  6
CONTINUOUS
 62
     6
100
AcDbCircle
 10
914.0
 20
1749.826637
 30
0.0
 40
10.0
100
AcDbArc
 50
163.391457
 51
176.942005
  0
LINE
  5
5DC
100
AcDbEntity
  8
化粧台
  6
CONTINUOUS
 62
     6
100
AcDbLine
 10
904.007321
 20
1742.326284
 30
0.0
 11
896.651789
 21
1700.126297
 31
0.0
  0
LINE
  5
5DD
100
AcDbEntity
  8
化粧台
  6
CONTINUOUS
 62
     6
100
AcDbLine
 10
917.0
 20
1729.801474
 30
0.0
 11
917.0
 21
1724.363754
 31
0.0
  0
LINE
  5
5DE
100
AcDbEntity
  8
化粧台
  6
CONTINUOUS
 62
     6
100
AcDbLine
 10
923.0
 20
1729.801474
 30
0.0
 11
923.0
 21
1724.363754
 31
0.0
  0
LINE
  5
5DF
100
AcDbEntity
  8
化粧台
  6
CONTINUOUS
 62
     6
100
AcDbLine
 10
935.992678
 20
1742.326284
 30
0.0
 11
943.34821
 21
1700.126297
 31
0.0
  0
LINE
  5
5E0
100
AcDbEntity
  8
化粧台
  6
CONTINUOUS
 62
     2
100
AcDbLine
 10
680.5
 20
1733.5
 30
0.0
 11
896.893644
 21
1733.5
 31
0.0
  0
LINE
  5
5E1
100
AcDbEntity
  8
化粧台
  6
CONTINUOUS
 62
     2
100
AcDbLine
 10
943.253052
 20
1733.5
 30
0.0
 11
1159.5
 21
1733.5
 31
0.0
  0
LINE
  5
5E2
100
AcDbEntity
  8
化粧台
  6
CONTINUOUS
 62
     6
100
AcDbLine
 10
2306.826633
 20
1775.766039
 30
0.0
 11
2349.173366
 21
1783.23291
 31
0.0
  0
LINE
  5
5E3
100
AcDbEntity
  8
化粧台
  6
CONTINUOUS
 62
     6
100
AcDbLine
 10
2349.173366
 20
1783.23291
 30
0.0
 11
2360.767551
 21
1728.68656
 31
0.0
  0
LINE
  5
5E4
100
AcDbEntity
  8
化粧台
  6
CONTINUOUS
 62
     6
100
AcDbLine
 10
2238.342593
 20
1744.755596
 30
0.0
 11
2267.501013
 21
1739.61418
 31
0.0
  0
ARC
  5
5E5
100
AcDbEntity
  8
化粧台
  6
CONTINUOUS
 62
     6
100
AcDbCircle
 10
2286.08292
 20
1736.337688
 30
0.0
 40
50.0
100
AcDbArc
 50
158.885004
 51
168.227683
  0
ARC
  5
5E6
100
AcDbEntity
  8
化粧台
  6
CONTINUOUS
 62
     6
100
AcDbCircle
 10
2238.603065
 20
1746.232808
 30
0.0
 40
1.5
100
AcDbArc
 50
168.227683
 51
260.0
  0
LINE
  5
5E7
100
AcDbEntity
  8
化粧台
  6
CONTINUOUS
 62
     6
100
AcDbLine
 10
2249.987242
 20
1760.672789
 30
0.0
 11
2297.048042
 21
1754.89445
 31
0.0
  0
ARC
  5
5E8
100
AcDbEntity
  8
化粧台
  6
CONTINUOUS
 62
     6
100
AcDbCircle
 10
2248.768549
 20
1750.747328
 30
0.0
 40
10.0
100
AcDbArc
 50
83.0
 51
158.885004
  0
LINE
  5
5E9
100
AcDbEntity
  8
化粧台
  6
CONTINUOUS
 62
     6
100
AcDbLine
 10
2306.826633
 20
1775.766039
 30
0.0
 11
2308.169416
 21
1766.211642
 31
0.0
  0
ARC
  5
5EA
100
AcDbEntity
  8
化粧台
  6
CONTINUOUS
 62
     6
100
AcDbCircle
 10
2298.266735
 20
1764.819911
 30
0.0
 40
10.0
100
AcDbArc
 50
263.0
 51
8.0
  0
LINE
  5
5EB
100
AcDbEntity
  8
化粧台
  6
CONTINUOUS
 62
     6
100
AcDbLine
 10
2241.274167
 20
1744.23868
 30
0.0
 11
2241.187343
 21
1743.746277
 31
0.0
  0
LINE
  5
5EC
100
AcDbEntity
  8
化粧台
  6
CONTINUOUS
 62
     6
100
AcDbLine
 10
2240.694939
 20
1743.833101
 30
0.0
 11
2252.512632
 21
1741.749322
 31
0.0
  0
LINE
  5
5ED
100
AcDbEntity
  8
化粧台
  6
CONTINUOUS
 62
     6
100
AcDbLine
 10
2240.694939
 20
1743.833101
 30
0.0
 11
2239.305754
 21
1735.954639
 31
0.0
  0
LINE
  5
5EE
100
AcDbEntity
  8
化粧台
  6
CONTINUOUS
 62
     6
100
AcDbLine
 10
2239.305754
 20
1735.954639
 30
0.0
 11
2239.711334
 21
1735.375411
 31
0.0
  0
LINE
  5
5EF
100
AcDbEntity
  8
化粧台
  6
CONTINUOUS
 62
     6
100
AcDbLine
 10
2239.711334
 20
1735.375411
 30
0.0
 11
2251.036623
 21
1733.378457
 31
0.0
  0
LINE
  5
5F0
100
AcDbEntity
  8
化粧台
  6
CONTINUOUS
 62
     6
100
AcDbLine
 10
2262.361912
 20
1731.381503
 30
0.0
 11
2251.036623
 21
1733.378457
 31
0.0
  0
LINE
  5
5F1
100
AcDbEntity
  8
化粧台
  6
CONTINUOUS
 62
     6
100
AcDbLine
 10
2262.94114
 20
1731.787082
 30
0.0
 11
2262.361912
 21
1731.381503
 31
0.0
  0
LINE
  5
5F2
100
AcDbEntity
  8
化粧台
  6
CONTINUOUS
 62
     6
100
AcDbLine
 10
2264.330325
 20
1739.665544
 30
0.0
 11
2262.94114
 21
1731.787082
 31
0.0
  0
LINE
  5
5F3
100
AcDbEntity
  8
化粧台
  6
CONTINUOUS
 62
     6
100
AcDbLine
 10
2264.330325
 20
1739.665544
 30
0.0
 11
2252.512632
 21
1741.749322
 31
0.0
  0
LINE
  5
5F4
100
AcDbEntity
  8
化粧台
  6
CONTINUOUS
 62
     6
100
AcDbLine
 10
2263.924746
 20
1740.244772
 30
0.0
 11
2263.837921
 21
1739.752368
 31
0.0
  0
LINE
  5
5F5
100
AcDbEntity
  8
化粧台
  6
CONTINUOUS
 62
     6
100
AcDbLine
 10
2327.010205
 20
1785.112879
 30
0.0
 11
2304.852031
 21
1781.205795
 31
0.0
  0
LINE
  5
5F6
100
AcDbEntity
  8
化粧台
  6
CONTINUOUS
 62
     6
100
AcDbLine
 10
2304.852031
 20
1781.205795
 30
0.0
 11
2301.726363
 21
1798.932334
 31
0.0
  0
LINE
  5
5F7
100
AcDbEntity
  8
化粧台
  6
CONTINUOUS
 62
     6
100
AcDbLine
 10
2243.189251
 20
1811.301034
 30
0.0
 11
2242.477066
 21
1815.340036
 31
0.0
  0
ARC
  5
5F8
100
AcDbEntity
  8
化粧台
  6
CONTINUOUS
 62
     6
100
AcDbCircle
 10
2262.957736
 20
1541.65557
 30
0.0
 40
275.0
100
AcDbArc
 50
75.198631
 51
94.175802
  0
LINE
  5
5F9
100
AcDbEntity
  8
化粧台
  6
CONTINUOUS
 62
     6
100
AcDbLine
 10
2243.811064
 20
1810.904895
 30
0.0
 11
2252.010542
 21
1813.101939
 31
0.0
  0
ARC
  5
5FA
100
AcDbEntity
  8
化粧台
  6
CONTINUOUS
 62
     6
100
AcDbCircle
 10
2290.939305
 20
1796.778416
 30
0.0
 40
11.0
100
AcDbArc
 50
11.292088
 51
78.691952
  0
ARC
  5
5FB
100
AcDbEntity
  8
化粧台
  6
CONTINUOUS
 62
     6
100
AcDbCircle
 10
2257.581219
 20
1699.238127
 30
0.0
 40
114.0
100
AcDbArc
 50
71.848229
 51
92.800907
  0
ARC
  5
5FC
100
AcDbEntity
  8
化粧台
  6
CONTINUOUS
 62
     6
100
AcDbCircle
 10
2242.96947
 20
1815.42686
 30
0.0
 40
0.5
100
AcDbArc
 50
94.175802
 51
190.0
  0
ARC
  5
5FD
100
AcDbEntity
  8
化粧台
  6
CONTINUOUS
 62
     6
100
AcDbCircle
 10
2243.681655
 20
1811.387858
 30
0.0
 40
0.5
100
AcDbArc
 50
190.0
 51
285.0
  0
LINE
  5
5FE
100
AcDbEntity
  8
化粧台
  6
CONTINUOUS
 62
     6
100
AcDbLine
 10
2301.059109
 20
1791.19898
 30
0.0
 11
2300.624989
 21
1793.660999
 31
0.0
  0
ARC
  5
5FF
100
AcDbEntity
  8
化粧台
  6
CONTINUOUS
 62
     6
100
AcDbCircle
 10
2305.596229
 20
1793.125491
 30
0.0
 40
5.0
100
AcDbArc
 50
134.093513
 51
173.85174
  0
LINE
  5
600
100
AcDbEntity
  8
化粧台
  6
CONTINUOUS
 62
     6
100
AcDbLine
 10
2301.059109
 20
1791.19898
 30
0.0
 11
2301.49323
 21
1788.73696
 31
0.0
  0
ARC
  5
601
100
AcDbEntity
  8
化粧台
  6
CONTINUOUS
 62
     6
100
AcDbCircle
 10
2305.981513
 20
1790.940438
 30
0.0
 40
5.0
100
AcDbArc
 50
206.14826
 51
245.906487
  0
ARC
  5
602
100
AcDbEntity
  8
化粧台
  6
CONTINUOUS
 62
     6
100
AcDbCircle
 10
2326.924865
 20
1779.804001
 30
0.0
 40
20.0
100
AcDbArc
 50
174.890164
 51
191.39413
  0
ARC
  5
603
100
AcDbEntity
  8
化粧台
  6
CONTINUOUS
 62
     6
100
AcDbCircle
 10
2328.906141
 20
1780.153353
 30
0.0
 40
20.0
100
AcDbArc
 50
8.60587
 51
33.374872
  0
LINE
  5
604
100
AcDbEntity
  8
化粧台
  6
CONTINUOUS
 62
     6
100
AcDbLine
 10
2327.010205
 20
1785.112879
 30
0.0
 11
2348.559361
 21
1792.114624
 31
0.0
  0
ARC
  5
605
100
AcDbEntity
  8
化粧台
  6
CONTINUOUS
 62
     6
100
AcDbCircle
 10
2327.333429
 20
1786.330175
 30
0.0
 40
22.0
100
AcDbArc
 50
15.243958
 51
74.50271
  0
LINE
  5
606
100
AcDbEntity
  8
化粧台
  6
CONTINUOUS
 62
     6
100
AcDbLine
 10
2256.367363
 20
1735.992496
 30
0.0
 11
2246.921419
 21
1737.658071
 31
0.0
  0
LINE
  5
607
100
AcDbEntity
  8
化粧台
  6
CONTINUOUS
 62
     6
100
AcDbLine
 10
2255.759595
 20
1732.545669
 30
0.0
 11
2256.367363
 21
1735.992496
 31
0.0
  0
LINE
  5
608
100
AcDbEntity
  8
化粧台
  6
CONTINUOUS
 62
     6
100
AcDbLine
 10
2246.313651
 20
1734.211244
 30
0.0
 11
2246.921419
 21
1737.658071
 31
0.0
  0
LINE
  5
609
100
AcDbEntity
  8
化粧台
  6
CONTINUOUS
 62
     6
100
AcDbLine
 10
2239.305754
 20
1735.954639
 30
0.0
 11
2246.400475
 21
1734.703648
 31
0.0
  0
LINE
  5
60A
100
AcDbEntity
  8
化粧台
  6
CONTINUOUS
 62
     6
100
AcDbLine
 10
2255.846419
 20
1733.038073
 30
0.0
 11
2262.94114
 21
1731.787082
 31
0.0
  0
LINE
  5
60B
100
AcDbEntity
  8
化粧台
  6
CONTINUOUS
 62
     6
100
AcDbLine
 10
2298.352843
 20
1723.307208
 30
0.0
 11
2293.821304
 21
1725.420299
 31
0.0
  0
LINE
  5
60C
100
AcDbEntity
  8
化粧台
  6
CONTINUOUS
 62
     6
100
AcDbLine
 10
2293.821304
 20
1725.420299
 30
0.0
 11
2293.579459
 21
1726.084762
 31
0.0
  0
LINE
  5
60D
100
AcDbEntity
  8
化粧台
  6
CONTINUOUS
 62
     6
100
AcDbLine
 10
2298.352843
 20
1723.307208
 30
0.0
 11
2299.017306
 21
1723.549053
 31
0.0
  0
LINE
  5
60E
100
AcDbEntity
  8
化粧台
  6
CONTINUOUS
 62
     6
100
AcDbLine
 10
2299.017306
 20
1723.549053
 30
0.0
 11
2301.326426
 21
1728.500977
 31
0.0
  0
LINE
  5
60F
100
AcDbEntity
  8
化粧台
  6
CONTINUOUS
 62
     6
100
AcDbLine
 10
2295.888589
 20
1731.036708
 30
0.0
 11
2293.579459
 21
1726.084762
 31
0.0
  0
CIRCLE
  5
610
100
AcDbEntity
  8
化粧台
  6
CONTINUOUS
 62
     6
100
AcDbCircle
 10
2297.354928
 20
1727.082677
 30
0.0
 40
1.5
  0
LINE
  5
611
100
AcDbEntity
  8
化粧台
  6
CONTINUOUS
 62
     6
100
AcDbLine
 10
2293.579459
 20
1726.084762
 30
0.0
 11
2299.017306
 21
1723.549053
 31
0.0
  0
ARC
  5
612
100
AcDbEntity
  8
化粧台
  6
CONTINUOUS
 62
     6
100
AcDbCircle
 10
2380.330503
 20
1732.844794
 30
0.0
 40
20.0
100
AcDbArc
 50
192.0
 51
239.817881
  0
ARC
  5
613
100
AcDbEntity
  8
化粧台
  6
CONTINUOUS
 62
     6
100
AcDbCircle
 10
2245.794991
 20
1616.513211
 30
0.0
 40
125.0
100
AcDbArc
 50
50.552193
 51
80.000001
  0
ARC
  5
614
100
AcDbEntity
  8
鏡台
  6
CONTINUOUS
 62
     2
100
AcDbCircle
 10
1165.919631
 20
3885.5
 30
0.0
 40
3.0
100
AcDbArc
 50
270.0
 51
358.040266
  0
LINE
  5
615
100
AcDbEntity
  8
鏡台
  6
CONTINUOUS
 62
     2
100
AcDbLine
 10
1170.016335
 20
3917.5
 30
0.0
 11
1168.464862
 21
3872.158029
 31
0.0
  0
ARC
  5
616
100
AcDbEntity
  8
鏡台
  6
CONTINUOUS
 62
     2
100
AcDbCircle
 10
1158.470711
 20
3872.5
 30
0.0
 40
10.0
100
AcDbArc
 50
270.0
 51
358.040266
  0
LINE
  5
617
100
AcDbEntity
  8
鏡台
  6
CONTINUOUS
 62
     2
100
AcDbLine
 10
1158.470711
 20
3862.5
 30
0.0
 11
1155.569756
 21
3862.5
 31
0.0
  0
LINE
  5
618
100
AcDbEntity
  8
鏡台
  6
CONTINUOUS
 62
     2
100
AcDbLine
 10
1152.50852
 20
3804.088352
 30
0.0
 11
1156.617908
 21
3882.5
 31
0.0
  0
ARC
  5
619
100
AcDbEntity
  8
鏡台
  6
CONTINUOUS
 62
     2
100
AcDbCircle
 10
1095.266335
 20
3986.307328
 30
0.0
 40
183.807328
100
AcDbArc
 50
288.277286
 51
293.224803
  0
LINE
  5
61A
100
AcDbEntity
  8
鏡台
  6
CONTINUOUS
 62
     2
100
AcDbLine
 10
1167.748874
 20
3868.769626
 30
0.0
 11
1167.748874
 21
3817.394879
 31
0.0
  0
ARC
  5
61B
100
AcDbEntity
  8
鏡台
  6
CONTINUOUS
 62
     6
100
AcDbCircle
 10
1095.266335
 20
3986.307328
 30
0.0
 40
181.807328
100
AcDbArc
 50
288.522944
 51
292.810039
  0
LINE
  5
61C
100
AcDbEntity
  8
鏡台
  6
CONTINUOUS
 62
     6
100
AcDbLine
 10
1165.748874
 20
3865.642279
 30
0.0
 11
1165.748874
 21
3818.718199
 31
0.0
  0
LINE
  5
61D
100
AcDbEntity
  8
鏡台
  6
CONTINUOUS
 62
     6
100
AcDbLine
 10
1238.612793
 20
3768.252808
 30
0.0
 11
1228.276246
 21
3764.490601
 31
0.0
  0
LINE
  5
61E
100
AcDbEntity
  8
鏡台
  6
CONTINUOUS
 62
     6
100
AcDbLine
 10
1233.653443
 20
3781.878296
 30
0.0
 11
1220.233643
 21
3776.354126
 31
0.0
  0
LINE
  5
61F
100
AcDbEntity
  8
鏡台
  6
CONTINUOUS
 62
     6
100
AcDbLine
 10
1227.602662
 20
3784.464966
 30
0.0
 11
1218.79358
 21
3781.258667
 31
0.0
  0
LINE
  5
620
100
AcDbEntity
  8
鏡台
  6
CONTINUOUS
 62
     6
100
AcDbLine
 10
1220.233643
 20
3776.354126
 30
0.0
 11
1213.83545
 21
3798.144531
 31
0.0
  0
LINE
  5
621
100
AcDbEntity
  8
鏡台
  6
CONTINUOUS
 62
     6
100
AcDbLine
 10
1220.525757
 20
3800.580933
 30
0.0
 11
1228.307251
 21
3782.860229
 31
0.0
  0
LINE
  5
622
100
AcDbEntity
  8
鏡台
  6
CONTINUOUS
 62
     6
100
AcDbLine
 10
1253.134888
 20
3775.134644
 30
0.0
 11
1238.099732
 21
3769.662476
 31
0.0
  0
LINE
  5
623
100
AcDbEntity
  8
鏡台
  6
CONTINUOUS
 62
     6
100
AcDbLine
 10
1250.056641
 20
3783.591919
 30
0.0
 11
1235.021607
 21
3778.119751
 31
0.0
  0
LINE
  5
624
100
AcDbEntity
  8
鏡台
  6
CONTINUOUS
 62
     6
100
AcDbLine
 10
1228.276124
 20
3764.490601
 30
0.0
 11
1224.171998
 21
3775.766968
 31
0.0
  0
LINE
  5
625
100
AcDbEntity
  8
鏡台
  6
CONTINUOUS
 62
     6
100
AcDbLine
 10
1234.508545
 20
3779.529175
 30
0.0
 11
1224.171998
 21
3775.766968
 31
0.0
  0
LINE
  5
626
100
AcDbEntity
  8
鏡台
  6
CONTINUOUS
 62
     6
100
AcDbLine
 10
1233.653443
 20
3781.878296
 30
0.0
 11
1232.173462
 21
3781.283081
 31
0.0
  0
LINE
  5
627
100
AcDbEntity
  8
鏡台
  6
CONTINUOUS
 62
     6
100
AcDbLine
 10
1239.638794
 20
3765.433716
 30
0.0
 11
1226.099976
 21
3761.504028
 31
0.0
  0
LINE
  5
628
100
AcDbEntity
  8
鏡台
  6
CONTINUOUS
 62
     6
100
AcDbLine
 10
1233.653443
 20
3781.878296
 30
0.0
 11
1239.638794
 21
3765.433716
 31
0.0
  0
LINE
  5
629
100
AcDbEntity
  8
鏡台
  6
CONTINUOUS
 62
     6
100
AcDbLine
 10
1220.059937
 20
3775.369263
 30
0.0
 11
1224.88147
 21
3762.122192
 31
0.0
  0
LINE
  5
62A
100
AcDbEntity
  8
鏡台
  6
CONTINUOUS
 62
     6
100
AcDbLine
 10
1219.268067
 20
3801.11853
 30
0.0
 11
1214.452881
 21
3799.365967
 31
0.0
  0
ARC
  5
62B
100
AcDbEntity
  8
鏡台
  6
CONTINUOUS
 62
     6
100
AcDbCircle
 10
1231.054078
 20
3784.066528
 30
0.0
 40
3.0
100
AcDbArc
 50
203.707275
 51
291.909241
  0
ARC
  5
62C
100
AcDbEntity
  8
鏡台
  6
CONTINUOUS
 62
     6
100
AcDbCircle
 10
1214.794922
 20
3798.42627
 30
0.0
 40
1.0
100
AcDbArc
 50
110.000061
 51
196.363464
  0
ARC
  5
62D
100
AcDbEntity
  8
鏡台
  6
CONTINUOUS
 62
     6
100
AcDbCircle
 10
1219.610108
 20
3800.178833
 30
0.0
 40
1.0
100
AcDbArc
 50
23.707275
 51
110.0
  0
ARC
  5
62E
100
AcDbEntity
  8
鏡台
  6
CONTINUOUS
 62
     6
100
AcDbCircle
 10
1243.20398
 20
3776.30896
 30
0.0
 40
10.0
100
AcDbArc
 50
353.256348
 51
46.743622
  0
ARC
  5
62F
100
AcDbEntity
  8
鏡台
  6
CONTINUOUS
 62
     6
100
AcDbCircle
 10
1225.821167
 20
3762.464233
 30
0.0
 40
1.0
100
AcDbArc
 50
200.0
 51
286.186218
  0
ARC
  5
630
100
AcDbEntity
  8
鏡台
  6
CONTINUOUS
 62
     6
100
AcDbCircle
 10
1220.999634
 20
3775.711304
 30
0.0
 40
1.0
100
AcDbArc
 50
111.909119
 51
200.0
  0
ARC
  5
631
100
AcDbEntity
  8
鏡台
  6
CONTINUOUS
 62
     6
100
AcDbCircle
 10
1351.656739
 20
3859.665039
 30
0.0
 40
150.0
100
AcDbArc
 50
184.388733
 51
203.721497
  0
ARC
  5
632
100
AcDbEntity
  8
鏡台
  6
CONTINUOUS
 62
     6
100
AcDbCircle
 10
1357.149537
 20
3859.383301
 30
0.0
 40
150.0
100
AcDbArc
 50
184.77002
 51
202.901428
  0
ARC
  5
633
100
AcDbEntity
  8
鏡台
  6
CONTINUOUS
 62
     6
100
AcDbCircle
 10
1081.748658
 20
3847.689941
 30
0.0
 40
120.0
100
AcDbArc
 50
4.115021
 51
27.576874
  0
ARC
  5
634
100
AcDbEntity
  8
鏡台
  6
CONTINUOUS
 62
     6
100
AcDbCircle
 10
1087.644654
 20
3848.916992
 30
0.0
 40
120.0
100
AcDbArc
 50
2.871643
 51
29.221863
  0
ARC
  5
635
100
AcDbEntity
  8
鏡台
  6
CONTINUOUS
 62
     6
100
AcDbCircle
 10
1231.054078
 20
3784.066528
 30
0.0
 40
3.0
100
AcDbArc
 50
203.707275
 51
291.909241
  0
ARC
  5
636
100
AcDbEntity
  8
鏡台
  6
CONTINUOUS
 62
     6
100
AcDbCircle
 10
1214.794922
 20
3798.42627
 30
0.0
 40
1.0
100
AcDbArc
 50
110.000061
 51
196.363464
  0
ARC
  5
637
100
AcDbEntity
  8
鏡台
  6
CONTINUOUS
 62
     6
100
AcDbCircle
 10
1219.610108
 20
3800.178833
 30
0.0
 40
1.0
100
AcDbArc
 50
23.707275
 51
110.0
  0
ARC
  5
638
100
AcDbEntity
  8
鏡台
  6
CONTINUOUS
 62
     6
100
AcDbCircle
 10
1243.20398
 20
3776.30896
 30
0.0
 40
10.0
100
AcDbArc
 50
353.256348
 51
46.743622
  0
ARC
  5
639
100
AcDbEntity
  8
鏡台
  6
CONTINUOUS
 62
     6
100
AcDbCircle
 10
1225.821167
 20
3762.464233
 30
0.0
 40
1.0
100
AcDbArc
 50
200.0
 51
286.186218
  0
ARC
  5
63A
100
AcDbEntity
  8
鏡台
  6
CONTINUOUS
 62
     6
100
AcDbCircle
 10
1220.999634
 20
3775.711304
 30
0.0
 40
1.0
100
AcDbArc
 50
111.909119
 51
200.0
  0
ARC
  5
63B
100
AcDbEntity
  8
鏡台
  6
CONTINUOUS
 62
     6
100
AcDbCircle
 10
1198.858277
 20
3839.498779
 30
0.0
 40
16.999516
100
AcDbArc
 50
71.927826
 51
128.074554
  0
ARC
  5
63C
100
AcDbEntity
  8
鏡台
  6
CONTINUOUS
 62
     6
100
AcDbCircle
 10
1209.404542
 20
3871.818604
 30
0.0
 40
16.997519
100
AcDbArc
 50
251.927856
 51
280.004395
  0
ARC
  5
63D
100
AcDbEntity
  8
鏡台
  6
CONTINUOUS
 62
     6
100
AcDbCircle
 10
1209.403321
 20
3871.825928
 30
0.0
 40
17.004932
100
AcDbArc
 50
280.004395
 51
308.068359
  0
ARC
  5
63E
100
AcDbEntity
  8
鏡台
  6
CONTINUOUS
 62
     6
100
AcDbCircle
 10
1198.858277
 20
3831.498779
 30
0.0
 40
16.999516
100
AcDbArc
 50
71.927826
 51
128.074554
  0
ARC
  5
63F
100
AcDbEntity
  8
鏡台
  6
CONTINUOUS
 62
     6
100
AcDbCircle
 10
1209.404542
 20
3863.818604
 30
0.0
 40
16.997519
100
AcDbArc
 50
251.927856
 51
280.004395
  0
ARC
  5
640
100
AcDbEntity
  8
鏡台
  6
CONTINUOUS
 62
     6
100
AcDbCircle
 10
1209.403321
 20
3863.825928
 30
0.0
 40
17.004932
100
AcDbArc
 50
280.004395
 51
308.068359
  0
ARC
  5
641
100
AcDbEntity
  8
鏡台
  6
CONTINUOUS
 62
     6
100
AcDbCircle
 10
1170.0
 20
3887.5
 30
0.0
 40
30.0
100
AcDbArc
 50
41.793671
 51
90.0
  0
ARC
  5
642
100
AcDbEntity
  8
鏡台
  6
CONTINUOUS
 62
     6
100
AcDbCircle
 10
1170.0
 20
3887.5
 30
0.0
 40
24.0
100
AcDbArc
 50
40.990967
 51
90.500301
  0
ARC
  5
643
100
AcDbEntity
  8
鏡台
  6
CONTINUOUS
 62
     2
100
AcDbCircle
 10
674.096704
 20
3885.5
 30
0.0
 40
3.0
100
AcDbArc
 50
181.959734
 51
270.0
  0
LINE
  5
644
100
AcDbEntity
  8
鏡台
  6
CONTINUOUS
 62
     2
100
AcDbLine
 10
670.0
 20
3917.5
 30
0.0
 11
671.551473
 21
3872.158029
 31
0.0
  0
ARC
  5
645
100
AcDbEntity
  8
鏡台
  6
CONTINUOUS
 62
     2
100
AcDbCircle
 10
681.545624
 20
3872.5
 30
0.0
 40
10.0
100
AcDbArc
 50
181.959734
 51
270.0
  0
LINE
  5
646
100
AcDbEntity
  8
鏡台
  6
CONTINUOUS
 62
     2
100
AcDbLine
 10
681.545624
 20
3862.5
 30
0.0
 11
684.446579
 21
3862.5
 31
0.0
  0
LINE
  5
647
100
AcDbEntity
  8
鏡台
  6
CONTINUOUS
 62
     2
100
AcDbLine
 10
687.507815
 20
3804.088352
 30
0.0
 11
683.398427
 21
3882.5
 31
0.0
  0
ARC
  5
648
100
AcDbEntity
  8
鏡台
  6
CONTINUOUS
 62
     2
100
AcDbCircle
 10
744.75
 20
3986.307328
 30
0.0
 40
183.807328
100
AcDbArc
 50
246.775197
 51
251.722714
  0
LINE
  5
649
100
AcDbEntity
  8
鏡台
  6
CONTINUOUS
 62
     2
100
AcDbLine
 10
672.267461
 20
3868.769626
 30
0.0
 11
672.267461
 21
3817.394879
 31
0.0
  0
LINE
  5
64A
100
AcDbEntity
  8
鏡台
  6
CONTINUOUS
 62
     6
100
AcDbLine
 10
674.267461
 20
3865.642279
 30
0.0
 11
674.267461
 21
3818.718199
 31
0.0
  0
ARC
  5
64B
100
AcDbEntity
  8
鏡台
  6
CONTINUOUS
 62
     6
100
AcDbCircle
 10
744.75
 20
3986.307328
 30
0.0
 40
181.807328
100
AcDbArc
 50
247.189961
 51
251.477056
  0
LINE
  5
64C
100
AcDbEntity
  8
鏡台
  6
CONTINUOUS
 62
     2
100
AcDbLine
 10
674.096704
 20
3882.5
 30
0.0
 11
1168.786109
 21
3882.5
 31
0.0
  0
ARC
  5
64D
100
AcDbEntity
  8
鏡台
  6
CONTINUOUS
 62
     2
100
AcDbCircle
 10
697.494111
 20
3804.611712
 30
0.0
 40
10.0
100
AcDbArc
 50
183.000006
 51
261.417655
  0
ARC
  5
64E
100
AcDbEntity
  8
鏡台
  6
CONTINUOUS
 62
     2
100
AcDbCircle
 10
1142.522225
 20
3804.611712
 30
0.0
 40
10.0
100
AcDbArc
 50
278.578615
 51
356.999994
  0
ARC
  5
64F
100
AcDbEntity
  8
鏡台
  6
CONTINUOUS
 62
     2
100
AcDbCircle
 10
576.617268
 20
3003.68176
 30
0.0
 40
800.0
100
AcDbArc
 50
77.607105
 51
81.417655
  0
ARC
  5
650
100
AcDbEntity
  8
鏡台
  6
CONTINUOUS
 62
     2
100
AcDbCircle
 10
1263.346925
 20
3003.673892
 30
0.0
 40
800.0
100
AcDbArc
 50
98.578615
 51
102.391582
  0
ARC
  5
651
100
AcDbEntity
  8
鏡台
  6
CONTINUOUS
 62
     2
100
AcDbCircle
 10
920.0
 20
4566.4
 30
0.0
 40
800.0
100
AcDbArc
 50
257.607105
 51
282.391582
  0
LINE
  5
652
100
AcDbEntity
  8
鏡台
  6
CONTINUOUS
 62
     6
100
AcDbLine
 10
713.0
 20
3917.5
 30
0.0
 11
715.0
 21
3950.0
 31
0.0
  0
LINE
  5
653
100
AcDbEntity
  8
鏡台
  6
CONTINUOUS
 62
     6
100
AcDbLine
 10
715.0
 20
3950.0
 30
0.0
 11
717.0
 21
3917.5
 31
0.0
  0
LINE
  5
654
100
AcDbEntity
  8
鏡台
  6
CONTINUOUS
 62
     6
100
AcDbLine
 10
1123.0
 20
3917.5
 30
0.0
 11
1125.0
 21
3950.0
 31
0.0
  0
LINE
  5
655
100
AcDbEntity
  8
鏡台
  6
CONTINUOUS
 62
     6
100
AcDbLine
 10
1125.0
 20
3950.0
 30
0.0
 11
1127.0
 21
3917.5
 31
0.0
  0
LINE
  5
656
100
AcDbEntity
  8
鏡台
  6
CONTINUOUS
 62
     6
100
AcDbLine
 10
715.0
 20
3907.5
 30
0.0
 11
715.0
 21
3965.0
 31
0.0
  0
LINE
  5
657
100
AcDbEntity
  8
鏡台
  6
CONTINUOUS
 62
     6
100
AcDbLine
 10
1125.0
 20
3907.5
 30
0.0
 11
1125.0
 21
3965.0
 31
0.0
  0
LINE
  5
658
100
AcDbEntity
  8
鏡台
  6
CONTINUOUS
 62
     6
100
AcDbLine
 10
2435.0
 20
1798.5
 30
0.0
 11
2497.5
 21
1798.5
 31
0.0
  0
ARC
  5
659
100
AcDbEntity
  8
鏡台
  6
CONTINUOUS
 62
     2
100
AcDbCircle
 10
2401.85604
 20
2003.344209
 30
0.0
 40
15.0
100
AcDbArc
 50
28.805081
 51
82.0
  0
LINE
  5
65A
100
AcDbEntity
  8
鏡台
  6
CONTINUOUS
 62
     2
100
AcDbLine
 10
2362.0
 20
1833.5
 30
0.0
 11
2362.0
 21
1848.5
 31
0.0
  0
LINE
  5
65B
100
AcDbEntity
  8
鏡台
  6
CONTINUOUS
 62
     2
100
AcDbLine
 10
2335.0
 20
2068.0
 30
0.0
 11
2335.0
 21
2018.0
 31
0.0
  0
LINE
  5
65C
100
AcDbEntity
  8
鏡台
  6
CONTINUOUS
 62
     2
100
AcDbLine
 10
2335.0
 20
2068.0
 30
0.0
 11
2415.0
 21
2068.0
 31
0.0
  0
LINE
  5
65D
100
AcDbEntity
  8
鏡台
  6
CONTINUOUS
 62
     2
100
AcDbLine
 10
2335.0
 20
2018.0
 30
0.0
 11
2415.0
 21
2018.0
 31
0.0
  0
LINE
  5
65E
100
AcDbEntity
  8
鏡台
  6
CONTINUOUS
 62
     2
100
AcDbLine
 10
2384.0
 20
2313.5
 30
0.0
 11
2384.0
 21
2268.5
 31
0.0
  0
LINE
  5
65F
100
AcDbEntity
  8
鏡台
  6
CONTINUOUS
 62
     2
100
AcDbLine
 10
2384.0
 20
2303.5
 30
0.0
 11
2377.0
 21
2303.5
 31
0.0
  0
LINE
  5
660
100
AcDbEntity
  8
鏡台
  6
CONTINUOUS
 62
     2
100
AcDbLine
 10
2377.0
 20
2303.5
 30
0.0
 11
2377.0
 21
2268.500299
 31
0.0
  0
LINE
  5
661
100
AcDbEntity
  8
鏡台
  6
CONTINUOUS
 62
     2
100
AcDbLine
 10
2384.0
 20
2268.500299
 30
0.0
 11
2377.0
 21
2268.500299
 31
0.0
  0
LINE
  5
662
100
AcDbEntity
  8
鏡台
  6
CONTINUOUS
 62
     2
100
AcDbLine
 10
2335.0
 20
2313.5
 30
0.0
 11
2415.0
 21
2313.5
 31
0.0
  0
LINE
  5
663
100
AcDbEntity
  8
鏡台
  6
CONTINUOUS
 62
     2
100
AcDbLine
 10
2335.0
 20
2363.5
 30
0.0
 11
2335.0
 21
2313.5
 31
0.0
  0
LINE
  5
664
100
AcDbEntity
  8
鏡台
  6
CONTINUOUS
 62
     2
100
AcDbLine
 10
2335.0
 20
2363.5
 30
0.0
 11
2415.0
 21
2363.5
 31
0.0
  0
ARC
  5
665
100
AcDbEntity
  8
鏡台
  6
CONTINUOUS
 62
     2
100
AcDbCircle
 10
2423.0
 20
1736.5
 30
0.0
 40
3.0
100
AcDbArc
 50
180.0
 51
270.0
  0
LINE
  5
666
100
AcDbEntity
  8
鏡台
  6
CONTINUOUS
 62
     2
100
AcDbLine
 10
2362.0
 20
1833.5
 30
0.0
 11
2415.26168
 21
1830.708674
 31
0.0
  0
LINE
  5
667
100
AcDbEntity
  8
鏡台
  6
CONTINUOUS
 62
     2
100
AcDbLine
 10
2420.0
 20
1736.5
 30
0.0
 11
2420.0
 21
1825.715526
 31
0.0
  0
ARC
  5
668
100
AcDbEntity
  8
鏡台
  6
CONTINUOUS
 62
     2
100
AcDbCircle
 10
2415.0
 20
1825.715526
 30
0.0
 40
5.0
100
AcDbArc
 50
0.0
 51
87.000001
  0
LINE
  5
669
100
AcDbEntity
  8
鏡台
  6
CONTINUOUS
 62
     2
100
AcDbLine
 10
2362.0
 20
1848.5
 30
0.0
 11
2410.0
 21
1848.5
 31
0.0
  0
ARC
  5
66A
100
AcDbEntity
  8
鏡台
  6
CONTINUOUS
 62
     2
100
AcDbCircle
 10
2410.0
 20
1853.5
 30
0.0
 40
5.0
100
AcDbArc
 50
270.0
 51
0.0
  0
LINE
  5
66B
100
AcDbEntity
  8
鏡台
  6
CONTINUOUS
 62
     2
100
AcDbLine
 10
2384.0
 20
2268.5
 30
0.0
 11
2410.087262
 21
2268.044645
 31
0.0
  0
ARC
  5
66C
100
AcDbEntity
  8
鏡台
  6
CONTINUOUS
 62
     2
100
AcDbCircle
 10
2410.0
 20
2263.045407
 30
0.0
 40
5.0
100
AcDbArc
 50
0.0
 51
88.999999
  0
LINE
  5
66D
100
AcDbEntity
  8
鏡台
  6
CONTINUOUS
 62
     6
100
AcDbLine
 10
2377.0
 20
2274.5
 30
0.0
 11
2375.0
 21
2274.5
 31
0.0
  0
LINE
  5
66E
100
AcDbEntity
  8
鏡台
  6
CONTINUOUS
 62
     6
100
AcDbLine
 10
2375.0
 20
2297.5
 30
0.0
 11
2375.0
 21
2274.5
 31
0.0
  0
LINE
  5
66F
100
AcDbEntity
  8
鏡台
  6
CONTINUOUS
 62
     6
100
AcDbLine
 10
2377.0
 20
2297.5
 30
0.0
 11
2375.0
 21
2297.5
 31
0.0
  0
LINE
  5
670
100
AcDbEntity
  8
鏡台
  6
CONTINUOUS
 62
     6
100
AcDbLine
 10
2375.0
 20
2277.5
 30
0.0
 11
2372.0
 21
2277.5
 31
0.0
  0
LINE
  5
671
100
AcDbEntity
  8
鏡台
  6
CONTINUOUS
 62
     6
100
AcDbLine
 10
2372.0
 20
2294.5
 30
0.0
 11
2372.0
 21
2277.5
 31
0.0
  0
LINE
  5
672
100
AcDbEntity
  8
鏡台
  6
CONTINUOUS
 62
     6
100
AcDbLine
 10
2375.0
 20
2294.5
 30
0.0
 11
2372.0
 21
2294.5
 31
0.0
  0
LINE
  5
673
100
AcDbEntity
  8
鏡台
  6
CONTINUOUS
 62
     2
100
AcDbLine
 10
2401.878458
 20
2637.118024
 30
0.0
 11
2333.869412
 21
2637.118045
 31
0.0
  0
ARC
  5
674
100
AcDbEntity
  8
鏡台
  6
CONTINUOUS
 62
     2
100
AcDbCircle
 10
2333.86942
 20
2657.118023
 30
0.0
 40
20.0
100
AcDbArc
 50
203.031494
 51
270.0
  0
ARC
  5
675
100
AcDbEntity
  8
鏡台
  6
CONTINUOUS
 62
     2
100
AcDbCircle
 10
2563.941904
 20
2754.927355
 30
0.0
 40
270.0
100
AcDbArc
 50
191.025757
 51
203.031494
  0
ARC
  5
676
100
AcDbEntity
  8
鏡台
  6
CONTINUOUS
 62
     2
100
AcDbCircle
 10
2308.74118
 20
2705.202357
 30
0.0
 40
10.0
100
AcDbArc
 50
94.000031
 51
191.025757
  0
LINE
  5
677
100
AcDbEntity
  8
鏡台
  6
CONTINUOUS
 62
     2
100
AcDbLine
 10
2308.043613
 20
2715.177985
 30
0.0
 11
2415.0
 21
2722.65711
 31
0.0
  0
LINE
  5
678
100
AcDbEntity
  8
鏡台
  6
CONTINUOUS
 62
     2
100
AcDbLine
 10
2415.0
 20
2651.578095
 30
0.0
 11
2415.0
 21
2732.312682
 31
0.0
  0
LINE
  5
679
100
AcDbEntity
  8
鏡台
  6
CONTINUOUS
 62
     2
100
AcDbLine
 10
2450.0
 20
2733.5
 30
0.0
 11
2415.0
 21
2732.312682
 31
0.0
  0
LINE
  5
67A
100
AcDbEntity
  8
鏡台
  6
CONTINUOUS
 62
     2
100
AcDbLine
 10
2400.0
 20
2636.999939
 30
0.0
 11
2395.0
 21
2636.999939
 31
0.0
  0
ARC
  5
67B
100
AcDbEntity
  8
鏡台
  6
CONTINUOUS
 62
     2
100
AcDbCircle
 10
2400.0
 20
2651.999939
 30
0.0
 40
15.0
100
AcDbArc
 50
270.0
 51
0.0
  0
LINE
  5
67C
100
AcDbEntity
  8
鏡台
  6
CONTINUOUS
 62
     2
100
AcDbLine
 10
2395.0
 20
2626.999939
 30
0.0
 11
2395.0
 21
2636.999939
 31
0.0
  0
LINE
  5
67D
100
AcDbEntity
  8
鏡台
  6
CONTINUOUS
 62
     2
100
AcDbLine
 10
2415.0
 20
2623.999939
 30
0.0
 11
2415.0
 21
1853.5
 31
0.0
  0
LINE
  5
67E
100
AcDbEntity
  8
鏡台
  6
CONTINUOUS
 62
     2
100
AcDbLine
 10
2395.0
 20
2626.999939
 30
0.0
 11
2415.0
 21
2623.999939
 31
0.0
  0
LINE
  5
67F
100
AcDbEntity
  8
鏡台
  6
CONTINUOUS
 62
     6
100
AcDbLine
 10
2435.0
 20
2678.5
 30
0.0
 11
2497.5
 21
2678.5
 31
0.0
  0
ARC
  5
680
100
AcDbEntity
  8
鏡台
  6
CONTINUOUS
 62
     6
100
AcDbCircle
 10
2337.007777
 20
2707.178943
 30
0.0
 40
10.0
100
AcDbArc
 50
94.000061
 51
187.019409
  0
ARC
  5
681
100
AcDbEntity
  8
鏡台
  6
CONTINUOUS
 62
     6
100
AcDbCircle
 10
2595.058895
 20
2738.952687
 30
0.0
 40
270.0
100
AcDbArc
 50
187.01947
 51
199.909058
  0
ARC
  5
682
100
AcDbEntity
  8
鏡台
  6
CONTINUOUS
 62
     6
100
AcDbCircle
 10
2355.299159
 20
2652.118052
 30
0.0
 40
15.0
100
AcDbArc
 50
199.909058
 51
270.0
  0
LINE
  5
683
100
AcDbEntity
  8
鏡台
  6
CONTINUOUS
 62
     6
100
AcDbLine
 10
2450.0
 20
1800.5
 30
0.0
 11
2482.5
 21
1798.5
 31
0.0
  0
LINE
  5
684
100
AcDbEntity
  8
鏡台
  6
CONTINUOUS
 62
     6
100
AcDbLine
 10
2482.5
 20
1798.5
 30
0.0
 11
2450.0
 21
1796.5
 31
0.0
  0
LINE
  5
685
100
AcDbEntity
  8
鏡台
  6
CONTINUOUS
 62
     6
100
AcDbLine
 10
2450.0
 20
2680.5
 30
0.0
 11
2482.5
 21
2678.5
 31
0.0
  0
LINE
  5
686
100
AcDbEntity
  8
鏡台
  6
CONTINUOUS
 62
     6
100
AcDbLine
 10
2482.5
 20
2678.5
 30
0.0
 11
2450.0
 21
2676.5
 31
0.0
  0
LINE
  5
687
100
AcDbEntity
  8
鏡台
  6
CONTINUOUS
 62
     2
100
AcDbLine
 10
2450.0
 20
1733.5
 30
0.0
 11
2450.0
 21
2733.5
 31
0.0
  0
ARC
  5
688
100
AcDbEntity
  8
鏡台
  6
CONTINUOUS
 62
     2
100
AcDbCircle
 10
1165.0
 20
2728.5
 30
0.0
 40
5.0
100
AcDbArc
 50
0.0
 51
90.0
  0
LINE
  5
689
100
AcDbEntity
  8
鏡台
  6
CONTINUOUS
 62
     2
100
AcDbLine
 10
1170.0
 20
1738.5
 30
0.0
 11
1170.0
 21
2728.5
 31
0.0
  0
ARC
  5
68A
100
AcDbEntity
  8
鏡台
  6
CONTINUOUS
 62
     2
100
AcDbCircle
 10
1165.0
 20
1738.5
 30
0.0
 40
5.0
100
AcDbArc
 50
270.0
 51
0.0
  0
CIRCLE
  5
68B
100
AcDbEntity
  8
鏡台
  6
CONTINUOUS
 62
     2
100
AcDbCircle
 10
1125.0
 20
1798.5
 30
0.0
 40
8.5
  0
LINE
  5
68C
100
AcDbEntity
  8
鏡台
  6
CONTINUOUS
 62
     2
100
AcDbLine
 10
1020.0
 20
1848.5
 30
0.0
 11
1020.0
 21
1830.460349
 31
0.0
  0
LINE
  5
68D
100
AcDbEntity
  8
鏡台
  6
CONTINUOUS
 62
     2
100
AcDbLine
 10
1020.0
 20
1833.5
 30
0.0
 11
1170.0
 21
1833.5
 31
0.0
  0
LINE
  5
68E
100
AcDbEntity
  8
鏡台
  6
CONTINUOUS
 62
     2
100
AcDbLine
 10
1161.8
 20
1848.5
 30
0.0
 11
1161.8
 21
2018.0
 31
0.0
  0
LINE
  5
68F
100
AcDbEntity
  8
鏡台
  6
CONTINUOUS
 62
     2
100
AcDbLine
 10
1022.767461
 20
2068.0
 30
0.0
 11
1022.767461
 21
2018.0
 31
0.0
  0
LINE
  5
690
100
AcDbEntity
  8
鏡台
  6
CONTINUOUS
 62
     2
100
AcDbLine
 10
1022.767461
 20
2068.0
 30
0.0
 11
1167.732539
 21
2068.0
 31
0.0
  0
LINE
  5
691
100
AcDbEntity
  8
鏡台
  6
CONTINUOUS
 62
     2
100
AcDbLine
 10
1167.732539
 20
2068.0
 30
0.0
 11
1167.732539
 21
2018.0
 31
0.0
  0
LINE
  5
692
100
AcDbEntity
  8
鏡台
  6
CONTINUOUS
 62
     2
100
AcDbLine
 10
1167.732539
 20
2018.0
 30
0.0
 11
1022.767461
 21
2018.0
 31
0.0
  0
LINE
  5
693
100
AcDbEntity
  8
鏡台
  6
CONTINUOUS
 62
     2
100
AcDbLine
 10
1022.767461
 20
2363.5
 30
0.0
 11
1022.767461
 21
2313.5
 31
0.0
  0
LINE
  5
694
100
AcDbEntity
  8
鏡台
  6
CONTINUOUS
 62
     2
100
AcDbLine
 10
1022.767461
 20
2363.5
 30
0.0
 11
1167.732539
 21
2363.5
 31
0.0
  0
LINE
  5
695
100
AcDbEntity
  8
鏡台
  6
CONTINUOUS
 62
     2
100
AcDbLine
 10
1167.732539
 20
2313.5
 30
0.0
 11
1167.732539
 21
2363.5
 31
0.0
  0
LINE
  5
696
100
AcDbEntity
  8
鏡台
  6
CONTINUOUS
 62
     2
100
AcDbLine
 10
1027.0
 20
2363.5
 30
0.0
 11
1027.0
 21
2624.029253
 31
0.0
  0
LINE
  5
697
100
AcDbEntity
  8
鏡台
  6
CONTINUOUS
 62
     2
100
AcDbLine
 10
1161.8
 20
2363.5
 30
0.0
 11
1161.8
 21
2624.029253
 31
0.0
  0
LINE
  5
698
100
AcDbEntity
  8
鏡台
  6
EXLTYPE1
 62
     2
100
AcDbLine
 10
980.5
 20
2065.5
 30
0.0
 11
980.5
 21
2055.5
 31
0.0
  0
LINE
  5
699
100
AcDbEntity
  8
鏡台
  6
CONTINUOUS
 62
     2
100
AcDbLine
 10
1000.5
 20
2055.5
 30
0.0
 11
980.5
 21
2055.5
 31
0.0
  0
LINE
  5
69A
100
AcDbEntity
  8
鏡台
  6
CONTINUOUS
 62
     2
100
AcDbLine
 10
1000.5
 20
2065.5
 30
0.0
 11
980.5
 21
2065.5
 31
0.0
  0
LINE
  5
69B
100
AcDbEntity
  8
鏡台
  6
EXLTYPE1
 62
     2
100
AcDbLine
 10
1000.5
 20
2065.5
 30
0.0
 11
1000.5
 21
2055.5
 31
0.0
  0
LINE
  5
69C
100
AcDbEntity
  8
鏡台
  6
CONTINUOUS
 62
     2
100
AcDbLine
 10
1000.5
 20
2058.5
 30
0.0
 11
1020.0
 21
2058.5
 31
0.0
  0
LINE
  5
69D
100
AcDbEntity
  8
鏡台
  6
CONTINUOUS
 62
     2
100
AcDbLine
 10
1027.0
 20
2068.0
 30
0.0
 11
1027.0
 21
2268.5
 31
0.0
  0
LINE
  5
69E
100
AcDbEntity
  8
鏡台
  6
CONTINUOUS
 62
     2
100
AcDbLine
 10
1161.8
 20
2068.0
 30
0.0
 11
1161.8
 21
2268.5
 31
0.0
  0
LINE
  5
69F
100
AcDbEntity
  8
鏡台
  6
CONTINUOUS
 62
     6
100
AcDbLine
 10
1140.0
 20
1863.5
 30
0.0
 11
1213.076697
 21
1863.5
 31
0.0
  0
LINE
  5
6A0
100
AcDbEntity
  8
鏡台
  6
CONTINUOUS
 62
     6
100
AcDbLine
 10
1155.0
 20
1798.5
 30
0.0
 11
1095.0
 21
1798.5
 31
0.0
  0
LINE
  5
6A1
100
AcDbEntity
  8
鏡台
  6
CONTINUOUS
 62
     6
100
AcDbLine
 10
1125.0
 20
1828.5
 30
0.0
 11
1125.0
 21
1768.5
 31
0.0
  0
LINE
  5
6A2
100
AcDbEntity
  8
鏡台
  6
CONTINUOUS
 62
     2
100
AcDbLine
 10
1027.0
 20
2583.5
 30
0.0
 11
1161.8
 21
2583.5
 31
0.0
  0
LINE
  5
6A3
100
AcDbEntity
  8
鏡台
  6
CONTINUOUS
 62
     2
100
AcDbLine
 10
1027.0
 20
1848.5
 30
0.0
 11
1027.0
 21
2018.0
 31
0.0
  0
ARC
  5
6A4
100
AcDbEntity
  8
鏡台
  6
CONTINUOUS
 62
     6
100
AcDbCircle
 10
1024.8
 20
2310.5
 30
0.0
 40
3.0
100
AcDbArc
 50
90.0
 51
180.0
  0
LINE
  5
6A5
100
AcDbEntity
  8
鏡台
  6
CONTINUOUS
 62
     6
100
AcDbLine
 10
1021.8
 20
2271.5
 30
0.0
 11
1021.8
 21
2310.5
 31
0.0
  0
ARC
  5
6A6
100
AcDbEntity
  8
鏡台
  6
CONTINUOUS
 62
     6
100
AcDbCircle
 10
1024.8
 20
2271.5
 30
0.0
 40
3.0
100
AcDbArc
 50
180.0
 51
270.0
  0
ARC
  5
6A7
100
AcDbEntity
  8
鏡台
  6
CONTINUOUS
 62
     6
100
AcDbCircle
 10
1164.7
 20
2271.5
 30
0.0
 40
3.0
100
AcDbArc
 50
270.0
 51
0.0
  0
LINE
  5
6A8
100
AcDbEntity
  8
鏡台
  6
CONTINUOUS
 62
     6
100
AcDbLine
 10
1167.7
 20
2271.5
 30
0.0
 11
1167.7
 21
2310.5
 31
0.0
  0
ARC
  5
6A9
100
AcDbEntity
  8
鏡台
  6
CONTINUOUS
 62
     6
100
AcDbCircle
 10
1164.7
 20
2310.5
 30
0.0
 40
3.0
100
AcDbArc
 50
0.0
 51
90.0
  0
LINE
  5
6AA
100
AcDbEntity
  8
鏡台
  6
CONTINUOUS
 62
     6
100
AcDbLine
 10
1103.75
 20
2297.5
 30
0.0
 11
1131.75
 21
2297.5
 31
0.0
  0
LINE
  5
6AB
100
AcDbEntity
  8
鏡台
  6
CONTINUOUS
 62
     6
100
AcDbLine
 10
1103.75
 20
2297.5
 30
0.0
 11
1103.75
 21
2274.5
 31
0.0
  0
LINE
  5
6AC
100
AcDbEntity
  8
鏡台
  6
CONTINUOUS
 62
     6
100
AcDbLine
 10
1103.75
 20
2274.5
 30
0.0
 11
1131.75
 21
2274.5
 31
0.0
  0
LINE
  5
6AD
100
AcDbEntity
  8
鏡台
  6
CONTINUOUS
 62
     6
100
AcDbLine
 10
1131.75
 20
2297.5
 30
0.0
 11
1131.75
 21
2274.5
 31
0.0
  0
LINE
  5
6AE
100
AcDbEntity
  8
鏡台
  6
CONTINUOUS
 62
     6
100
AcDbLine
 10
1057.75
 20
2297.5
 30
0.0
 11
1085.75
 21
2297.5
 31
0.0
  0
LINE
  5
6AF
100
AcDbEntity
  8
鏡台
  6
CONTINUOUS
 62
     6
100
AcDbLine
 10
1057.75
 20
2297.5
 30
0.0
 11
1057.75
 21
2274.5
 31
0.0
  0
LINE
  5
6B0
100
AcDbEntity
  8
鏡台
  6
CONTINUOUS
 62
     6
100
AcDbLine
 10
1057.75
 20
2274.5
 30
0.0
 11
1085.75
 21
2274.5
 31
0.0
  0
LINE
  5
6B1
100
AcDbEntity
  8
鏡台
  6
CONTINUOUS
 62
     6
100
AcDbLine
 10
1085.75
 20
2297.5
 30
0.0
 11
1085.75
 21
2274.5
 31
0.0
  0
LINE
  5
6B2
100
AcDbEntity
  8
鏡台
  6
CONTINUOUS
 62
     6
100
AcDbLine
 10
1080.25
 20
2290.359087
 30
0.0
 11
1080.25
 21
2281.359087
 31
0.0
  0
LINE
  5
6B3
100
AcDbEntity
  8
鏡台
  6
CONTINUOUS
 62
     6
100
AcDbLine
 10
1110.75
 20
2289.859087
 30
0.0
 11
1110.75
 21
2281.859087
 31
0.0
  0
LINE
  5
6B4
100
AcDbEntity
  8
鏡台
  6
CONTINUOUS
 62
     6
100
AcDbLine
 10
1124.75
 20
2290.359087
 30
0.0
 11
1124.75
 21
2281.359087
 31
0.0
  0
LINE
  5
6B5
100
AcDbEntity
  8
鏡台
  6
CONTINUOUS
 62
     2
100
AcDbLine
 10
1020.5
 20
2268.5
 30
0.0
 11
1170.0
 21
2268.5
 31
0.0
  0
LINE
  5
6B6
100
AcDbEntity
  8
鏡台
  6
CONTINUOUS
 62
     2
100
AcDbLine
 10
1170.0
 20
2313.5
 30
0.0
 11
1020.5
 21
2313.5
 31
0.0
  0
LINE
  5
6B7
100
AcDbEntity
  8
鏡台
  6
CONTINUOUS
 62
     2
100
AcDbLine
 10
1027.0
 20
2624.029253
 30
0.0
 11
1161.8
 21
2624.029253
 31
0.0
  0
LINE
  5
6B8
100
AcDbEntity
  8
鏡台
  6
CONTINUOUS
 62
     2
100
AcDbLine
 10
1020.5
 20
2012.318897
 30
0.0
 11
1020.5
 21
2624.029253
 31
0.0
  0
ARC
  5
6B9
100
AcDbEntity
  8
鏡台
  6
CONTINUOUS
 62
     2
100
AcDbCircle
 10
1147.483882
 20
2713.684234
 30
0.0
 40
10.0
100
AcDbArc
 50
0.0
 51
90.0
  0
LINE
  5
6BA
100
AcDbEntity
  8
鏡台
  6
CONTINUOUS
 62
     2
100
AcDbLine
 10
1157.483882
 20
2647.0
 30
0.0
 11
1157.483882
 21
2713.684234
 31
0.0
  0
ARC
  5
6BB
100
AcDbEntity
  8
鏡台
  6
CONTINUOUS
 62
     2
100
AcDbCircle
 10
1147.483882
 20
2647.0
 30
0.0
 40
10.0
100
AcDbArc
 50
270.0
 51
0.0
  0
LINE
  5
6BC
100
AcDbEntity
  8
鏡台
  6
CONTINUOUS
 62
     6
100
AcDbLine
 10
1125.0
 20
2708.5
 30
0.0
 11
1125.0
 21
2648.5
 31
0.0
  0
LINE
  5
6BD
100
AcDbEntity
  8
鏡台
  6
CONTINUOUS
 62
     6
100
AcDbLine
 10
1095.0
 20
2678.5
 30
0.0
 11
1155.0
 21
2678.5
 31
0.0
  0
CIRCLE
  5
6BE
100
AcDbEntity
  8
鏡台
  6
EXLTYPE2
 62
     6
100
AcDbCircle
 10
1125.0
 20
2678.5
 30
0.0
 40
8.5
  0
LINE
  5
6BF
100
AcDbEntity
  8
鏡台
  6
CONTINUOUS
 62
     6
100
AcDbLine
 10
1029.75
 20
2303.5
 30
0.0
 11
1029.75
 21
2268.5
 31
0.0
  0
LINE
  5
6C0
100
AcDbEntity
  8
鏡台
  6
CONTINUOUS
 62
     6
100
AcDbLine
 10
1159.75
 20
2303.5
 30
0.0
 11
1159.75
 21
2268.5
 31
0.0
  0
LINE
  5
6C1
100
AcDbEntity
  8
鏡台
  6
CONTINUOUS
 62
     6
100
AcDbLine
 10
1029.75
 20
2303.5
 30
0.0
 11
1159.75
 21
2303.5
 31
0.0
  0
ARC
  5
6C2
100
AcDbEntity
  8
鏡台
  6
CONTINUOUS
 62
     6
100
AcDbCircle
 10
1971.0852
 20
2680.440216
 30
0.0
 40
819.051758
100
AcDbArc
 50
177.962425
 51
182.04829
  0
LINE
  5
6C3
100
AcDbEntity
  8
鏡台
  6
CONTINUOUS
 62
     6
100
AcDbLine
 10
1225.607802
 20
1748.912733
 30
0.0
 11
1214.982689
 21
1746.065732
 31
0.0
  0
LINE
  5
6C4
100
AcDbEntity
  8
鏡台
  6
CONTINUOUS
 62
     6
100
AcDbLine
 10
1221.854862
 20
1762.918608
 30
0.0
 11
1208.004666
 21
1758.585072
 31
0.0
  0
LINE
  5
6C5
100
AcDbEntity
  8
鏡台
  6
CONTINUOUS
 62
     6
100
AcDbLine
 10
1216.052539
 20
1766.022674
 30
0.0
 11
1206.99753
 21
1763.596338
 31
0.0
  0
LINE
  5
6C6
100
AcDbEntity
  8
鏡台
  6
CONTINUOUS
 62
     6
100
AcDbLine
 10
1208.004666
 20
1758.585072
 30
0.0
 11
1203.529978
 21
1780.850197
 31
0.0
  0
LINE
  5
6C7
100
AcDbEntity
  8
鏡台
  6
CONTINUOUS
 62
     6
100
AcDbLine
 10
1210.407174
 20
1782.694229
 30
0.0
 11
1216.614596
 21
1764.362756
 31
0.0
  0
LINE
  5
6C8
100
AcDbEntity
  8
鏡台
  6
CONTINUOUS
 62
     6
100
AcDbLine
 10
1240.674427
 20
1754.502698
 30
0.0
 11
1225.219542
 21
1750.361631
 31
0.0
  0
LINE
  5
6C9
100
AcDbEntity
  8
鏡台
  6
CONTINUOUS
 62
     6
100
AcDbLine
 10
1238.344994
 20
1763.196077
 30
0.0
 11
1222.89023
 21
1759.055
 31
0.0
  0
LINE
  5
6CA
100
AcDbEntity
  8
鏡台
  6
CONTINUOUS
 62
     6
100
AcDbLine
 10
1214.982568
 20
1746.065743
 30
0.0
 11
1211.876849
 21
1757.656776
 31
0.0
  0
LINE
  5
6CB
100
AcDbEntity
  8
鏡台
  6
CONTINUOUS
 62
     6
100
AcDbLine
 10
1222.501972
 20
1760.503899
 30
0.0
 11
1211.876849
 21
1757.656776
 31
0.0
  0
LINE
  5
6CC
100
AcDbEntity
  8
鏡台
  6
CONTINUOUS
 62
     6
100
AcDbLine
 10
1221.854862
 20
1762.918608
 30
0.0
 11
1220.328637
 21
1762.454647
 31
0.0
  0
LINE
  5
6CD
100
AcDbEntity
  8
鏡台
  6
CONTINUOUS
 62
     6
100
AcDbLine
 10
1226.384198
 20
1746.014947
 30
0.0
 11
1212.554394
 21
1743.280077
 31
0.0
  0
LINE
  5
6CE
100
AcDbEntity
  8
鏡台
  6
CONTINUOUS
 62
     6
100
AcDbLine
 10
1221.854862
 20
1762.918608
 30
0.0
 11
1226.384198
 21
1746.014947
 31
0.0
  0
LINE
  5
6CF
100
AcDbEntity
  8
鏡台
  6
CONTINUOUS
 62
     6
100
AcDbLine
 10
1207.745785
 20
1757.619096
 30
0.0
 11
1211.394412
 21
1744.00221
 31
0.0
  0
LINE
  5
6D0
100
AcDbEntity
  8
鏡台
  6
CONTINUOUS
 62
     6
100
AcDbLine
 10
1209.201124
 20
1783.339395
 30
0.0
 11
1204.251516
 21
1782.013172
 31
0.0
  0
ARC
  5
6D1
100
AcDbEntity
  8
鏡台
  6
CONTINUOUS
 62
     6
100
AcDbCircle
 10
1351.656677
 20
1808.665039
 30
0.0
 40
150.0
100
AcDbArc
 50
184.010986
 51
190.263581
  0
ARC
  5
6D2
100
AcDbEntity
  8
鏡台
  6
CONTINUOUS
 62
     6
100
AcDbCircle
 10
1357.149475
 20
1808.383301
 30
0.0
 40
150.0
100
AcDbArc
 50
184.385864
 51
189.606282
  0
ARC
  5
6D3
100
AcDbEntity
  8
鏡台
  6
CONTINUOUS
 62
     6
100
AcDbCircle
 10
1219.456095
 20
1765.324941
 30
0.0
 40
3.0
100
AcDbArc
 50
198.707275
 51
286.909241
  0
ARC
  5
6D4
100
AcDbEntity
  8
鏡台
  6
CONTINUOUS
 62
     6
100
AcDbCircle
 10
1204.510355
 20
1781.047239
 30
0.0
 40
1.0
100
AcDbArc
 50
105.000061
 51
191.363464
  0
ARC
  5
6D5
100
AcDbEntity
  8
鏡台
  6
CONTINUOUS
 62
     6
100
AcDbCircle
 10
1209.459963
 20
1782.373463
 30
0.0
 40
1.0
100
AcDbArc
 50
18.707275
 51
105.0
  0
ARC
  5
6D6
100
AcDbEntity
  8
鏡台
  6
CONTINUOUS
 62
     6
100
AcDbCircle
 10
1230.883657
 20
1756.538081
 30
0.0
 40
10.0
100
AcDbArc
 50
348.256348
 51
41.743622
  0
ARC
  5
6D7
100
AcDbEntity
  8
鏡台
  6
CONTINUOUS
 62
     6
100
AcDbCircle
 10
1212.360344
 20
1744.261049
 30
0.0
 40
1.0
100
AcDbArc
 50
195.0
 51
281.186218
  0
ARC
  5
6D8
100
AcDbEntity
  8
鏡台
  6
CONTINUOUS
 62
     6
100
AcDbCircle
 10
1208.711717
 20
1757.877935
 30
0.0
 40
1.0
100
AcDbArc
 50
106.909119
 51
195.0
  0
ARC
  5
6D9
100
AcDbEntity
  8
鏡台
  6
CONTINUOUS
 62
     6
100
AcDbCircle
 10
1081.748657
 20
1796.689941
 30
0.0
 40
120.0
100
AcDbArc
 50
4.590393
 51
27.576874
  0
ARC
  5
6DA
100
AcDbEntity
  8
鏡台
  6
CONTINUOUS
 62
     6
100
AcDbCircle
 10
1087.644653
 20
1797.916992
 30
0.0
 40
120.0
100
AcDbArc
 50
3.349121
 51
29.221863
  0
ARC
  5
6DB
100
AcDbEntity
  8
鏡台
  6
CONTINUOUS
 62
     6
100
AcDbCircle
 10
1170.0
 20
1836.5
 30
0.0
 40
30.0
100
AcDbArc
 50
41.793671
 51
90.0
  0
ARC
  5
6DC
100
AcDbEntity
  8
鏡台
  6
CONTINUOUS
 62
     6
100
AcDbCircle
 10
1219.456095
 20
1765.324941
 30
0.0
 40
3.0
100
AcDbArc
 50
198.707275
 51
286.909241
  0
ARC
  5
6DD
100
AcDbEntity
  8
鏡台
  6
CONTINUOUS
 62
     6
100
AcDbCircle
 10
1204.510355
 20
1781.047239
 30
0.0
 40
1.0
100
AcDbArc
 50
105.000061
 51
191.363464
  0
ARC
  5
6DE
100
AcDbEntity
  8
鏡台
  6
CONTINUOUS
 62
     6
100
AcDbCircle
 10
1209.459963
 20
1782.373463
 30
0.0
 40
1.0
100
AcDbArc
 50
18.707275
 51
105.0
  0
ARC
  5
6DF
100
AcDbEntity
  8
鏡台
  6
CONTINUOUS
 62
     6
100
AcDbCircle
 10
1230.883657
 20
1756.538081
 30
0.0
 40
10.0
100
AcDbArc
 50
348.256348
 51
41.743622
  0
ARC
  5
6E0
100
AcDbEntity
  8
鏡台
  6
CONTINUOUS
 62
     6
100
AcDbCircle
 10
1212.360344
 20
1744.261049
 30
0.0
 40
1.0
100
AcDbArc
 50
195.0
 51
281.186218
  0
ARC
  5
6E1
100
AcDbEntity
  8
鏡台
  6
CONTINUOUS
 62
     6
100
AcDbCircle
 10
1208.711717
 20
1757.877935
 30
0.0
 40
1.0
100
AcDbArc
 50
106.909119
 51
195.0
  0
ARC
  5
6E2
100
AcDbEntity
  8
鏡台
  6
CONTINUOUS
 62
     6
100
AcDbCircle
 10
1170.0
 20
1836.5
 30
0.0
 40
24.0
100
AcDbArc
 50
40.990967
 51
90.0
  0
ARC
  5
6E3
100
AcDbEntity
  8
鏡台
  6
CONTINUOUS
 62
     6
100
AcDbCircle
 10
1198.627808
 20
1789.515259
 30
0.0
 40
17.00025
100
AcDbArc
 50
71.928894
 51
128.072876
  0
ARC
  5
6E4
100
AcDbEntity
  8
鏡台
  6
CONTINUOUS
 62
     6
100
AcDbCircle
 10
1209.174561
 20
1821.838562
 30
0.0
 40
17.000208
100
AcDbArc
 50
251.928955
 51
280.001038
  0
ARC
  5
6E5
100
AcDbEntity
  8
鏡台
  6
CONTINUOUS
 62
     6
100
AcDbCircle
 10
1209.174683
 20
1821.838379
 30
0.0
 40
17.000029
100
AcDbArc
 50
280.001038
 51
308.073608
  0
ARC
  5
6E6
100
AcDbEntity
  8
鏡台
  6
CONTINUOUS
 62
     6
100
AcDbCircle
 10
1198.627808
 20
1781.515259
 30
0.0
 40
17.00025
100
AcDbArc
 50
71.928894
 51
128.072876
  0
ARC
  5
6E7
100
AcDbEntity
  8
鏡台
  6
CONTINUOUS
 62
     6
100
AcDbCircle
 10
1209.174561
 20
1813.838562
 30
0.0
 40
17.000208
100
AcDbArc
 50
251.928955
 51
280.001038
  0
ARC
  5
6E8
100
AcDbEntity
  8
鏡台
  6
CONTINUOUS
 62
     6
100
AcDbCircle
 10
1209.174683
 20
1813.838379
 30
0.0
 40
17.000029
100
AcDbArc
 50
280.001038
 51
308.073608
  0
ARC
  5
6E9
100
AcDbEntity
  8
鏡台
  6
CONTINUOUS
 62
     2
100
AcDbCircle
 10
675.0
 20
2728.5
 30
0.0
 40
5.0
100
AcDbArc
 50
90.0
 51
180.0
  0
LINE
  5
6EA
100
AcDbEntity
  8
鏡台
  6
CONTINUOUS
 62
     2
100
AcDbLine
 10
670.0
 20
2728.5
 30
0.0
 11
670.0
 21
1738.5
 31
0.0
  0
ARC
  5
6EB
100
AcDbEntity
  8
鏡台
  6
CONTINUOUS
 62
     2
100
AcDbCircle
 10
675.0
 20
1738.5
 30
0.0
 40
5.0
100
AcDbArc
 50
180.0
 51
270.0
  0
CIRCLE
  5
6EC
100
AcDbEntity
  8
鏡台
  6
CONTINUOUS
 62
     2
100
AcDbCircle
 10
715.0
 20
1798.5
 30
0.0
 40
8.5
  0
LINE
  5
6ED
100
AcDbEntity
  8
鏡台
  6
CONTINUOUS
 62
     2
100
AcDbLine
 10
670.0
 20
1833.5
 30
0.0
 11
819.9
 21
1833.5
 31
0.0
  0
LINE
  5
6EE
100
AcDbEntity
  8
鏡台
  6
CONTINUOUS
 62
     6
100
AcDbLine
 10
745.0
 20
1798.5
 30
0.0
 11
685.0
 21
1798.5
 31
0.0
  0
LINE
  5
6EF
100
AcDbEntity
  8
鏡台
  6
CONTINUOUS
 62
     6
100
AcDbLine
 10
715.0
 20
1828.5
 30
0.0
 11
715.0
 21
1768.5
 31
0.0
  0
ARC
  5
6F0
100
AcDbEntity
  8
鏡台
  6
CONTINUOUS
 62
     2
100
AcDbCircle
 10
691.965233
 20
2713.684234
 30
0.0
 40
10.0
100
AcDbArc
 50
90.0
 51
180.0
  0
LINE
  5
6F1
100
AcDbEntity
  8
鏡台
  6
CONTINUOUS
 62
     2
100
AcDbLine
 10
681.965233
 20
2713.684234
 30
0.0
 11
681.965233
 21
2647.0
 31
0.0
  0
ARC
  5
6F2
100
AcDbEntity
  8
鏡台
  6
CONTINUOUS
 62
     2
100
AcDbCircle
 10
691.965233
 20
2647.0
 30
0.0
 40
10.0
100
AcDbArc
 50
180.0
 51
270.0
  0
LINE
  5
6F3
100
AcDbEntity
  8
鏡台
  6
CONTINUOUS
 62
     6
100
AcDbLine
 10
715.0
 20
2708.5
 30
0.0
 11
715.0
 21
2648.5
 31
0.0
  0
LINE
  5
6F4
100
AcDbEntity
  8
鏡台
  6
CONTINUOUS
 62
     6
100
AcDbLine
 10
745.0
 20
2678.5
 30
0.0
 11
685.0
 21
2678.5
 31
0.0
  0
CIRCLE
  5
6F5
100
AcDbEntity
  8
鏡台
  6
EXLTYPE2
 62
     6
100
AcDbCircle
 10
715.0
 20
2678.5
 30
0.0
 40
8.5
  0
ARC
  5
6F6
100
AcDbEntity
  8
鏡台
  6
CONTINUOUS
 62
     6
100
AcDbCircle
 10
-131.117436
 20
2680.440216
 30
0.0
 40
819.051758
100
AcDbArc
 50
357.95171
 51
2.037575
  0
LINE
  5
6F7
100
AcDbEntity
  8
鏡台
  6
CONTINUOUS
 62
     2
100
AcDbLine
 10
1170.0
 20
2637.0
 30
0.0
 11
670.0
 21
2637.0
 31
0.0
  0
LINE
  5
6F8
100
AcDbEntity
  8
鏡台
  6
CONTINUOUS
 62
     2
100
AcDbLine
 10
1170.0
 20
2627.0
 30
0.0
 11
670.0
 21
2627.0
 31
0.0
  0
LINE
  5
6F9
100
AcDbEntity
  8
鏡台
  6
CONTINUOUS
 62
     2
100
AcDbLine
 10
1165.0
 20
2733.5
 30
0.0
 11
675.0
 21
2733.5
 31
0.0
  0
LINE
  5
6FA
100
AcDbEntity
  8
鏡台
  6
CONTINUOUS
 62
     2
100
AcDbLine
 10
1147.483882
 20
2723.684234
 30
0.0
 11
691.965233
 21
2723.684234
 31
0.0
  0
ARC
  5
6FB
100
AcDbEntity
  8
鏡台
  6
CONTINUOUS
 62
     6
100
AcDbCircle
 10
697.410133
 20
2709.91706
 30
0.0
 40
10.0
100
AcDbArc
 50
89.515523
 51
182.037575
  0
ARC
  5
6FC
100
AcDbEntity
  8
鏡台
  6
CONTINUOUS
 62
     6
100
AcDbCircle
 10
697.404606
 20
2650.808426
 30
0.0
 40
10.0
100
AcDbArc
 50
177.95171
 51
270.484485
  0
ARC
  5
6FD
100
AcDbEntity
  8
鏡台
  6
CONTINUOUS
 62
     6
100
AcDbCircle
 10
1142.563158
 20
2650.808426
 30
0.0
 40
10.0
100
AcDbArc
 50
269.515515
 51
2.04829
  0
ARC
  5
6FE
100
AcDbEntity
  8
鏡台
  6
CONTINUOUS
 62
     6
100
AcDbCircle
 10
1142.557631
 20
2709.91706
 30
0.0
 40
10.0
100
AcDbArc
 50
357.962425
 51
90.484477
  0
LINE
  5
6FF
100
AcDbEntity
  8
鏡台
  6
CONTINUOUS
 62
     2
100
AcDbLine
 10
1170.0
 20
1848.5
 30
0.0
 11
670.0
 21
1848.5
 31
0.0
  0
ARC
  5
700
100
AcDbEntity
  8
鏡台
  6
CONTINUOUS
 62
     6
100
AcDbCircle
 10
919.983882
 20
29031.540013
 30
0.0
 40
26312.56397
100
AcDbArc
 50
269.515523
 51
270.484477
  0
ARC
  5
701
100
AcDbEntity
  8
鏡台
  6
CONTINUOUS
 62
     6
100
AcDbCircle
 10
919.983882
 20
-23671.054293
 30
0.0
 40
26312.803775
100
AcDbArc
 50
89.515515
 51
90.484485
  0
LINE
  5
702
100
AcDbEntity
  8
鏡台
  6
CONTINUOUS
 62
     2
100
AcDbLine
 10
670.0
 20
2043.0
 30
0.0
 11
1021.0
 21
2043.0
 31
0.0
  0
ARC
  5
703
100
AcDbEntity
  8
鏡台
  6
CONTINUOUS
 62
     2
100
AcDbCircle
 10
870.0
 20
-66989.5735
 30
0.0
 40
69012.5735
100
AcDbArc
 50
89.875051
 51
90.166045
  0
LINE
  5
704
100
AcDbEntity
  8
鏡台
  6
CONTINUOUS
 62
     2
100
AcDbLine
 10
670.0
 20
2012.318897
 30
0.0
 11
1027.0
 21
2012.318897
 31
0.0
  0
LINE
  5
705
100
AcDbEntity
  8
鏡台
  6
CONTINUOUS
 62
     2
100
AcDbLine
 10
728.0
 20
2065.5
 30
0.0
 11
708.0
 21
2065.5
 31
0.0
  0
LINE
  5
706
100
AcDbEntity
  8
鏡台
  6
EXLTYPE1
 62
     2
100
AcDbLine
 10
728.0
 20
2065.5
 30
0.0
 11
728.0
 21
2055.5
 31
0.0
  0
LINE
  5
707
100
AcDbEntity
  8
鏡台
  6
EXLTYPE1
 62
     2
100
AcDbLine
 10
708.0
 20
2065.5
 30
0.0
 11
708.0
 21
2055.5
 31
0.0
  0
LINE
  5
708
100
AcDbEntity
  8
鏡台
  6
CONTINUOUS
 62
     2
100
AcDbLine
 10
728.0
 20
2055.5
 30
0.0
 11
708.0
 21
2055.5
 31
0.0
  0
LINE
  5
709
100
AcDbEntity
  8
鏡台
  6
CONTINUOUS
 62
     2
100
AcDbLine
 10
688.5
 20
2058.5
 30
0.0
 11
708.0
 21
2058.5
 31
0.0
  0
LINE
  5
70A
100
AcDbEntity
  8
鏡台
  6
CONTINUOUS
 62
     2
100
AcDbLine
 10
688.0
 20
2058.5
 30
0.0
 11
688.0
 21
2624.029253
 31
0.0
  0
LINE
  5
70B
100
AcDbEntity
  8
鏡台
  6
CONTINUOUS
 62
     2
100
AcDbLine
 10
688.0
 20
2624.029253
 30
0.0
 11
1020.5
 21
2624.029253
 31
0.0
  0
LINE
  5
70C
100
AcDbEntity
  8
鏡台
  6
CONTINUOUS
 62
     2
100
AcDbLine
 10
728.0
 20
2058.5
 30
0.0
 11
980.5
 21
2058.5
 31
0.0
  0
LINE
  5
70D
100
AcDbEntity
  8
鏡台
  6
CONTINUOUS
 62
     6
100
AcDbLine
 10
788.833009
 20
2550.333009
 30
0.0
 11
735.8
 21
2497.3
 31
0.0
  0
LINE
  5
70E
100
AcDbEntity
  8
鏡台
  6
CONTINUOUS
 62
     6
100
AcDbLine
 10
766.193146
 20
2539.006854
 30
0.0
 11
747.243146
 21
2520.056854
 31
0.0
  0
LINE
  5
70F
100
AcDbEntity
  8
鏡台
  6
CONTINUOUS
 62
     6
100
AcDbLine
 10
782.706854
 20
2532.893146
 30
0.0
 11
753.006854
 21
2503.193146
 31
0.0
  0
LINE
  5
710
100
AcDbEntity
  8
鏡台
  6
CONTINUOUS
 62
     6
100
AcDbLine
 10
849.833009
 20
2227.333009
 30
0.0
 11
796.8
 21
2174.3
 31
0.0
  0
LINE
  5
711
100
AcDbEntity
  8
鏡台
  6
CONTINUOUS
 62
     6
100
AcDbLine
 10
827.193146
 20
2216.006854
 30
0.0
 11
808.243146
 21
2197.056854
 31
0.0
  0
LINE
  5
712
100
AcDbEntity
  8
鏡台
  6
CONTINUOUS
 62
     6
100
AcDbLine
 10
843.706854
 20
2209.893146
 30
0.0
 11
814.006854
 21
2180.193146
 31
0.0
  0
LINE
  5
713
100
AcDbEntity
  8
鏡台
  6
CONTINUOUS
 62
     6
100
AcDbLine
 10
992.833009
 20
2423.333009
 30
0.0
 11
939.8
 21
2370.3
 31
0.0
  0
LINE
  5
714
100
AcDbEntity
  8
鏡台
  6
CONTINUOUS
 62
     6
100
AcDbLine
 10
970.193146
 20
2412.006854
 30
0.0
 11
951.243146
 21
2393.056854
 31
0.0
  0
LINE
  5
715
100
AcDbEntity
  8
鏡台
  6
CONTINUOUS
 62
     6
100
AcDbLine
 10
986.706854
 20
2405.893146
 30
0.0
 11
957.006854
 21
2376.193146
 31
0.0
  0
LINE
  5
716
100
AcDbEntity
  8
鏡台
  6
CONTINUOUS
 62
     2
100
AcDbLine
 10
819.9
 20
1848.5
 30
0.0
 11
819.9
 21
1830.460349
 31
0.0
  0
LINE
  5
717
100
AcDbEntity
  8
鏡台
  6
CONTINUOUS
 62
     2
100
AcDbLine
 10
819.9
 20
1830.460349
 30
0.0
 11
1020.0
 21
1830.460349
 31
0.0
  0
LINE
  5
718
100
AcDbEntity
  8
付属金具
  6
EXLTYPE2
 62
     6
100
AcDbLine
 10
901.5
 20
1420.5
 30
0.0
 11
901.5
 21
1385.5
 31
0.0
  0
LINE
  5
719
100
AcDbEntity
  8
付属金具
  6
EXLTYPE2
 62
     6
100
AcDbLine
 10
938.5
 20
1420.5
 30
0.0
 11
938.5
 21
1385.5
 31
0.0
  0
LINE
  5
71A
100
AcDbEntity
  8
付属金具
  6
EXLTYPE2
 62
     6
100
AcDbLine
 10
904.15
 20
1382.85
 30
0.0
 11
904.15
 21
1357.834963
 31
0.0
  0
LINE
  5
71B
100
AcDbEntity
  8
付属金具
  6
EXLTYPE2
 62
     6
100
AcDbLine
 10
935.85
 20
1382.85
 30
0.0
 11
935.85
 21
1353.871127
 31
0.0
  0
LINE
  5
71C
100
AcDbEntity
  8
付属金具
  6
EXLTYPE2
 62
     6
100
AcDbLine
 10
880.978873
 20
1347.5
 30
0.0
 11
880.978873
 21
1313.0
 31
0.0
  0
LINE
  5
71D
100
AcDbEntity
  8
付属金具
  6
EXLTYPE2
 62
     6
100
AcDbLine
 10
915.978873
 20
1320.850662
 30
0.0
 11
915.978873
 21
1313.0
 31
0.0
  0
LINE
  5
71E
100
AcDbEntity
  8
付属金具
  6
EXLTYPE2
 62
     6
100
AcDbLine
 10
938.5
 20
1385.5
 30
0.0
 11
935.85
 21
1382.85
 31
0.0
  0
LINE
  5
71F
100
AcDbEntity
  8
付属金具
  6
EXLTYPE2
 62
     6
100
AcDbLine
 10
901.5
 20
1385.5
 30
0.0
 11
904.15
 21
1382.85
 31
0.0
  0
LINE
  5
720
100
AcDbEntity
  8
付属金具
  6
EXLTYPE2
 62
     6
100
AcDbLine
 10
896.6
 20
1420.5
 30
0.0
 11
943.4
 21
1420.5
 31
0.0
  0
LINE
  5
721
100
AcDbEntity
  8
付属金具
  6
EXLTYPE2
 62
     6
100
AcDbLine
 10
898.6
 20
1438.5
 30
0.0
 11
941.4
 21
1438.5
 31
0.0
  0
LINE
  5
722
100
AcDbEntity
  8
付属金具
  6
EXLTYPE2
 62
     6
100
AcDbLine
 10
896.6
 20
1436.5
 30
0.0
 11
896.6
 21
1420.5
 31
0.0
  0
LINE
  5
723
100
AcDbEntity
  8
付属金具
  6
EXLTYPE2
 62
     6
100
AcDbLine
 10
902.870011
 20
1436.5
 30
0.0
 11
902.870011
 21
1420.5
 31
0.0
  0
LINE
  5
724
100
AcDbEntity
  8
付属金具
  6
EXLTYPE2
 62
     6
100
AcDbLine
 10
913.729989
 20
1436.5
 30
0.0
 11
913.729989
 21
1420.5
 31
0.0
  0
LINE
  5
725
100
AcDbEntity
  8
付属金具
  6
EXLTYPE2
 62
     6
100
AcDbLine
 10
926.270011
 20
1436.5
 30
0.0
 11
926.270011
 21
1420.5
 31
0.0
  0
LINE
  5
726
100
AcDbEntity
  8
付属金具
  6
EXLTYPE2
 62
     6
100
AcDbLine
 10
937.129989
 20
1436.5
 30
0.0
 11
937.129989
 21
1420.5
 31
0.0
  0
LINE
  5
727
100
AcDbEntity
  8
付属金具
  6
EXLTYPE2
 62
     6
100
AcDbLine
 10
943.4
 20
1436.5
 30
0.0
 11
943.4
 21
1420.5
 31
0.0
  0
ARC
  5
728
100
AcDbEntity
  8
付属金具
  6
EXLTYPE2
 62
     6
100
AcDbCircle
 10
898.6
 20
1436.5
 30
0.0
 40
2.0
100
AcDbArc
 50
90.0
 51
180.0
  0
ARC
  5
729
100
AcDbEntity
  8
付属金具
  6
EXLTYPE2
 62
     6
100
AcDbCircle
 10
941.4
 20
1436.5
 30
0.0
 40
2.0
100
AcDbArc
 50
0.0
 51
90.0
  0
LINE
  5
72A
100
AcDbEntity
  8
付属金具
  6
EXLTYPE2
 62
     6
100
AcDbLine
 10
877.478873
 20
1313.0
 30
0.0
 11
919.478873
 21
1313.0
 31
0.0
  0
LINE
  5
72B
100
AcDbEntity
  8
付属金具
  6
EXLTYPE2
 62
     6
100
AcDbLine
 10
878.978873
 20
1296.5
 30
0.0
 11
917.978873
 21
1296.5
 31
0.0
  0
LINE
  5
72C
100
AcDbEntity
  8
付属金具
  6
EXLTYPE2
 62
     6
100
AcDbLine
 10
877.478873
 20
1298.0
 30
0.0
 11
877.478873
 21
1313.0
 31
0.0
  0
LINE
  5
72D
100
AcDbEntity
  8
付属金具
  6
EXLTYPE2
 62
     6
100
AcDbLine
 10
919.478873
 20
1298.0
 30
0.0
 11
919.478873
 21
1313.0
 31
0.0
  0
LINE
  5
72E
100
AcDbEntity
  8
付属金具
  6
EXLTYPE2
 62
     6
100
AcDbLine
 10
881.656505
 20
1298.0
 30
0.0
 11
881.656505
 21
1313.0
 31
0.0
  0
LINE
  5
72F
100
AcDbEntity
  8
付属金具
  6
EXLTYPE2
 62
     6
100
AcDbLine
 10
896.004015
 20
1298.0
 30
0.0
 11
896.004015
 21
1313.0
 31
0.0
  0
LINE
  5
730
100
AcDbEntity
  8
付属金具
  6
EXLTYPE2
 62
     6
100
AcDbLine
 10
900.953732
 20
1298.0
 30
0.0
 11
900.953732
 21
1313.0
 31
0.0
  0
LINE
  5
731
100
AcDbEntity
  8
付属金具
  6
EXLTYPE2
 62
     6
100
AcDbLine
 10
915.301242
 20
1298.0
 30
0.0
 11
915.301242
 21
1313.0
 31
0.0
  0
ARC
  5
732
100
AcDbEntity
  8
付属金具
  6
EXLTYPE2
 62
     6
100
AcDbCircle
 10
917.978873
 20
1298.0
 30
0.0
 40
1.5
100
AcDbArc
 50
270.0
 51
0.0
  0
ARC
  5
733
100
AcDbEntity
  8
付属金具
  6
EXLTYPE2
 62
     6
100
AcDbCircle
 10
878.978873
 20
1298.0
 30
0.0
 40
1.5
100
AcDbArc
 50
180.0
 51
270.0
  0
LINE
  5
734
100
AcDbEntity
  8
付属金具
  6
EXLTYPE2
 62
     6
100
AcDbLine
 10
904.15
 20
1382.85
 30
0.0
 11
935.85
 21
1382.85
 31
0.0
  0
ARC
  5
735
100
AcDbEntity
  8
付属金具
  6
EXLTYPE2
 62
     6
100
AcDbCircle
 10
898.478873
 20
1332.35
 30
0.0
 40
15.85
100
AcDbArc
 50
99.640243
 51
270.0
  0
LINE
  5
736
100
AcDbEntity
  8
付属金具
  6
EXLTYPE2
 62
     6
100
AcDbLine
 10
880.978873
 20
1347.5
 30
0.0
 11
893.820547
 21
1347.5
 31
0.0
  0
LINE
  5
737
100
AcDbEntity
  8
付属金具
  6
EXLTYPE2
 62
     6
100
AcDbLine
 10
859.827758
 20
1388.5
 30
0.0
 11
859.827758
 21
1372.5
 31
0.0
  0
LINE
  5
738
100
AcDbEntity
  8
付属金具
  6
EXLTYPE2
 62
     6
100
AcDbLine
 10
870.687735
 20
1388.5
 30
0.0
 11
870.687735
 21
1372.5
 31
0.0
  0
LINE
  5
739
100
AcDbEntity
  8
付属金具
  6
EXLTYPE2
 62
     6
100
AcDbLine
 10
883.227758
 20
1388.5
 30
0.0
 11
883.227758
 21
1372.5
 31
0.0
  0
LINE
  5
73A
100
AcDbEntity
  8
付属金具
  6
EXLTYPE2
 62
     6
100
AcDbLine
 10
894.087735
 20
1388.5
 30
0.0
 11
894.087735
 21
1372.5
 31
0.0
  0
LINE
  5
73B
100
AcDbEntity
  8
付属金具
  6
EXLTYPE2
 62
     6
100
AcDbLine
 10
900.357747
 20
1388.5
 30
0.0
 11
900.357747
 21
1372.5
 31
0.0
  0
ARC
  5
73C
100
AcDbEntity
  8
付属金具
  6
EXLTYPE2
 62
     6
100
AcDbCircle
 10
898.357747
 20
1388.5
 30
0.0
 40
2.0
100
AcDbArc
 50
0.0
 51
90.0
  0
LINE
  5
73D
100
AcDbEntity
  8
付属金具
  6
EXLTYPE2
 62
     6
100
AcDbLine
 10
895.457747
 20
1372.5
 30
0.0
 11
895.457747
 21
1347.5
 31
0.0
  0
LINE
  5
73E
100
AcDbEntity
  8
付属金具
  6
EXLTYPE2
 62
     6
100
AcDbLine
 10
858.457747
 20
1342.5
 30
0.0
 11
880.978873
 21
1342.5
 31
0.0
  0
ARC
  5
73F
100
AcDbEntity
  8
付属金具
  6
EXLTYPE2
 62
     6
100
AcDbCircle
 10
898.478873
 20
1353.871127
 30
0.0
 40
37.371127
100
AcDbArc
 50
197.714595
 51
242.077557
  0
ARC
  5
740
100
AcDbEntity
  8
付属金具
  6
EXLTYPE2
 62
     6
100
AcDbCircle
 10
898.478873
 20
1353.871127
 30
0.0
 40
37.371127
100
AcDbArc
 50
270.0
 51
0.0
  0
LINE
  5
741
100
AcDbEntity
  8
付属金具
  6
EXLTYPE2
 62
     6
100
AcDbLine
 10
861.107747
 20
1402.128873
 30
0.0
 11
861.107747
 21
1390.5
 31
0.0
  0
LINE
  5
742
100
AcDbEntity
  8
付属金具
  6
EXLTYPE2
 62
     6
100
AcDbLine
 10
892.807747
 20
1402.128873
 30
0.0
 11
892.807747
 21
1390.5
 31
0.0
  0
ARC
  5
743
100
AcDbEntity
  8
付属金具
  6
EXLTYPE2
 62
     6
100
AcDbCircle
 10
898.478873
 20
1402.128873
 30
0.0
 40
5.671127
100
AcDbArc
 50
57.810532
 51
180.0
  0
ARC
  5
744
100
AcDbEntity
  8
付属金具
  6
EXLTYPE2
 62
     6
100
AcDbCircle
 10
894.15
 20
1357.834963
 30
0.0
 40
10.0
100
AcDbArc
 50
279.640243
 51
0.0
  0
LINE
  5
745
100
AcDbEntity
  8
付属金具
  6
EXLTYPE2
 62
     6
100
AcDbLine
 10
904.25
 20
1463.0
 30
0.0
 11
935.75
 21
1463.0
 31
0.0
  0
LINE
  5
746
100
AcDbEntity
  8
付属金具
  6
EXLTYPE2
 62
     6
100
AcDbLine
 10
901.5
 20
1473.0
 30
0.0
 11
901.5
 21
1465.75
 31
0.0
  0
LINE
  5
747
100
AcDbEntity
  8
付属金具
  6
EXLTYPE2
 62
     6
100
AcDbLine
 10
904.25
 20
1463.0
 30
0.0
 11
901.5
 21
1465.75
 31
0.0
  0
LINE
  5
748
100
AcDbEntity
  8
付属金具
  6
EXLTYPE2
 62
     6
100
AcDbLine
 10
935.75
 20
1463.0
 30
0.0
 11
938.5
 21
1465.75
 31
0.0
  0
LINE
  5
749
100
AcDbEntity
  8
付属金具
  6
EXLTYPE2
 62
     6
100
AcDbLine
 10
938.5
 20
1473.0
 30
0.0
 11
938.5
 21
1465.75
 31
0.0
  0
LINE
  5
74A
100
AcDbEntity
  8
付属金具
  6
EXLTYPE2
 62
     6
100
AcDbLine
 10
891.5
 20
1493.0
 30
0.0
 11
948.5
 21
1493.0
 31
0.0
  0
LINE
  5
74B
100
AcDbEntity
  8
付属金具
  6
EXLTYPE2
 62
     6
100
AcDbLine
 10
893.5
 20
1490.0
 30
0.0
 11
946.5
 21
1490.0
 31
0.0
  0
LINE
  5
74C
100
AcDbEntity
  8
付属金具
  6
EXLTYPE2
 62
     6
100
AcDbLine
 10
941.0
 20
1473.0
 30
0.0
 11
899.0
 21
1473.0
 31
0.0
  0
LINE
  5
74D
100
AcDbEntity
  8
付属金具
  6
EXLTYPE2
 62
     6
100
AcDbLine
 10
893.5
 20
1493.0
 30
0.0
 11
893.5
 21
1490.0
 31
0.0
  0
LINE
  5
74E
100
AcDbEntity
  8
付属金具
  6
EXLTYPE2
 62
     6
100
AcDbLine
 10
897.5
 20
1474.5
 30
0.0
 11
897.5
 21
1490.0
 31
0.0
  0
LINE
  5
74F
100
AcDbEntity
  8
付属金具
  6
EXLTYPE2
 62
     6
100
AcDbLine
 10
906.883288
 20
1490.0
 30
0.0
 11
906.883288
 21
1474.5
 31
0.0
  0
LINE
  5
750
100
AcDbEntity
  8
付属金具
  6
EXLTYPE2
 62
     6
100
AcDbLine
 10
910.726382
 20
1490.0
 30
0.0
 11
910.726382
 21
1474.5
 31
0.0
  0
LINE
  5
751
100
AcDbEntity
  8
付属金具
  6
EXLTYPE2
 62
     6
100
AcDbLine
 10
929.273618
 20
1490.0
 30
0.0
 11
929.273618
 21
1474.5
 31
0.0
  0
LINE
  5
752
100
AcDbEntity
  8
付属金具
  6
EXLTYPE2
 62
     6
100
AcDbLine
 10
933.116712
 20
1490.0
 30
0.0
 11
933.116712
 21
1474.5
 31
0.0
  0
LINE
  5
753
100
AcDbEntity
  8
付属金具
  6
EXLTYPE2
 62
     6
100
AcDbLine
 10
942.5
 20
1474.5
 30
0.0
 11
942.5
 21
1490.0
 31
0.0
  0
LINE
  5
754
100
AcDbEntity
  8
付属金具
  6
EXLTYPE2
 62
     6
100
AcDbLine
 10
946.5
 20
1493.0
 30
0.0
 11
946.5
 21
1490.0
 31
0.0
  0
LINE
  5
755
100
AcDbEntity
  8
付属金具
  6
EXLTYPE2
 62
     6
100
AcDbLine
 10
899.0
 20
1473.0
 30
0.0
 11
897.5
 21
1474.5
 31
0.0
  0
LINE
  5
756
100
AcDbEntity
  8
付属金具
  6
EXLTYPE2
 62
     6
100
AcDbLine
 10
942.5
 20
1474.5
 30
0.0
 11
941.0
 21
1473.0
 31
0.0
  0
LINE
  5
757
100
AcDbEntity
  8
付属金具
  6
EXLTYPE2
 62
     6
100
AcDbLine
 10
906.883288
 20
1474.5
 30
0.0
 11
910.726382
 21
1474.5
 31
0.0
  0
LINE
  5
758
100
AcDbEntity
  8
付属金具
  6
EXLTYPE2
 62
     6
100
AcDbLine
 10
929.273618
 20
1474.5
 30
0.0
 11
933.116712
 21
1474.5
 31
0.0
  0
ARC
  5
759
100
AcDbEntity
  8
付属金具
  6
EXLTYPE2
 62
     6
100
AcDbCircle
 10
902.191644
 20
1481.087175
 30
0.0
 40
8.087175
100
AcDbArc
 50
234.540041
 51
305.459959
  0
ARC
  5
75A
100
AcDbEntity
  8
付属金具
  6
EXLTYPE2
 62
     6
100
AcDbCircle
 10
920.0
 20
1502.416667
 30
0.0
 40
29.416667
100
AcDbArc
 50
251.624064
 51
288.375936
  0
ARC
  5
75B
100
AcDbEntity
  8
付属金具
  6
EXLTYPE2
 62
     6
100
AcDbCircle
 10
937.808356
 20
1481.087175
 30
0.0
 40
8.087175
100
AcDbArc
 50
234.540041
 51
305.459959
  0
LINE
  5
75C
100
AcDbEntity
  8
付属金具
  6
EXLTYPE2
 62
     6
100
AcDbLine
 10
891.5
 20
1496.0
 30
0.0
 11
891.5
 21
1493.0
 31
0.0
  0
LINE
  5
75D
100
AcDbEntity
  8
付属金具
  6
EXLTYPE2
 62
     6
100
AcDbLine
 10
891.5
 20
1496.0
 30
0.0
 11
948.5
 21
1496.0
 31
0.0
  0
LINE
  5
75E
100
AcDbEntity
  8
付属金具
  6
EXLTYPE2
 62
     6
100
AcDbLine
 10
948.5
 20
1496.0
 30
0.0
 11
948.5
 21
1493.0
 31
0.0
  0
LINE
  5
75F
100
AcDbEntity
  8
付属金具
  6
EXLTYPE2
 62
     6
100
AcDbLine
 10
891.5
 20
1496.0
 30
0.0
 11
896.5
 21
1498.5
 31
0.0
  0
LINE
  5
760
100
AcDbEntity
  8
付属金具
  6
EXLTYPE2
 62
     6
100
AcDbLine
 10
948.5
 20
1496.0
 30
0.0
 11
943.5
 21
1498.5
 31
0.0
  0
LINE
  5
761
100
AcDbEntity
  8
付属金具
  6
EXLTYPE2
 62
     6
100
AcDbLine
 10
904.25
 20
1463.0
 30
0.0
 11
904.25
 21
1438.5
 31
0.0
  0
LINE
  5
762
100
AcDbEntity
  8
付属金具
  6
EXLTYPE2
 62
     6
100
AcDbLine
 10
935.75
 20
1463.0
 30
0.0
 11
935.75
 21
1438.5
 31
0.0
  0
ARC
  5
763
100
AcDbEntity
  8
付属金具
  6
EXLTYPE2
 62
     6
100
AcDbCircle
 10
898.478873
 20
1402.128873
 30
0.0
 40
37.371127
100
AcDbArc
 50
81.11641
 51
180.0
  0
LINE
  5
764
100
AcDbEntity
  8
付属金具
  6
EXLTYPE2
 62
     6
100
AcDbLine
 10
2231.5
 20
1420.5
 30
0.0
 11
2231.5
 21
1385.5
 31
0.0
  0
LINE
  5
765
100
AcDbEntity
  8
付属金具
  6
EXLTYPE2
 62
     6
100
AcDbLine
 10
2268.5
 20
1420.5
 30
0.0
 11
2268.5
 21
1385.5
 31
0.0
  0
LINE
  5
766
100
AcDbEntity
  8
付属金具
  6
EXLTYPE2
 62
     6
100
AcDbLine
 10
2234.15
 20
1382.85
 30
0.0
 11
2234.15
 21
1345.093255
 31
0.0
  0
LINE
  5
767
100
AcDbEntity
  8
付属金具
  6
EXLTYPE2
 62
     6
100
AcDbLine
 10
2265.85
 20
1382.85
 30
0.0
 11
2265.85
 21
1342.5
 31
0.0
  0
LINE
  5
768
100
AcDbEntity
  8
付属金具
  6
EXLTYPE2
 62
     6
100
AcDbLine
 10
2265.85
 20
1347.5
 30
0.0
 11
2281.178125
 21
1347.5
 31
0.0
  0
LINE
  5
769
100
AcDbEntity
  8
付属金具
  6
EXLTYPE2
 62
     6
100
AcDbLine
 10
2295.85625
 20
1372.5
 30
0.0
 11
2295.85625
 21
1342.5
 31
0.0
  0
LINE
  5
76A
100
AcDbEntity
  8
付属金具
  6
EXLTYPE2
 62
     6
100
AcDbLine
 10
2246.178125
 20
1317.525322
 30
0.0
 11
2246.178125
 21
1313.0
 31
0.0
  0
LINE
  5
76B
100
AcDbEntity
  8
付属金具
  6
EXLTYPE2
 62
     6
100
AcDbLine
 10
2281.178125
 20
1347.5
 30
0.0
 11
2281.178125
 21
1313.0
 31
0.0
  0
LINE
  5
76C
100
AcDbEntity
  8
付属金具
  6
EXLTYPE2
 62
     6
100
AcDbLine
 10
2268.5
 20
1385.5
 30
0.0
 11
2265.85
 21
1382.85
 31
0.0
  0
LINE
  5
76D
100
AcDbEntity
  8
付属金具
  6
EXLTYPE2
 62
     6
100
AcDbLine
 10
2231.5
 20
1385.5
 30
0.0
 11
2234.15
 21
1382.85
 31
0.0
  0
LINE
  5
76E
100
AcDbEntity
  8
付属金具
  6
EXLTYPE2
 62
     6
100
AcDbLine
 10
2281.75625
 20
1342.5
 30
0.0
 11
2295.85625
 21
1342.5
 31
0.0
  0
LINE
  5
76F
100
AcDbEntity
  8
付属金具
  6
EXLTYPE2
 62
     6
100
AcDbLine
 10
2226.6
 20
1420.5
 30
0.0
 11
2273.4
 21
1420.5
 31
0.0
  0
LINE
  5
770
100
AcDbEntity
  8
付属金具
  6
EXLTYPE2
 62
     6
100
AcDbLine
 10
2228.6
 20
1438.5
 30
0.0
 11
2271.4
 21
1438.5
 31
0.0
  0
LINE
  5
771
100
AcDbEntity
  8
付属金具
  6
EXLTYPE2
 62
     6
100
AcDbLine
 10
2226.6
 20
1436.5
 30
0.0
 11
2226.6
 21
1420.5
 31
0.0
  0
LINE
  5
772
100
AcDbEntity
  8
付属金具
  6
EXLTYPE2
 62
     6
100
AcDbLine
 10
2232.870011
 20
1436.5
 30
0.0
 11
2232.870011
 21
1420.5
 31
0.0
  0
LINE
  5
773
100
AcDbEntity
  8
付属金具
  6
EXLTYPE2
 62
     6
100
AcDbLine
 10
2243.729989
 20
1436.5
 30
0.0
 11
2243.729989
 21
1420.5
 31
0.0
  0
LINE
  5
774
100
AcDbEntity
  8
付属金具
  6
EXLTYPE2
 62
     6
100
AcDbLine
 10
2256.270011
 20
1436.5
 30
0.0
 11
2256.270011
 21
1420.5
 31
0.0
  0
LINE
  5
775
100
AcDbEntity
  8
付属金具
  6
EXLTYPE2
 62
     6
100
AcDbLine
 10
2267.129989
 20
1436.5
 30
0.0
 11
2267.129989
 21
1420.5
 31
0.0
  0
LINE
  5
776
100
AcDbEntity
  8
付属金具
  6
EXLTYPE2
 62
     6
100
AcDbLine
 10
2273.4
 20
1436.5
 30
0.0
 11
2273.4
 21
1420.5
 31
0.0
  0
ARC
  5
777
100
AcDbEntity
  8
付属金具
  6
EXLTYPE2
 62
     6
100
AcDbCircle
 10
2228.6
 20
1436.5
 30
0.0
 40
2.0
100
AcDbArc
 50
90.0
 51
180.0
  0
ARC
  5
778
100
AcDbEntity
  8
付属金具
  6
EXLTYPE2
 62
     6
100
AcDbCircle
 10
2271.4
 20
1436.5
 30
0.0
 40
2.0
100
AcDbArc
 50
0.0
 51
90.0
  0
LINE
  5
779
100
AcDbEntity
  8
付属金具
  6
EXLTYPE2
 62
     6
100
AcDbLine
 10
2265.85
 20
1372.5
 30
0.0
 11
2300.75625
 21
1372.5
 31
0.0
  0
LINE
  5
77A
100
AcDbEntity
  8
付属金具
  6
EXLTYPE2
 62
     6
100
AcDbLine
 10
2268.5
 20
1390.5
 30
0.0
 11
2298.75625
 21
1390.5
 31
0.0
  0
LINE
  5
77B
100
AcDbEntity
  8
付属金具
  6
EXLTYPE2
 62
     6
100
AcDbLine
 10
2271.086239
 20
1388.5
 30
0.0
 11
2271.086239
 21
1372.5
 31
0.0
  0
LINE
  5
77C
100
AcDbEntity
  8
付属金具
  6
EXLTYPE2
 62
     6
100
AcDbLine
 10
2283.626261
 20
1388.5
 30
0.0
 11
2283.626261
 21
1372.5
 31
0.0
  0
LINE
  5
77D
100
AcDbEntity
  8
付属金具
  6
EXLTYPE2
 62
     6
100
AcDbLine
 10
2294.486239
 20
1388.5
 30
0.0
 11
2294.486239
 21
1372.5
 31
0.0
  0
LINE
  5
77E
100
AcDbEntity
  8
付属金具
  6
EXLTYPE2
 62
     6
100
AcDbLine
 10
2300.75625
 20
1388.5
 30
0.0
 11
2300.75625
 21
1372.5
 31
0.0
  0
ARC
  5
77F
100
AcDbEntity
  8
付属金具
  6
EXLTYPE2
 62
     6
100
AcDbCircle
 10
2298.75625
 20
1388.5
 30
0.0
 40
2.0
100
AcDbArc
 50
0.0
 51
90.0
  0
LINE
  5
780
100
AcDbEntity
  8
付属金具
  6
EXLTYPE2
 62
     6
100
AcDbLine
 10
2240.678125
 20
1313.0
 30
0.0
 11
2286.678125
 21
1313.0
 31
0.0
  0
LINE
  5
781
100
AcDbEntity
  8
付属金具
  6
EXLTYPE2
 62
     6
100
AcDbLine
 10
2242.178125
 20
1296.5
 30
0.0
 11
2285.178125
 21
1296.5
 31
0.0
  0
LINE
  5
782
100
AcDbEntity
  8
付属金具
  6
EXLTYPE2
 62
     6
100
AcDbLine
 10
2242.824466
 20
1296.5
 30
0.0
 11
2242.824466
 21
1313.0
 31
0.0
  0
LINE
  5
783
100
AcDbEntity
  8
付属金具
  6
EXLTYPE2
 62
     6
100
AcDbLine
 10
2284.531784
 20
1296.5
 30
0.0
 11
2284.531784
 21
1313.0
 31
0.0
  0
LINE
  5
784
100
AcDbEntity
  8
付属金具
  6
EXLTYPE2
 62
     6
100
AcDbLine
 10
2286.678125
 20
1298.0
 30
0.0
 11
2286.678125
 21
1313.0
 31
0.0
  0
LINE
  5
785
100
AcDbEntity
  8
付属金具
  6
EXLTYPE2
 62
     6
100
AcDbLine
 10
2240.678125
 20
1298.0
 30
0.0
 11
2240.678125
 21
1313.0
 31
0.0
  0
LINE
  5
786
100
AcDbEntity
  8
付属金具
  6
EXLTYPE2
 62
     6
100
AcDbLine
 10
2255.394586
 20
1298.0
 30
0.0
 11
2255.394586
 21
1313.0
 31
0.0
  0
LINE
  5
787
100
AcDbEntity
  8
付属金具
  6
EXLTYPE2
 62
     6
100
AcDbLine
 10
2271.961664
 20
1298.0
 30
0.0
 11
2271.961664
 21
1313.0
 31
0.0
  0
LINE
  5
788
100
AcDbEntity
  8
付属金具
  6
EXLTYPE2
 62
     6
100
AcDbLine
 10
2250.928125
 20
1313.0
 30
0.0
 11
2250.928125
 21
1298.0
 31
0.0
  0
LINE
  5
789
100
AcDbEntity
  8
付属金具
  6
EXLTYPE2
 62
     6
100
AcDbLine
 10
2276.428125
 20
1313.0
 30
0.0
 11
2276.428125
 21
1298.0
 31
0.0
  0
ARC
  5
78A
100
AcDbEntity
  8
付属金具
  6
EXLTYPE2
 62
     6
100
AcDbCircle
 10
2242.178125
 20
1298.0
 30
0.0
 40
1.5
100
AcDbArc
 50
180.0
 51
270.0
  0
ARC
  5
78B
100
AcDbEntity
  8
付属金具
  6
EXLTYPE2
 62
     6
100
AcDbCircle
 10
2285.178125
 20
1298.0
 30
0.0
 40
1.5
100
AcDbArc
 50
270.0
 51
0.0
  0
LINE
  5
78C
100
AcDbEntity
  8
付属金具
  6
EXLTYPE2
 62
     6
100
AcDbLine
 10
2234.15
 20
1382.85
 30
0.0
 11
2265.85
 21
1382.85
 31
0.0
  0
ARC
  5
78D
100
AcDbEntity
  8
付属金具
  6
EXLTYPE2
 62
     6
100
AcDbCircle
 10
2274.15
 20
1345.093255
 30
0.0
 40
40.0
100
AcDbArc
 50
180.0
 51
216.143789
  0
ARC
  5
78E
100
AcDbEntity
  8
付属金具
  6
EXLTYPE2
 62
     6
100
AcDbCircle
 10
2253.961516
 20
1330.347912
 30
0.0
 40
15.0
100
AcDbArc
 50
216.143789
 51
310.373975
  0
ARC
  5
78F
100
AcDbEntity
  8
付属金具
  6
EXLTYPE2
 62
     6
100
AcDbCircle
 10
2251.595911
 20
1343.423829
 30
0.0
 40
40.0
100
AcDbArc
 50
317.693553
 51
358.676594
  0
LINE
  5
790
100
AcDbEntity
  8
付属金具
  6
EXLTYPE2
 62
     6
100
AcDbLine
 10
2293.20625
 20
1397.328125
 30
0.0
 11
2293.20625
 21
1390.5
 31
0.0
  0
ARC
  5
791
100
AcDbEntity
  8
付属金具
  6
EXLTYPE2
 62
     6
100
AcDbCircle
 10
2303.678125
 20
1397.328125
 30
0.0
 40
10.471875
100
AcDbArc
 50
0.0
 51
180.0
  0
LINE
  5
792
100
AcDbEntity
  8
付属金具
  6
EXLTYPE2
 62
     6
100
AcDbLine
 10
2223.5
 20
1490.0
 30
0.0
 11
2276.5
 21
1490.0
 31
0.0
  0
LINE
  5
793
100
AcDbEntity
  8
付属金具
  6
EXLTYPE2
 62
     6
100
AcDbLine
 10
2270.5
 20
1473.0
 30
0.0
 11
2229.5
 21
1473.0
 31
0.0
  0
LINE
  5
794
100
AcDbEntity
  8
付属金具
  6
EXLTYPE2
 62
     6
100
AcDbLine
 10
2223.5
 20
1493.0
 30
0.0
 11
2223.5
 21
1490.0
 31
0.0
  0
LINE
  5
795
100
AcDbEntity
  8
付属金具
  6
EXLTYPE2
 62
     6
100
AcDbLine
 10
2276.5
 20
1493.0
 30
0.0
 11
2276.5
 21
1490.0
 31
0.0
  0
LINE
  5
796
100
AcDbEntity
  8
付属金具
  6
EXLTYPE2
 62
     6
100
AcDbLine
 10
2270.5
 20
1490.0
 30
0.0
 11
2270.5
 21
1473.0
 31
0.0
  0
LINE
  5
797
100
AcDbEntity
  8
付属金具
  6
EXLTYPE2
 62
     6
100
AcDbLine
 10
2252.218811
 20
1490.0
 30
0.0
 11
2252.218811
 21
1474.5
 31
0.0
  0
LINE
  5
798
100
AcDbEntity
  8
付属金具
  6
EXLTYPE2
 62
     6
100
AcDbLine
 10
2247.781189
 20
1490.0
 30
0.0
 11
2247.781189
 21
1474.5
 31
0.0
  0
LINE
  5
799
100
AcDbEntity
  8
付属金具
  6
EXLTYPE2
 62
     6
100
AcDbLine
 10
2231.718811
 20
1490.0
 30
0.0
 11
2231.718811
 21
1474.5
 31
0.0
  0
LINE
  5
79A
100
AcDbEntity
  8
付属金具
  6
EXLTYPE2
 62
     6
100
AcDbLine
 10
2229.5
 20
1490.0
 30
0.0
 11
2229.5
 21
1473.0
 31
0.0
  0
LINE
  5
79B
100
AcDbEntity
  8
付属金具
  6
EXLTYPE2
 62
     6
100
AcDbLine
 10
2268.281189
 20
1490.0
 30
0.0
 11
2268.281189
 21
1474.5
 31
0.0
  0
LINE
  5
79C
100
AcDbEntity
  8
付属金具
  6
EXLTYPE2
 62
     6
100
AcDbLine
 10
2229.5
 20
1474.5
 30
0.0
 11
2231.718811
 21
1474.5
 31
0.0
  0
LINE
  5
79D
100
AcDbEntity
  8
付属金具
  6
EXLTYPE2
 62
     6
100
AcDbLine
 10
2247.781189
 20
1474.5
 30
0.0
 11
2252.218811
 21
1474.5
 31
0.0
  0
LINE
  5
79E
100
AcDbEntity
  8
付属金具
  6
EXLTYPE2
 62
     6
100
AcDbLine
 10
2268.281189
 20
1474.5
 30
0.0
 11
2270.5
 21
1474.5
 31
0.0
  0
ARC
  5
79F
100
AcDbEntity
  8
付属金具
  6
EXLTYPE2
 62
     6
100
AcDbCircle
 10
2239.75
 20
1495.25
 30
0.0
 40
22.25
100
AcDbArc
 50
248.841307
 51
291.158693
  0
ARC
  5
7A0
100
AcDbEntity
  8
付属金具
  6
EXLTYPE2
 62
     6
100
AcDbCircle
 10
2260.25
 20
1495.25
 30
0.0
 40
22.25
100
AcDbArc
 50
248.841307
 51
291.158693
  0
LINE
  5
7A1
100
AcDbEntity
  8
付属金具
  6
EXLTYPE2
 62
     6
100
AcDbLine
 10
2221.5
 20
1493.0
 30
0.0
 11
2278.5
 21
1493.0
 31
0.0
  0
LINE
  5
7A2
100
AcDbEntity
  8
付属金具
  6
EXLTYPE2
 62
     6
100
AcDbLine
 10
2221.5
 20
1496.0
 30
0.0
 11
2221.5
 21
1493.0
 31
0.0
  0
LINE
  5
7A3
100
AcDbEntity
  8
付属金具
  6
EXLTYPE2
 62
     6
100
AcDbLine
 10
2221.5
 20
1496.0
 30
0.0
 11
2278.5
 21
1496.0
 31
0.0
  0
LINE
  5
7A4
100
AcDbEntity
  8
付属金具
  6
EXLTYPE2
 62
     6
100
AcDbLine
 10
2278.5
 20
1496.0
 30
0.0
 11
2278.5
 21
1493.0
 31
0.0
  0
LINE
  5
7A5
100
AcDbEntity
  8
付属金具
  6
EXLTYPE2
 62
     6
100
AcDbLine
 10
2221.5
 20
1496.0
 30
0.0
 11
2226.5
 21
1498.5
 31
0.0
  0
LINE
  5
7A6
100
AcDbEntity
  8
付属金具
  6
EXLTYPE2
 62
     6
100
AcDbLine
 10
2278.5
 20
1496.0
 30
0.0
 11
2273.5
 21
1498.5
 31
0.0
  0
LINE
  5
7A7
100
AcDbEntity
  8
付属金具
  6
EXLTYPE2
 62
     6
100
AcDbLine
 10
2234.25
 20
1463.0
 30
0.0
 11
2265.75
 21
1463.0
 31
0.0
  0
LINE
  5
7A8
100
AcDbEntity
  8
付属金具
  6
EXLTYPE2
 62
     6
100
AcDbLine
 10
2231.5
 20
1473.0
 30
0.0
 11
2231.5
 21
1465.75
 31
0.0
  0
LINE
  5
7A9
100
AcDbEntity
  8
付属金具
  6
EXLTYPE2
 62
     6
100
AcDbLine
 10
2234.25
 20
1463.0
 30
0.0
 11
2231.5
 21
1465.75
 31
0.0
  0
LINE
  5
7AA
100
AcDbEntity
  8
付属金具
  6
EXLTYPE2
 62
     6
100
AcDbLine
 10
2265.75
 20
1463.0
 30
0.0
 11
2268.5
 21
1465.75
 31
0.0
  0
LINE
  5
7AB
100
AcDbEntity
  8
付属金具
  6
EXLTYPE2
 62
     6
100
AcDbLine
 10
2268.5
 20
1473.0
 30
0.0
 11
2268.5
 21
1465.75
 31
0.0
  0
LINE
  5
7AC
100
AcDbEntity
  8
付属金具
  6
EXLTYPE2
 62
     6
100
AcDbLine
 10
2234.25
 20
1463.0
 30
0.0
 11
2234.25
 21
1438.5
 31
0.0
  0
LINE
  5
7AD
100
AcDbEntity
  8
付属金具
  6
EXLTYPE2
 62
     6
100
AcDbLine
 10
2265.75
 20
1463.0
 30
0.0
 11
2265.75
 21
1438.5
 31
0.0
  0
LINE
  5
7AE
100
AcDbEntity
  8
付属金具
  6
CONTINUOUS
 62
     6
100
AcDbLine
 10
1005.0
 20
933.49301
 30
0.0
 11
1004.852295
 21
926.727081
 31
0.0
  0
LINE
  5
7AF
100
AcDbEntity
  8
付属金具
  6
CONTINUOUS
 62
     6
100
AcDbLine
 10
1004.852295
 20
926.727081
 30
0.0
 11
1003.625183
 21
925.499969
 31
0.0
  0
LINE
  5
7B0
100
AcDbEntity
  8
付属金具
  6
CONTINUOUS
 62
     6
100
AcDbLine
 10
1003.625183
 20
925.499969
 30
0.0
 11
986.374817
 21
925.499969
 31
0.0
  0
LINE
  5
7B1
100
AcDbEntity
  8
付属金具
  6
CONTINUOUS
 62
     6
100
AcDbLine
 10
986.374817
 20
925.499969
 30
0.0
 11
985.147858
 21
926.727081
 31
0.0
  0
LINE
  5
7B2
100
AcDbEntity
  8
付属金具
  6
CONTINUOUS
 62
     6
100
AcDbLine
 10
985.147858
 20
926.727081
 30
0.0
 11
985.0
 21
933.5
 31
0.0
  0
LINE
  5
7B3
100
AcDbEntity
  8
付属金具
  6
EXLTYPE4
 62
     6
100
AcDbLine
 10
985.0
 20
933.5
 30
0.0
 11
985.0
 21
1133.5
 31
0.0
  0
LINE
  5
7B4
100
AcDbEntity
  8
付属金具
  6
EXLTYPE4
 62
     6
100
AcDbLine
 10
1005.0
 20
1133.5
 30
0.0
 11
1005.0
 21
933.49301
 31
0.0
  0
LINE
  5
7B5
100
AcDbEntity
  8
付属金具
  6
CONTINUOUS
 62
     6
100
AcDbLine
 10
855.0
 20
933.49301
 30
0.0
 11
854.852295
 21
926.727081
 31
0.0
  0
LINE
  5
7B6
100
AcDbEntity
  8
付属金具
  6
CONTINUOUS
 62
     6
100
AcDbLine
 10
854.852295
 20
926.727081
 30
0.0
 11
853.625183
 21
925.499969
 31
0.0
  0
LINE
  5
7B7
100
AcDbEntity
  8
付属金具
  6
CONTINUOUS
 62
     6
100
AcDbLine
 10
853.625183
 20
925.499969
 30
0.0
 11
836.374817
 21
925.499969
 31
0.0
  0
LINE
  5
7B8
100
AcDbEntity
  8
付属金具
  6
CONTINUOUS
 62
     6
100
AcDbLine
 10
836.374817
 20
925.499969
 30
0.0
 11
835.147858
 21
926.727081
 31
0.0
  0
LINE
  5
7B9
100
AcDbEntity
  8
付属金具
  6
CONTINUOUS
 62
     6
100
AcDbLine
 10
835.147858
 20
926.727081
 30
0.0
 11
835.0
 21
933.5
 31
0.0
  0
LINE
  5
7BA
100
AcDbEntity
  8
付属金具
  6
EXLTYPE4
 62
     6
100
AcDbLine
 10
835.0
 20
933.5
 30
0.0
 11
835.0
 21
1133.5
 31
0.0
  0
LINE
  5
7BB
100
AcDbEntity
  8
付属金具
  6
EXLTYPE4
 62
     6
100
AcDbLine
 10
855.0
 20
1133.5
 30
0.0
 11
855.0
 21
933.49301
 31
0.0
  0
LINE
  5
7BC
100
AcDbEntity
  8
付属金具
  6
EXLTYPE3
 62
     6
100
AcDbLine
 10
2375.0
 20
1148.5
 30
0.0
 11
2375.0
 21
910.499969
 31
0.0
  0
LINE
  5
7BD
100
AcDbEntity
  8
付属金具
  6
CONTINUOUS
 62
     6
100
AcDbLine
 10
2385.0
 20
933.49301
 30
0.0
 11
2384.852295
 21
926.727081
 31
0.0
  0
LINE
  5
7BE
100
AcDbEntity
  8
付属金具
  6
CONTINUOUS
 62
     6
100
AcDbLine
 10
2384.852295
 20
926.727081
 30
0.0
 11
2383.625183
 21
925.499969
 31
0.0
  0
LINE
  5
7BF
100
AcDbEntity
  8
付属金具
  6
CONTINUOUS
 62
     6
100
AcDbLine
 10
2383.625183
 20
925.499969
 30
0.0
 11
2366.374817
 21
925.499969
 31
0.0
  0
LINE
  5
7C0
100
AcDbEntity
  8
付属金具
  6
CONTINUOUS
 62
     6
100
AcDbLine
 10
2366.374817
 20
925.499969
 30
0.0
 11
2365.147858
 21
926.727081
 31
0.0
  0
LINE
  5
7C1
100
AcDbEntity
  8
付属金具
  6
EXLTYPE4
 62
     6
100
AcDbLine
 10
2365.0
 20
933.5
 30
0.0
 11
2365.0
 21
1133.5
 31
0.0
  0
LINE
  5
7C2
100
AcDbEntity
  8
付属金具
  6
EXLTYPE4
 62
     6
100
AcDbLine
 10
2385.0
 20
1133.5
 30
0.0
 11
2385.0
 21
933.49301
 31
0.0
  0
LINE
  5
7C3
100
AcDbEntity
  8
付属金具
  6
EXLTYPE3
 62
     6
100
AcDbLine
 10
995.0
 20
1173.0
 30
0.0
 11
995.0
 21
910.499969
 31
0.0
  0
LINE
  5
7C4
100
AcDbEntity
  8
付属金具
  6
EXLTYPE3
 62
     6
100
AcDbLine
 10
845.0
 20
1173.0
 30
0.0
 11
845.0
 21
910.499969
 31
0.0
  0
LINE
  5
7C5
100
AcDbEntity
  8
付属金具
  6
EXLTYPE2
 62
     6
100
AcDbLine
 10
861.107747
 20
1390.5
 30
0.0
 11
898.357747
 21
1390.5
 31
0.0
  0
ARC
  5
7C6
100
AcDbEntity
  8
付属金具
  6
EXLTYPE2
 62
     6
100
AcDbCircle
 10
2303.678125
 20
1397.328125
 30
0.0
 40
42.171875
100
AcDbArc
 50
7.202827
 51
135.887102
  0
LINE
  5
7C7
100
AcDbEntity
  8
付属金具
  6
EXLTYPE2
 62
     6
100
AcDbLine
 10
858.457747
 20
1372.5
 30
0.0
 11
900.357747
 21
1372.5
 31
0.0
  0
LINE
  5
7C8
100
AcDbEntity
  8
付属金具
  6
EXLTYPE2
 62
     6
100
AcDbLine
 10
858.457747
 20
1372.5
 30
0.0
 11
858.457747
 21
1342.5
 31
0.0
  0
DIMENSION
  5
7D4
100
AcDbEntity
  8
寸法
  6
CONTINUOUS
 62
     3
100
AcDbDimension
  2
*D15
 10
1070.0
 20
4007.5
 30
0.0
 11
920.0
 21
4042.75
 31
0.0
 70
   160
  3
STANDARD
100
AcDbAlignedDimension
 13
770.0
 23
3950.0
 33
0.0
 14
1070.0
 24
3950.0
 34
0.0
100
AcDbRotatedDimension
1001
ACAD
1000
DSTYLE
1002
{
1070
     6
1000
_EX_NORM
1070
     7
1000
_EX_NORM
1070
    41
1040
45.0
1070
    42
1040
10.5
1070
    44
1040
15.0
1070
    73
1070
     0
1070
    74
1070
     0
1070
    75
1070
     0
1070
    76
1070
     0
1070
    77
1070
     1
1070
    78
1070
     0
1070
   140
1040
60.0
1070
   147
1040
5.25
1070
   173
1070
     1
1070
   176
1070
     3
1070
   177
1070
     3
1070
   178
1070
     2
1070
   271
1070
     0
1070
   279
1070
     2
1070
   280
1070
     0
1070
   287
1070
     5
1070
   340
1005
122
1002
}
  0
DIMENSION
  5
7E0
100
AcDbEntity
  8
寸法
  6
CONTINUOUS
 62
     3
100
AcDbDimension
  2
*D16
 10
1170.0
 20
3377.5
 30
0.0
 11
920.0
 21
3412.75
 31
0.0
 70
   160
  3
STANDARD
100
AcDbAlignedDimension
 13
670.0
 23
3554.309311
 33
0.0
 14
1170.0
 24
3554.309311
 34
0.0
100
AcDbRotatedDimension
1001
ACAD
1000
DSTYLE
1002
{
1070
     6
1000
_EX_NORM
1070
     7
1000
_EX_NORM
1070
    41
1040
45.0
1070
    42
1040
10.5
1070
    44
1040
15.0
1070
    73
1070
     0
1070
    74
1070
     0
1070
    75
1070
     0
1070
    76
1070
     0
1070
    77
1070
     1
1070
    78
1070
     0
1070
   140
1040
60.0
1070
   147
1040
5.25
1070
   173
1070
     1
1070
   176
1070
     3
1070
   177
1070
     3
1070
   178
1070
     2
1070
   271
1070
     0
1070
   279
1070
     2
1070
   280
1070
     0
1070
   287
1070
     5
1070
   340
1005
122
1002
}
  0
DIMENSION
  5
7EB
100
AcDbEntity
  8
寸法
  6
CONTINUOUS
 62
     3
100
AcDbDimension
  2
*D17
 10
1290.0
 20
3917.5
 30
0.0
 11
1254.75
 21
3692.5
 31
0.0
 70
   160
  3
STANDARD
100
AcDbAlignedDimension
 13
920.0
 23
3467.5
 33
0.0
 14
1170.016335
 24
3917.5
 34
0.0
 50
90.0
100
AcDbRotatedDimension
1001
ACAD
1000
DSTYLE
1002
{
1070
     6
1000
_EX_NORM
1070
     7
1000
_EX_NORM
1070
    41
1040
45.0
1070
    42
1040
10.5
1070
    44
1040
15.0
1070
    73
1070
     0
1070
    74
1070
     0
1070
    75
1070
     0
1070
    76
1070
     1
1070
    77
1070
     1
1070
    78
1070
     0
1070
   140
1040
60.0
1070
   147
1040
5.25
1070
   173
1070
     1
1070
   176
1070
     3
1070
   177
1070
     3
1070
   178
1070
     2
1070
   271
1070
     0
1070
   279
1070
     2
1070
   280
1070
     0
1070
   287
1070
     5
1070
   340
1005
122
1002
}
  0
DIMENSION
  5
7F7
100
AcDbEntity
  8
寸法
  6
CONTINUOUS
 62
     3
100
AcDbDimension
  2
*D18
 10
1125.0
 20
2823.5
 30
0.0
 11
920.0
 21
2858.75
 31
0.0
 70
   160
  3
STANDARD
100
AcDbAlignedDimension
 13
715.0
 23
2687.0
 33
0.0
 14
1125.0
 24
2687.0
 34
0.0
100
AcDbRotatedDimension
1001
ACAD
1000
DSTYLE
1002
{
1070
     6
1000
_EX_NORM
1070
     7
1000
_EX_NORM
1070
    41
1040
45.0
1070
    42
1040
10.5
1070
    44
1040
15.0
1070
    73
1070
     0
1070
    74
1070
     0
1070
    75
1070
     0
1070
    76
1070
     0
1070
    77
1070
     1
1070
    78
1070
     0
1070
   140
1040
60.0
1070
   147
1040
5.25
1070
   173
1070
     1
1070
   176
1070
     3
1070
   177
1070
     3
1070
   178
1070
     2
1070
   271
1070
     0
1070
   279
1070
     2
1070
   280
1070
     0
1070
   287
1070
     5
1070
   340
1005
122
1002
}
  0
DIMENSION
  5
802
100
AcDbEntity
  8
寸法
  6
CONTINUOUS
 62
     3
100
AcDbDimension
  2
*D19
 10
1320.0
 20
1683.5
 30
0.0
 11
1284.75
 21
1308.5
 31
0.0
 70
   160
  3
STANDARD
100
AcDbAlignedDimension
 13
1152.5
 23
933.5
 33
0.0
 14
920.0
 24
1683.5
 34
0.0
 50
90.0
100
AcDbRotatedDimension
1001
ACAD
1000
DSTYLE
1002
{
1070
     6
1000
_EX_NORM
1070
     7
1000
_EX_NORM
1070
    41
1040
45.0
1070
    42
1040
10.5
1070
    44
1040
15.0
1070
    73
1070
     0
1070
    74
1070
     0
1070
    75
1070
     1
1070
    76
1070
     0
1070
    77
1070
     1
1070
    78
1070
     0
1070
   140
1040
60.0
1070
   147
1040
5.25
1070
   173
1070
     1
1070
   176
1070
     3
1070
   177
1070
     3
1070
   178
1070
     2
1070
   271
1070
     0
1070
   279
1070
     2
1070
   280
1070
     0
1070
   287
1070
     5
1070
   340
1005
122
1002
}
  0
DIMENSION
  5
80D
100
AcDbEntity
  8
寸法
  6
CONTINUOUS
 62
     3
100
AcDbDimension
  2
*D20
 10
1410.0
 20
1733.5
 30
0.0
 11
1374.75
 21
1333.5
 31
0.0
 70
   160
  3
STANDARD
100
AcDbAlignedDimension
 13
1152.5
 23
933.5
 33
0.0
 14
1159.5
 24
1733.5
 34
0.0
 50
90.0
100
AcDbRotatedDimension
1001
ACAD
1000
DSTYLE
1002
{
1070
     6
1000
_EX_NORM
1070
     7
1000
_EX_NORM
1070
    41
1040
45.0
1070
    42
1040
10.5
1070
    44
1040
15.0
1070
    73
1070
     0
1070
    74
1070
     0
1070
    75
1070
     1
1070
    76
1070
     0
1070
    77
1070
     1
1070
    78
1070
     0
1070
   140
1040
60.0
1070
   147
1040
5.25
1070
   173
1070
     1
1070
   176
1070
     3
1070
   177
1070
     3
1070
   178
1070
     2
1070
   271
1070
     0
1070
   279
1070
     2
1070
   280
1070
     0
1070
   287
1070
     5
1070
   340
1005
122
1002
}
  0
DIMENSION
  5
818
100
AcDbEntity
  8
寸法
  6
CONTINUOUS
 62
     3
100
AcDbDimension
  2
*D21
 10
1500.0
 20
2733.5
 30
0.0
 11
1464.75
 21
1833.5
 31
0.0
 70
   160
  3
STANDARD
100
AcDbAlignedDimension
 13
1152.5
 23
933.5
 33
0.0
 14
1165.0
 24
2733.5
 34
0.0
 50
90.0
100
AcDbRotatedDimension
1001
ACAD
1000
DSTYLE
1002
{
1070
     6
1000
_EX_NORM
1070
     7
1000
_EX_NORM
1070
    41
1040
45.0
1070
    42
1040
10.5
1070
    44
1040
15.0
1070
    73
1070
     0
1070
    74
1070
     0
1070
    75
1070
     1
1070
    76
1070
     0
1070
    77
1070
     1
1070
    78
1070
     0
1070
   140
1040
60.0
1070
   147
1040
5.25
1070
   173
1070
     1
1070
   176
1070
     3
1070
   177
1070
     3
1070
   178
1070
     2
1070
   271
1070
     0
1070
   279
1070
     2
1070
   280
1070
     0
1070
   287
1070
     5
1070
   340
1005
122
1002
}
  0
DIMENSION
  5
823
100
AcDbEntity
  8
寸法
  6
CONTINUOUS
 62
     3
100
AcDbDimension
  2
*D22
 10
1320.0
 20
1863.5
 30
0.0
 11
1284.75
 21
1798.5
 31
0.0
 70
   160
  3
STANDARD
100
AcDbAlignedDimension
 13
1159.5
 23
1733.5
 33
0.0
 14
1183.076697
 24
1863.5
 34
0.0
 50
90.0
100
AcDbRotatedDimension
1001
ACAD
1000
DSTYLE
1002
{
1070
     6
1000
_EX_NORM
1070
     7
1000
_EX_NORM
1070
    41
1040
45.0
1070
    42
1040
10.5
1070
    44
1040
15.0
1070
    73
1070
     0
1070
    74
1070
     0
1070
    75
1070
     1
1070
    76
1070
     0
1070
    77
1070
     1
1070
    78
1070
     0
1070
   140
1040
60.0
1070
   147
1040
5.25
1070
   173
1070
     1
1070
   176
1070
     3
1070
   177
1070
     3
1070
   178
1070
     2
1070
   271
1070
     0
1070
   279
1070
     2
1070
   280
1070
     0
1070
   287
1070
     5
1070
   340
1005
122
1002
}
  0
LINE
  5
824
100
AcDbEntity
  8
寸法
  6
CONTINUOUS
 62
     3
100
AcDbLine
 10
2460.5
 20
933.5
 30
0.0
 11
2585.0
 21
933.5
 31
0.0
  0
DIMENSION
  5
830
100
AcDbEntity
  8
寸法
  6
CONTINUOUS
 62
     3
100
AcDbDimension
  2
*D23
 10
2660.0
 20
1458.5
 30
0.0
 11
2624.75
 21
1196.0
 31
0.0
 70
   160
  3
STANDARD
100
AcDbAlignedDimension
 13
2450.0
 23
933.5
 33
0.0
 14
2482.5
 24
1458.5
 34
0.0
 50
90.0
100
AcDbRotatedDimension
1001
ACAD
1000
DSTYLE
1002
{
1070
     6
1000
_EX_NORM
1070
     7
1000
_EX_NORM
1070
    41
1040
45.0
1070
    42
1040
10.5
1070
    44
1040
15.0
1070
    73
1070
     0
1070
    74
1070
     0
1070
    75
1070
     0
1070
    76
1070
     0
1070
    77
1070
     1
1070
    78
1070
     0
1070
   140
1040
60.0
1070
   147
1040
5.25
1070
   173
1070
     1
1070
   176
1070
     3
1070
   177
1070
     3
1070
   178
1070
     2
1070
   271
1070
     0
1070
   279
1070
     2
1070
   280
1070
     0
1070
   287
1070
     5
1070
   340
1005
122
1002
}
  0
DIMENSION
  5
83C
100
AcDbEntity
  8
寸法
  6
CONTINUOUS
 62
     3
100
AcDbDimension
  2
*D24
 10
2750.0
 20
1798.5
 30
0.0
 11
2714.75
 21
1366.0
 31
0.0
 70
   160
  3
STANDARD
100
AcDbAlignedDimension
 13
2450.0
 23
933.5
 33
0.0
 14
2482.5
 24
1798.5
 34
0.0
 50
90.0
100
AcDbRotatedDimension
1001
ACAD
1000
DSTYLE
1002
{
1070
     6
1000
_EX_NORM
1070
     7
1000
_EX_NORM
1070
    41
1040
45.0
1070
    42
1040
10.5
1070
    44
1040
15.0
1070
    73
1070
     0
1070
    74
1070
     0
1070
    75
1070
     0
1070
    76
1070
     0
1070
    77
1070
     1
1070
    78
1070
     0
1070
   140
1040
60.0
1070
   147
1040
5.25
1070
   173
1070
     1
1070
   176
1070
     3
1070
   177
1070
     3
1070
   178
1070
     2
1070
   271
1070
     0
1070
   279
1070
     2
1070
   280
1070
     0
1070
   287
1070
     5
1070
   340
1005
122
1002
}
  0
DIMENSION
  5
848
100
AcDbEntity
  8
寸法
  6
CONTINUOUS
 62
     3
100
AcDbDimension
  2
*D25
 10
2750.0
 20
2678.5
 30
0.0
 11
2714.75
 21
2238.5
 31
0.0
 70
   160
  3
STANDARD
100
AcDbAlignedDimension
 13
2482.5
 23
1798.5
 33
0.0
 14
2482.5
 24
2678.5
 34
0.0
 50
90.0
100
AcDbRotatedDimension
1001
ACAD
1000
DSTYLE
1002
{
1070
     6
1000
_EX_NORM
1070
     7
1000
_EX_NORM
1070
    41
1040
45.0
1070
    42
1040
10.5
1070
    44
1040
15.0
1070
    73
1070
     0
1070
    74
1070
     0
1070
    75
1070
     0
1070
    76
1070
     0
1070
    77
1070
     1
1070
    78
1070
     0
1070
   140
1040
60.0
1070
   147
1040
5.25
1070
   173
1070
     1
1070
   176
1070
     3
1070
   177
1070
     3
1070
   178
1070
     2
1070
   271
1070
     0
1070
   279
1070
     2
1070
   280
1070
     0
1070
   287
1070
     5
1070
   340
1005
122
1002
}
  0
DIMENSION
  5
853
100
AcDbEntity
  8
寸法
  6
CONTINUOUS
 62
     3
100
AcDbDimension
  2
*D26
 10
2450.0
 20
2823.5
 30
0.0
 11
2374.37059
 21
2858.75
 31
0.0
 70
   160
  3
STANDARD
100
AcDbAlignedDimension
 13
2298.74118
 23
2705.202357
 33
0.0
 14
2450.0
 24
2733.5
 34
0.0
100
AcDbRotatedDimension
1001
ACAD
1000
DSTYLE
1002
{
1070
     6
1000
_EX_NORM
1070
     7
1000
_EX_NORM
1070
    41
1040
45.0
1070
    42
1040
10.5
1070
    44
1040
15.0
1070
    73
1070
     0
1070
    74
1070
     0
1070
    75
1070
     0
1070
    76
1070
     1
1070
    77
1070
     1
1070
    78
1070
     0
1070
   140
1040
60.0
1070
   147
1040
5.25
1070
   173
1070
     1
1070
   176
1070
     3
1070
   177
1070
     3
1070
   178
1070
     2
1070
   271
1070
     0
1070
   279
1070
     2
1070
   280
1070
     0
1070
   287
1070
     5
1070
   340
1005
122
1002
}
  0
DIMENSION
  5
85F
100
AcDbEntity
  8
寸法
  6
CONTINUOUS
 62
     3
100
AcDbDimension
  2
*D27
 10
971.0
 20
1888.0
 30
0.0
 11
920.0
 21
1923.25
 31
0.0
 70
   160
  3
STANDARD
100
AcDbAlignedDimension
 13
869.0
 23
1733.5
 33
0.0
 14
971.0
 24
1733.5
 34
0.0
100
AcDbRotatedDimension
1001
ACAD
1000
DSTYLE
1002
{
1070
     6
1000
_EX_NORM
1070
     7
1000
_EX_NORM
1070
    41
1040
45.0
1070
    42
1040
10.5
1070
    44
1040
15.0
1070
    73
1070
     0
1070
    74
1070
     0
1070
    75
1070
     0
1070
    76
1070
     0
1070
    77
1070
     1
1070
    78
1070
     0
1070
   140
1040
60.0
1070
   147
1040
5.25
1070
   173
1070
     1
1070
   176
1070
     3
1070
   177
1070
     3
1070
   178
1070
     2
1070
   271
1070
     0
1070
   279
1070
     2
1070
   280
1070
     0
1070
   287
1070
     5
1070
   340
1005
122
1002
}
  0
DIMENSION
  5
86A
100
AcDbEntity
  8
寸法
  6
CONTINUOUS
 62
     3
100
AcDbDimension
  2
*D28
 10
2450.0
 20
1888.0
 30
0.0
 11
2272.5
 21
1923.25
 31
0.0
 70
   160
  3
STANDARD
100
AcDbAlignedDimension
 13
2370.0
 23
1715.540767
 33
0.0
 14
2450.0
 24
1733.5
 34
0.0
100
AcDbRotatedDimension
1001
ACAD
1000
DSTYLE
1002
{
1070
     6
1000
_EX_NORM
1070
     7
1000
_EX_NORM
1070
    41
1040
45.0
1070
    42
1040
10.5
1070
    44
1040
15.0
1070
    73
1070
     0
1070
    74
1070
     0
1070
    75
1070
     0
1070
    76
1070
     1
1070
    77
1070
     1
1070
    78
1070
     0
1070
   140
1040
60.0
1070
   147
1040
5.25
1070
   173
1070
     1
1070
   176
1070
     3
1070
   177
1070
     3
1070
   178
1070
     2
1070
   271
1070
     0
1070
   279
1070
     2
1070
   280
1070
     1
1070
   287
1070
     5
1070
   340
1005
122
1002
}
  0
TEXT
  5
86B
100
AcDbEntity
  8
寸法
  6
CONTINUOUS
 62
     2
100
AcDbText
 10
1247.5
 20
4007.25
 30
0.0
 40
60.0
  1
コード長さ；１ｍ
 41
0.693
  7
EXCADSTD
 72
     5
 11
1643.499999
 21
4007.25
 31
0.0
100
AcDbText
  0
LEADER
  5
86C
100
AcDbEntity
  8
寸法
  6
CONTINUOUS
 62
     3
100
AcDbLeader
  3
STANDARD
 73
     3
 74
     1
 75
     0
 40
0.0
 76
     3
 10
1192.372957
 20
3907.500118
 30
0.0
 10
1240.0
 20
4002.0
 30
0.0
 10
1638.0
 20
4002.0
 30
0.0
 77
     3
1001
ACAD
1000
DSTYLE
1002
{
1070
    41
1040
45.0
1070
     5
1000
_EX_NORM
1070
     6
1000
_EX_NORM
1070
     7
1000
_EX_NORM
1070
   341
1005
2A
1002
}
  0
DIMENSION
  5
878
100
AcDbEntity
  8
寸法
  6
CONTINUOUS
 62
     3
100
AcDbDimension
  2
*D29
 10
1410.0
 20
2733.5
 30
0.0
 11
1374.75
 21
2233.5
 31
0.0
 70
   160
  3
STANDARD
100
AcDbAlignedDimension
 13
1159.5
 23
1733.5
 33
0.0
 14
1165.0
 24
2733.5
 34
0.0
 50
90.0
100
AcDbRotatedDimension
1001
ACAD
1000
DSTYLE
1002
{
1070
     6
1000
_EX_NORM
1070
     7
1000
_EX_NORM
1070
    41
1040
45.0
1070
    42
1040
10.5
1070
    44
1040
15.0
1070
    73
1070
     0
1070
    74
1070
     0
1070
    75
1070
     0
1070
    76
1070
     0
1070
    77
1070
     1
1070
    78
1070
     0
1070
   140
1040
60.0
1070
   147
1040
5.25
1070
   173
1070
     1
1070
   176
1070
     3
1070
   177
1070
     3
1070
   178
1070
     2
1070
   271
1070
     0
1070
   279
1070
     2
1070
   280
1070
     0
1070
   287
1070
     5
1070
   340
1005
122
1002
}
  0
DIMENSION
  5
884
100
AcDbEntity
  8
寸法
  6
CONTINUOUS
 62
     3
100
AcDbDimension
  2
*D30
 10
995.0
 20
753.5
 30
0.0
 11
920.0
 21
788.75
 31
0.0
 70
   160
  3
STANDARD
100
AcDbAlignedDimension
 13
845.0
 23
925.499969
 33
0.0
 14
995.0
 24
925.499969
 34
0.0
100
AcDbRotatedDimension
1001
ACAD
1000
DSTYLE
1002
{
1070
     6
1000
_EX_NORM
1070
     7
1000
_EX_NORM
1070
    41
1040
45.0
1070
    42
1040
10.5
1070
    44
1040
15.0
1070
    73
1070
     0
1070
    74
1070
     0
1070
    75
1070
     0
1070
    76
1070
     0
1070
    77
1070
     1
1070
    78
1070
     0
1070
   140
1040
60.0
1070
   147
1040
5.25
1070
   173
1070
     1
1070
   176
1070
     3
1070
   177
1070
     3
1070
   178
1070
     2
1070
   271
1070
     0
1070
   279
1070
     2
1070
   280
1070
     0
1070
   287
1070
     5
1070
   340
1005
122
1002
}
  0
DIMENSION
  5
890
100
AcDbEntity
  8
寸法
  6
CONTINUOUS
 62
     3
100
AcDbDimension
  2
*D31
 10
1152.5
 20
663.5
 30
0.0
 11
920.0
 21
698.75
 31
0.0
 70
   160
  3
STANDARD
100
AcDbAlignedDimension
 13
687.5
 23
933.5
 33
0.0
 14
1152.5
 24
933.5
 34
0.0
100
AcDbRotatedDimension
1001
ACAD
1000
DSTYLE
1002
{
1070
     6
1000
_EX_NORM
1070
     7
1000
_EX_NORM
1070
    41
1040
45.0
1070
    42
1040
10.5
1070
    44
1040
15.0
1070
    73
1070
     0
1070
    74
1070
     0
1070
    75
1070
     0
1070
    76
1070
     0
1070
    77
1070
     1
1070
    78
1070
     0
1070
   140
1040
60.0
1070
   147
1040
5.25
1070
   173
1070
     1
1070
   176
1070
     3
1070
   177
1070
     3
1070
   178
1070
     2
1070
   271
1070
     0
1070
   279
1070
     2
1070
   280
1070
     0
1070
   287
1070
     5
1070
   340
1005
122
1002
}
  0
DIMENSION
  5
89C
100
AcDbEntity
  8
寸法
  6
CONTINUOUS
 62
     3
100
AcDbDimension
  2
*D32
 10
2450.0
 20
573.5
 30
0.0
 11
2283.5
 21
608.75
 31
0.0
 70
   160
  3
STANDARD
100
AcDbAlignedDimension
 13
2117.0
 23
933.5
 33
0.0
 14
2450.0
 24
933.5
 34
0.0
100
AcDbRotatedDimension
1001
ACAD
1000
DSTYLE
1002
{
1070
     6
1000
_EX_NORM
1070
     7
1000
_EX_NORM
1070
    41
1040
45.0
1070
    42
1040
10.5
1070
    44
1040
15.0
1070
    73
1070
     0
1070
    74
1070
     0
1070
    75
1070
     0
1070
    76
1070
     0
1070
    77
1070
     1
1070
    78
1070
     0
1070
   140
1040
60.0
1070
   147
1040
5.25
1070
   173
1070
     1
1070
   176
1070
     3
1070
   177
1070
     3
1070
   178
1070
     2
1070
   271
1070
     0
1070
   279
1070
     2
1070
   280
1070
     0
1070
   287
1070
     5
1070
   340
1005
122
1002
}
  0
DIMENSION
  5
8A8
100
AcDbEntity
  8
寸法
  6
CONTINUOUS
 62
     3
100
AcDbDimension
  2
*D33
 10
2450.0
 20
663.5
 30
0.0
 11
2570.0
 21
698.75
 31
0.0
 70
   160
  3
STANDARD
100
AcDbAlignedDimension
 13
2330.0
 23
839.5
 33
0.0
 14
2450.0
 24
933.5
 34
0.0
100
AcDbRotatedDimension
1001
ACAD
1000
DSTYLE
1002
{
1070
     6
1000
_EX_NORM
1070
     7
1000
_EX_NORM
1070
    41
1040
45.0
1070
    42
1040
19.75
1070
    44
1040
15.0
1070
    73
1070
     0
1070
    74
1070
     0
1070
    75
1070
     0
1070
    76
1070
     0
1070
    77
1070
     1
1070
    78
1070
     0
1070
   140
1040
60.0
1070
   147
1040
5.25
1070
   173
1070
     1
1070
   176
1070
     3
1070
   177
1070
     3
1070
   178
1070
     2
1070
   271
1070
     0
1070
   279
1070
     2
1070
   280
1070
     2
1070
   287
1070
     5
1070
   340
1005
122
1002
}
  0
DIMENSION
  5
8B4
100
AcDbEntity
  8
寸法
  6
CONTINUOUS
 62
     3
100
AcDbDimension
  2
*D34
 10
2450.0
 20
753.5
 30
0.0
 11
2642.0
 21
786.0
 31
0.0
 70
   160
  1
75（床給水）
  3
STANDARD
100
AcDbAlignedDimension
 13
2375.0
 23
925.499969
 33
0.0
 14
2450.0
 24
933.5
 34
0.0
100
AcDbRotatedDimension
1001
ACAD
1000
DSTYLE
1002
{
1070
     6
1000
_EX_NORM
1070
     7
1000
_EX_NORM
1070
    41
1040
45.0
1070
    42
1040
10.5
1070
    44
1040
15.0
1070
    73
1070
     0
1070
    74
1070
     0
1070
    75
1070
     0
1070
    76
1070
     0
1070
    77
1070
     1
1070
    78
1070
     0
1070
   140
1040
60.0
1070
   147
1040
5.25
1070
   173
1070
     1
1070
   176
1070
     3
1070
   177
1070
     3
1070
   178
1070
     2
1070
   271
1070
     0
1070
   279
1070
     2
1070
   280
1070
     0
1070
   287
1070
     5
1070
   340
1005
122
1002
}
  0
TEXT
  5
8B5
100
AcDbEntity
  8
寸法
  6
CONTINUOUS
 62
     2
100
AcDbText
 10
2484.977436
 20
854.731209
 30
0.0
 40
60.0
  1
Ｒ１/２
 41
0.638
  7
EXCADSTD
 72
     5
 11
2658.977435
 21
854.731209
 31
0.0
100
AcDbText
  0
LEADER
  5
8B6
100
AcDbEntity
  8
寸法
  6
CONTINUOUS
 62
     3
100
AcDbLeader
  3
STANDARD
 73
     3
 74
     1
 75
     0
 40
0.0
 76
     3
 10
2384.852295
 20
926.727081
 30
0.0
 10
2477.477436
 20
849.481209
 30
0.0
 10
2646.477436
 20
849.481209
 30
0.0
 77
     3
1001
ACAD
1000
DSTYLE
1002
{
1070
    41
1040
45.0
1070
     5
1000
_EX_NORM
1070
     6
1000
_EX_NORM
1070
     7
1000
_EX_NORM
1070
   341
1005
2A
1002
}
  0
ENDSEC
  0
SECTION
  2
OBJECTS
  0
DICTIONARY
  5
19
100
AcDbDictionary
  3
ACAD_GROUP
350
1A
  3
ACAD_MLINESTYLE
350
1B
  0
DICTIONARY
  5
1A
102
{ACAD_REACTORS
330
19
102
}
100
AcDbDictionary
  0
DICTIONARY
  5
1B
102
{ACAD_REACTORS
330
19
102
}
100
AcDbDictionary
  3
STANDARD
350
1C
  0
MLINESTYLE
  5
1C
102
{ACAD_REACTORS
330
1B
102
}
100
AcDbMlineStyle
  2
Standard
 70
     0
  3

 62
     0
 51
90.0
 52
90.0
 71
     2
 49
0.5
 62
   256
  6
ByLayer
 49
-0.5
 62
   256
  6
ByLayer
  0
ENDSEC
  0
EOF
