  0
SECTION
  2
HEADER
  9
$ACADVER
  1
AC1014
  9
$ACADMAINTVER
 70
     0
  9
$DWGCODEPAGE
  3
ANSI_932
  9
$INSBASE
 10
0.0
 20
0.0
 30
0.0
  9
$EXTMIN
 10
-2.7
 20
-293.5
 30
0.0
  9
$EXTMAX
 10
620.0
 20
594.5
 30
0.0
  9
$LIMMIN
 10
0.0
 20
0.0
  9
$LIMMAX
 10
210.0
 20
297.0
  9
$ORTHOMODE
 70
     0
  9
$REGENMODE
 70
     1
  9
$FILLMODE
 70
     1
  9
$QTEXTMODE
 70
     0
  9
$MIRRTEXT
 70
     1
  9
$DRAGMODE
 70
     2
  9
$LTSCALE
 40
1.0
  9
$OSMODE
 70
     0
  9
$ATTMODE
 70
     1
  9
$TEXTSIZE
 40
0.2
  9
$TRACEWID
 40
0.05
  9
$TEXTSTYLE
  7
STANDARD
  9
$CLAYER
  8
寸法
  9
$CELTYPE
  6
CONTINUOUS
  9
$CECOLOR
 62
   256
  9
$CELTSCALE
 40
1.0
  9
$DELOBJ
 70
     1
  9
$DISPSILH
 70
     0
  9
$DIMSCALE
 40
1.0
  9
$DIMASZ
 40
0.18
  9
$DIMEXO
 40
0.0625
  9
$DIMDLI
 40
0.38
  9
$DIMRND
 40
0.0
  9
$DIMDLE
 40
0.0
  9
$DIMEXE
 40
0.18
  9
$DIMTP
 40
0.0
  9
$DIMTM
 40
0.0
  9
$DIMTXT
 40
0.18
  9
$DIMCEN
 40
0.09
  9
$DIMTSZ
 40
0.0
  9
$DIMTOL
 70
     0
  9
$DIMLIM
 70
     0
  9
$DIMTIH
 70
     1
  9
$DIMTOH
 70
     1
  9
$DIMSE1
 70
     0
  9
$DIMSE2
 70
     0
  9
$DIMTAD
 70
     0
  9
$DIMZIN
 70
     0
  9
$DIMBLK
  1

  9
$DIMASO
 70
     1
  9
$DIMSHO
 70
     1
  9
$DIMPOST
  1

  9
$DIMAPOST
  1

  9
$DIMALT
 70
     0
  9
$DIMALTD
 70
     2
  9
$DIMALTF
 40
25.4
  9
$DIMLFAC
 40
1.0
  9
$DIMTOFL
 70
     0
  9
$DIMTVP
 40
0.0
  9
$DIMTIX
 70
     0
  9
$DIMSOXD
 70
     0
  9
$DIMSAH
 70
     0
  9
$DIMBLK1
  1

  9
$DIMBLK2
  1

  9
$DIMSTYLE
  2
STANDARD
  9
$DIMCLRD
 70
     0
  9
$DIMCLRE
 70
     0
  9
$DIMCLRT
 70
     0
  9
$DIMTFAC
 40
1.0
  9
$DIMGAP
 40
0.09
  9
$DIMJUST
 70
     0
  9
$DIMSD1
 70
     0
  9
$DIMSD2
 70
     0
  9
$DIMTOLJ
 70
     1
  9
$DIMTZIN
 70
     0
  9
$DIMALTZ
 70
     0
  9
$DIMALTTZ
 70
     0
  9
$DIMFIT
 70
     3
  9
$DIMUPT
 70
     0
  9
$DIMUNIT
 70
     2
  9
$DIMDEC
 70
     4
  9
$DIMTDEC
 70
     4
  9
$DIMALTU
 70
     2
  9
$DIMALTTD
 70
     2
  9
$DIMTXSTY
  7
STANDARD
  9
$DIMAUNIT
 70
     0
  9
$LUNITS
 70
     2
  9
$LUPREC
 70
     4
  9
$SKETCHINC
 40
0.1
  9
$FILLETRAD
 40
0.0
  9
$AUNITS
 70
     0
  9
$AUPREC
 70
     0
  9
$MENU
  1
acad
  9
$ELEVATION
 40
0.0
  9
$PELEVATION
 40
0.0
  9
$THICKNESS
 40
0.0
  9
$LIMCHECK
 70
     0
  9
$BLIPMODE
 70
     1
  9
$CHAMFERA
 40
0.0
  9
$CHAMFERB
 40
0.0
  9
$CHAMFERC
 40
0.0
  9
$CHAMFERD
 40
0.0
  9
$SKPOLY
 70
     0
  9
$TDCREATE
 40
2455305.922551053
  9
$TDUPDATE
 40
2455305.922551053
  9
$TDINDWG
 40
0.0000000000
  9
$TDUSRTIMER
 40
0.0000000000
  9
$USRTIMER
 70
     1
  9
$ANGBASE
 50
0.0
  9
$ANGDIR
 70
     0
  9
$PDMODE
 70
     0
  9
$PDSIZE
 40
0.0
  9
$PLINEWID
 40
0.0
  9
$COORDS
 70
     1
  9
$SPLFRAME
 70
     0
  9
$SPLINETYPE
 70
     6
  9
$SPLINESEGS
 70
     8
  9
$ATTDIA
 70
     0
  9
$ATTREQ
 70
     1
  9
$HANDLING
 70
     1
  9
$HANDSEED
  5
5A2
  9
$SURFTAB1
 70
     6
  9
$SURFTAB2
 70
     6
  9
$SURFTYPE
 70
     6
  9
$SURFU
 70
     6
  9
$SURFV
 70
     6
  9
$UCSNAME
  2

  9
$UCSORG
 10
0.0
 20
0.0
 30
0.0
  9
$UCSXDIR
 10
1.0
 20
0.0
 30
0.0
  9
$UCSYDIR
 10
0.0
 20
1.0
 30
0.0
  9
$PUCSNAME
  2

  9
$PUCSORG
 10
0.0
 20
0.0
 30
0.0
  9
$PUCSXDIR
 10
1.0
 20
0.0
 30
0.0
  9
$PUCSYDIR
 10
0.0
 20
1.0
 30
0.0
  9
$USERI1
 70
     0
  9
$USERI2
 70
     0
  9
$USERI3
 70
     0
  9
$USERI4
 70
     0
  9
$USERI5
 70
     0
  9
$USERR1
 40
0.0
  9
$USERR2
 40
0.0
  9
$USERR3
 40
0.0
  9
$USERR4
 40
0.0
  9
$USERR5
 40
0.0
  9
$WORLDVIEW
 70
     1
  9
$SHADEDGE
 70
     3
  9
$SHADEDIF
 70
    70
  9
$TILEMODE
 70
     1
  9
$MAXACTVP
 70
    16
  9
$PINSBASE
 10
0.0
 20
0.0
 30
0.0
  9
$PLIMCHECK
 70
     0
  9
$PEXTMIN
 10
1.000000E+20
 20
1.000000E+20
 30
1.000000E+20
  9
$PEXTMAX
 10
-1.000000E+20
 20
-1.000000E+20
 30
-1.000000E+20
  9
$PLIMMIN
 10
0.0
 20
0.0
  9
$PLIMMAX
 10
12.0
 20
9.0
  9
$UNITMODE
 70
     0
  9
$VISRETAIN
 70
     0
  9
$PLINEGEN
 70
     1
  9
$PSLTSCALE
 70
     0
  9
$TREEDEPTH
 70
  3020
  9
$PICKSTYLE
 70
     1
  9
$CMLSTYLE
  2
Standard
  9
$CMLJUST
 70
     0
  9
$CMLSCALE
 40
1.0
  9
$PROXYGRAPHICS
 70
     0
  9
$MEASUREMENT
 70
     0
  0
ENDSEC
  0
SECTION
  2
CLASSES
  0
CLASS
  1
LWPOLYLINE
  2
AcDbPolyline
  3
"AutoCAD"
 90
        0
280
     0
281
     1
  0
CLASS
  1
IMAGE
  2
AcDbRasterImage
  3
ISM
 90
      127
280
     0
281
     1
  0
CLASS
  1
OLE2FRAME
  2
AcDbOle2Frame
  3
""
 90
        0
280
     0
281
     1
  0
CLASS
  1
HATCH
  2
AcDbHatch
  3
"ACAD_SEDONA"
 90
        0
280
     0
281
     1
  0
CLASS
  1
DICTIONARYVAR
  2
AcDbDictionaryVar
  3
"AutoCAD"
 90
        0
280
     0
281
     0
  0
CLASS
  1
RASTERVARIABLES
  2
AcDbRasterVariables
  3
ISM
 90
        0
280
     0
281
     0
  0
CLASS
  1
IMAGEDEF
  2
AcDbRasterImageDef
  3
ISM
 90
        0
280
     0
281
     0
  0
CLASS
  1
IMAGEDEF_REACTOR
  2
AcDbRasterImageDefReactor
  3
ISM
 90
        1
280
     0
281
     0
  0
CLASS
  1
IDBUFFER
  2
AcDbIdBuffer
  3
"Acad"
 90
        0
280
     0
281
     0
  0
CLASS
  1
SPATIAL_FILTER
  2
AcDbSpatialFilter
  3
"Acad"
 90
        0
280
     0
281
     0
  0
CLASS
  1
XRECORD
  2
AcDbXrecord
  3
"<Built In>"
 90
        0
280
     0
281
     0
  0
CLASS
  1
SORTENTSTABLE
  2
AcDbSortentsTable
  3
"AutoCAD"
 90
        0
280
     0
281
     0
  0
CLASS
  1
LAYER_INDEX
  2
AcDbLayerIndex
  3
"Acad"
 90
        0
280
     0
281
     0
  0
CLASS
  1
SPATIAL_INDEX
  2
AcDbSpatialIndex
  3
"Acad"
 90
        0
280
     0
281
     0
  0
CLASS
  1
OBJECT_PTR
  2
CAseDLPNTableRecord
  3
"ASE-LPNTableRecord"
 90
        1
280
     0
281
     0
  0
CLASS
  1
LAYOUT
  2
AcDbLayout
  3
"AutoCAD 2000"
 90
        1
280
     0
281
     0
  0
CLASS
  1
PLOTSETTINGS
  2
AcDbPlotSettings
  3
"AutoCAD 2000"
 90
        1
280
     0
281
     0
  0
CLASS
  1
ACDBDICTIONARYWDFLT
  2
AcDbDictionaryWithDefault
  3
"AutoCAD 2000"
 90
        1
280
     0
281
     0
  0
CLASS
  1
ACDBPLACEHOLDER
  2
AcDbPlaceHolder
  3
"AutoCAD 2000"
 90
        1
280
     0
281
     0
  0
CLASS
  1
VBA_PROJECT
  2
AcDbVbaProject
  3
"acadvba"
 90
        1
280
     0
281
     0
  0
CLASS
  1
WIPEOUT
  2
AcDbWipeout
  3
WipeOut|AutoCAD Express Tool|expresstools@autodesk.com
 90
      127
280
     0
281
     1
  0
CLASS
  1
WIPEOUTVARIABLES
  2
AcDbWipeoutVariables
  3
WipeOut|AutoCAD Express Tool|expresstools@autodesk.com
 90
        0
280
     0
281
     0
  0
CLASS
  1
RTEXT
  2
RText
  3
RText|AutoCAD Express Tool|expresstools@autodesk.com
 90
        0
280
     0
281
     1
  0
CLASS
  1
ARCALIGNEDTEXT
  2
AcDbArcAlignedText
  3
ATEXT|AutoCAD Express Tool|expresstools@autodesk.com
 90
        0
280
     0
281
     1
  0
ENDSEC
  0
SECTION
  2
TABLES
  0
TABLE
  2
VPORT
  5
7
100
AcDbSymbolTable
 70
     1
  0
VPORT
  5
15
100
AcDbSymbolTableRecord
100
AcDbViewportTableRecord
  2
*ACTIVE
 70
     0
 10
0.0
 20
0.0
 11
1.0
 21
1.0
 12
4629.75
 22
2257.5
 13
0.0
 23
0.0
 14
1.0
 24
1.0
 15
0.0
 25
0.0
 16
0.0
 26
0.0
 36
1.0
 17
0.0
 27
0.0
 37
0.0
 40
13320.0
 41
1.722533
 42
50.0
 43
0.0
 44
0.0
 50
0.0
 51
0.0
 71
     0
 72
   100
 73
     1
 74
     1
 75
     0
 76
     0
 77
     0
 78
     0
  0
ENDTAB
  0
TABLE
  2
LTYPE
  5
4
100
AcDbSymbolTable
 70
     9
  0
LTYPE
  5
11
100
AcDbSymbolTableRecord
100
AcDbLinetypeTableRecord
  2
BYBLOCK
 70
    64
  3

 72
    65
 73
     0
 40
0.0
  0
LTYPE
  5
12
100
AcDbSymbolTableRecord
100
AcDbLinetypeTableRecord
  2
BYLAYER
 70
    64
  3

 72
    65
 73
     0
 40
0.0
  0
LTYPE
  5
13
100
AcDbSymbolTableRecord
100
AcDbLinetypeTableRecord
  2
CONTINUOUS
 70
    64
  3
実線
 72
    65
 73
     0
 40
0.0
  0
LTYPE
  5
1D
100
AcDbSymbolTableRecord
100
AcDbLinetypeTableRecord
  2
EXLTYPE1
 70
    64
  3
破線
 72
    65
 73
     2
 40
3.0
 49
2.0
 74
     0
 49
-1.0
 74
     0
  0
LTYPE
  5
1E
100
AcDbSymbolTableRecord
100
AcDbLinetypeTableRecord
  2
EXLTYPE2
 70
    64
  3
点線
 72
    65
 73
     2
 40
2.0
 49
1.0
 74
     0
 49
-1.0
 74
     0
  0
LTYPE
  5
1F
100
AcDbSymbolTableRecord
100
AcDbLinetypeTableRecord
  2
EXLTYPE3
 70
    64
  3
一点鎖線
 72
    65
 73
     4
 40
10.0
 49
7.0
 74
     0
 49
-1.0
 74
     0
 49
1.0
 74
     0
 49
-1.0
 74
     0
  0
LTYPE
  5
20
100
AcDbSymbolTableRecord
100
AcDbLinetypeTableRecord
  2
EXLTYPE4
 70
    64
  3
二点鎖線
 72
    65
 73
     6
 40
12.0
 49
7.0
 74
     0
 49
-1.0
 74
     0
 49
1.0
 74
     0
 49
-1.0
 74
     0
 49
1.0
 74
     0
 49
-1.0
 74
     0
  0
LTYPE
  5
21
100
AcDbSymbolTableRecord
100
AcDbLinetypeTableRecord
  2
EXLTYPE5
 70
    64
  3
三点鎖線
 72
    65
 73
     8
 40
37.0
 49
30.0
 74
     0
 49
-1.0
 74
     0
 49
1.0
 74
     0
 49
-1.0
 74
     0
 49
1.0
 74
     0
 49
-1.0
 74
     0
 49
1.0
 74
     0
 49
-1.0
 74
     0
  0
LTYPE
  5
22
100
AcDbSymbolTableRecord
100
AcDbLinetypeTableRecord
  2
EXLTYPE6
 70
    64
  3
四点鎖線
 72
    65
 73
    10
 40
39.0
 49
30.0
 74
     0
 49
-1.0
 74
     0
 49
1.0
 74
     0
 49
-1.0
 74
     0
 49
1.0
 74
     0
 49
-1.0
 74
     0
 49
1.0
 74
     0
 49
-1.0
 74
     0
 49
1.0
 74
     0
 49
-1.0
 74
     0
  0
ENDTAB
  0
TABLE
  2
LAYER
  5
2
100
AcDbSymbolTable
 70
     6
  0
LAYER
  5
14
100
AcDbSymbolTableRecord
100
AcDbLayerTableRecord
  2
0
 70
     0
 62
     7
  6
CONTINUOUS
  0
LAYER
  5
25
100
AcDbSymbolTableRecord
100
AcDbLayerTableRecord
  2
枠・表
 70
    64
 62
     7
  6
CONTINUOUS
  0
LAYER
  5
26
100
AcDbSymbolTableRecord
100
AcDbLayerTableRecord
  2
化粧台
 70
    64
 62
     7
  6
CONTINUOUS
  0
LAYER
  5
27
100
AcDbSymbolTableRecord
100
AcDbLayerTableRecord
  2
鏡台
 70
    64
 62
     7
  6
CONTINUOUS
  0
LAYER
  5
28
100
AcDbSymbolTableRecord
100
AcDbLayerTableRecord
  2
付属金具
 70
    64
 62
     7
  6
CONTINUOUS
  0
LAYER
  5
29
100
AcDbSymbolTableRecord
100
AcDbLayerTableRecord
  2
寸法
 70
    64
 62
     7
  6
CONTINUOUS
  0
ENDTAB
  0
TABLE
  2
STYLE
  5
3
100
AcDbSymbolTable
 70
     5
  0
STYLE
  5
17
100
AcDbSymbolTableRecord
100
AcDbTextStyleTableRecord
  2
STANDARD
 70
     0
 40
0.0
 41
1.0
 50
0.0
 71
     0
 42
0.0
  3
monotxt
  4
extfont
  0
STYLE
  5
23
100
AcDbSymbolTableRecord
100
AcDbTextStyleTableRecord
  2
EXCADSTD
 70
    64
 40
0.0
 41
1.0
 50
0.0
 71
     0
 42
0.2
  3
monotxt
  4
extfont
  0
STYLE
  5
24
100
AcDbSymbolTableRecord
100
AcDbTextStyleTableRecord
  2
EXCADVERT
 70
    68
 40
0.0
 41
1.0
 50
0.0
 71
     0
 42
0.286885
  3
monotxt
  4
extfont
  0
STYLE
  5
B5
100
AcDbSymbolTableRecord
100
AcDbTextStyleTableRecord
  2
EXCADDIM1
 70
    64
 40
0.0
 41
0.84
 50
0.0
 71
     0
 42
0.2
  3
monotxt
  4
extfont
  0
STYLE
  5
1DF
100
AcDbSymbolTableRecord
100
AcDbTextStyleTableRecord
  2
EXCADTTF1
 70
    64
 40
0.0
 41
1.0
 50
0.0
 71
     0
 42
0.2
  3
MS Gothic.ttf
  4

1001
ACAD
1000
MS Gothic
1071
    32817
  0
ENDTAB
  0
TABLE
  2
VIEW
  5
5
100
AcDbSymbolTable
 70
     0
  0
ENDTAB
  0
TABLE
  2
UCS
  5
6
100
AcDbSymbolTable
 70
     0
  0
ENDTAB
  0
TABLE
  2
APPID
  5
8
100
AcDbSymbolTable
 70
     1
  0
APPID
  5
16
100
AcDbSymbolTableRecord
100
AcDbRegAppTableRecord
  2
ACAD
 70
     0
  0
ENDTAB
  0
TABLE
  2
DIMSTYLE
  5
9
100
AcDbSymbolTable
 70
     1
  0
DIMSTYLE
105
18
100
AcDbSymbolTableRecord
100
AcDbDimStyleTableRecord
  2
STANDARD
 70
     0
  3

  4

  5

  6

  7

 40
1.0
 41
0.18
 42
0.0625
 43
0.38
 44
0.18
 45
0.0
 46
0.0
 47
0.0
 48
0.0
 71
     0
 72
     0
 73
     1
 74
     1
 75
     0
 76
     0
 77
     0
 78
     0
140
0.18
141
0.09
142
0.0
143
25.4
144
1.0
145
0.0
146
1.0
147
0.09
170
     0
171
     2
172
     1
173
     0
174
     0
175
     0
176
     0
177
     0
178
     0
270
     2
271
     4
272
     4
273
     2
274
     2
275
     0
280
     0
281
     0
282
     0
283
     1
284
     0
285
     0
286
     0
287
     0
288
     0
340
17
  0
ENDTAB
  0
TABLE
  2
BLOCK_RECORD
  5
1
100
AcDbSymbolTable
 70
    30
  0
BLOCK_RECORD
  5
A
100
AcDbSymbolTableRecord
100
AcDbBlockTableRecord
  2
*MODEL_SPACE
  0
BLOCK_RECORD
  5
B
100
AcDbSymbolTableRecord
100
AcDbBlockTableRecord
  2
*PAPER_SPACE
  0
BLOCK_RECORD
  5
2A
100
AcDbSymbolTableRecord
100
AcDbBlockTableRecord
  2
_EX_NORM
  0
BLOCK_RECORD
  5
2B
100
AcDbSymbolTableRecord
100
AcDbBlockTableRecord
  2
_EX_BNORM
  0
BLOCK_RECORD
  5
2C
100
AcDbSymbolTableRecord
100
AcDbBlockTableRecord
  2
_EX_BCIR
  0
BLOCK_RECORD
  5
2D
100
AcDbSymbolTableRecord
100
AcDbBlockTableRecord
  2
_EX_RCIVIL
  0
BLOCK_RECORD
  5
2E
100
AcDbSymbolTableRecord
100
AcDbBlockTableRecord
  2
_EX_SLANT
  0
BLOCK_RECORD
  5
2F
100
AcDbSymbolTableRecord
100
AcDbBlockTableRecord
  2
_EX_NONE
  0
BLOCK_RECORD
  5
30
100
AcDbSymbolTableRecord
100
AcDbBlockTableRecord
  2
_EX_CIVIL
  0
BLOCK_RECORD
  5
31
100
AcDbSymbolTableRecord
100
AcDbBlockTableRecord
  2
_EX_WCIR
  0
BLOCK_RECORD
  5
32
100
AcDbSymbolTableRecord
100
AcDbBlockTableRecord
  2
_EX_WCIR2
  0
BLOCK_RECORD
  5
33
100
AcDbSymbolTableRecord
100
AcDbBlockTableRecord
  2
_EX_WNORM
  0
BLOCK_RECORD
  5
34
100
AcDbSymbolTableRecord
100
AcDbBlockTableRecord
  2
_EX_NNORM
  0
BLOCK_RECORD
  5
35
100
AcDbSymbolTableRecord
100
AcDbBlockTableRecord
  2
_EX_BBOX
  0
BLOCK_RECORD
  5
36
100
AcDbSymbolTableRecord
100
AcDbBlockTableRecord
  2
_EX_WBOX
  0
BLOCK_RECORD
  5
37
100
AcDbSymbolTableRecord
100
AcDbBlockTableRecord
  2
_EX_INTEGRAL
  0
BLOCK_RECORD
  5
AA
100
AcDbSymbolTableRecord
100
AcDbBlockTableRecord
  2
*D14
  0
BLOCK_RECORD
  5
B7
100
AcDbSymbolTableRecord
100
AcDbBlockTableRecord
  2
*D15
  0
BLOCK_RECORD
  5
C3
100
AcDbSymbolTableRecord
100
AcDbBlockTableRecord
  2
*D16
  0
BLOCK_RECORD
  5
CE
100
AcDbSymbolTableRecord
100
AcDbBlockTableRecord
  2
*D17
  0
BLOCK_RECORD
  5
D9
100
AcDbSymbolTableRecord
100
AcDbBlockTableRecord
  2
*D18
  0
BLOCK_RECORD
  5
E4
100
AcDbSymbolTableRecord
100
AcDbBlockTableRecord
  2
*D19
  0
BLOCK_RECORD
  5
11F
100
AcDbSymbolTableRecord
100
AcDbBlockTableRecord
  2
*D20
  0
BLOCK_RECORD
  5
13C
100
AcDbSymbolTableRecord
100
AcDbBlockTableRecord
  2
*D21
  0
BLOCK_RECORD
  5
148
100
AcDbSymbolTableRecord
100
AcDbBlockTableRecord
  2
*D22
  0
BLOCK_RECORD
  5
154
100
AcDbSymbolTableRecord
100
AcDbBlockTableRecord
  2
*D23
  0
BLOCK_RECORD
  5
15F
100
AcDbSymbolTableRecord
100
AcDbBlockTableRecord
  2
*D24
  0
BLOCK_RECORD
  5
16B
100
AcDbSymbolTableRecord
100
AcDbBlockTableRecord
  2
*D25
  0
BLOCK_RECORD
  5
178
100
AcDbSymbolTableRecord
100
AcDbBlockTableRecord
  2
*D26
  0
BLOCK_RECORD
  5
184
100
AcDbSymbolTableRecord
100
AcDbBlockTableRecord
  2
*D27
  0
BLOCK_RECORD
  5
190
100
AcDbSymbolTableRecord
100
AcDbBlockTableRecord
  2
*D28
  0
BLOCK_RECORD
  5
19C
100
AcDbSymbolTableRecord
100
AcDbBlockTableRecord
  2
*D29
  0
ENDTAB
  0
ENDSEC
  0
SECTION
  2
BLOCKS
  0
BLOCK
  5
D
100
AcDbEntity
  8
0
100
AcDbBlockBegin
  2
*MODEL_SPACE
 70
     0
 10
0.0
 20
0.0
 30
0.0
  3
*MODEL_SPACE
  1

  0
ENDBLK
  5
E
100
AcDbEntity
  8
0
100
AcDbBlockEnd
  0
BLOCK
  5
F
100
AcDbEntity
 67
     1
  8
0
100
AcDbBlockBegin
  2
*PAPER_SPACE
 70
     0
 10
0.0
 20
0.0
 30
0.0
  3
*PAPER_SPACE
  1

  0
ENDBLK
  5
10
100
AcDbEntity
 67
     1
  8
0
100
AcDbBlockEnd
  0
BLOCK
  5
38
100
AcDbEntity
  8
0
100
AcDbBlockBegin
  2
_EX_NORM
 70
     0
 10
0.0
 20
0.0
 30
0.0
  3
_EX_NORM
  1

  0
LINE
  5
39
100
AcDbEntity
  8
0
  6
CONTINUOUS
 62
     0
100
AcDbLine
 10
0.0
 20
0.0
 30
0.0
 11
-1.0
 21
0.0
 31
0.0
  0
LINE
  5
3A
100
AcDbEntity
  8
0
  6
CONTINUOUS
 62
     0
100
AcDbLine
 10
0.0
 20
0.0
 30
0.0
 11
-1.0
 21
0.166667
 31
0.0
  0
LINE
  5
3B
100
AcDbEntity
  8
0
  6
CONTINUOUS
 62
     0
100
AcDbLine
 10
0.0
 20
0.0
 30
0.0
 11
-1.0
 21
-0.166667
 31
0.0
  0
ENDBLK
  5
3C
100
AcDbEntity
  8
0
100
AcDbBlockEnd
  0
BLOCK
  5
3D
100
AcDbEntity
  8
0
100
AcDbBlockBegin
  2
_EX_BNORM
 70
     0
 10
0.0
 20
0.0
 30
0.0
  3
_EX_BNORM
  1

  0
LINE
  5
3E
100
AcDbEntity
  8
0
  6
CONTINUOUS
 62
     0
100
AcDbLine
 10
0.0
 20
0.0
 30
0.0
 11
-1.0
 21
0.0
 31
0.0
  0
LINE
  5
3F
100
AcDbEntity
  8
0
  6
CONTINUOUS
 62
     0
100
AcDbLine
 10
0.0
 20
0.0
 30
0.0
 11
-1.0
 21
0.166667
 31
0.0
  0
LINE
  5
40
100
AcDbEntity
  8
0
  6
CONTINUOUS
 62
     0
100
AcDbLine
 10
0.0
 20
0.0
 30
0.0
 11
-1.0
 21
-0.166667
 31
0.0
  0
LINE
  5
41
100
AcDbEntity
  8
0
  6
CONTINUOUS
 62
     0
100
AcDbLine
 10
0.0
 20
0.0
 30
0.0
 11
-1.0
 21
0.083333
 31
0.0
  0
LINE
  5
42
100
AcDbEntity
  8
0
  6
CONTINUOUS
 62
     0
100
AcDbLine
 10
0.0
 20
0.0
 30
0.0
 11
-1.0
 21
-0.083333
 31
0.0
  0
LINE
  5
43
100
AcDbEntity
  8
0
  6
CONTINUOUS
 62
     0
100
AcDbLine
 10
-1.0
 20
0.166667
 30
0.0
 11
-1.0
 21
-0.166667
 31
0.0
  0
ENDBLK
  5
44
100
AcDbEntity
  8
0
100
AcDbBlockEnd
  0
BLOCK
  5
45
100
AcDbEntity
  8
0
100
AcDbBlockBegin
  2
_EX_BCIR
 70
     0
 10
0.0
 20
0.0
 30
0.0
  3
_EX_BCIR
  1

  0
LINE
  5
46
100
AcDbEntity
  8
0
  6
CONTINUOUS
 62
     0
100
AcDbLine
 10
0.0
 20
0.0
 30
0.0
 11
-1.0
 21
0.0
 31
0.0
  0
CIRCLE
  5
47
100
AcDbEntity
  8
0
  6
CONTINUOUS
 62
     0
100
AcDbCircle
 10
0.0
 20
0.0
 30
0.0
 40
0.5
  0
CIRCLE
  5
48
100
AcDbEntity
  8
0
  6
CONTINUOUS
 62
     0
100
AcDbCircle
 10
0.0
 20
0.0
 30
0.0
 40
0.25
  0
ENDBLK
  5
49
100
AcDbEntity
  8
0
100
AcDbBlockEnd
  0
BLOCK
  5
4A
100
AcDbEntity
  8
0
100
AcDbBlockBegin
  2
_EX_RCIVIL
 70
     0
 10
0.0
 20
0.0
 30
0.0
  3
_EX_RCIVIL
  1

  0
LINE
  5
4B
100
AcDbEntity
  8
0
  6
CONTINUOUS
 62
     0
100
AcDbLine
 10
0.0
 20
0.0
 30
0.0
 11
-1.0
 21
0.0
 31
0.0
  0
LINE
  5
4C
100
AcDbEntity
  8
0
  6
CONTINUOUS
 62
     0
100
AcDbLine
 10
-1.0
 20
-0.25
 30
0.0
 11
0.0
 21
-0.25
 31
0.0
  0
LINE
  5
4D
100
AcDbEntity
  8
0
  6
CONTINUOUS
 62
     0
100
AcDbLine
 10
-1.0
 20
-0.125
 30
0.0
 11
0.0
 21
-0.125
 31
0.0
  0
ENDBLK
  5
4E
100
AcDbEntity
  8
0
100
AcDbBlockEnd
  0
BLOCK
  5
4F
100
AcDbEntity
  8
0
100
AcDbBlockBegin
  2
_EX_SLANT
 70
     0
 10
0.0
 20
0.0
 30
0.0
  3
_EX_SLANT
  1

  0
LINE
  5
50
100
AcDbEntity
  8
0
  6
CONTINUOUS
 62
     0
100
AcDbLine
 10
0.0
 20
0.0
 30
0.0
 11
-1.0
 21
0.0
 31
0.0
  0
LINE
  5
51
100
AcDbEntity
  8
0
  6
CONTINUOUS
 62
     0
100
AcDbLine
 10
0.707107
 20
0.707107
 30
0.0
 11
-0.707107
 21
-0.707107
 31
0.0
  0
ENDBLK
  5
52
100
AcDbEntity
  8
0
100
AcDbBlockEnd
  0
BLOCK
  5
53
100
AcDbEntity
  8
0
100
AcDbBlockBegin
  2
_EX_NONE
 70
     0
 10
0.0
 20
0.0
 30
0.0
  3
_EX_NONE
  1

  0
LINE
  5
54
100
AcDbEntity
  8
0
  6
CONTINUOUS
 62
     0
100
AcDbLine
 10
0.0
 20
0.0
 30
0.0
 11
-1.0
 21
0.0
 31
0.0
  0
ENDBLK
  5
55
100
AcDbEntity
  8
0
100
AcDbBlockEnd
  0
BLOCK
  5
56
100
AcDbEntity
  8
0
100
AcDbBlockBegin
  2
_EX_CIVIL
 70
     0
 10
0.0
 20
0.0
 30
0.0
  3
_EX_CIVIL
  1

  0
LINE
  5
57
100
AcDbEntity
  8
0
  6
CONTINUOUS
 62
     0
100
AcDbLine
 10
0.0
 20
0.0
 30
0.0
 11
-1.0
 21
0.0
 31
0.0
  0
LINE
  5
58
100
AcDbEntity
  8
0
  6
CONTINUOUS
 62
     0
100
AcDbLine
 10
-1.0
 20
0.25
 30
0.0
 11
0.0
 21
0.25
 31
0.0
  0
LINE
  5
59
100
AcDbEntity
  8
0
  6
CONTINUOUS
 62
     0
100
AcDbLine
 10
-1.0
 20
0.125
 30
0.0
 11
0.0
 21
0.125
 31
0.0
  0
ENDBLK
  5
5A
100
AcDbEntity
  8
0
100
AcDbBlockEnd
  0
BLOCK
  5
5B
100
AcDbEntity
  8
0
100
AcDbBlockBegin
  2
_EX_WCIR
 70
     0
 10
0.0
 20
0.0
 30
0.0
  3
_EX_WCIR
  1

  0
LINE
  5
5C
100
AcDbEntity
  8
0
  6
CONTINUOUS
 62
     0
100
AcDbLine
 10
0.0
 20
0.0
 30
0.0
 11
-1.0
 21
0.0
 31
0.0
  0
CIRCLE
  5
5D
100
AcDbEntity
  8
0
  6
CONTINUOUS
 62
     0
100
AcDbCircle
 10
0.0
 20
0.0
 30
0.0
 40
0.5
  0
ENDBLK
  5
5E
100
AcDbEntity
  8
0
100
AcDbBlockEnd
  0
BLOCK
  5
5F
100
AcDbEntity
  8
0
100
AcDbBlockBegin
  2
_EX_WCIR2
 70
     0
 10
0.0
 20
0.0
 30
0.0
  3
_EX_WCIR2
  1

  0
LINE
  5
60
100
AcDbEntity
  8
0
  6
CONTINUOUS
 62
     0
100
AcDbLine
 10
-0.5
 20
0.0
 30
0.0
 11
-1.0
 21
0.0
 31
0.0
  0
CIRCLE
  5
61
100
AcDbEntity
  8
0
  6
CONTINUOUS
 62
     0
100
AcDbCircle
 10
0.0
 20
0.0
 30
0.0
 40
0.5
  0
ENDBLK
  5
62
100
AcDbEntity
  8
0
100
AcDbBlockEnd
  0
BLOCK
  5
63
100
AcDbEntity
  8
0
100
AcDbBlockBegin
  2
_EX_WNORM
 70
     0
 10
0.0
 20
0.0
 30
0.0
  3
_EX_WNORM
  1

  0
LINE
  5
64
100
AcDbEntity
  8
0
  6
CONTINUOUS
 62
     0
100
AcDbLine
 10
-1.0
 20
0.0
 30
0.0
 11
-1.0
 21
0.0
 31
0.0
  0
LINE
  5
65
100
AcDbEntity
  8
0
  6
CONTINUOUS
 62
     0
100
AcDbLine
 10
0.0
 20
0.0
 30
0.0
 11
-1.0
 21
0.166667
 31
0.0
  0
LINE
  5
66
100
AcDbEntity
  8
0
  6
CONTINUOUS
 62
     0
100
AcDbLine
 10
0.0
 20
0.0
 30
0.0
 11
-1.0
 21
-0.166667
 31
0.0
  0
LINE
  5
67
100
AcDbEntity
  8
0
  6
CONTINUOUS
 62
     0
100
AcDbLine
 10
-1.0
 20
0.166667
 30
0.0
 11
-1.0
 21
-0.166667
 31
0.0
  0
ENDBLK
  5
68
100
AcDbEntity
  8
0
100
AcDbBlockEnd
  0
BLOCK
  5
69
100
AcDbEntity
  8
0
100
AcDbBlockBegin
  2
_EX_NNORM
 70
     0
 10
0.0
 20
0.0
 30
0.0
  3
_EX_NNORM
  1

  0
LINE
  5
6A
100
AcDbEntity
  8
0
  6
CONTINUOUS
 62
     0
100
AcDbLine
 10
0.0
 20
0.0
 30
0.0
 11
-1.0
 21
0.0
 31
0.0
  0
LINE
  5
6B
100
AcDbEntity
  8
0
  6
CONTINUOUS
 62
     0
100
AcDbLine
 10
0.0
 20
0.0
 30
0.0
 11
-1.0
 21
0.166667
 31
0.0
  0
LINE
  5
6C
100
AcDbEntity
  8
0
  6
CONTINUOUS
 62
     0
100
AcDbLine
 10
0.0
 20
0.0
 30
0.0
 11
-1.0
 21
-0.166667
 31
0.0
  0
LINE
  5
6D
100
AcDbEntity
  8
0
  6
CONTINUOUS
 62
     0
100
AcDbLine
 10
-1.0
 20
0.166667
 30
0.0
 11
-1.0
 21
-0.166667
 31
0.0
  0
ENDBLK
  5
6E
100
AcDbEntity
  8
0
100
AcDbBlockEnd
  0
BLOCK
  5
6F
100
AcDbEntity
  8
0
100
AcDbBlockBegin
  2
_EX_BBOX
 70
     0
 10
0.0
 20
0.0
 30
0.0
  3
_EX_BBOX
  1

  0
LINE
  5
70
100
AcDbEntity
  8
0
  6
CONTINUOUS
 62
     0
100
AcDbLine
 10
0.0
 20
0.0
 30
0.0
 11
-1.0
 21
0.0
 31
0.0
  0
LINE
  5
71
100
AcDbEntity
  8
0
  6
CONTINUOUS
 62
     0
100
AcDbLine
 10
-0.5
 20
0.5
 30
0.0
 11
0.5
 21
0.5
 31
0.0
  0
LINE
  5
72
100
AcDbEntity
  8
0
  6
CONTINUOUS
 62
     0
100
AcDbLine
 10
0.5
 20
0.5
 30
0.0
 11
0.5
 21
-0.5
 31
0.0
  0
LINE
  5
73
100
AcDbEntity
  8
0
  6
CONTINUOUS
 62
     0
100
AcDbLine
 10
0.5
 20
-0.5
 30
0.0
 11
-0.5
 21
-0.5
 31
0.0
  0
LINE
  5
74
100
AcDbEntity
  8
0
  6
CONTINUOUS
 62
     0
100
AcDbLine
 10
-0.5
 20
-0.5
 30
0.0
 11
-0.5
 21
0.5
 31
0.0
  0
LINE
  5
75
100
AcDbEntity
  8
0
  6
CONTINUOUS
 62
     0
100
AcDbLine
 10
-0.25
 20
0.25
 30
0.0
 11
0.25
 21
0.25
 31
0.0
  0
LINE
  5
76
100
AcDbEntity
  8
0
  6
CONTINUOUS
 62
     0
100
AcDbLine
 10
0.25
 20
0.25
 30
0.0
 11
0.25
 21
-0.25
 31
0.0
  0
LINE
  5
77
100
AcDbEntity
  8
0
  6
CONTINUOUS
 62
     0
100
AcDbLine
 10
0.25
 20
-0.25
 30
0.0
 11
-0.25
 21
-0.25
 31
0.0
  0
LINE
  5
78
100
AcDbEntity
  8
0
  6
CONTINUOUS
 62
     0
100
AcDbLine
 10
-0.25
 20
-0.25
 30
0.0
 11
-0.25
 21
0.25
 31
0.0
  0
ENDBLK
  5
79
100
AcDbEntity
  8
0
100
AcDbBlockEnd
  0
BLOCK
  5
7A
100
AcDbEntity
  8
0
100
AcDbBlockBegin
  2
_EX_WBOX
 70
     0
 10
0.0
 20
0.0
 30
0.0
  3
_EX_WBOX
  1

  0
LINE
  5
7B
100
AcDbEntity
  8
0
  6
CONTINUOUS
 62
     0
100
AcDbLine
 10
-0.5
 20
0.0
 30
0.0
 11
-1.0
 21
0.0
 31
0.0
  0
LINE
  5
7C
100
AcDbEntity
  8
0
  6
CONTINUOUS
 62
     0
100
AcDbLine
 10
-0.5
 20
0.5
 30
0.0
 11
0.5
 21
0.5
 31
0.0
  0
LINE
  5
7D
100
AcDbEntity
  8
0
  6
CONTINUOUS
 62
     0
100
AcDbLine
 10
0.5
 20
0.5
 30
0.0
 11
0.5
 21
-0.5
 31
0.0
  0
LINE
  5
7E
100
AcDbEntity
  8
0
  6
CONTINUOUS
 62
     0
100
AcDbLine
 10
0.5
 20
-0.5
 30
0.0
 11
-0.5
 21
-0.5
 31
0.0
  0
LINE
  5
7F
100
AcDbEntity
  8
0
  6
CONTINUOUS
 62
     0
100
AcDbLine
 10
-0.5
 20
-0.5
 30
0.0
 11
-0.5
 21
0.5
 31
0.0
  0
ENDBLK
  5
80
100
AcDbEntity
  8
0
100
AcDbBlockEnd
  0
BLOCK
  5
81
100
AcDbEntity
  8
0
100
AcDbBlockBegin
  2
_EX_INTEGRAL
 70
     0
 10
0.0
 20
0.0
 30
0.0
  3
_EX_INTEGRAL
  1

  0
LINE
  5
82
100
AcDbEntity
  8
0
  6
CONTINUOUS
 62
     0
100
AcDbLine
 10
0.0
 20
0.0
 30
0.0
 11
-1.0
 21
0.0
 31
0.0
  0
ARC
  5
83
100
AcDbEntity
  8
0
  6
CONTINUOUS
 62
     0
100
AcDbCircle
 10
0.542115
 20
0.164992
 30
0.0
 40
0.56667
100
AcDbArc
 50
73.07249
 51
196.927513
  0
ARC
  5
84
100
AcDbEntity
  8
0
  6
CONTINUOUS
 62
     0
100
AcDbCircle
 10
-0.542115
 20
-0.164992
 30
0.0
 40
0.56667
100
AcDbArc
 50
253.072487
 51
16.927513
  0
ENDBLK
  5
85
100
AcDbEntity
  8
0
100
AcDbBlockEnd
  0
BLOCK
  5
AB
100
AcDbEntity
  8
0
100
AcDbBlockBegin
  2
*D14
 70
    65
 10
0.0
 20
0.0
 30
0.0
  3
*D14
  1

  0
LINE
  5
AC
100
AcDbEntity
  8
寸法
  6
CONTINUOUS
 62
     3
100
AcDbLine
 10
630.0
 20
3463.5
 30
0.0
 11
630.0
 21
3343.5
 31
0.0
  0
LINE
  5
AD
100
AcDbEntity
  8
寸法
  6
CONTINUOUS
 62
     3
100
AcDbLine
 10
1180.0
 20
3463.5
 30
0.0
 11
1180.0
 21
3343.5
 31
0.0
  0
TEXT
  5
AE
100
AcDbEntity
  8
寸法
  6
CONTINUOUS
 62
     2
100
AcDbText
 10
842.0
 20
3363.75
 30
0.0
 40
60.0
  1
550
 41
0.84
  7
EXCADSTD
 72
     1
 11
905.0
 21
3363.75
 31
0.0
100
AcDbText
  0
LINE
  5
AF
100
AcDbEntity
  8
寸法
  6
CONTINUOUS
 62
     3
100
AcDbLine
 10
630.0
 20
3358.5
 30
0.0
 11
1180.0
 21
3358.5
 31
0.0
  0
LINE
  5
B0
100
AcDbEntity
  8
寸法
  6
CONTINUOUS
 62
     3
100
AcDbLine
 10
675.0
 20
3366.0
 30
0.0
 11
630.0
 21
3358.5
 31
0.0
  0
LINE
  5
B1
100
AcDbEntity
  8
寸法
  6
CONTINUOUS
 62
     3
100
AcDbLine
 10
630.0
 20
3358.5
 30
0.0
 11
675.0
 21
3351.0
 31
0.0
  0
LINE
  5
B2
100
AcDbEntity
  8
寸法
  6
CONTINUOUS
 62
     3
100
AcDbLine
 10
1135.0
 20
3351.0
 30
0.0
 11
1180.0
 21
3358.5
 31
0.0
  0
LINE
  5
B3
100
AcDbEntity
  8
寸法
  6
CONTINUOUS
 62
     3
100
AcDbLine
 10
1180.0
 20
3358.5
 30
0.0
 11
1135.0
 21
3366.0
 31
0.0
  0
ENDBLK
  5
B4
100
AcDbEntity
  8
0
100
AcDbBlockEnd
  0
BLOCK
  5
B8
100
AcDbEntity
  8
0
100
AcDbBlockBegin
  2
*D15
 70
    65
 10
0.0
 20
0.0
 30
0.0
  3
*D15
  1

  0
LINE
  5
B9
100
AcDbEntity
  8
寸法
  6
CONTINUOUS
 62
     3
100
AcDbLine
 10
530.0
 20
3503.5
 30
0.0
 11
530.0
 21
3247.5
 31
0.0
  0
LINE
  5
BA
100
AcDbEntity
  8
寸法
  6
CONTINUOUS
 62
     3
100
AcDbLine
 10
1280.0
 20
3503.5
 30
0.0
 11
1280.0
 21
3247.5
 31
0.0
  0
TEXT
  5
BB
100
AcDbEntity
  8
寸法
  6
CONTINUOUS
 62
     2
100
AcDbText
 10
842.0
 20
3267.75
 30
0.0
 40
60.0
  1
750
 41
0.84
  7
EXCADSTD
 72
     1
 11
905.0
 21
3267.75
 31
0.0
100
AcDbText
  0
LINE
  5
BC
100
AcDbEntity
  8
寸法
  6
CONTINUOUS
 62
     3
100
AcDbLine
 10
530.0
 20
3262.5
 30
0.0
 11
1280.0
 21
3262.5
 31
0.0
  0
LINE
  5
BD
100
AcDbEntity
  8
寸法
  6
CONTINUOUS
 62
     3
100
AcDbLine
 10
575.0
 20
3270.0
 30
0.0
 11
530.0
 21
3262.5
 31
0.0
  0
LINE
  5
BE
100
AcDbEntity
  8
寸法
  6
CONTINUOUS
 62
     3
100
AcDbLine
 10
530.0
 20
3262.5
 30
0.0
 11
575.0
 21
3255.0
 31
0.0
  0
LINE
  5
BF
100
AcDbEntity
  8
寸法
  6
CONTINUOUS
 62
     3
100
AcDbLine
 10
1235.0
 20
3255.0
 30
0.0
 11
1280.0
 21
3262.5
 31
0.0
  0
LINE
  5
C0
100
AcDbEntity
  8
寸法
  6
CONTINUOUS
 62
     3
100
AcDbLine
 10
1280.0
 20
3262.5
 30
0.0
 11
1235.0
 21
3270.0
 31
0.0
  0
ENDBLK
  5
C1
100
AcDbEntity
  8
0
100
AcDbBlockEnd
  0
BLOCK
  5
C4
100
AcDbEntity
  8
0
100
AcDbBlockBegin
  2
*D16
 70
    65
 10
0.0
 20
0.0
 30
0.0
  3
*D16
  1

  0
LINE
  5
C5
100
AcDbEntity
  8
寸法
  6
CONTINUOUS
 62
     3
100
AcDbLine
 10
1290.5
 20
3514.0
 30
0.0
 11
1401.0
 21
3514.0
 31
0.0
  0
TEXT
  5
C6
100
AcDbEntity
  8
寸法
  6
CONTINUOUS
 62
     2
100
AcDbText
 10
1380.75
 20
3676.0
 30
0.0
 40
60.0
  1
450
 50
90.0
 41
0.84
  7
EXCADSTD
 72
     1
 11
1380.75
 21
3739.0
 31
0.0
100
AcDbText
  0
LINE
  5
C7
100
AcDbEntity
  8
寸法
  6
CONTINUOUS
 62
     3
100
AcDbLine
 10
1386.0
 20
3964.0
 30
0.0
 11
1386.0
 21
3514.0
 31
0.0
  0
LINE
  5
C8
100
AcDbEntity
  8
寸法
  6
CONTINUOUS
 62
     3
100
AcDbLine
 10
1393.5
 20
3919.0
 30
0.0
 11
1386.0
 21
3964.0
 31
0.0
  0
LINE
  5
C9
100
AcDbEntity
  8
寸法
  6
CONTINUOUS
 62
     3
100
AcDbLine
 10
1386.0
 20
3964.0
 30
0.0
 11
1378.5
 21
3919.0
 31
0.0
  0
LINE
  5
CA
100
AcDbEntity
  8
寸法
  6
CONTINUOUS
 62
     3
100
AcDbLine
 10
1378.5
 20
3559.0
 30
0.0
 11
1386.0
 21
3514.0
 31
0.0
  0
LINE
  5
CB
100
AcDbEntity
  8
寸法
  6
CONTINUOUS
 62
     3
100
AcDbLine
 10
1386.0
 20
3514.0
 30
0.0
 11
1393.5
 21
3559.0
 31
0.0
  0
ENDBLK
  5
CC
100
AcDbEntity
  8
0
100
AcDbBlockEnd
  0
BLOCK
  5
CF
100
AcDbEntity
  8
0
100
AcDbBlockBegin
  2
*D17
 70
    65
 10
0.0
 20
0.0
 30
0.0
  3
*D17
  1

  0
LINE
  5
D0
100
AcDbEntity
  8
寸法
  6
CONTINUOUS
 62
     3
100
AcDbLine
 10
1180.5
 20
3464.0
 30
0.0
 11
1486.5
 21
3464.0
 31
0.0
  0
TEXT
  5
D1
100
AcDbEntity
  8
寸法
  6
CONTINUOUS
 62
     2
100
AcDbText
 10
1466.25
 20
3651.0
 30
0.0
 40
60.0
  1
500
 50
90.0
 41
0.84
  7
EXCADSTD
 72
     1
 11
1466.25
 21
3714.0
 31
0.0
100
AcDbText
  0
LINE
  5
D2
100
AcDbEntity
  8
寸法
  6
CONTINUOUS
 62
     3
100
AcDbLine
 10
1471.5
 20
3464.0
 30
0.0
 11
1471.5
 21
3964.0
 31
0.0
  0
LINE
  5
D3
100
AcDbEntity
  8
寸法
  6
CONTINUOUS
 62
     3
100
AcDbLine
 10
1464.0
 20
3509.0
 30
0.0
 11
1471.5
 21
3464.0
 31
0.0
  0
LINE
  5
D4
100
AcDbEntity
  8
寸法
  6
CONTINUOUS
 62
     3
100
AcDbLine
 10
1471.5
 20
3464.0
 30
0.0
 11
1479.0
 21
3509.0
 31
0.0
  0
LINE
  5
D5
100
AcDbEntity
  8
寸法
  6
CONTINUOUS
 62
     3
100
AcDbLine
 10
1479.0
 20
3919.0
 30
0.0
 11
1471.5
 21
3964.0
 31
0.0
  0
LINE
  5
D6
100
AcDbEntity
  8
寸法
  6
CONTINUOUS
 62
     3
100
AcDbLine
 10
1471.5
 20
3964.0
 30
0.0
 11
1464.0
 21
3919.0
 31
0.0
  0
ENDBLK
  5
D7
100
AcDbEntity
  8
0
100
AcDbBlockEnd
  0
BLOCK
  5
DA
100
AcDbEntity
  8
0
100
AcDbBlockBegin
  2
*D18
 70
    65
 10
0.0
 20
0.0
 30
0.0
  3
*D18
  1

  0
LINE
  5
DB
100
AcDbEntity
  8
寸法
  6
CONTINUOUS
 62
     3
100
AcDbLine
 10
1290.5
 20
1610.0
 30
0.0
 11
1401.0
 21
1610.0
 31
0.0
  0
TEXT
  5
DC
100
AcDbEntity
  8
寸法
  6
CONTINUOUS
 62
     2
100
AcDbText
 10
1380.75
 20
1197.5
 30
0.0
 40
60.0
  1
699
 50
90.0
 41
0.84
  7
EXCADSTD
 72
     1
 11
1380.75
 21
1260.5
 31
0.0
100
AcDbText
  0
LINE
  5
DD
100
AcDbEntity
  8
寸法
  6
CONTINUOUS
 62
     3
100
AcDbLine
 10
1386.0
 20
911.0
 30
0.0
 11
1386.0
 21
1610.0
 31
0.0
  0
LINE
  5
DE
100
AcDbEntity
  8
寸法
  6
CONTINUOUS
 62
     3
100
AcDbLine
 10
1378.5
 20
956.0
 30
0.0
 11
1386.0
 21
911.0
 31
0.0
  0
LINE
  5
DF
100
AcDbEntity
  8
寸法
  6
CONTINUOUS
 62
     3
100
AcDbLine
 10
1386.0
 20
911.0
 30
0.0
 11
1393.5
 21
956.0
 31
0.0
  0
LINE
  5
E0
100
AcDbEntity
  8
寸法
  6
CONTINUOUS
 62
     3
100
AcDbLine
 10
1393.5
 20
1565.0
 30
0.0
 11
1386.0
 21
1610.0
 31
0.0
  0
LINE
  5
E1
100
AcDbEntity
  8
寸法
  6
CONTINUOUS
 62
     3
100
AcDbLine
 10
1386.0
 20
1610.0
 30
0.0
 11
1378.5
 21
1565.0
 31
0.0
  0
ENDBLK
  5
E2
100
AcDbEntity
  8
0
100
AcDbBlockEnd
  0
BLOCK
  5
E5
100
AcDbEntity
  8
0
100
AcDbBlockBegin
  2
*D19
 70
    65
 10
0.0
 20
0.0
 30
0.0
  3
*D19
  1

  0
LINE
  5
E6
100
AcDbEntity
  8
寸法
  6
CONTINUOUS
 62
     3
100
AcDbLine
 10
1185.5
 20
1750.0
 30
0.0
 11
1491.0
 21
1750.0
 31
0.0
  0
TEXT
  5
E7
100
AcDbEntity
  8
寸法
  6
CONTINUOUS
 62
     2
100
AcDbText
 10
1470.75
 20
1267.5
 30
0.0
 40
60.0
  1
839
 50
90.0
 41
0.84
  7
EXCADSTD
 72
     1
 11
1470.75
 21
1330.5
 31
0.0
100
AcDbText
  0
LINE
  5
E8
100
AcDbEntity
  8
寸法
  6
CONTINUOUS
 62
     3
100
AcDbLine
 10
1476.0
 20
911.0
 30
0.0
 11
1476.0
 21
1750.0
 31
0.0
  0
LINE
  5
E9
100
AcDbEntity
  8
寸法
  6
CONTINUOUS
 62
     3
100
AcDbLine
 10
1468.5
 20
956.0
 30
0.0
 11
1476.0
 21
911.0
 31
0.0
  0
LINE
  5
EA
100
AcDbEntity
  8
寸法
  6
CONTINUOUS
 62
     3
100
AcDbLine
 10
1476.0
 20
911.0
 30
0.0
 11
1483.5
 21
956.0
 31
0.0
  0
LINE
  5
EB
100
AcDbEntity
  8
寸法
  6
CONTINUOUS
 62
     3
100
AcDbLine
 10
1483.5
 20
1705.0
 30
0.0
 11
1476.0
 21
1750.0
 31
0.0
  0
LINE
  5
EC
100
AcDbEntity
  8
寸法
  6
CONTINUOUS
 62
     3
100
AcDbLine
 10
1476.0
 20
1750.0
 30
0.0
 11
1468.5
 21
1705.0
 31
0.0
  0
ENDBLK
  5
ED
100
AcDbEntity
  8
0
100
AcDbBlockEnd
  0
BLOCK
  5
120
100
AcDbEntity
  8
0
100
AcDbBlockBegin
  2
*D20
 70
    65
 10
0.0
 20
0.0
 30
0.0
  3
*D20
  1

  0
LINE
  5
121
100
AcDbEntity
  8
寸法
  6
CONTINUOUS
 62
     3
100
AcDbLine
 10
2110.0
 20
900.5
 30
0.0
 11
2110.0
 21
567.0
 31
0.0
  0
LINE
  5
122
100
AcDbEntity
  8
寸法
  6
CONTINUOUS
 62
     3
100
AcDbLine
 10
2535.0
 20
900.5
 30
0.0
 11
2535.0
 21
567.0
 31
0.0
  0
TEXT
  5
123
100
AcDbEntity
  8
寸法
  6
CONTINUOUS
 62
     2
100
AcDbText
 10
2259.5
 20
587.25
 30
0.0
 40
60.0
  1
425
 41
0.84
  7
EXCADSTD
 72
     1
 11
2322.5
 21
587.25
 31
0.0
100
AcDbText
  0
LINE
  5
124
100
AcDbEntity
  8
寸法
  6
CONTINUOUS
 62
     3
100
AcDbLine
 10
2110.0
 20
582.0
 30
0.0
 11
2535.0
 21
582.0
 31
0.0
  0
LINE
  5
125
100
AcDbEntity
  8
寸法
  6
CONTINUOUS
 62
     3
100
AcDbLine
 10
2155.0
 20
589.5
 30
0.0
 11
2110.0
 21
582.0
 31
0.0
  0
LINE
  5
126
100
AcDbEntity
  8
寸法
  6
CONTINUOUS
 62
     3
100
AcDbLine
 10
2110.0
 20
582.0
 30
0.0
 11
2155.0
 21
574.5
 31
0.0
  0
LINE
  5
127
100
AcDbEntity
  8
寸法
  6
CONTINUOUS
 62
     3
100
AcDbLine
 10
2490.0
 20
574.5
 30
0.0
 11
2535.0
 21
582.0
 31
0.0
  0
LINE
  5
128
100
AcDbEntity
  8
寸法
  6
CONTINUOUS
 62
     3
100
AcDbLine
 10
2535.0
 20
582.0
 30
0.0
 11
2490.0
 21
589.5
 31
0.0
  0
ENDBLK
  5
129
100
AcDbEntity
  8
0
100
AcDbBlockEnd
  0
BLOCK
  5
13D
100
AcDbEntity
  8
0
100
AcDbBlockBegin
  2
*D21
 70
    65
 10
0.0
 20
0.0
 30
0.0
  3
*D21
  1

  0
LINE
  5
13E
100
AcDbEntity
  8
寸法
  6
CONTINUOUS
 62
     3
100
AcDbLine
 10
2578.0
 20
2041.0
 30
0.0
 11
2902.5
 21
2041.0
 31
0.0
  0
LINE
  5
13F
100
AcDbEntity
  8
寸法
  6
CONTINUOUS
 62
     3
100
AcDbLine
 10
2578.0
 20
2751.0
 30
0.0
 11
2902.5
 21
2751.0
 31
0.0
  0
TEXT
  5
140
100
AcDbEntity
  8
寸法
  6
CONTINUOUS
 62
     2
100
AcDbText
 10
2882.25
 20
2263.7
 30
0.0
 40
60.0
  1
710(壁固定)
 50
90.0
 41
0.84
  7
EXCADSTD
 72
     1
 11
2882.25
 21
2396.0
 31
0.0
100
AcDbText
  0
LINE
  5
141
100
AcDbEntity
  8
寸法
  6
CONTINUOUS
 62
     3
100
AcDbLine
 10
2887.5
 20
2041.0
 30
0.0
 11
2887.5
 21
2751.0
 31
0.0
  0
LINE
  5
142
100
AcDbEntity
  8
寸法
  6
CONTINUOUS
 62
     3
100
AcDbLine
 10
2880.0
 20
2086.0
 30
0.0
 11
2887.5
 21
2041.0
 31
0.0
  0
LINE
  5
143
100
AcDbEntity
  8
寸法
  6
CONTINUOUS
 62
     3
100
AcDbLine
 10
2887.5
 20
2041.0
 30
0.0
 11
2895.0
 21
2086.0
 31
0.0
  0
LINE
  5
144
100
AcDbEntity
  8
寸法
  6
CONTINUOUS
 62
     3
100
AcDbLine
 10
2895.0
 20
2706.0
 30
0.0
 11
2887.5
 21
2751.0
 31
0.0
  0
LINE
  5
145
100
AcDbEntity
  8
寸法
  6
CONTINUOUS
 62
     3
100
AcDbLine
 10
2887.5
 20
2751.0
 30
0.0
 11
2880.0
 21
2706.0
 31
0.0
  0
ENDBLK
  5
146
100
AcDbEntity
  8
0
100
AcDbBlockEnd
  0
BLOCK
  5
149
100
AcDbEntity
  8
0
100
AcDbBlockBegin
  2
*D22
 70
    65
 10
0.0
 20
0.0
 30
0.0
  3
*D22
  1

  0
LINE
  5
14A
100
AcDbEntity
  8
寸法
  6
CONTINUOUS
 62
     3
100
AcDbLine
 10
2545.5
 20
911.0
 30
0.0
 11
2902.5
 21
911.0
 31
0.0
  0
LINE
  5
14B
100
AcDbEntity
  8
寸法
  6
CONTINUOUS
 62
     3
100
AcDbLine
 10
2578.0
 20
2041.0
 30
0.0
 11
2902.5
 21
2041.0
 31
0.0
  0
TEXT
  5
14C
100
AcDbEntity
  8
寸法
  6
CONTINUOUS
 62
     2
100
AcDbText
 10
2882.25
 20
1394.1
 30
0.0
 40
60.0
  1
1130
 50
90.0
 41
0.84
  7
EXCADSTD
 72
     1
 11
2882.25
 21
1476.0
 31
0.0
100
AcDbText
  0
LINE
  5
14D
100
AcDbEntity
  8
寸法
  6
CONTINUOUS
 62
     3
100
AcDbLine
 10
2887.5
 20
911.0
 30
0.0
 11
2887.5
 21
2041.0
 31
0.0
  0
LINE
  5
14E
100
AcDbEntity
  8
寸法
  6
CONTINUOUS
 62
     3
100
AcDbLine
 10
2880.0
 20
956.0
 30
0.0
 11
2887.5
 21
911.0
 31
0.0
  0
LINE
  5
14F
100
AcDbEntity
  8
寸法
  6
CONTINUOUS
 62
     3
100
AcDbLine
 10
2887.5
 20
911.0
 30
0.0
 11
2895.0
 21
956.0
 31
0.0
  0
LINE
  5
150
100
AcDbEntity
  8
寸法
  6
CONTINUOUS
 62
     3
100
AcDbLine
 10
2895.0
 20
1996.0
 30
0.0
 11
2887.5
 21
2041.0
 31
0.0
  0
LINE
  5
151
100
AcDbEntity
  8
寸法
  6
CONTINUOUS
 62
     3
100
AcDbLine
 10
2887.5
 20
2041.0
 30
0.0
 11
2880.0
 21
1996.0
 31
0.0
  0
ENDBLK
  5
152
100
AcDbEntity
  8
0
100
AcDbBlockEnd
  0
BLOCK
  5
155
100
AcDbEntity
  8
0
100
AcDbBlockBegin
  2
*D23
 70
    65
 10
0.0
 20
0.0
 30
0.0
  3
*D23
  1

  0
LINE
  5
156
100
AcDbEntity
  8
寸法
  6
CONTINUOUS
 62
     3
100
AcDbLine
 10
1290.5
 20
2011.0
 30
0.0
 11
1581.0
 21
2011.0
 31
0.0
  0
TEXT
  5
157
100
AcDbEntity
  8
寸法
  6
CONTINUOUS
 62
     2
100
AcDbText
 10
1560.75
 20
1379.1
 30
0.0
 40
60.0
  1
1100
 50
90.0
 41
0.84
  7
EXCADSTD
 72
     1
 11
1560.75
 21
1461.0
 31
0.0
100
AcDbText
  0
LINE
  5
158
100
AcDbEntity
  8
寸法
  6
CONTINUOUS
 62
     3
100
AcDbLine
 10
1566.0
 20
911.0
 30
0.0
 11
1566.0
 21
2011.0
 31
0.0
  0
LINE
  5
159
100
AcDbEntity
  8
寸法
  6
CONTINUOUS
 62
     3
100
AcDbLine
 10
1558.5
 20
956.0
 30
0.0
 11
1566.0
 21
911.0
 31
0.0
  0
LINE
  5
15A
100
AcDbEntity
  8
寸法
  6
CONTINUOUS
 62
     3
100
AcDbLine
 10
1566.0
 20
911.0
 30
0.0
 11
1573.5
 21
956.0
 31
0.0
  0
LINE
  5
15B
100
AcDbEntity
  8
寸法
  6
CONTINUOUS
 62
     3
100
AcDbLine
 10
1573.5
 20
1966.0
 30
0.0
 11
1566.0
 21
2011.0
 31
0.0
  0
LINE
  5
15C
100
AcDbEntity
  8
寸法
  6
CONTINUOUS
 62
     3
100
AcDbLine
 10
1566.0
 20
2011.0
 30
0.0
 11
1558.5
 21
1966.0
 31
0.0
  0
ENDBLK
  5
15D
100
AcDbEntity
  8
0
100
AcDbBlockEnd
  0
BLOCK
  5
160
100
AcDbEntity
  8
0
100
AcDbBlockBegin
  2
*D24
 70
    65
 10
0.0
 20
0.0
 30
0.0
  3
*D24
  1

  0
LINE
  5
161
100
AcDbEntity
  8
寸法
  6
CONTINUOUS
 62
     3
100
AcDbLine
 10
1290.5
 20
2811.0
 30
0.0
 11
1581.0
 21
2811.0
 31
0.0
  0
LINE
  5
162
100
AcDbEntity
  8
寸法
  6
CONTINUOUS
 62
     3
100
AcDbLine
 10
1290.5
 20
2011.0
 30
0.0
 11
1581.0
 21
2011.0
 31
0.0
  0
TEXT
  5
163
100
AcDbEntity
  8
寸法
  6
CONTINUOUS
 62
     2
100
AcDbText
 10
1560.75
 20
2348.0
 30
0.0
 40
60.0
  1
800
 50
90.0
 41
0.84
  7
EXCADSTD
 72
     1
 11
1560.75
 21
2411.0
 31
0.0
100
AcDbText
  0
LINE
  5
164
100
AcDbEntity
  8
寸法
  6
CONTINUOUS
 62
     3
100
AcDbLine
 10
1566.0
 20
2811.0
 30
0.0
 11
1566.0
 21
2011.0
 31
0.0
  0
LINE
  5
165
100
AcDbEntity
  8
寸法
  6
CONTINUOUS
 62
     3
100
AcDbLine
 10
1573.5
 20
2766.0
 30
0.0
 11
1566.0
 21
2811.0
 31
0.0
  0
LINE
  5
166
100
AcDbEntity
  8
寸法
  6
CONTINUOUS
 62
     3
100
AcDbLine
 10
1566.0
 20
2811.0
 30
0.0
 11
1558.5
 21
2766.0
 31
0.0
  0
LINE
  5
167
100
AcDbEntity
  8
寸法
  6
CONTINUOUS
 62
     3
100
AcDbLine
 10
1558.5
 20
2056.0
 30
0.0
 11
1566.0
 21
2011.0
 31
0.0
  0
LINE
  5
168
100
AcDbEntity
  8
寸法
  6
CONTINUOUS
 62
     3
100
AcDbLine
 10
1566.0
 20
2011.0
 30
0.0
 11
1573.5
 21
2056.0
 31
0.0
  0
ENDBLK
  5
169
100
AcDbEntity
  8
0
100
AcDbBlockEnd
  0
BLOCK
  5
16C
100
AcDbEntity
  8
0
100
AcDbBlockBegin
  2
*D25
 70
    65
 10
0.0
 20
0.0
 30
0.0
  3
*D25
  1

  0
LINE
  5
16D
100
AcDbEntity
  8
寸法
  6
CONTINUOUS
 62
     3
100
AcDbLine
 10
1290.5
 20
2811.0
 30
0.0
 11
1671.0
 21
2811.0
 31
0.0
  0
TEXT
  5
16E
100
AcDbEntity
  8
寸法
  6
CONTINUOUS
 62
     2
100
AcDbText
 10
1650.75
 20
1779.1
 30
0.0
 40
60.0
  1
1900
 50
90.0
 41
0.84
  7
EXCADSTD
 72
     1
 11
1650.75
 21
1861.0
 31
0.0
100
AcDbText
  0
LINE
  5
16F
100
AcDbEntity
  8
寸法
  6
CONTINUOUS
 62
     3
100
AcDbLine
 10
1656.0
 20
911.0
 30
0.0
 11
1656.0
 21
2811.0
 31
0.0
  0
LINE
  5
170
100
AcDbEntity
  8
寸法
  6
CONTINUOUS
 62
     3
100
AcDbLine
 10
1648.5
 20
956.0
 30
0.0
 11
1656.0
 21
911.0
 31
0.0
  0
LINE
  5
171
100
AcDbEntity
  8
寸法
  6
CONTINUOUS
 62
     3
100
AcDbLine
 10
1656.0
 20
911.0
 30
0.0
 11
1663.5
 21
956.0
 31
0.0
  0
LINE
  5
172
100
AcDbEntity
  8
寸法
  6
CONTINUOUS
 62
     3
100
AcDbLine
 10
1663.5
 20
2766.0
 30
0.0
 11
1656.0
 21
2811.0
 31
0.0
  0
LINE
  5
173
100
AcDbEntity
  8
寸法
  6
CONTINUOUS
 62
     3
100
AcDbLine
 10
1656.0
 20
2811.0
 30
0.0
 11
1648.5
 21
2766.0
 31
0.0
  0
ENDBLK
  5
174
100
AcDbEntity
  8
0
100
AcDbBlockEnd
  0
BLOCK
  5
179
100
AcDbEntity
  8
0
100
AcDbBlockBegin
  2
*D26
 70
    65
 10
0.0
 20
0.0
 30
0.0
  3
*D26
  1

  0
LINE
  5
17A
100
AcDbEntity
  8
寸法
  6
CONTINUOUS
 62
     3
100
AcDbLine
 10
1090.0
 20
2834.576697
 30
0.0
 11
1090.0
 21
2902.5
 31
0.0
  0
LINE
  5
17B
100
AcDbEntity
  8
寸法
  6
CONTINUOUS
 62
     3
100
AcDbLine
 10
1280.0
 20
2821.5
 30
0.0
 11
1280.0
 21
2902.5
 31
0.0
  0
TEXT
  5
17C
100
AcDbEntity
  8
寸法
  6
CONTINUOUS
 62
     2
100
AcDbText
 10
1337.0
 20
2892.75
 30
0.0
 40
60.0
  1
190
 41
0.84
  7
EXCADSTD
 72
     1
 11
1400.0
 21
2892.75
 31
0.0
100
AcDbText
  0
LINE
  5
17D
100
AcDbEntity
  8
寸法
  6
CONTINUOUS
 62
     3
100
AcDbLine
 10
1045.0
 20
2887.5
 30
0.0
 11
1480.250006
 21
2887.5
 31
0.0
  0
LINE
  5
17E
100
AcDbEntity
  8
寸法
  6
CONTINUOUS
 62
     3
100
AcDbLine
 10
1045.0
 20
2880.0
 30
0.0
 11
1090.0
 21
2887.5
 31
0.0
  0
LINE
  5
17F
100
AcDbEntity
  8
寸法
  6
CONTINUOUS
 62
     3
100
AcDbLine
 10
1090.0
 20
2887.5
 30
0.0
 11
1045.0
 21
2895.0
 31
0.0
  0
LINE
  5
180
100
AcDbEntity
  8
寸法
  6
CONTINUOUS
 62
     3
100
AcDbLine
 10
1325.0
 20
2895.0
 30
0.0
 11
1280.0
 21
2887.5
 31
0.0
  0
LINE
  5
181
100
AcDbEntity
  8
寸法
  6
CONTINUOUS
 62
     3
100
AcDbLine
 10
1280.0
 20
2887.5
 30
0.0
 11
1325.0
 21
2880.0
 31
0.0
  0
ENDBLK
  5
182
100
AcDbEntity
  8
0
100
AcDbBlockEnd
  0
BLOCK
  5
185
100
AcDbEntity
  8
0
100
AcDbBlockBegin
  2
*D27
 70
    65
 10
0.0
 20
0.0
 30
0.0
  3
*D27
  1

  0
LINE
  5
186
100
AcDbEntity
  8
寸法
  6
CONTINUOUS
 62
     3
100
AcDbLine
 10
530.0
 20
2821.5
 30
0.0
 11
530.0
 21
3082.5
 31
0.0
  0
LINE
  5
187
100
AcDbEntity
  8
寸法
  6
CONTINUOUS
 62
     3
100
AcDbLine
 10
1280.0
 20
2821.5
 30
0.0
 11
1280.0
 21
3082.5
 31
0.0
  0
TEXT
  5
188
100
AcDbEntity
  8
寸法
  6
CONTINUOUS
 62
     2
100
AcDbText
 10
842.0
 20
3072.75
 30
0.0
 40
60.0
  1
750
 41
0.84
  7
EXCADSTD
 72
     1
 11
905.0
 21
3072.75
 31
0.0
100
AcDbText
  0
LINE
  5
189
100
AcDbEntity
  8
寸法
  6
CONTINUOUS
 62
     3
100
AcDbLine
 10
530.0
 20
3067.5
 30
0.0
 11
1280.0
 21
3067.5
 31
0.0
  0
LINE
  5
18A
100
AcDbEntity
  8
寸法
  6
CONTINUOUS
 62
     3
100
AcDbLine
 10
575.0
 20
3075.0
 30
0.0
 11
530.0
 21
3067.5
 31
0.0
  0
LINE
  5
18B
100
AcDbEntity
  8
寸法
  6
CONTINUOUS
 62
     3
100
AcDbLine
 10
530.0
 20
3067.5
 30
0.0
 11
575.0
 21
3060.0
 31
0.0
  0
LINE
  5
18C
100
AcDbEntity
  8
寸法
  6
CONTINUOUS
 62
     3
100
AcDbLine
 10
1235.0
 20
3060.0
 30
0.0
 11
1280.0
 21
3067.5
 31
0.0
  0
LINE
  5
18D
100
AcDbEntity
  8
寸法
  6
CONTINUOUS
 62
     3
100
AcDbLine
 10
1280.0
 20
3067.5
 30
0.0
 11
1235.0
 21
3075.0
 31
0.0
  0
ENDBLK
  5
18E
100
AcDbEntity
  8
0
100
AcDbBlockEnd
  0
BLOCK
  5
191
100
AcDbEntity
  8
0
100
AcDbBlockBegin
  2
*D28
 70
    65
 10
0.0
 20
0.0
 30
0.0
  3
*D28
  1

  0
LINE
  5
192
100
AcDbEntity
  8
寸法
  6
CONTINUOUS
 62
     3
100
AcDbLine
 10
630.0
 20
2769.5
 30
0.0
 11
630.0
 21
2992.5
 31
0.0
  0
LINE
  5
193
100
AcDbEntity
  8
寸法
  6
CONTINUOUS
 62
     3
100
AcDbLine
 10
1180.0
 20
2769.5
 30
0.0
 11
1180.0
 21
2992.5
 31
0.0
  0
TEXT
  5
194
100
AcDbEntity
  8
寸法
  6
CONTINUOUS
 62
     2
100
AcDbText
 10
842.0
 20
2982.75
 30
0.0
 40
60.0
  1
550
 41
0.84
  7
EXCADSTD
 72
     1
 11
905.0
 21
2982.75
 31
0.0
100
AcDbText
  0
LINE
  5
195
100
AcDbEntity
  8
寸法
  6
CONTINUOUS
 62
     3
100
AcDbLine
 10
630.0
 20
2977.5
 30
0.0
 11
1180.0
 21
2977.5
 31
0.0
  0
LINE
  5
196
100
AcDbEntity
  8
寸法
  6
CONTINUOUS
 62
     3
100
AcDbLine
 10
675.0
 20
2985.0
 30
0.0
 11
630.0
 21
2977.5
 31
0.0
  0
LINE
  5
197
100
AcDbEntity
  8
寸法
  6
CONTINUOUS
 62
     3
100
AcDbLine
 10
630.0
 20
2977.5
 30
0.0
 11
675.0
 21
2970.0
 31
0.0
  0
LINE
  5
198
100
AcDbEntity
  8
寸法
  6
CONTINUOUS
 62
     3
100
AcDbLine
 10
1135.0
 20
2970.0
 30
0.0
 11
1180.0
 21
2977.5
 31
0.0
  0
LINE
  5
199
100
AcDbEntity
  8
寸法
  6
CONTINUOUS
 62
     3
100
AcDbLine
 10
1180.0
 20
2977.5
 30
0.0
 11
1135.0
 21
2985.0
 31
0.0
  0
ENDBLK
  5
19A
100
AcDbEntity
  8
0
100
AcDbBlockEnd
  0
BLOCK
  5
19D
100
AcDbEntity
  8
0
100
AcDbBlockBegin
  2
*D29
 70
    65
 10
0.0
 20
0.0
 30
0.0
  3
*D29
  1

  0
LINE
  5
19E
100
AcDbEntity
  8
寸法
  6
CONTINUOUS
 62
     3
100
AcDbLine
 10
680.0
 20
2022.5
 30
0.0
 11
680.0
 21
1902.9
 31
0.0
  0
LINE
  5
19F
100
AcDbEntity
  8
寸法
  6
CONTINUOUS
 62
     3
100
AcDbLine
 10
1130.0
 20
2022.5
 30
0.0
 11
1130.0
 21
1902.9
 31
0.0
  0
TEXT
  5
1A0
100
AcDbEntity
  8
寸法
  6
CONTINUOUS
 62
     2
100
AcDbText
 10
842.0
 20
1923.15
 30
0.0
 40
60.0
  1
450
 41
0.84
  7
EXCADSTD
 72
     1
 11
905.0
 21
1923.15
 31
0.0
100
AcDbText
  0
LINE
  5
1A1
100
AcDbEntity
  8
寸法
  6
CONTINUOUS
 62
     3
100
AcDbLine
 10
680.0
 20
1917.9
 30
0.0
 11
1130.0
 21
1917.9
 31
0.0
  0
LINE
  5
1A2
100
AcDbEntity
  8
寸法
  6
CONTINUOUS
 62
     3
100
AcDbLine
 10
725.0
 20
1925.4
 30
0.0
 11
680.0
 21
1917.9
 31
0.0
  0
LINE
  5
1A3
100
AcDbEntity
  8
寸法
  6
CONTINUOUS
 62
     3
100
AcDbLine
 10
680.0
 20
1917.9
 30
0.0
 11
725.0
 21
1910.4
 31
0.0
  0
LINE
  5
1A4
100
AcDbEntity
  8
寸法
  6
CONTINUOUS
 62
     3
100
AcDbLine
 10
1085.0
 20
1910.4
 30
0.0
 11
1130.0
 21
1917.9
 31
0.0
  0
LINE
  5
1A5
100
AcDbEntity
  8
寸法
  6
CONTINUOUS
 62
     3
100
AcDbLine
 10
1130.0
 20
1917.9
 30
0.0
 11
1085.0
 21
1925.4
 31
0.0
  0
ENDBLK
  5
1A6
100
AcDbEntity
  8
0
100
AcDbBlockEnd
  0
ENDSEC
  0
SECTION
  2
ENTITIES
  0
POLYLINE
  5
86
100
AcDbEntity
  8
化粧台
  6
CONTINUOUS
 62
     3
100
AcDb2dPolyline
 66
     1
 10
0.0
 20
0.0
 30
0.0
 70
   128
  0
VERTEX
  5
87
100
AcDbEntity
  8
化粧台
  6
CONTINUOUS
 62
     3
100
AcDbVertex
100
AcDb2dVertex
 10
1587.0
 20
3964.0
 30
0.0
  0
VERTEX
  5
88
100
AcDbEntity
  8
化粧台
  6
CONTINUOUS
 62
     3
100
AcDbVertex
100
AcDb2dVertex
 10
1610.0
 20
3914.5
 30
0.0
  0
SEQEND
  5
89
100
AcDbEntity
  8
化粧台
  6
CONTINUOUS
 62
     3
  0
LINE
  5
8A
100
AcDbEntity
  8
化粧台
  6
CONTINUOUS
 62
     3
100
AcDbLine
 10
1612.763749
 20
3926.350575
 30
0.0
 11
1587.0
 21
3964.0
 31
0.0
  0
LINE
  5
8B
100
AcDbEntity
  8
化粧台
  6
CONTINUOUS
 62
     3
100
AcDbLine
 10
1587.0
 20
3964.0
 30
0.0
 11
1599.16049
 21
3920.029868
 31
0.0
  0
POLYLINE
  5
8C
100
AcDbEntity
  8
化粧台
  6
CONTINUOUS
 62
     3
100
AcDb2dPolyline
 66
     1
 10
0.0
 20
0.0
 30
0.0
 70
   128
  0
VERTEX
  5
8D
100
AcDbEntity
  8
化粧台
  6
CONTINUOUS
 62
     3
100
AcDbVertex
100
AcDb2dVertex
 10
2535.0
 20
2877.0
 30
0.0
  0
VERTEX
  5
8E
100
AcDbEntity
  8
化粧台
  6
CONTINUOUS
 62
     3
100
AcDbVertex
100
AcDb2dVertex
 10
2489.0
 20
2897.0
 30
0.0
  0
SEQEND
  5
8F
100
AcDbEntity
  8
化粧台
  6
CONTINUOUS
 62
     3
  0
LINE
  5
90
100
AcDbEntity
  8
化粧台
  6
CONTINUOUS
 62
     3
100
AcDbLine
 10
2490.741402
 20
2888.06465
 30
0.0
 11
2535.0
 21
2877.0
 31
0.0
  0
LINE
  5
91
100
AcDbEntity
  8
化粧台
  6
CONTINUOUS
 62
     3
100
AcDbLine
 10
2535.0
 20
2877.0
 30
0.0
 11
2496.722293
 21
2901.8207
 31
0.0
  0
POLYLINE
  5
92
100
AcDbEntity
  8
化粧台
  6
CONTINUOUS
 62
     3
100
AcDb2dPolyline
 66
     1
 10
0.0
 20
0.0
 30
0.0
 70
   128
  0
VERTEX
  5
93
100
AcDbEntity
  8
化粧台
  6
CONTINUOUS
 62
     3
100
AcDbVertex
100
AcDb2dVertex
 10
2033.0
 20
911.0
 30
0.0
  0
VERTEX
  5
94
100
AcDbEntity
  8
化粧台
  6
CONTINUOUS
 62
     3
100
AcDbVertex
100
AcDb2dVertex
 10
2014.0
 20
960.0
 30
0.0
  0
SEQEND
  5
95
100
AcDbEntity
  8
化粧台
  6
CONTINUOUS
 62
     3
  0
LINE
  5
96
100
AcDbEntity
  8
化粧台
  6
CONTINUOUS
 62
     3
100
AcDbLine
 10
2009.738537
 20
950.2448
 30
0.0
 11
2033.0
 21
911.0
 31
0.0
  0
LINE
  5
97
100
AcDbEntity
  8
化粧台
  6
CONTINUOUS
 62
     3
100
AcDbLine
 10
2033.0
 20
911.0
 30
0.0
 11
2023.723956
 21
955.667718
 31
0.0
  0
LINE
  5
98
100
AcDbEntity
  8
化粧台
  6
CONTINUOUS
 62
     3
100
AcDbLine
 10
740.0
 20
892.5
 30
0.0
 11
740.0
 21
747.0
 31
0.0
  0
LINE
  5
99
100
AcDbEntity
  8
化粧台
  6
CONTINUOUS
 62
     3
100
AcDbLine
 10
1070.0
 20
892.5
 30
0.0
 11
1070.0
 21
747.0
 31
0.0
  0
TEXT
  5
9A
100
AcDbEntity
  8
化粧台
  6
CONTINUOUS
 62
     2
100
AcDbText
 10
368.0
 20
767.25
 30
0.0
 40
60.0
  1
３３０
 41
0.7
  7
EXCADSTD
 72
     5
 11
518.0
 21
767.25
 31
0.0
100
AcDbText
  0
TEXT
  5
9B
100
AcDbEntity
  8
化粧台
  6
CONTINUOUS
 62
     2
100
AcDbText
 10
510.5
 20
767.25
 30
0.0
 40
47.999996
  1
（床給水）
 41
0.672
  7
EXCADSTD
 72
     5
 11
702.499989
 21
767.25
 31
0.0
100
AcDbText
  0
LINE
  5
9C
100
AcDbEntity
  8
化粧台
  6
CONTINUOUS
 62
     3
100
AcDbLine
 10
362.750006
 20
762.0
 30
0.0
 11
1115.0
 21
762.0
 31
0.0
  0
LINE
  5
9D
100
AcDbEntity
  8
化粧台
  6
CONTINUOUS
 62
     3
100
AcDbLine
 10
695.0
 20
754.5
 30
0.0
 11
740.0
 21
762.0
 31
0.0
  0
LINE
  5
9E
100
AcDbEntity
  8
化粧台
  6
CONTINUOUS
 62
     3
100
AcDbLine
 10
740.0
 20
762.0
 30
0.0
 11
695.0
 21
769.5
 31
0.0
  0
LINE
  5
9F
100
AcDbEntity
  8
化粧台
  6
CONTINUOUS
 62
     3
100
AcDbLine
 10
1115.0
 20
769.5
 30
0.0
 11
1070.0
 21
762.0
 31
0.0
  0
LINE
  5
A0
100
AcDbEntity
  8
化粧台
  6
CONTINUOUS
 62
     3
100
AcDbLine
 10
1070.0
 20
762.0
 30
0.0
 11
1115.0
 21
754.5
 31
0.0
  0
LINE
  5
A1
100
AcDbEntity
  8
化粧台
  6
CONTINUOUS
 62
     3
100
AcDbLine
 10
2455.0
 20
892.5
 30
0.0
 11
2455.0
 21
747.0
 31
0.0
  0
LINE
  5
A2
100
AcDbEntity
  8
化粧台
  6
CONTINUOUS
 62
     3
100
AcDbLine
 10
2535.0
 20
900.5
 30
0.0
 11
2535.0
 21
747.0
 31
0.0
  0
TEXT
  5
A3
100
AcDbEntity
  8
化粧台
  6
CONTINUOUS
 62
     2
100
AcDbText
 10
2580.0
 20
767.25
 30
0.0
 40
60.0
  1
８０
 41
0.735
  7
EXCADSTD
 72
     5
 11
2676.243
 21
767.25
 31
0.0
100
AcDbText
  0
TEXT
  5
A4
100
AcDbEntity
  8
化粧台
  6
CONTINUOUS
 62
     2
100
AcDbText
 10
2677.5
 20
767.25
 30
0.0
 40
47.999996
  1
（床給水）
 41
0.672
  7
EXCADSTD
 72
     5
 11
2869.499989
 21
767.25
 31
0.0
100
AcDbText
  0
LINE
  5
A5
100
AcDbEntity
  8
化粧台
  6
CONTINUOUS
 62
     3
100
AcDbLine
 10
2410.0
 20
762.0
 30
0.0
 11
2867.249994
 21
762.0
 31
0.0
  0
LINE
  5
A6
100
AcDbEntity
  8
化粧台
  6
CONTINUOUS
 62
     3
100
AcDbLine
 10
2410.0
 20
754.5
 30
0.0
 11
2455.0
 21
762.0
 31
0.0
  0
LINE
  5
A7
100
AcDbEntity
  8
化粧台
  6
CONTINUOUS
 62
     3
100
AcDbLine
 10
2455.0
 20
762.0
 30
0.0
 11
2410.0
 21
769.5
 31
0.0
  0
LINE
  5
A8
100
AcDbEntity
  8
化粧台
  6
CONTINUOUS
 62
     3
100
AcDbLine
 10
2580.0
 20
769.5
 30
0.0
 11
2535.0
 21
762.0
 31
0.0
  0
LINE
  5
A9
100
AcDbEntity
  8
化粧台
  6
CONTINUOUS
 62
     3
100
AcDbLine
 10
2535.0
 20
762.0
 30
0.0
 11
2580.0
 21
754.5
 31
0.0
  0
DIMENSION
  5
B6
100
AcDbEntity
  8
寸法
  6
CONTINUOUS
 62
     3
100
AcDbDimension
  2
*D14
 10
1180.0
 20
3358.5
 30
0.0
 11
905.0
 21
3393.75
 31
0.0
 70
   160
  3
STANDARD
100
AcDbAlignedDimension
 13
630.0
 23
3474.0
 33
0.0
 14
1180.0
 24
3474.0
 34
0.0
100
AcDbRotatedDimension
1001
ACAD
1000
DSTYLE
1002
{
1070
     6
1000
_EX_NORM
1070
     7
1000
_EX_NORM
1070
    41
1040
45.0
1070
    42
1040
10.5
1070
    44
1040
15.0
1070
    73
1070
     0
1070
    74
1070
     0
1070
    75
1070
     0
1070
    76
1070
     0
1070
    77
1070
     1
1070
    78
1070
     8
1070
   140
1040
60.0
1070
   147
1040
5.25
1070
   173
1070
     1
1070
   176
1070
     3
1070
   177
1070
     3
1070
   178
1070
     2
1070
   271
1070
     2
1070
   279
1070
     2
1070
   280
1070
     0
1070
   287
1070
     5
1070
   340
1005
B5
1002
}
  0
DIMENSION
  5
C2
100
AcDbEntity
  8
寸法
  6
CONTINUOUS
 62
     3
100
AcDbDimension
  2
*D15
 10
1280.0
 20
3262.5
 30
0.0
 11
905.0
 21
3297.75
 31
0.0
 70
   160
  3
STANDARD
100
AcDbAlignedDimension
 13
530.0
 23
3514.0
 33
0.0
 14
1280.0
 24
3514.0
 34
0.0
100
AcDbRotatedDimension
1001
ACAD
1000
DSTYLE
1002
{
1070
     6
1000
_EX_NORM
1070
     7
1000
_EX_NORM
1070
    41
1040
45.0
1070
    42
1040
10.5
1070
    44
1040
15.0
1070
    73
1070
     0
1070
    74
1070
     0
1070
    75
1070
     0
1070
    76
1070
     0
1070
    77
1070
     1
1070
    78
1070
     8
1070
   140
1040
60.0
1070
   147
1040
5.25
1070
   173
1070
     1
1070
   176
1070
     3
1070
   177
1070
     3
1070
   178
1070
     2
1070
   271
1070
     2
1070
   279
1070
     2
1070
   280
1070
     0
1070
   287
1070
     5
1070
   340
1005
B5
1002
}
  0
DIMENSION
  5
CD
100
AcDbEntity
  8
寸法
  6
CONTINUOUS
 62
     3
100
AcDbDimension
  2
*D16
 10
1386.0
 20
3514.0
 30
0.0
 11
1350.75
 21
3739.0
 31
0.0
 70
   160
  3
STANDARD
100
AcDbAlignedDimension
 13
1280.0
 23
3964.0
 33
0.0
 14
1280.0
 24
3514.0
 34
0.0
 50
90.0
100
AcDbRotatedDimension
1001
ACAD
1000
DSTYLE
1002
{
1070
     6
1000
_EX_NORM
1070
     7
1000
_EX_NORM
1070
    41
1040
45.0
1070
    42
1040
10.5
1070
    44
1040
15.0
1070
    73
1070
     0
1070
    74
1070
     0
1070
    75
1070
     1
1070
    76
1070
     0
1070
    77
1070
     1
1070
    78
1070
     8
1070
   140
1040
60.0
1070
   147
1040
5.25
1070
   173
1070
     1
1070
   176
1070
     3
1070
   177
1070
     3
1070
   178
1070
     2
1070
   271
1070
     2
1070
   279
1070
     2
1070
   280
1070
     0
1070
   287
1070
     5
1070
   340
1005
B5
1002
}
  0
DIMENSION
  5
D8
100
AcDbEntity
  8
寸法
  6
CONTINUOUS
 62
     3
100
AcDbDimension
  2
*D17
 10
1471.5
 20
3964.0
 30
0.0
 11
1436.25
 21
3714.0
 31
0.0
 70
   160
  3
STANDARD
100
AcDbAlignedDimension
 13
1170.0
 23
3464.0
 33
0.0
 14
1280.0
 24
3964.0
 34
0.0
 50
90.0
100
AcDbRotatedDimension
1001
ACAD
1000
DSTYLE
1002
{
1070
     6
1000
_EX_NORM
1070
     7
1000
_EX_NORM
1070
    41
1040
45.0
1070
    42
1040
10.5
1070
    44
1040
15.0
1070
    73
1070
     0
1070
    74
1070
     0
1070
    75
1070
     0
1070
    76
1070
     1
1070
    77
1070
     1
1070
    78
1070
     8
1070
   140
1040
60.0
1070
   147
1040
5.25
1070
   173
1070
     1
1070
   176
1070
     3
1070
   177
1070
     3
1070
   178
1070
     2
1070
   271
1070
     2
1070
   279
1070
     2
1070
   280
1070
     0
1070
   287
1070
     5
1070
   340
1005
B5
1002
}
  0
DIMENSION
  5
E3
100
AcDbEntity
  8
寸法
  6
CONTINUOUS
 62
     3
100
AcDbDimension
  2
*D18
 10
1386.0
 20
1610.0
 30
0.0
 11
1350.75
 21
1260.5
 31
0.0
 70
   160
  3
STANDARD
100
AcDbAlignedDimension
 13
1278.0
 23
911.0
 33
0.0
 14
1280.0
 24
1610.0
 34
0.0
 50
90.0
100
AcDbRotatedDimension
1001
ACAD
1000
DSTYLE
1002
{
1070
     6
1000
_EX_NORM
1070
     7
1000
_EX_NORM
1070
    41
1040
45.0
1070
    42
1040
10.5
1070
    44
1040
15.0
1070
    73
1070
     0
1070
    74
1070
     0
1070
    75
1070
     1
1070
    76
1070
     0
1070
    77
1070
     1
1070
    78
1070
     8
1070
   140
1040
60.0
1070
   147
1040
5.25
1070
   173
1070
     1
1070
   176
1070
     3
1070
   177
1070
     3
1070
   178
1070
     2
1070
   271
1070
     2
1070
   279
1070
     2
1070
   280
1070
     0
1070
   287
1070
     5
1070
   340
1005
B5
1002
}
  0
DIMENSION
  5
EE
100
AcDbEntity
  8
寸法
  6
CONTINUOUS
 62
     3
100
AcDbDimension
  2
*D19
 10
1476.0
 20
1750.0
 30
0.0
 11
1440.75
 21
1330.5
 31
0.0
 70
   160
  3
STANDARD
100
AcDbAlignedDimension
 13
1278.0
 23
911.0
 33
0.0
 14
1175.0
 24
1750.0
 34
0.0
 50
90.0
100
AcDbRotatedDimension
1001
ACAD
1000
DSTYLE
1002
{
1070
     6
1000
_EX_NORM
1070
     7
1000
_EX_NORM
1070
    41
1040
45.0
1070
    42
1040
10.5
1070
    44
1040
15.0
1070
    73
1070
     0
1070
    74
1070
     0
1070
    75
1070
     1
1070
    76
1070
     0
1070
    77
1070
     1
1070
    78
1070
     8
1070
   140
1040
60.0
1070
   147
1040
5.25
1070
   173
1070
     1
1070
   176
1070
     3
1070
   177
1070
     3
1070
   178
1070
     2
1070
   271
1070
     2
1070
   279
1070
     2
1070
   280
1070
     0
1070
   287
1070
     5
1070
   340
1005
B5
1002
}
  0
LINE
  5
EF
100
AcDbEntity
  8
寸法
  6
CONTINUOUS
 62
     3
100
AcDbLine
 10
905.0
 20
900.5
 30
0.0
 11
905.0
 21
657.0
 31
0.0
  0
LINE
  5
F0
100
AcDbEntity
  8
寸法
  6
CONTINUOUS
 62
     3
100
AcDbLine
 10
1145.0
 20
836.0
 30
0.0
 11
1145.0
 21
657.0
 31
0.0
  0
TEXT
  5
F1
100
AcDbEntity
  8
寸法
  6
CONTINUOUS
 62
     2
100
AcDbText
 10
569.0
 20
677.25
 30
0.0
 40
60.0
  1
２４０
 41
0.7
  7
EXCADSTD
 72
     5
 11
719.0
 21
677.25
 31
0.0
100
AcDbText
  0
TEXT
  5
F2
100
AcDbEntity
  8
寸法
  6
CONTINUOUS
 62
     2
100
AcDbText
 10
711.5
 20
677.25
 30
0.0
 40
47.999996
  1
（排水）
 41
0.6825
  7
EXCADSTD
 72
     5
 11
867.499991
 21
677.25
 31
0.0
100
AcDbText
  0
LINE
  5
F3
100
AcDbEntity
  8
寸法
  6
CONTINUOUS
 62
     3
100
AcDbLine
 10
563.75
 20
672.0
 30
0.0
 11
1190.0
 21
672.0
 31
0.0
  0
LINE
  5
F4
100
AcDbEntity
  8
寸法
  6
CONTINUOUS
 62
     3
100
AcDbLine
 10
860.0
 20
664.5
 30
0.0
 11
905.0
 21
672.0
 31
0.0
  0
LINE
  5
F5
100
AcDbEntity
  8
寸法
  6
CONTINUOUS
 62
     3
100
AcDbLine
 10
905.0
 20
672.0
 30
0.0
 11
860.0
 21
679.5
 31
0.0
  0
LINE
  5
F6
100
AcDbEntity
  8
寸法
  6
CONTINUOUS
 62
     3
100
AcDbLine
 10
1190.0
 20
679.5
 30
0.0
 11
1145.0
 21
672.0
 31
0.0
  0
LINE
  5
F7
100
AcDbEntity
  8
寸法
  6
CONTINUOUS
 62
     3
100
AcDbLine
 10
1145.0
 20
672.0
 30
0.0
 11
1190.0
 21
664.5
 31
0.0
  0
LEADER
  5
F8
100
AcDbEntity
  8
寸法
  6
CONTINUOUS
 62
     3
100
AcDbLeader
  3
STANDARD
 73
     3
 74
     1
 75
     0
 40
0.0
 76
     3
 10
1160.85
 20
911.0
 30
0.0
 10
1299.0
 20
708.0
 30
0.0
 10
1729.5
 20
708.0
 30
0.0
 77
     3
1001
ACAD
1000
DSTYLE
1002
{
1070
    41
1040
45.0
1070
     5
1000
_EX_NORM
1070
     6
1000
_EX_NORM
1070
     7
1000
_EX_NORM
1070
   341
1005
2A
1002
}
  0
TEXT
  5
F9
100
AcDbEntity
  8
寸法
  6
CONTINUOUS
 62
     2
100
AcDbText
 10
1306.5
 20
773.25
 30
0.0
 40
60.0
  1
ＶＰ･ＶＵ４０･５０
 41
0.62784
  7
EXCADSTD
 72
     5
 11
1738.499998
 21
773.25
 31
0.0
100
AcDbText
  0
TEXT
  5
FA
100
AcDbEntity
  8
寸法
  6
CONTINUOUS
 62
     2
100
AcDbText
 10
1306.5
 20
713.25
 30
0.0
 40
60.0
  1
４０～５０㎜立上げ
 41
0.690667
  7
EXCADSTD
 72
     5
 11
1750.499999
 21
713.25
 31
0.0
100
AcDbText
  0
LINE
  5
FB
100
AcDbEntity
  8
寸法
  6
CONTINUOUS
 62
     3
100
AcDbLine
 10
2545.5
 20
911.0
 30
0.0
 11
2716.5
 21
911.0
 31
0.0
  0
LINE
  5
FC
100
AcDbEntity
  8
寸法
  6
CONTINUOUS
 62
     3
100
AcDbLine
 10
2553.5
 20
1331.0
 30
0.0
 11
2716.5
 21
1331.0
 31
0.0
  0
TEXT
  5
FD
100
AcDbEntity
  8
寸法
  6
CONTINUOUS
 62
     2
100
AcDbText
 10
2696.25
 20
957.5
 30
0.0
 40
60.0
  1
４２０
 50
90.0
 41
0.7
  7
EXCADSTD
 72
     5
 11
2696.25
 21
1107.5
 31
0.0
100
AcDbText
  0
TEXT
  5
FE
100
AcDbEntity
  8
寸法
  6
CONTINUOUS
 62
     2
100
AcDbText
 10
2696.25
 20
1100.0
 30
0.0
 40
47.999996
  1
（壁給水）
 50
90.0
 41
0.672
  7
EXCADSTD
 72
     5
 11
2696.25
 21
1291.999989
 31
0.0
100
AcDbText
  0
LINE
  5
FF
100
AcDbEntity
  8
寸法
  6
CONTINUOUS
 62
     3
100
AcDbLine
 10
2701.5
 20
911.0
 30
0.0
 11
2701.5
 21
1331.0
 31
0.0
  0
LINE
  5
100
100
AcDbEntity
  8
寸法
  6
CONTINUOUS
 62
     3
100
AcDbLine
 10
2694.0
 20
956.0
 30
0.0
 11
2701.5
 21
911.0
 31
0.0
  0
LINE
  5
101
100
AcDbEntity
  8
寸法
  6
CONTINUOUS
 62
     3
100
AcDbLine
 10
2701.5
 20
911.0
 30
0.0
 11
2709.0
 21
956.0
 31
0.0
  0
LINE
  5
102
100
AcDbEntity
  8
寸法
  6
CONTINUOUS
 62
     3
100
AcDbLine
 10
2709.0
 20
1286.0
 30
0.0
 11
2701.5
 21
1331.0
 31
0.0
  0
LINE
  5
103
100
AcDbEntity
  8
寸法
  6
CONTINUOUS
 62
     3
100
AcDbLine
 10
2701.5
 20
1331.0
 30
0.0
 11
2694.0
 21
1286.0
 31
0.0
  0
LINE
  5
104
100
AcDbEntity
  8
寸法
  6
CONTINUOUS
 62
     3
100
AcDbLine
 10
2545.5
 20
911.0
 30
0.0
 11
2806.5
 21
911.0
 31
0.0
  0
LINE
  5
105
100
AcDbEntity
  8
寸法
  6
CONTINUOUS
 62
     3
100
AcDbLine
 10
2578.0
 20
1491.0
 30
0.0
 11
2806.5
 21
1491.0
 31
0.0
  0
TEXT
  5
106
100
AcDbEntity
  8
寸法
  6
CONTINUOUS
 62
     2
100
AcDbText
 10
2786.25
 20
1037.5
 30
0.0
 40
60.0
  1
５８０
 50
90.0
 41
0.7
  7
EXCADSTD
 72
     5
 11
2786.25
 21
1187.5
 31
0.0
100
AcDbText
  0
TEXT
  5
107
100
AcDbEntity
  8
寸法
  6
CONTINUOUS
 62
     2
100
AcDbText
 10
2786.25
 20
1180.0
 30
0.0
 40
47.999996
  1
（壁固定）
 50
90.0
 41
0.672
  7
EXCADSTD
 72
     5
 11
2786.25
 21
1371.999989
 31
0.0
100
AcDbText
  0
LINE
  5
108
100
AcDbEntity
  8
寸法
  6
CONTINUOUS
 62
     3
100
AcDbLine
 10
2791.5
 20
911.0
 30
0.0
 11
2791.5
 21
1491.0
 31
0.0
  0
LINE
  5
109
100
AcDbEntity
  8
寸法
  6
CONTINUOUS
 62
     3
100
AcDbLine
 10
2784.0
 20
956.0
 30
0.0
 11
2791.5
 21
911.0
 31
0.0
  0
LINE
  5
10A
100
AcDbEntity
  8
寸法
  6
CONTINUOUS
 62
     3
100
AcDbLine
 10
2791.5
 20
911.0
 30
0.0
 11
2799.0
 21
956.0
 31
0.0
  0
LINE
  5
10B
100
AcDbEntity
  8
寸法
  6
CONTINUOUS
 62
     3
100
AcDbLine
 10
2799.0
 20
1446.0
 30
0.0
 11
2791.5
 21
1491.0
 31
0.0
  0
LINE
  5
10C
100
AcDbEntity
  8
寸法
  6
CONTINUOUS
 62
     3
100
AcDbLine
 10
2791.5
 20
1491.0
 30
0.0
 11
2784.0
 21
1446.0
 31
0.0
  0
LINE
  5
10D
100
AcDbEntity
  8
寸法
  6
CONTINUOUS
 62
     3
100
AcDbLine
 10
830.0
 20
3982.5
 30
0.0
 11
830.0
 21
4050.0
 31
0.0
  0
LINE
  5
10E
100
AcDbEntity
  8
寸法
  6
CONTINUOUS
 62
     3
100
AcDbLine
 10
980.0
 20
3982.5
 30
0.0
 11
980.0
 21
4050.0
 31
0.0
  0
TEXT
  5
10F
100
AcDbEntity
  8
寸法
  6
CONTINUOUS
 62
     2
100
AcDbText
 10
741.5
 20
4040.25
 30
0.0
 40
60.0
  1
１５０
 41
0.7
  7
EXCADSTD
 72
     5
 11
891.5
 21
4040.25
 31
0.0
100
AcDbText
  0
TEXT
  5
110
100
AcDbEntity
  8
寸法
  6
CONTINUOUS
 62
     2
100
AcDbText
 10
884.0
 20
4040.25
 30
0.0
 40
47.999996
  1
（壁給水）
 41
0.672
  7
EXCADSTD
 72
     5
 11
1075.999989
 21
4040.25
 31
0.0
100
AcDbText
  0
LINE
  5
111
100
AcDbEntity
  8
寸法
  6
CONTINUOUS
 62
     3
100
AcDbLine
 10
785.0
 20
4035.0
 30
0.0
 11
1025.0
 21
4035.0
 31
0.0
  0
LINE
  5
112
100
AcDbEntity
  8
寸法
  6
CONTINUOUS
 62
     3
100
AcDbLine
 10
785.0
 20
4027.5
 30
0.0
 11
830.0
 21
4035.0
 31
0.0
  0
LINE
  5
113
100
AcDbEntity
  8
寸法
  6
CONTINUOUS
 62
     3
100
AcDbLine
 10
830.0
 20
4035.0
 30
0.0
 11
785.0
 21
4042.5
 31
0.0
  0
LINE
  5
114
100
AcDbEntity
  8
寸法
  6
CONTINUOUS
 62
     3
100
AcDbLine
 10
1025.0
 20
4042.5
 30
0.0
 11
980.0
 21
4035.0
 31
0.0
  0
LINE
  5
115
100
AcDbEntity
  8
寸法
  6
CONTINUOUS
 62
     3
100
AcDbLine
 10
980.0
 20
4035.0
 30
0.0
 11
1025.0
 21
4027.5
 31
0.0
  0
LINE
  5
116
100
AcDbEntity
  8
寸法
  6
CONTINUOUS
 62
     3
100
AcDbLine
 10
2435.0
 20
836.0
 30
0.0
 11
2435.0
 21
657.0
 31
0.0
  0
LINE
  5
117
100
AcDbEntity
  8
寸法
  6
CONTINUOUS
 62
     3
100
AcDbLine
 10
2535.0
 20
900.5
 30
0.0
 11
2535.0
 21
657.0
 31
0.0
  0
TEXT
  5
118
100
AcDbEntity
  8
寸法
  6
CONTINUOUS
 62
     2
100
AcDbText
 10
2580.0
 20
677.25
 30
0.0
 40
60.0
  1
１００
 41
0.7
  7
EXCADSTD
 72
     5
 11
2730.0
 21
677.25
 31
0.0
100
AcDbText
  0
TEXT
  5
119
100
AcDbEntity
  8
寸法
  6
CONTINUOUS
 62
     2
100
AcDbText
 10
2722.5
 20
677.25
 30
0.0
 40
47.999996
  1
（排水）
 41
0.6825
  7
EXCADSTD
 72
     5
 11
2878.499991
 21
677.25
 31
0.0
100
AcDbText
  0
LINE
  5
11A
100
AcDbEntity
  8
寸法
  6
CONTINUOUS
 62
     3
100
AcDbLine
 10
2390.0
 20
672.0
 30
0.0
 11
2876.25
 21
672.0
 31
0.0
  0
LINE
  5
11B
100
AcDbEntity
  8
寸法
  6
CONTINUOUS
 62
     3
100
AcDbLine
 10
2390.0
 20
664.5
 30
0.0
 11
2435.0
 21
672.0
 31
0.0
  0
LINE
  5
11C
100
AcDbEntity
  8
寸法
  6
CONTINUOUS
 62
     3
100
AcDbLine
 10
2435.0
 20
672.0
 30
0.0
 11
2390.0
 21
679.5
 31
0.0
  0
LINE
  5
11D
100
AcDbEntity
  8
寸法
  6
CONTINUOUS
 62
     3
100
AcDbLine
 10
2580.0
 20
679.5
 30
0.0
 11
2535.0
 21
672.0
 31
0.0
  0
LINE
  5
11E
100
AcDbEntity
  8
寸法
  6
CONTINUOUS
 62
     3
100
AcDbLine
 10
2535.0
 20
672.0
 30
0.0
 11
2580.0
 21
664.5
 31
0.0
  0
DIMENSION
  5
12A
100
AcDbEntity
  8
寸法
  6
CONTINUOUS
 62
     3
100
AcDbDimension
  2
*D20
 10
2535.0
 20
582.0
 30
0.0
 11
2322.5
 21
617.25
 31
0.0
 70
   160
  3
STANDARD
100
AcDbAlignedDimension
 13
2110.0
 23
911.0
 33
0.0
 14
2535.0
 24
911.0
 34
0.0
100
AcDbRotatedDimension
1001
ACAD
1000
DSTYLE
1002
{
1070
     6
1000
_EX_NORM
1070
     7
1000
_EX_NORM
1070
    41
1040
45.0
1070
    42
1040
10.5
1070
    44
1040
15.0
1070
    73
1070
     0
1070
    74
1070
     0
1070
    75
1070
     0
1070
    76
1070
     0
1070
    77
1070
     1
1070
    78
1070
     8
1070
   140
1040
60.0
1070
   147
1040
5.25
1070
   173
1070
     1
1070
   176
1070
     3
1070
   177
1070
     3
1070
   178
1070
     2
1070
   271
1070
     2
1070
   279
1070
     2
1070
   280
1070
     0
1070
   287
1070
     5
1070
   340
1005
B5
1002
}
  0
LINE
  5
12B
100
AcDbEntity
  8
寸法
  6
CONTINUOUS
 62
     3
100
AcDbLine
 10
650.0
 20
4007.0
 30
0.0
 11
650.0
 21
4140.0
 31
0.0
  0
LINE
  5
12C
100
AcDbEntity
  8
寸法
  6
CONTINUOUS
 62
     3
100
AcDbLine
 10
1160.0
 20
4007.0
 30
0.0
 11
1160.0
 21
4140.0
 31
0.0
  0
TEXT
  5
12D
100
AcDbEntity
  8
寸法
  6
CONTINUOUS
 62
     2
100
AcDbText
 10
741.5
 20
4130.25
 30
0.0
 40
60.0
  1
５１０
 41
0.7
  7
EXCADSTD
 72
     5
 11
891.5
 21
4130.25
 31
0.0
100
AcDbText
  0
TEXT
  5
12E
100
AcDbEntity
  8
寸法
  6
CONTINUOUS
 62
     2
100
AcDbText
 10
884.0
 20
4130.25
 30
0.0
 40
47.999996
  1
（壁固定）
 41
0.672
  7
EXCADSTD
 72
     5
 11
1075.999989
 21
4130.25
 31
0.0
100
AcDbText
  0
LINE
  5
12F
100
AcDbEntity
  8
寸法
  6
CONTINUOUS
 62
     3
100
AcDbLine
 10
650.0
 20
4125.0
 30
0.0
 11
1160.0
 21
4125.0
 31
0.0
  0
LINE
  5
130
100
AcDbEntity
  8
寸法
  6
CONTINUOUS
 62
     3
100
AcDbLine
 10
695.0
 20
4132.5
 30
0.0
 11
650.0
 21
4125.0
 31
0.0
  0
LINE
  5
131
100
AcDbEntity
  8
寸法
  6
CONTINUOUS
 62
     3
100
AcDbLine
 10
650.0
 20
4125.0
 30
0.0
 11
695.0
 21
4117.5
 31
0.0
  0
LINE
  5
132
100
AcDbEntity
  8
寸法
  6
CONTINUOUS
 62
     3
100
AcDbLine
 10
1115.0
 20
4117.5
 30
0.0
 11
1160.0
 21
4125.0
 31
0.0
  0
LINE
  5
133
100
AcDbEntity
  8
寸法
  6
CONTINUOUS
 62
     3
100
AcDbLine
 10
1160.0
 20
4125.0
 30
0.0
 11
1115.0
 21
4132.5
 31
0.0
  0
TEXT
  5
134
100
AcDbEntity
  8
寸法
  6
CONTINUOUS
 62
     2
100
AcDbText
 10
2564.950204
 20
1403.05267
 30
0.0
 40
60.0
  1
Ｒ１/２
 41
0.638
  7
EXCADSTD
 72
     5
 11
2738.950204
 21
1403.05267
 31
0.0
100
AcDbText
  0
POLYLINE
  5
135
100
AcDbEntity
  8
寸法
  6
CONTINUOUS
 62
     3
100
AcDb2dPolyline
 66
     1
 10
0.0
 20
0.0
 30
0.0
 70
   128
  0
VERTEX
  5
136
100
AcDbEntity
  8
寸法
  6
CONTINUOUS
 62
     3
100
AcDbVertex
100
AcDb2dVertex
 10
2543.0
 20
1341.5
 30
0.0
  0
VERTEX
  5
137
100
AcDbEntity
  8
寸法
  6
CONTINUOUS
 62
     3
100
AcDbVertex
100
AcDb2dVertex
 10
2557.450204
 20
1397.80267
 30
0.0
  0
VERTEX
  5
138
100
AcDbEntity
  8
寸法
  6
CONTINUOUS
 62
     3
100
AcDbVertex
100
AcDb2dVertex
 10
2723.950204
 20
1397.80267
 30
0.0
  0
SEQEND
  5
139
100
AcDbEntity
  8
寸法
  6
CONTINUOUS
 62
     3
  0
LINE
  5
13A
100
AcDbEntity
  8
寸法
  6
CONTINUOUS
 62
     3
100
AcDbLine
 10
2546.92223
 20
1386.9518
 30
0.0
 11
2543.0
 21
1341.5
 31
0.0
  0
LINE
  5
13B
100
AcDbEntity
  8
寸法
  6
CONTINUOUS
 62
     3
100
AcDbLine
 10
2543.0
 20
1341.5
 30
0.0
 11
2561.451341
 21
1383.222871
 31
0.0
  0
DIMENSION
  5
147
100
AcDbEntity
  8
寸法
  6
CONTINUOUS
 62
     3
100
AcDbDimension
  2
*D21
 10
2887.5
 20
2751.0
 30
0.0
 11
2852.25
 21
2396.0
 31
0.0
 70
   160
  1
710(壁固定)
  3
STANDARD
100
AcDbAlignedDimension
 13
2567.5
 23
2041.0
 33
0.0
 14
2567.5
 24
2751.0
 34
0.0
 50
90.0
100
AcDbRotatedDimension
1001
ACAD
1000
DSTYLE
1002
{
1070
     6
1000
_EX_NORM
1070
     7
1000
_EX_NORM
1070
    41
1040
45.0
1070
    42
1040
10.5
1070
    44
1040
15.0
1070
    73
1070
     0
1070
    74
1070
     0
1070
    75
1070
     0
1070
    76
1070
     0
1070
    77
1070
     1
1070
    78
1070
     8
1070
   140
1040
60.0
1070
   147
1040
5.25
1070
   173
1070
     1
1070
   176
1070
     3
1070
   177
1070
     3
1070
   178
1070
     2
1070
   271
1070
     2
1070
   279
1070
     2
1070
   280
1070
     0
1070
   287
1070
     5
1070
   340
1005
B5
1002
}
  0
DIMENSION
  5
153
100
AcDbEntity
  8
寸法
  6
CONTINUOUS
 62
     3
100
AcDbDimension
  2
*D22
 10
2887.5
 20
2041.0
 30
0.0
 11
2852.25
 21
1476.0
 31
0.0
 70
   160
  3
STANDARD
100
AcDbAlignedDimension
 13
2535.0
 23
911.0
 33
0.0
 14
2567.5
 24
2041.0
 34
0.0
 50
90.0
100
AcDbRotatedDimension
1001
ACAD
1000
DSTYLE
1002
{
1070
     6
1000
_EX_NORM
1070
     7
1000
_EX_NORM
1070
    41
1040
45.0
1070
    42
1040
10.5
1070
    44
1040
15.0
1070
    73
1070
     0
1070
    74
1070
     0
1070
    75
1070
     0
1070
    76
1070
     0
1070
    77
1070
     1
1070
    78
1070
     8
1070
   140
1040
60.0
1070
   147
1040
5.25
1070
   173
1070
     1
1070
   176
1070
     3
1070
   177
1070
     3
1070
   178
1070
     2
1070
   271
1070
     2
1070
   279
1070
     2
1070
   280
1070
     0
1070
   287
1070
     5
1070
   340
1005
B5
1002
}
  0
DIMENSION
  5
15E
100
AcDbEntity
  8
寸法
  6
CONTINUOUS
 62
     3
100
AcDbDimension
  2
*D23
 10
1566.0
 20
2011.0
 30
0.0
 11
1530.75
 21
1461.0
 31
0.0
 70
   160
  3
STANDARD
100
AcDbAlignedDimension
 13
1353.0
 23
911.0
 33
0.0
 14
1280.0
 24
2011.0
 34
0.0
 50
90.0
100
AcDbRotatedDimension
1001
ACAD
1000
DSTYLE
1002
{
1070
     6
1000
_EX_NORM
1070
     7
1000
_EX_NORM
1070
    41
1040
45.0
1070
    42
1040
10.5
1070
    44
1040
15.0
1070
    73
1070
     0
1070
    74
1070
     0
1070
    75
1070
     1
1070
    76
1070
     0
1070
    77
1070
     1
1070
    78
1070
     8
1070
   140
1040
60.0
1070
   147
1040
5.25
1070
   173
1070
     1
1070
   176
1070
     3
1070
   177
1070
     3
1070
   178
1070
     2
1070
   271
1070
     2
1070
   279
1070
     2
1070
   280
1070
     0
1070
   287
1070
     5
1070
   340
1005
B5
1002
}
  0
DIMENSION
  5
16A
100
AcDbEntity
  8
寸法
  6
CONTINUOUS
 62
     3
100
AcDbDimension
  2
*D24
 10
1566.0
 20
2011.0
 30
0.0
 11
1530.75
 21
2411.0
 31
0.0
 70
   160
  3
STANDARD
100
AcDbAlignedDimension
 13
1280.0
 23
2811.0
 33
0.0
 14
1280.0
 24
2011.0
 34
0.0
 50
90.0
100
AcDbRotatedDimension
1001
ACAD
1000
DSTYLE
1002
{
1070
     6
1000
_EX_NORM
1070
     7
1000
_EX_NORM
1070
    41
1040
45.0
1070
    42
1040
10.5
1070
    44
1040
15.0
1070
    73
1070
     0
1070
    74
1070
     0
1070
    75
1070
     0
1070
    76
1070
     0
1070
    77
1070
     1
1070
    78
1070
     8
1070
   140
1040
60.0
1070
   147
1040
5.25
1070
   173
1070
     1
1070
   176
1070
     3
1070
   177
1070
     3
1070
   178
1070
     2
1070
   271
1070
     2
1070
   279
1070
     2
1070
   280
1070
     0
1070
   287
1070
     5
1070
   340
1005
B5
1002
}
  0
DIMENSION
  5
175
100
AcDbEntity
  8
寸法
  6
CONTINUOUS
 62
     3
100
AcDbDimension
  2
*D25
 10
1656.0
 20
2811.0
 30
0.0
 11
1620.75
 21
1861.0
 31
0.0
 70
   160
  3
STANDARD
100
AcDbAlignedDimension
 13
1353.0
 23
911.0
 33
0.0
 14
1280.0
 24
2811.0
 34
0.0
 50
90.0
100
AcDbRotatedDimension
1001
ACAD
1000
DSTYLE
1002
{
1070
     6
1000
_EX_NORM
1070
     7
1000
_EX_NORM
1070
    41
1040
45.0
1070
    42
1040
10.5
1070
    44
1040
15.0
1070
    73
1070
     0
1070
    74
1070
     0
1070
    75
1070
     1
1070
    76
1070
     0
1070
    77
1070
     1
1070
    78
1070
     8
1070
   140
1040
60.0
1070
   147
1040
5.25
1070
   173
1070
     1
1070
   176
1070
     3
1070
   177
1070
     3
1070
   178
1070
     2
1070
   271
1070
     2
1070
   279
1070
     2
1070
   280
1070
     0
1070
   287
1070
     5
1070
   340
1005
B5
1002
}
  0
TEXT
  5
176
100
AcDbEntity
  8
寸法
  6
CONTINUOUS
 62
     2
100
AcDbText
 10
1332.0
 20
3009.75
 30
0.0
 40
60.0
  1
コード長さ；０.９ｍ
 41
0.65912
  7
EXCADSTD
 72
     5
 11
1793.999998
 21
3009.75
 31
0.0
100
AcDbText
  0
LEADER
  5
177
100
AcDbEntity
  8
寸法
  6
CONTINUOUS
 62
     3
100
AcDbLeader
  3
STANDARD
 73
     3
 74
     1
 75
     0
 40
0.0
 76
     3
 10
1071.629828
 20
2838.966673
 30
0.0
 10
1324.5
 20
3004.5
 30
0.0
 10
1795.5
 20
3004.5
 30
0.0
 77
     3
1001
ACAD
1000
DSTYLE
1002
{
1070
    41
1040
45.0
1070
     5
1000
_EX_NORM
1070
     6
1000
_EX_NORM
1070
     7
1000
_EX_NORM
1070
   341
1005
2A
1002
}
  0
DIMENSION
  5
183
100
AcDbEntity
  8
寸法
  6
CONTINUOUS
 62
     3
100
AcDbDimension
  2
*D26
 10
1280.0
 20
2887.5
 30
0.0
 11
1400.0
 21
2922.75
 31
0.0
 70
   160
  3
STANDARD
100
AcDbAlignedDimension
 13
1090.0
 23
2824.076697
 33
0.0
 14
1280.0
 24
2811.0
 34
0.0
100
AcDbRotatedDimension
1001
ACAD
1000
DSTYLE
1002
{
1070
     6
1000
_EX_NORM
1070
     7
1000
_EX_NORM
1070
    41
1040
45.0
1070
    42
1040
10.5
1070
    44
1040
15.0
1070
    73
1070
     0
1070
    74
1070
     0
1070
    75
1070
     0
1070
    76
1070
     0
1070
    77
1070
     1
1070
    78
1070
     8
1070
   140
1040
60.0
1070
   147
1040
5.25
1070
   173
1070
     1
1070
   176
1070
     3
1070
   177
1070
     3
1070
   178
1070
     2
1070
   271
1070
     2
1070
   279
1070
     2
1070
   280
1070
     2
1070
   287
1070
     5
1070
   340
1005
B5
1002
}
  0
DIMENSION
  5
18F
100
AcDbEntity
  8
寸法
  6
CONTINUOUS
 62
     3
100
AcDbDimension
  2
*D27
 10
1280.0
 20
3067.5
 30
0.0
 11
905.0
 21
3102.75
 31
0.0
 70
   160
  3
STANDARD
100
AcDbAlignedDimension
 13
530.0
 23
2811.0
 33
0.0
 14
1280.0
 24
2811.0
 34
0.0
100
AcDbRotatedDimension
1001
ACAD
1000
DSTYLE
1002
{
1070
     6
1000
_EX_NORM
1070
     7
1000
_EX_NORM
1070
    41
1040
45.0
1070
    42
1040
10.5
1070
    44
1040
15.0
1070
    73
1070
     0
1070
    74
1070
     0
1070
    75
1070
     0
1070
    76
1070
     0
1070
    77
1070
     1
1070
    78
1070
     8
1070
   140
1040
60.0
1070
   147
1040
5.25
1070
   173
1070
     1
1070
   176
1070
     3
1070
   177
1070
     3
1070
   178
1070
     2
1070
   271
1070
     2
1070
   279
1070
     2
1070
   280
1070
     0
1070
   287
1070
     5
1070
   340
1005
B5
1002
}
  0
DIMENSION
  5
19B
100
AcDbEntity
  8
寸法
  6
CONTINUOUS
 62
     3
100
AcDbDimension
  2
*D28
 10
1180.0
 20
2977.5
 30
0.0
 11
905.0
 21
3012.75
 31
0.0
 70
   160
  3
STANDARD
100
AcDbAlignedDimension
 13
630.0
 23
2759.0
 33
0.0
 14
1180.0
 24
2759.0
 34
0.0
100
AcDbRotatedDimension
1001
ACAD
1000
DSTYLE
1002
{
1070
     6
1000
_EX_NORM
1070
     7
1000
_EX_NORM
1070
    41
1040
45.0
1070
    42
1040
10.5
1070
    44
1040
15.0
1070
    73
1070
     0
1070
    74
1070
     0
1070
    75
1070
     0
1070
    76
1070
     0
1070
    77
1070
     1
1070
    78
1070
     8
1070
   140
1040
60.0
1070
   147
1040
5.25
1070
   173
1070
     1
1070
   176
1070
     3
1070
   177
1070
     3
1070
   178
1070
     2
1070
   271
1070
     2
1070
   279
1070
     2
1070
   280
1070
     0
1070
   287
1070
     5
1070
   340
1005
B5
1002
}
  0
DIMENSION
  5
1A7
100
AcDbEntity
  8
寸法
  6
CONTINUOUS
 62
     3
100
AcDbDimension
  2
*D29
 10
1130.0
 20
1917.9
 30
0.0
 11
905.0
 21
1953.15
 31
0.0
 70
   160
  3
STANDARD
100
AcDbAlignedDimension
 13
680.0
 23
2033.0
 33
0.0
 14
1130.0
 24
2033.0
 34
0.0
100
AcDbRotatedDimension
1001
ACAD
1000
DSTYLE
1002
{
1070
     6
1000
_EX_NORM
1070
     7
1000
_EX_NORM
1070
    41
1040
45.0
1070
    42
1040
10.5
1070
    44
1040
15.0
1070
    73
1070
     0
1070
    74
1070
     0
1070
    75
1070
     0
1070
    76
1070
     0
1070
    77
1070
     1
1070
    78
1070
     8
1070
   140
1040
60.0
1070
   147
1040
5.25
1070
   173
1070
     1
1070
   176
1070
     3
1070
   177
1070
     3
1070
   178
1070
     2
1070
   271
1070
     2
1070
   279
1070
     2
1070
   280
1070
     0
1070
   287
1070
     5
1070
   340
1005
B5
1002
}
  0
LINE
  5
1A8
100
AcDbEntity
  8
枠・表
  6
CONTINUOUS
 62
     7
100
AcDbLine
 10
17.0
 20
10.5
 30
0.0
 11
199.0
 21
10.5
 31
0.0
  0
LINE
  5
1A9
100
AcDbEntity
  8
枠・表
  6
CONTINUOUS
 62
     7
100
AcDbLine
 10
199.0
 20
10.5
 30
0.0
 11
199.0
 21
285.5
 31
0.0
  0
LINE
  5
1AA
100
AcDbEntity
  8
枠・表
  6
CONTINUOUS
 62
     7
100
AcDbLine
 10
17.0
 20
10.5
 30
0.0
 11
17.0
 21
285.5
 31
0.0
  0
LINE
  5
1AB
100
AcDbEntity
  8
枠・表
  6
CONTINUOUS
 62
     7
100
AcDbLine
 10
17.0
 20
285.5
 30
0.0
 11
199.0
 21
285.5
 31
0.0
  0
LINE
  5
1AC
100
AcDbEntity
  8
枠・表
  6
CONTINUOUS
 62
     7
100
AcDbLine
 10
17.0
 20
32.5
 30
0.0
 11
199.0
 21
32.5
 31
0.0
  0
LINE
  5
1AD
100
AcDbEntity
  8
枠・表
  6
CONTINUOUS
 62
     6
100
AcDbLine
 10
199.0
 20
20.5
 30
0.0
 11
74.0
 21
20.5
 31
0.0
  0
LINE
  5
1AE
100
AcDbEntity
  8
枠・表
  6
CONTINUOUS
 62
     6
100
AcDbLine
 10
185.0
 20
32.5
 30
0.0
 11
185.0
 21
20.5
 31
0.0
  0
LINE
  5
1AF
100
AcDbEntity
  8
枠・表
  6
CONTINUOUS
 62
     6
100
AcDbLine
 10
180.0
 20
32.5
 30
0.0
 11
180.0
 21
20.5
 31
0.0
  0
LINE
  5
1B0
100
AcDbEntity
  8
枠・表
  6
CONTINUOUS
 62
     6
100
AcDbLine
 10
143.0
 20
32.5
 30
0.0
 11
143.0
 21
10.5
 31
0.0
  0
LINE
  5
1B1
100
AcDbEntity
  8
枠・表
  6
CONTINUOUS
 62
     6
100
AcDbLine
 10
138.0
 20
32.5
 30
0.0
 11
138.0
 21
10.5
 31
0.0
  0
LINE
  5
1B2
100
AcDbEntity
  8
枠・表
  6
CONTINUOUS
 62
     6
100
AcDbLine
 10
79.0
 20
32.5
 30
0.0
 11
79.0
 21
20.5
 31
0.0
  0
LINE
  5
1B3
100
AcDbEntity
  8
枠・表
  6
CONTINUOUS
 62
     6
100
AcDbLine
 10
74.0
 20
32.5
 30
0.0
 11
74.0
 21
10.5
 31
0.0
  0
LINE
  5
1B4
100
AcDbEntity
  8
枠・表
  6
CONTINUOUS
 62
     6
100
AcDbLine
 10
61.0
 20
32.5
 30
0.0
 11
61.0
 21
10.5
 31
0.0
  0
LINE
  5
1B5
100
AcDbEntity
  8
枠・表
  6
CONTINUOUS
 62
     6
100
AcDbLine
 10
48.0
 20
32.5
 30
0.0
 11
48.0
 21
10.5
 31
0.0
  0
LINE
  5
1B6
100
AcDbEntity
  8
枠・表
  6
CONTINUOUS
 62
     6
100
AcDbLine
 10
32.5
 20
32.5
 30
0.0
 11
32.5
 21
10.5
 31
0.0
  0
LINE
  5
1B7
100
AcDbEntity
  8
枠・表
  6
CONTINUOUS
 62
     6
100
AcDbLine
 10
17.0
 20
27.5
 30
0.0
 11
74.0
 21
27.5
 31
0.0
  0
LINE
  5
1B8
100
AcDbEntity
  8
枠・表
  6
CONTINUOUS
 62
     6
100
AcDbLine
 10
188.265381
 20
22.800293
 30
0.0
 11
195.99939
 21
30.669983
 31
0.0
  0
CIRCLE
  5
1B9
100
AcDbEntity
  8
枠・表
  6
CONTINUOUS
 62
     6
100
AcDbCircle
 10
22.0
 20
13.0
 30
0.0
 40
0.1
  0
CIRCLE
  5
1BA
100
AcDbEntity
  8
枠・表
  6
CONTINUOUS
 62
     6
100
AcDbCircle
 10
27.0
 20
13.0
 30
0.0
 40
0.1
  0
CIRCLE
  5
1BB
100
AcDbEntity
  8
枠・表
  6
CONTINUOUS
 62
     6
100
AcDbCircle
 10
37.5
 20
13.0
 30
0.0
 40
0.1
  0
CIRCLE
  5
1BC
100
AcDbEntity
  8
枠・表
  6
CONTINUOUS
 62
     6
100
AcDbCircle
 10
42.5
 20
13.0
 30
0.0
 40
0.1
  0
LINE
  5
1BD
100
AcDbEntity
  8
枠・表
  6
CONTINUOUS
 62
     6
100
AcDbLine
 10
124.0
 20
280.5
 30
0.0
 11
194.0
 21
280.5
 31
0.0
  0
LINE
  5
1BE
100
AcDbEntity
  8
枠・表
  6
CONTINUOUS
 62
     6
100
AcDbLine
 10
124.0
 20
275.0
 30
0.0
 11
194.0
 21
275.0
 31
0.0
  0
LINE
  5
1BF
100
AcDbEntity
  8
枠・表
  6
CONTINUOUS
 62
     6
100
AcDbLine
 10
124.0
 20
269.5
 30
0.0
 11
194.0
 21
269.5
 31
0.0
  0
LINE
  5
1C0
100
AcDbEntity
  8
枠・表
  6
CONTINUOUS
 62
     6
100
AcDbLine
 10
124.0
 20
264.0
 30
0.0
 11
194.0
 21
264.0
 31
0.0
  0
LINE
  5
1C1
100
AcDbEntity
  8
枠・表
  6
CONTINUOUS
 62
     6
100
AcDbLine
 10
124.0
 20
258.5
 30
0.0
 11
194.0
 21
258.5
 31
0.0
  0
LINE
  5
1C2
100
AcDbEntity
  8
枠・表
  6
EXLTYPE2
 62
     6
100
AcDbLine
 10
17.0
 20
15.5
 30
0.0
 11
48.0
 21
15.5
 31
0.0
  0
TEXT
  5
1C3
100
AcDbEntity
  8
枠・表
  6
CONTINUOUS
 62
     2
100
AcDbText
 10
188.053711
 20
27.272278
 30
0.0
 40
3.0
  1
１
 41
0.826
  7
EXCADSTD
 72
     5
 11
190.413711
 21
27.272278
 31
0.0
100
AcDbText
  0
TEXT
  5
1C4
100
AcDbEntity
  8
枠・表
  6
CONTINUOUS
 62
     2
100
AcDbText
 10
192.12793
 20
22.834885
 30
0.0
 40
3.0
  1
１５
 41
0.791
  7
EXCADSTD
 72
     5
 11
197.30672
 21
22.834885
 31
0.0
100
AcDbText
  0
TEXT
  5
1C5
100
AcDbEntity
  8
枠・表
  6
CONTINUOUS
 62
     2
100
AcDbText
 10
19.25
 20
27.875
 30
0.0
 40
4.25
  1
製図
 41
1.087059
  7
EXCADSTD
 72
     5
 11
29.3326
 21
27.875
 31
0.0
100
AcDbText
  0
TEXT
  5
1C6
100
AcDbEntity
  8
枠・表
  6
CONTINUOUS
 62
     2
100
AcDbText
 10
34.75
 20
27.875
 30
0.0
 40
4.25
  1
写図
 41
1.087059
  7
EXCADSTD
 72
     5
 11
44.8326
 21
27.875
 31
0.0
100
AcDbText
  0
TEXT
  5
1C7
100
AcDbEntity
  8
枠・表
  6
CONTINUOUS
 62
     2
100
AcDbText
 10
49.75
 20
27.875
 30
0.0
 40
4.25
  1
検図
 41
0.938824
  7
EXCADSTD
 72
     5
 11
58.4577
 21
27.875
 31
0.0
100
AcDbText
  0
TEXT
  5
1C8
100
AcDbEntity
  8
枠・表
  6
CONTINUOUS
 62
     2
100
AcDbText
 10
62.75
 20
27.875
 30
0.0
 40
4.25
  1
承認
 41
0.938824
  7
EXCADSTD
 72
     5
 11
71.4577
 21
27.875
 31
0.0
100
AcDbText
  0
TEXT
  5
1C9
100
AcDbEntity
  8
枠・表
  6
CONTINUOUS
 62
     2
100
AcDbText
 10
74.575
 20
26.875
 30
0.0
 40
4.25
  1
品
 41
0.84
  7
EXCADSTD
 72
     5
 11
77.975
 21
26.875
 31
0.0
100
AcDbText
  0
TEXT
  5
1CA
100
AcDbEntity
  8
枠・表
  6
CONTINUOUS
 62
     2
100
AcDbText
 10
74.575
 20
21.875
 30
0.0
 40
4.25
  1
名
 41
0.84
  7
EXCADSTD
 72
     5
 11
77.975
 21
21.875
 31
0.0
100
AcDbText
  0
TEXT
  5
1CB
100
AcDbEntity
  8
枠・表
  6
CONTINUOUS
 62
     2
100
AcDbText
 10
138.575
 20
26.875
 30
0.0
 40
4.25
  1
品
 41
0.84
  7
EXCADSTD
 72
     5
 11
141.975
 21
26.875
 31
0.0
100
AcDbText
  0
TEXT
  5
1CC
100
AcDbEntity
  8
枠・表
  6
CONTINUOUS
 62
     2
100
AcDbText
 10
138.575
 20
21.875
 30
0.0
 40
4.25
  1
番
 41
0.84
  7
EXCADSTD
 72
     5
 11
141.975
 21
21.875
 31
0.0
100
AcDbText
  0
TEXT
  5
1CD
100
AcDbEntity
  8
枠・表
  6
CONTINUOUS
 62
     2
100
AcDbText
 10
180.675
 20
26.875
 30
0.0
 40
4.25
  1
尺
 41
0.84
  7
EXCADSTD
 72
     5
 11
184.075
 21
26.875
 31
0.0
100
AcDbText
  0
TEXT
  5
1CE
100
AcDbEntity
  8
枠・表
  6
CONTINUOUS
 62
     2
100
AcDbText
 10
180.675
 20
21.875
 30
0.0
 40
4.25
  1
度
 41
0.84
  7
EXCADSTD
 72
     5
 11
184.075
 21
21.875
 31
0.0
100
AcDbText
  0
TEXT
  5
1CF
100
AcDbEntity
  8
枠・表
  6
CONTINUOUS
 62
     2
100
AcDbText
 10
138.575
 20
15.575
 30
0.0
 40
4.25
  1
図
 41
0.84
  7
EXCADSTD
 72
     5
 11
141.975
 21
15.575
 31
0.0
100
AcDbText
  0
TEXT
  5
1D0
100
AcDbEntity
  8
枠・表
  6
CONTINUOUS
 62
     2
100
AcDbText
 10
138.575
 20
11.275
 30
0.0
 40
4.25
  1
番
 41
0.84
  7
EXCADSTD
 72
     5
 11
141.975
 21
11.275
 31
0.0
100
AcDbText
  0
TEXT
  5
1D1
100
AcDbEntity
  8
枠・表
  6
CONTINUOUS
 62
     2
100
AcDbText
 10
132.0
 20
275.75
 30
0.0
 40
4.0
  1
品番
 41
1.47
  7
EXCADSTD
 72
     5
 11
144.8324
 21
275.75
 31
0.0
100
AcDbText
  0
LINE
  5
1D2
100
AcDbEntity
  8
枠・表
  6
CONTINUOUS
 62
     6
100
AcDbLine
 10
124.0
 20
258.5
 30
0.0
 11
124.0
 21
280.5
 31
0.0
  0
LINE
  5
1D3
100
AcDbEntity
  8
枠・表
  6
CONTINUOUS
 62
     6
100
AcDbLine
 10
154.0
 20
258.5
 30
0.0
 11
154.0
 21
280.5
 31
0.0
  0
LINE
  5
1D4
100
AcDbEntity
  8
枠・表
  6
CONTINUOUS
 62
     6
100
AcDbLine
 10
194.0
 20
258.5
 30
0.0
 11
194.0
 21
280.5
 31
0.0
  0
TEXT
  5
1D5
100
AcDbEntity
  8
枠・表
  6
CONTINUOUS
 62
     2
100
AcDbText
 10
155.0
 20
270.25
 30
0.0
 40
4.0
  1
洗面化粧台
 41
0.756
  7
EXCADSTD
 72
     5
 11
173.0
 21
270.25
 31
0.0
100
AcDbText
  0
TEXT
  5
1D6
100
AcDbEntity
  8
枠・表
  6
CONTINUOUS
 62
     2
100
AcDbText
 10
155.0
 20
264.75
 30
0.0
 40
4.0
  1
洗面化粧台：寒冷地仕様
 41
0.744545
  7
EXCADSTD
 72
     5
 11
194.0
 21
264.75
 31
0.0
100
AcDbText
  0
TEXT
  5
1D7
100
AcDbEntity
  8
枠・表
  6
CONTINUOUS
 62
     2
100
AcDbText
 10
167.0
 20
275.75
 30
0.0
 40
4.0
  1
品名
 41
1.47
  7
EXCADSTD
 72
     5
 11
179.8324
 21
275.75
 31
0.0
100
AcDbText
  0
TEXT
  5
1D8
100
AcDbEntity
  8
枠・表
  6
CONTINUOUS
 62
     2
100
AcDbText
 10
80.0
 20
26.5
 30
0.0
 40
5.0
  1
750㎜幅
 41
0.72072
  7
EXCADSTD
 72
     5
 11
99.25
 21
26.5
 31
0.0
100
AcDbText
  0
TEXT
  5
1D9
100
AcDbEntity
  8
枠・表
  6
CONTINUOUS
 62
     2
100
AcDbText
 10
80.0
 20
21.5
 30
0.0
 40
5.0
  1
　洗面化粧ユニット
 41
0.924
  7
EXCADSTD
 72
     5
 11
129.5
 21
21.5
 31
0.0
100
AcDbText
  0
TEXT
  5
1DA
100
AcDbEntity
  8
枠・表
  6
CONTINUOUS
 62
     2
100
AcDbText
 10
125.0
 20
270.25
 30
0.0
 40
4.0
  1
ＬＵ７５３ＣＳＤ
 41
0.588
  7
EXCADSTD
 72
     5
 11
147.4
 21
270.25
 31
0.0
100
AcDbText
  0
TEXT
  5
1DB
100
AcDbEntity
  8
枠・表
  6
CONTINUOUS
 62
     2
100
AcDbText
 10
125.0
 20
264.75
 30
0.0
 40
4.0
  1
ＬＵ７５３ＣＳＤＹ
 41
0.585667
  7
EXCADSTD
 72
     5
 11
150.1
 21
264.75
 31
0.0
100
AcDbText
  0
TEXT
  5
1DC
100
AcDbEntity
  8
枠・表
  6
CONTINUOUS
 62
     2
100
AcDbText
 10
19.75
 20
19.0
 30
0.0
 40
5.0
  1
間瀬
 41
0.882
  7
EXCADSTD
 72
     5
 11
29.3743
 21
19.0
 31
0.0
100
AcDbText
  0
TEXT
  5
1DD
100
AcDbEntity
  8
枠・表
  6
CONTINUOUS
 62
     2
100
AcDbText
 10
62.5
 20
19.0
 30
0.0
 40
5.0
  1
古林
 41
0.882
  7
EXCADSTD
 72
     5
 11
72.1243
 21
19.0
 31
0.0
100
AcDbText
  0
LINE
  5
1DE
100
AcDbEntity
  8
枠・表
  6
EXLTYPE2
 62
     6
100
AcDbLine
 10
17.0
 20
148.0
 30
0.0
 11
-1.7
 21
148.0
 31
0.0
  0
TEXT
  5
1E0
100
AcDbEntity
  8
枠・表
  6
CONTINUOUS
 62
     2
100
AcDbText
 10
76.0
 20
12.5
 30
0.0
 40
4.5
  1
ジャニス工業株式会社
  7
EXCADTTF1
 72
     5
 11
136.0
 21
12.5
 31
0.0
100
AcDbText
  0
TEXT
  5
1E1
100
AcDbEntity
  8
枠・表
  6
CONTINUOUS
 62
     2
100
AcDbText
 10
17.45
 20
11.0
 30
0.0
 40
4.0
  1
21
 41
0.5
  7
EXCADSTD
 72
     5
 11
20.65
 21
11.0
 31
0.0
100
AcDbText
  0
TEXT
  5
1E2
100
AcDbEntity
  8
枠・表
  6
CONTINUOUS
 62
     2
100
AcDbText
 10
23.375
 20
11.0
 30
0.0
 40
4.0
  1
9
 41
0.5625
  7
EXCADSTD
 72
     5
 11
24.8375
 21
11.0
 31
0.0
100
AcDbText
  0
TEXT
  5
1E3
100
AcDbEntity
  8
枠・表
  6
CONTINUOUS
 62
     2
100
AcDbText
 10
27.8
 20
11.0
 30
0.0
 40
4.0
  1
25
 41
0.5
  7
EXCADSTD
 72
     5
 11
31.0
 21
11.0
 31
0.0
100
AcDbText
  0
TEXT
  5
1E4
100
AcDbEntity
  8
枠・表
  6
CONTINUOUS
 62
     7
100
AcDbText
 10
144.2
 20
12.15
 30
0.0
 40
7.0
  1
ＬＵ３１６７２０
 41
0.804
  7
EXCADSTD
 72
     5
 11
197.8
 21
12.15
 31
0.0
100
AcDbText
  0
TEXT
  5
1E5
100
AcDbEntity
  8
枠・表
  6
CONTINUOUS
 62
     2
100
AcDbText
 10
144.0
 20
26.5
 30
0.0
 40
5.0
  1
ＬＵ７５３ＣＳＤ型 
 41
0.606667
  7
EXCADSTD
 72
     5
 11
176.5
 21
26.5
 31
0.0
100
AcDbText
  0
TEXT
  5
1E6
100
AcDbEntity
  8
枠・表
  6
CONTINUOUS
 62
     2
100
AcDbText
 10
144.0
 20
21.5
 30
0.0
 40
5.0
  1
ＬＵＭ７５１ＣＳＫＨ
 41
0.6048
  7
EXCADSTD
 72
     5
 11
180.0
 21
21.5
 31
0.0
100
AcDbText
  0
TEXT
  5
1E7
100
AcDbEntity
  8
枠・表
  6
CONTINUOUS
 62
     2
100
AcDbText
 10
155.0
 20
259.25
 30
0.0
 40
4.0
  1
化粧鏡台
 41
0.819
  7
EXCADSTD
 72
     5
 11
170.6
 21
259.25
 31
0.0
100
AcDbText
  0
TEXT
  5
1E8
100
AcDbEntity
  8
枠・表
  6
CONTINUOUS
 62
     2
100
AcDbText
 10
125.0
 20
259.25
 30
0.0
 40
4.0
  1
ＬＵＭ７５１ＣＳＫＨ
 41
0.5838
  7
EXCADSTD
 72
     5
 11
152.8
 21
259.25
 31
0.0
100
AcDbText
  0
TEXT
  5
1E9
100
AcDbEntity
  8
枠・表
  6
CONTINUOUS
 62
     2
100
AcDbText
 10
126.0
 20
252.7
 30
0.0
 40
4.0
  1
※化粧鏡台
 41
0.8106
  7
EXCADSTD
 72
     5
 11
145.3
 21
252.7
 31
0.0
100
AcDbText
  0
TEXT
  5
1EA
100
AcDbEntity
  8
枠・表
  6
CONTINUOUS
 62
     2
100
AcDbText
 10
126.0
 20
248.7
 30
0.0
 40
4.0
  1
　　電源：１００Ｖ，５０/６０Ｈｚ
 41
0.767593
  7
EXCADSTD
 72
     5
 11
187.45
 21
248.7
 31
0.0
100
AcDbText
  0
TEXT
  5
1EB
100
AcDbEntity
  8
枠・表
  6
CONTINUOUS
 62
     2
100
AcDbText
 10
126.0
 20
244.7
 30
0.0
 40
4.0
  1
　　コンセント容量：１２００Ｗ
 41
0.7882
  7
EXCADSTD
 72
     5
 11
182.3
 21
244.7
 31
0.0
100
AcDbText
  0
TEXT
  5
1EC
100
AcDbEntity
  8
枠・表
  6
CONTINUOUS
 62
     2
100
AcDbText
 10
126.0
 20
240.7
 30
0.0
 40
4.0
  1
※止水栓（別途手配）
 41
0.7938
  7
EXCADSTD
 72
     5
 11
163.8
 21
240.7
 31
0.0
100
AcDbText
  0
LINE
  5
1ED
100
AcDbEntity
  8
枠・表
  6
CONTINUOUS
 62
     6
100
AcDbLine
 10
124.0
 20
239.3
 30
0.0
 11
194.0
 21
239.3
 31
0.0
  0
LINE
  5
1EE
100
AcDbEntity
  8
枠・表
  6
CONTINUOUS
 62
     6
100
AcDbLine
 10
124.0
 20
233.8
 30
0.0
 11
194.0
 21
233.8
 31
0.0
  0
LINE
  5
1EF
100
AcDbEntity
  8
枠・表
  6
CONTINUOUS
 62
     6
100
AcDbLine
 10
124.0
 20
222.8
 30
0.0
 11
194.0
 21
222.8
 31
0.0
  0
LINE
  5
1F0
100
AcDbEntity
  8
枠・表
  6
CONTINUOUS
 62
     6
100
AcDbLine
 10
124.0
 20
211.8
 30
0.0
 11
194.0
 21
211.8
 31
0.0
  0
TEXT
  5
1F1
100
AcDbEntity
  8
枠・表
  6
CONTINUOUS
 62
     2
100
AcDbText
 10
134.5
 20
234.55
 30
0.0
 40
4.0
  1
品番
 41
1.47
  7
EXCADSTD
 72
     5
 11
147.3324
 21
234.55
 31
0.0
100
AcDbText
  0
TEXT
  5
1F2
100
AcDbEntity
  8
枠・表
  6
CONTINUOUS
 62
     2
100
AcDbText
 10
169.5
 20
234.55
 30
0.0
 40
4.0
  1
品名
 41
1.47
  7
EXCADSTD
 72
     5
 11
182.3324
 21
234.55
 31
0.0
100
AcDbText
  0
TEXT
  5
1F3
100
AcDbEntity
  8
枠・表
  6
CONTINUOUS
 62
     2
100
AcDbText
 10
160.0
 20
229.05
 30
0.0
 40
4.0
  1
アングル形止水栓
 41
0.748125
  7
EXCADSTD
 72
     5
 11
188.5
 21
229.05
 31
0.0
100
AcDbText
  0
LINE
  5
1F4
100
AcDbEntity
  8
枠・表
  6
CONTINUOUS
 62
     6
100
AcDbLine
 10
159.0
 20
211.8
 30
0.0
 11
159.0
 21
239.3
 31
0.0
  0
LINE
  5
1F5
100
AcDbEntity
  8
枠・表
  6
CONTINUOUS
 62
     6
100
AcDbLine
 10
194.0
 20
211.8
 30
0.0
 11
194.0
 21
239.3
 31
0.0
  0
LINE
  5
1F6
100
AcDbEntity
  8
枠・表
  6
CONTINUOUS
 62
     6
100
AcDbLine
 10
124.0
 20
211.8
 30
0.0
 11
124.0
 21
239.3
 31
0.0
  0
TEXT
  5
1F7
100
AcDbEntity
  8
枠・表
  6
CONTINUOUS
 62
     2
100
AcDbText
 10
160.0
 20
218.05
 30
0.0
 40
4.0
  1
アングル形止水栓
 41
0.748125
  7
EXCADSTD
 72
     5
 11
188.5
 21
218.05
 31
0.0
100
AcDbText
  0
TEXT
  5
1F8
100
AcDbEntity
  8
枠・表
  6
CONTINUOUS
 62
     2
100
AcDbText
 10
160.0
 20
223.55
 30
0.0
 40
4.0
  1
（壁給水用、数量：２）
 41
0.639545
  7
EXCADSTD
 72
     5
 11
193.5
 21
223.55
 31
0.0
100
AcDbText
  0
TEXT
  5
1F9
100
AcDbEntity
  8
枠・表
  6
CONTINUOUS
 62
     2
100
AcDbText
 10
125.0
 20
218.05
 30
0.0
 40
4.0
  1
ＮＬ２２１Ｆ２００ＷＹ２５
 41
0.474923
  7
EXCADSTD
 72
     5
 11
154.4
 21
218.05
 31
0.0
100
AcDbText
  0
TEXT
  5
1FA
100
AcDbEntity
  8
枠・表
  6
CONTINUOUS
 62
     2
100
AcDbText
 10
125.0
 20
229.05
 30
0.0
 40
4.0
  1
ＮＬ２２１－７５ＷＭＹ
 41
0.477273
  7
EXCADSTD
 72
     5
 11
150.0
 21
229.05
 31
0.0
100
AcDbText
  0
TEXT
  5
1FB
100
AcDbEntity
  8
枠・表
  6
CONTINUOUS
 62
     2
100
AcDbText
 10
160.0
 20
212.55
 30
0.0
 40
4.0
  1
（床給水用、数量：２）
 41
0.639545
  7
EXCADSTD
 72
     5
 11
193.5
 21
212.55
 31
0.0
100
AcDbText
  0
ARC
  5
1FC
100
AcDbEntity
  8
化粧台
  6
CONTINUOUS
 62
     2
100
AcDbCircle
 10
640.0
 20
3474.0
 30
0.0
 40
10.0
100
AcDbArc
 50
180.0
 51
270.0
  0
ARC
  5
1FD
100
AcDbEntity
  8
化粧台
  6
CONTINUOUS
 62
     2
100
AcDbCircle
 10
1170.0
 20
3474.0
 30
0.0
 40
10.0
100
AcDbArc
 50
270.0
 51
0.0
  0
LINE
  5
1FE
100
AcDbEntity
  8
化粧台
  6
CONTINUOUS
 62
     2
100
AcDbLine
 10
640.0
 20
3464.0
 30
0.0
 11
1170.0
 21
3464.0
 31
0.0
  0
LINE
  5
1FF
100
AcDbEntity
  8
化粧台
  6
CONTINUOUS
 62
     2
100
AcDbLine
 10
661.0
 20
3475.0
 30
0.0
 11
1149.0
 21
3475.0
 31
0.0
  0
ARC
  5
200
100
AcDbEntity
  8
化粧台
  6
CONTINUOUS
 62
     2
100
AcDbCircle
 10
661.0
 20
3495.0
 30
0.0
 40
20.0
100
AcDbArc
 50
180.0
 51
270.0
  0
ARC
  5
201
100
AcDbEntity
  8
化粧台
  6
CONTINUOUS
 62
     2
100
AcDbCircle
 10
1149.0
 20
3495.0
 30
0.0
 40
20.0
100
AcDbArc
 50
270.0
 51
0.0
  0
LINE
  5
202
100
AcDbEntity
  8
化粧台
  6
CONTINUOUS
 62
     6
100
AcDbLine
 10
868.1
 20
3729.0
 30
0.0
 11
941.9
 21
3729.0
 31
0.0
  0
ARC
  5
203
100
AcDbEntity
  8
化粧台
  6
CONTINUOUS
 62
     6
100
AcDbCircle
 10
236.062457
 20
4164.946075
 30
0.0
 40
800.0
100
AcDbArc
 50
301.628901
 51
317.938137
  0
ARC
  5
204
100
AcDbEntity
  8
化粧台
  6
CONTINUOUS
 62
     6
100
AcDbCircle
 10
1573.937543
 20
4164.946075
 30
0.0
 40
800.0
100
AcDbArc
 50
222.061863
 51
238.371099
  0
LINE
  5
205
100
AcDbEntity
  8
化粧台
  6
CONTINUOUS
 62
     6
100
AcDbLine
 10
830.0
 20
3775.0
 30
0.0
 11
830.0
 21
3629.0
 31
0.0
  0
LINE
  5
206
100
AcDbEntity
  8
化粧台
  6
CONTINUOUS
 62
     6
100
AcDbLine
 10
830.0
 20
3629.0
 30
0.0
 11
980.0
 21
3629.0
 31
0.0
  0
LINE
  5
207
100
AcDbEntity
  8
化粧台
  6
CONTINUOUS
 62
     6
100
AcDbLine
 10
980.0
 20
3775.0
 30
0.0
 11
980.0
 21
3629.0
 31
0.0
  0
LINE
  5
208
100
AcDbEntity
  8
化粧台
  6
CONTINUOUS
 62
     6
100
AcDbLine
 10
980.0
 20
3775.0
 30
0.0
 11
1148.5
 21
3814.0
 31
0.0
  0
LINE
  5
209
100
AcDbEntity
  8
化粧台
  6
CONTINUOUS
 62
     6
100
AcDbLine
 10
830.0
 20
3775.0
 30
0.0
 11
661.5
 21
3814.0
 31
0.0
  0
LINE
  5
20A
100
AcDbEntity
  8
化粧台
  6
CONTINUOUS
 62
     2
100
AcDbLine
 10
901.0
 20
3794.0
 30
0.0
 11
909.0
 21
3794.0
 31
0.0
  0
ELLIPSE
  5
20B
100
AcDbEntity
  8
化粧台
  6
CONTINUOUS
 62
     2
100
AcDbEllipse
 10
905.0
 20
3754.0
 30
0.0
 11
15.000000000000011
 21
0.0
 31
0.0
210
0.0
220
0.0
230
1.0
 40
0.5
 41
0.0
 42
6.2831853071796004
  0
ELLIPSE
  5
20C
100
AcDbEntity
  8
化粧台
  6
CONTINUOUS
 62
     6
100
AcDbEllipse
 10
905.0
 20
3823.282032
 30
0.0
 11
15.000000000000011
 21
0.0
 31
0.0
210
0.0
220
0.0
230
1.0
 40
0.5
 41
0.0
 42
1.3008635309614991
  0
ELLIPSE
  5
20D
100
AcDbEntity
  8
化粧台
  6
CONTINUOUS
 62
     6
100
AcDbEllipse
 10
905.0
 20
3823.282032
 30
0.0
 11
15.000000000000011
 21
0.0
 31
0.0
210
0.0
220
0.0
230
1.0
 40
0.5
 41
1.8407291226283071
 42
3.1415926535897931
  0
LINE
  5
20E
100
AcDbEntity
  8
化粧台
  6
CONTINUOUS
 62
     2
100
AcDbLine
 10
661.5
 20
3814.0
 30
0.0
 11
890.0
 21
3814.0
 31
0.0
  0
LINE
  5
20F
100
AcDbEntity
  8
化粧台
  6
CONTINUOUS
 62
     2
100
AcDbLine
 10
920.0
 20
3814.0
 30
0.0
 11
1148.5
 21
3814.0
 31
0.0
  0
ARC
  5
210
100
AcDbEntity
  8
化粧台
  6
CONTINUOUS
 62
     2
100
AcDbCircle
 10
905.0
 20
3729.0
 30
0.0
 40
19.2
100
AcDbArc
 50
108.843592
 51
71.156408
  0
ARC
  5
211
100
AcDbEntity
  8
化粧台
  6
CONTINUOUS
 62
     2
100
AcDbCircle
 10
905.0
 20
3729.0
 30
0.0
 40
26.9
100
AcDbArc
 50
122.168583
 51
57.831417
  0
LINE
  5
212
100
AcDbEntity
  8
化粧台
  6
CONTINUOUS
 62
     6
100
AcDbLine
 10
830.0
 20
3775.0
 30
0.0
 11
890.0
 21
3775.0
 31
0.0
  0
LINE
  5
213
100
AcDbEntity
  8
化粧台
  6
CONTINUOUS
 62
     6
100
AcDbLine
 10
920.0
 20
3775.0
 30
0.0
 11
980.0
 21
3775.0
 31
0.0
  0
LINE
  5
214
100
AcDbEntity
  8
化粧台
  6
CONTINUOUS
 62
     6
100
AcDbLine
 10
840.5
 20
3964.0
 30
0.0
 11
840.5
 21
3972.0
 31
0.0
  0
LINE
  5
215
100
AcDbEntity
  8
化粧台
  6
CONTINUOUS
 62
     6
100
AcDbLine
 10
819.5
 20
3972.0
 30
0.0
 11
840.5
 21
3972.0
 31
0.0
  0
LINE
  5
216
100
AcDbEntity
  8
化粧台
  6
CONTINUOUS
 62
     6
100
AcDbLine
 10
819.5
 20
3964.0
 30
0.0
 11
819.5
 21
3972.0
 31
0.0
  0
LINE
  5
217
100
AcDbEntity
  8
化粧台
  6
CONTINUOUS
 62
     6
100
AcDbLine
 10
990.5
 20
3964.0
 30
0.0
 11
990.5
 21
3972.0
 31
0.0
  0
LINE
  5
218
100
AcDbEntity
  8
化粧台
  6
CONTINUOUS
 62
     6
100
AcDbLine
 10
969.5
 20
3972.0
 30
0.0
 11
990.5
 21
3972.0
 31
0.0
  0
LINE
  5
219
100
AcDbEntity
  8
化粧台
  6
CONTINUOUS
 62
     6
100
AcDbLine
 10
969.5
 20
3964.0
 30
0.0
 11
969.5
 21
3972.0
 31
0.0
  0
LINE
  5
21A
100
AcDbEntity
  8
化粧台
  6
CONTINUOUS
 62
     6
100
AcDbLine
 10
830.0
 20
3987.0
 30
0.0
 11
830.0
 21
3934.0
 31
0.0
  0
LINE
  5
21B
100
AcDbEntity
  8
化粧台
  6
CONTINUOUS
 62
     6
100
AcDbLine
 10
980.0
 20
3987.0
 30
0.0
 11
980.0
 21
3934.0
 31
0.0
  0
LINE
  5
21C
100
AcDbEntity
  8
化粧台
  6
EXLTYPE3
 62
     6
100
AcDbLine
 10
905.0
 20
3979.0
 30
0.0
 11
905.0
 21
3449.0
 31
0.0
  0
LINE
  5
21D
100
AcDbEntity
  8
化粧台
  6
CONTINUOUS
 62
     2
100
AcDbLine
 10
1280.0
 20
3964.0
 30
0.0
 11
1280.0
 21
3514.0
 31
0.0
  0
LINE
  5
21E
100
AcDbEntity
  8
化粧台
  6
CONTINUOUS
 62
     2
100
AcDbLine
 10
1180.0
 20
3514.0
 30
0.0
 11
1280.0
 21
3514.0
 31
0.0
  0
LINE
  5
21F
100
AcDbEntity
  8
化粧台
  6
CONTINUOUS
 62
     6
100
AcDbLine
 10
1158.0
 20
3964.0
 30
0.0
 11
1160.0
 21
3996.5
 31
0.0
  0
LINE
  5
220
100
AcDbEntity
  8
化粧台
  6
CONTINUOUS
 62
     6
100
AcDbLine
 10
1160.0
 20
3996.5
 30
0.0
 11
1162.0
 21
3964.0
 31
0.0
  0
LINE
  5
221
100
AcDbEntity
  8
化粧台
  6
CONTINUOUS
 62
     6
100
AcDbLine
 10
1160.0
 20
3949.0
 30
0.0
 11
1160.0
 21
4006.5
 31
0.0
  0
LINE
  5
222
100
AcDbEntity
  8
化粧台
  6
CONTINUOUS
 62
     2
100
AcDbLine
 10
530.0
 20
3964.0
 30
0.0
 11
530.0
 21
3514.0
 31
0.0
  0
LINE
  5
223
100
AcDbEntity
  8
化粧台
  6
CONTINUOUS
 62
     2
100
AcDbLine
 10
530.0
 20
3514.0
 30
0.0
 11
630.0
 21
3514.0
 31
0.0
  0
LINE
  5
224
100
AcDbEntity
  8
化粧台
  6
CONTINUOUS
 62
     6
100
AcDbLine
 10
648.0
 20
3964.0
 30
0.0
 11
650.0
 21
3996.5
 31
0.0
  0
LINE
  5
225
100
AcDbEntity
  8
化粧台
  6
CONTINUOUS
 62
     6
100
AcDbLine
 10
650.0
 20
3996.5
 30
0.0
 11
652.0
 21
3964.0
 31
0.0
  0
LINE
  5
226
100
AcDbEntity
  8
化粧台
  6
CONTINUOUS
 62
     6
100
AcDbLine
 10
650.0
 20
3949.0
 30
0.0
 11
650.0
 21
4006.5
 31
0.0
  0
LINE
  5
227
100
AcDbEntity
  8
化粧台
  6
CONTINUOUS
 62
     2
100
AcDbLine
 10
530.0
 20
3964.0
 30
0.0
 11
1280.0
 21
3964.0
 31
0.0
  0
LINE
  5
228
100
AcDbEntity
  8
化粧台
  6
CONTINUOUS
 62
     2
100
AcDbLine
 10
641.0
 20
3844.0
 30
0.0
 11
641.0
 21
3495.0
 31
0.0
  0
LINE
  5
229
100
AcDbEntity
  8
化粧台
  6
CONTINUOUS
 62
     2
100
AcDbLine
 10
630.0
 20
3844.0
 30
0.0
 11
630.0
 21
3474.0
 31
0.0
  0
LINE
  5
22A
100
AcDbEntity
  8
化粧台
  6
CONTINUOUS
 62
     2
100
AcDbLine
 10
661.5
 20
3814.0
 30
0.0
 11
660.282745
 21
3844.0
 31
0.0
  0
LINE
  5
22B
100
AcDbEntity
  8
化粧台
  6
CONTINUOUS
 62
     2
100
AcDbLine
 10
920.0
 20
3844.0
 30
0.0
 11
920.0
 21
3754.0
 31
0.0
  0
LINE
  5
22C
100
AcDbEntity
  8
化粧台
  6
CONTINUOUS
 62
     2
100
AcDbLine
 10
890.0
 20
3844.0
 30
0.0
 11
890.0
 21
3754.0
 31
0.0
  0
LINE
  5
22D
100
AcDbEntity
  8
化粧台
  6
CONTINUOUS
 62
     2
100
AcDbLine
 10
1148.5
 20
3814.0
 30
0.0
 11
1149.717255
 21
3844.0
 31
0.0
  0
LINE
  5
22E
100
AcDbEntity
  8
化粧台
  6
CONTINUOUS
 62
     2
100
AcDbLine
 10
1169.0
 20
3844.0
 30
0.0
 11
1169.0
 21
3495.0
 31
0.0
  0
LINE
  5
22F
100
AcDbEntity
  8
化粧台
  6
CONTINUOUS
 62
     2
100
AcDbLine
 10
1180.0
 20
3844.0
 30
0.0
 11
1180.0
 21
3474.0
 31
0.0
  0
LINE
  5
230
100
AcDbEntity
  8
化粧台
  6
EXLTYPE2
 62
     6
100
AcDbLine
 10
1180.0
 20
3964.0
 30
0.0
 11
1180.0
 21
3844.0
 31
0.0
  0
LINE
  5
231
100
AcDbEntity
  8
化粧台
  6
EXLTYPE2
 62
     6
100
AcDbLine
 10
1169.0
 20
3939.0
 30
0.0
 11
1169.0
 21
3844.0
 31
0.0
  0
LINE
  5
232
100
AcDbEntity
  8
化粧台
  6
EXLTYPE2
 62
     6
100
AcDbLine
 10
1149.717255
 20
3844.0
 30
0.0
 11
1153.598748
 21
3939.661773
 31
0.0
  0
ARC
  5
233
100
AcDbEntity
  8
化粧台
  6
EXLTYPE2
 62
     6
100
AcDbCircle
 10
1159.0
 20
3939.0
 30
0.0
 40
10.0
100
AcDbArc
 50
0.0
 51
90.0
  0
LINE
  5
234
100
AcDbEntity
  8
化粧台
  6
EXLTYPE2
 62
     6
100
AcDbLine
 10
651.0
 20
3949.0
 30
0.0
 11
1159.0
 21
3949.0
 31
0.0
  0
LINE
  5
235
100
AcDbEntity
  8
化粧台
  6
EXLTYPE2
 62
     6
100
AcDbLine
 10
876.0
 20
3879.0
 30
0.0
 11
934.0
 21
3879.0
 31
0.0
  0
CIRCLE
  5
236
100
AcDbEntity
  8
化粧台
  6
EXLTYPE2
 62
     6
100
AcDbCircle
 10
835.0
 20
3869.0
 30
0.0
 40
12.5
  0
CIRCLE
  5
237
100
AcDbEntity
  8
化粧台
  6
EXLTYPE2
 62
     6
100
AcDbCircle
 10
835.0
 20
3869.0
 30
0.0
 40
7.5
  0
CIRCLE
  5
238
100
AcDbEntity
  8
化粧台
  6
EXLTYPE2
 62
     6
100
AcDbCircle
 10
905.0
 20
3879.0
 30
0.0
 40
24.5
  0
LINE
  5
239
100
AcDbEntity
  8
化粧台
  6
EXLTYPE2
 62
     6
100
AcDbLine
 10
660.282745
 20
3844.0
 30
0.0
 11
656.401252
 21
3939.661773
 31
0.0
  0
LINE
  5
23A
100
AcDbEntity
  8
化粧台
  6
EXLTYPE2
 62
     6
100
AcDbLine
 10
641.0
 20
3939.0
 30
0.0
 11
641.0
 21
3844.0
 31
0.0
  0
LINE
  5
23B
100
AcDbEntity
  8
化粧台
  6
EXLTYPE2
 62
     6
100
AcDbLine
 10
630.0
 20
3964.0
 30
0.0
 11
630.0
 21
3844.0
 31
0.0
  0
ARC
  5
23C
100
AcDbEntity
  8
化粧台
  6
EXLTYPE2
 62
     6
100
AcDbCircle
 10
651.0
 20
3939.0
 30
0.0
 40
10.0
100
AcDbArc
 50
90.0
 51
180.0
  0
LINE
  5
23D
100
AcDbEntity
  8
化粧台
  6
CONTINUOUS
 62
     2
100
AcDbLine
 10
901.0
 20
3844.0
 30
0.0
 11
901.0
 21
3794.0
 31
0.0
  0
LINE
  5
23E
100
AcDbEntity
  8
化粧台
  6
CONTINUOUS
 62
     2
100
AcDbLine
 10
909.0
 20
3844.0
 30
0.0
 11
909.0
 21
3794.0
 31
0.0
  0
LINE
  5
23F
100
AcDbEntity
  8
化粧台
  6
EXLTYPE2
 62
     6
100
AcDbLine
 10
920.0
 20
3859.628629
 30
0.0
 11
920.0
 21
3844.0
 31
0.0
  0
LINE
  5
240
100
AcDbEntity
  8
化粧台
  6
EXLTYPE2
 62
     6
100
AcDbLine
 10
890.0
 20
3859.628629
 30
0.0
 11
890.0
 21
3844.0
 31
0.0
  0
LINE
  5
241
100
AcDbEntity
  8
化粧台
  6
EXLTYPE2
 62
     6
100
AcDbLine
 10
901.0
 20
3854.828736
 30
0.0
 11
901.0
 21
3844.0
 31
0.0
  0
LINE
  5
242
100
AcDbEntity
  8
化粧台
  6
EXLTYPE2
 62
     6
100
AcDbLine
 10
909.0
 20
3854.828736
 30
0.0
 11
909.0
 21
3844.0
 31
0.0
  0
LINE
  5
243
100
AcDbEntity
  8
化粧台
  6
EXLTYPE4
 62
     6
100
AcDbLine
 10
318.0
 20
3964.0
 30
0.0
 11
1728.0
 21
3964.0
 31
0.0
  0
TEXT
  5
244
100
AcDbEntity
  8
化粧台
  6
CONTINUOUS
 62
     2
100
AcDbText
 10
1629.000001
 20
3904.0
 30
0.0
 40
60.0
  1
W.L.
 41
0.4125
  7
EXCADSTD
 72
     5
 11
1719.7434
 21
3904.0
 31
0.0
100
AcDbText
  0
LINE
  5
245
100
AcDbEntity
  8
化粧台
  6
CONTINUOUS
 62
     2
100
AcDbLine
 10
1174.996306
 20
1614.807834
 30
0.0
 11
1179.996306
 21
1744.807834
 31
0.0
  0
ARC
  5
246
100
AcDbEntity
  8
化粧台
  6
CONTINUOUS
 62
     2
100
AcDbCircle
 10
1175.0
 20
1745.0
 30
0.0
 40
5.0
100
AcDbArc
 50
357.797402
 51
90.0
  0
ARC
  5
247
100
AcDbEntity
  8
化粧台
  6
CONTINUOUS
 62
     2
100
AcDbCircle
 10
1170.0
 20
1615.0
 30
0.0
 40
5.0
100
AcDbArc
 50
270.0
 51
357.797402
  0
LINE
  5
248
100
AcDbEntity
  8
化粧台
  6
CONTINUOUS
 62
     2
100
AcDbLine
 10
635.003694
 20
1614.807834
 30
0.0
 11
630.003694
 21
1744.807834
 31
0.0
  0
ARC
  5
249
100
AcDbEntity
  8
化粧台
  6
CONTINUOUS
 62
     2
100
AcDbCircle
 10
635.0
 20
1745.0
 30
0.0
 40
5.0
100
AcDbArc
 50
90.0
 51
182.202598
  0
ARC
  5
24A
100
AcDbEntity
  8
化粧台
  6
CONTINUOUS
 62
     2
100
AcDbCircle
 10
640.0
 20
1615.0
 30
0.0
 40
5.0
100
AcDbArc
 50
182.202598
 51
270.0
  0
LINE
  5
24B
100
AcDbEntity
  8
化粧台
  6
CONTINUOUS
 62
     2
100
AcDbLine
 10
640.0
 20
1610.0
 30
0.0
 11
1170.0
 21
1610.0
 31
0.0
  0
LINE
  5
24C
100
AcDbEntity
  8
化粧台
  6
CONTINUOUS
 62
     2
100
AcDbLine
 10
635.0
 20
1750.0
 30
0.0
 11
1175.0
 21
1750.0
 31
0.0
  0
LINE
  5
24D
100
AcDbEntity
  8
化粧台
  6
CONTINUOUS
 62
     2
100
AcDbLine
 10
826.614829
 20
1760.655405
 30
0.0
 11
830.25
 21
1751.907239
 31
0.0
  0
ARC
  5
24E
100
AcDbEntity
  8
化粧台
  6
CONTINUOUS
 62
     2
100
AcDbCircle
 10
828.0
 20
1761.230992
 30
0.0
 40
1.5
100
AcDbArc
 50
90.0
 51
202.564607
  0
LINE
  5
24F
100
AcDbEntity
  8
化粧台
  6
CONTINUOUS
 62
     2
100
AcDbLine
 10
843.385171
 20
1760.655405
 30
0.0
 11
839.75
 21
1751.907239
 31
0.0
  0
ARC
  5
250
100
AcDbEntity
  8
化粧台
  6
CONTINUOUS
 62
     2
100
AcDbCircle
 10
842.0
 20
1761.230992
 30
0.0
 40
1.5
100
AcDbArc
 50
337.435393
 51
90.0
  0
LINE
  5
251
100
AcDbEntity
  8
化粧台
  6
CONTINUOUS
 62
     2
100
AcDbLine
 10
828.0
 20
1762.730992
 30
0.0
 11
842.0
 21
1762.730992
 31
0.0
  0
LINE
  5
252
100
AcDbEntity
  8
化粧台
  6
CONTINUOUS
 62
     2
100
AcDbLine
 10
830.25
 20
1750.0
 30
0.0
 11
830.25
 21
1751.907239
 31
0.0
  0
LINE
  5
253
100
AcDbEntity
  8
化粧台
  6
CONTINUOUS
 62
     2
100
AcDbLine
 10
839.75
 20
1750.0
 30
0.0
 11
839.75
 21
1751.907239
 31
0.0
  0
ELLIPSE
  5
254
100
AcDbEntity
  8
化粧台
  6
CONTINUOUS
 62
     2
100
AcDbEllipse
 10
905.0
 20
1803.0
 30
0.0
 11
11.500000000000009
 21
0.0
 31
0.0
210
0.0
220
0.0
230
1.0
 40
0.422618
 41
0.0
 42
6.2831853071796004
  0
CIRCLE
  5
255
100
AcDbEntity
  8
化粧台
  6
CONTINUOUS
 62
     2
100
AcDbCircle
 10
905.0
 20
1868.5
 30
0.0
 40
4.0
  0
ELLIPSE
  5
256
100
AcDbEntity
  8
化粧台
  6
CONTINUOUS
 62
     2
100
AcDbEllipse
 10
905.0
 20
1829.0
 30
0.0
 11
15.000000000000009
 21
0.0
 31
0.0
210
0.0
220
0.0
230
1.0
 40
0.866025
 41
0.0
 42
6.2831853071796004
  0
ELLIPSE
  5
257
100
AcDbEntity
  8
化粧台
  6
CONTINUOUS
 62
     2
100
AcDbEllipse
 10
905.0
 20
1770.976298
 30
0.0
 11
0.0000000000000011
 21
17.320508075600181
 31
0.0
210
0.0
220
0.0
230
1.0
 40
0.866025
 41
1.5707963267948966
 42
4.7123889803846897
  0
LINE
  5
258
100
AcDbEntity
  8
化粧台
  6
CONTINUOUS
 62
     2
100
AcDbLine
 10
890.0
 20
1829.0
 30
0.0
 11
890.0
 21
1770.976298
 31
0.0
  0
LINE
  5
259
100
AcDbEntity
  8
化粧台
  6
CONTINUOUS
 62
     2
100
AcDbLine
 10
920.0
 20
1829.0
 30
0.0
 11
920.0
 21
1770.976298
 31
0.0
  0
LINE
  5
25A
100
AcDbEntity
  8
化粧台
  6
CONTINUOUS
 62
     2
100
AcDbLine
 10
893.5
 20
1803.0
 30
0.0
 11
893.5
 21
1811.790236
 31
0.0
  0
LINE
  5
25B
100
AcDbEntity
  8
化粧台
  6
CONTINUOUS
 62
     2
100
AcDbLine
 10
916.5
 20
1803.0
 30
0.0
 11
916.5
 21
1811.790236
 31
0.0
  0
ELLIPSE
  5
25C
100
AcDbEntity
  8
化粧台
  6
CONTINUOUS
 62
     2
100
AcDbEllipse
 10
905.0
 20
1811.790236
 30
0.0
 11
11.500000000000009
 21
0.0
 31
0.0
210
0.0
220
0.0
230
1.0
 40
0.173967
 41
0.0
 42
3.1415926535897931
  0
LINE
  5
25D
100
AcDbEntity
  8
化粧台
  6
CONTINUOUS
 62
     2
100
AcDbLine
 10
880.5
 20
1836.0
 30
0.0
 11
892.364072
 21
1836.0
 31
0.0
  0
LINE
  5
25E
100
AcDbEntity
  8
化粧台
  6
CONTINUOUS
 62
     2
100
AcDbLine
 10
917.635928
 20
1836.0
 30
0.0
 11
929.5
 21
1836.0
 31
0.0
  0
LINE
  5
25F
100
AcDbEntity
  8
化粧台
  6
CONTINUOUS
 62
     2
100
AcDbLine
 10
891.155627
 20
1834.0
 30
0.0
 11
880.5
 21
1834.0
 31
0.0
  0
LINE
  5
260
100
AcDbEntity
  8
化粧台
  6
CONTINUOUS
 62
     2
100
AcDbLine
 10
929.5
 20
1834.0
 30
0.0
 11
918.844373
 21
1834.0
 31
0.0
  0
LINE
  5
261
100
AcDbEntity
  8
化粧台
  6
CONTINUOUS
 62
     2
100
AcDbLine
 10
880.5
 20
1876.0
 30
0.0
 11
880.5
 21
1836.0
 31
0.0
  0
ARC
  5
262
100
AcDbEntity
  8
化粧台
  6
CONTINUOUS
 62
     2
100
AcDbCircle
 10
882.5
 20
1876.0
 30
0.0
 40
2.0
100
AcDbArc
 50
90.0
 51
180.0
  0
LINE
  5
263
100
AcDbEntity
  8
化粧台
  6
CONTINUOUS
 62
     2
100
AcDbLine
 10
929.5
 20
1876.0
 30
0.0
 11
929.5
 21
1836.0
 31
0.0
  0
LINE
  5
264
100
AcDbEntity
  8
化粧台
  6
CONTINUOUS
 62
     2
100
AcDbLine
 10
882.5
 20
1878.0
 30
0.0
 11
927.5
 21
1878.0
 31
0.0
  0
ARC
  5
265
100
AcDbEntity
  8
化粧台
  6
CONTINUOUS
 62
     2
100
AcDbCircle
 10
927.5
 20
1876.0
 30
0.0
 40
2.0
100
AcDbArc
 50
0.0
 51
90.0
  0
LINE
  5
266
100
AcDbEntity
  8
化粧台
  6
CONTINUOUS
 62
     2
100
AcDbLine
 10
880.5
 20
1834.0
 30
0.0
 11
880.5
 21
1750.0
 31
0.0
  0
LINE
  5
267
100
AcDbEntity
  8
化粧台
  6
CONTINUOUS
 62
     2
100
AcDbLine
 10
929.5
 20
1834.0
 30
0.0
 11
929.5
 21
1750.0
 31
0.0
  0
ELLIPSE
  5
268
100
AcDbEntity
  8
化粧台
  6
CONTINUOUS
 62
     6
100
AcDbEllipse
 10
905.0
 20
1789.0
 30
0.0
 11
15.000000000000009
 21
0.0
 31
0.0
210
0.0
220
0.0
230
1.0
 40
0.866025
 41
3.1415926535897931
 42
0.0
  0
LINE
  5
269
100
AcDbEntity
  8
化粧台
  6
EXLTYPE2
 62
     6
100
AcDbLine
 10
864.38673
 20
1579.292893
 30
0.0
 11
860.0
 21
1610.0
 31
0.0
  0
ARC
  5
26A
100
AcDbEntity
  8
化粧台
  6
EXLTYPE2
 62
     6
100
AcDbCircle
 10
869.336477
 20
1580.0
 30
0.0
 40
5.0
100
AcDbArc
 50
188.130102
 51
270.0
  0
LINE
  5
26B
100
AcDbEntity
  8
化粧台
  6
EXLTYPE2
 62
     6
100
AcDbLine
 10
945.61327
 20
1579.292893
 30
0.0
 11
950.0
 21
1610.0
 31
0.0
  0
LINE
  5
26C
100
AcDbEntity
  8
化粧台
  6
EXLTYPE2
 62
     6
100
AcDbLine
 10
869.336477
 20
1575.0
 30
0.0
 11
940.663523
 21
1575.0
 31
0.0
  0
ARC
  5
26D
100
AcDbEntity
  8
化粧台
  6
EXLTYPE2
 62
     6
100
AcDbCircle
 10
940.663523
 20
1580.0
 30
0.0
 40
5.0
100
AcDbArc
 50
270.0
 51
351.869898
  0
ARC
  5
26E
100
AcDbEntity
  8
化粧台
  6
EXLTYPE2
 62
     6
100
AcDbCircle
 10
750.188889
 20
1505.0
 30
0.0
 40
174.511111
100
AcDbArc
 50
351.763621
 51
8.236379
  0
LINE
  5
26F
100
AcDbEntity
  8
化粧台
  6
EXLTYPE2
 62
     6
100
AcDbLine
 10
922.9
 20
1480.0
 30
0.0
 11
920.8
 21
1477.9
 31
0.0
  0
ARC
  5
270
100
AcDbEntity
  8
化粧台
  6
EXLTYPE2
 62
     6
100
AcDbCircle
 10
1059.811111
 20
1505.0
 30
0.0
 40
174.511111
100
AcDbArc
 50
171.763621
 51
188.236379
  0
LINE
  5
271
100
AcDbEntity
  8
化粧台
  6
EXLTYPE2
 62
     6
100
AcDbLine
 10
887.1
 20
1480.0
 30
0.0
 11
889.2
 21
1477.9
 31
0.0
  0
LINE
  5
272
100
AcDbEntity
  8
化粧台
  6
EXLTYPE2
 62
     6
100
AcDbLine
 10
878.75
 20
1550.5
 30
0.0
 11
931.25
 21
1550.5
 31
0.0
  0
ARC
  5
273
100
AcDbEntity
  8
化粧台
  6
EXLTYPE2
 62
     6
100
AcDbCircle
 10
881.75
 20
1534.5
 30
0.0
 40
3.0
100
AcDbArc
 50
180.0
 51
270.0
  0
ARC
  5
274
100
AcDbEntity
  8
化粧台
  6
EXLTYPE2
 62
     6
100
AcDbCircle
 10
928.25
 20
1534.5
 30
0.0
 40
3.0
100
AcDbArc
 50
270.0
 51
0.0
  0
LINE
  5
275
100
AcDbEntity
  8
化粧台
  6
EXLTYPE2
 62
     6
100
AcDbLine
 10
931.25
 20
1550.5
 30
0.0
 11
931.25
 21
1534.5
 31
0.0
  0
LINE
  5
276
100
AcDbEntity
  8
化粧台
  6
EXLTYPE2
 62
     6
100
AcDbLine
 10
881.75
 20
1531.5
 30
0.0
 11
928.25
 21
1531.5
 31
0.0
  0
LINE
  5
277
100
AcDbEntity
  8
化粧台
  6
EXLTYPE2
 62
     6
100
AcDbLine
 10
878.75
 20
1550.5
 30
0.0
 11
878.75
 21
1534.5
 31
0.0
  0
LINE
  5
278
100
AcDbEntity
  8
化粧台
  6
EXLTYPE2
 62
     6
100
AcDbLine
 10
887.1
 20
1530.0
 30
0.0
 11
887.1
 21
1531.5
 31
0.0
  0
LINE
  5
279
100
AcDbEntity
  8
化粧台
  6
EXLTYPE2
 62
     6
100
AcDbLine
 10
922.9
 20
1530.0
 30
0.0
 11
922.9
 21
1531.5
 31
0.0
  0
LINE
  5
27A
100
AcDbEntity
  8
化粧台
  6
EXLTYPE2
 62
     6
100
AcDbLine
 10
876.7
 20
1565.7
 30
0.0
 11
933.3
 21
1565.7
 31
0.0
  0
LINE
  5
27B
100
AcDbEntity
  8
化粧台
  6
EXLTYPE2
 62
     6
100
AcDbLine
 10
879.5
 20
1565.7
 30
0.0
 11
879.5
 21
1557.9
 31
0.0
  0
LINE
  5
27C
100
AcDbEntity
  8
化粧台
  6
EXLTYPE2
 62
     6
100
AcDbLine
 10
930.5
 20
1565.7
 30
0.0
 11
930.5
 21
1557.9
 31
0.0
  0
LINE
  5
27D
100
AcDbEntity
  8
化粧台
  6
EXLTYPE2
 62
     6
100
AcDbLine
 10
933.3
 20
1569.2
 30
0.0
 11
933.3
 21
1565.7
 31
0.0
  0
LINE
  5
27E
100
AcDbEntity
  8
化粧台
  6
EXLTYPE2
 62
     6
100
AcDbLine
 10
879.5
 20
1557.9
 30
0.0
 11
930.5
 21
1557.9
 31
0.0
  0
LINE
  5
27F
100
AcDbEntity
  8
化粧台
  6
EXLTYPE2
 62
     6
100
AcDbLine
 10
876.7
 20
1569.2
 30
0.0
 11
876.7
 21
1565.7
 31
0.0
  0
LINE
  5
280
100
AcDbEntity
  8
化粧台
  6
EXLTYPE2
 62
     6
100
AcDbLine
 10
881.5
 20
1557.9
 30
0.0
 11
881.5
 21
1550.5
 31
0.0
  0
LINE
  5
281
100
AcDbEntity
  8
化粧台
  6
EXLTYPE2
 62
     6
100
AcDbLine
 10
928.5
 20
1557.9
 30
0.0
 11
928.5
 21
1550.5
 31
0.0
  0
LINE
  5
282
100
AcDbEntity
  8
化粧台
  6
EXLTYPE2
 62
     6
100
AcDbLine
 10
876.5
 20
1569.7
 30
0.0
 11
876.5
 21
1571.7
 31
0.0
  0
LINE
  5
283
100
AcDbEntity
  8
化粧台
  6
EXLTYPE2
 62
     6
100
AcDbLine
 10
933.5
 20
1569.7
 30
0.0
 11
933.5
 21
1571.7
 31
0.0
  0
LINE
  5
284
100
AcDbEntity
  8
化粧台
  6
EXLTYPE2
 62
     6
100
AcDbLine
 10
881.725
 20
1575.0
 30
0.0
 11
876.5
 21
1571.7
 31
0.0
  0
LINE
  5
285
100
AcDbEntity
  8
化粧台
  6
EXLTYPE2
 62
     6
100
AcDbLine
 10
928.275
 20
1575.0
 30
0.0
 11
933.5
 21
1571.7
 31
0.0
  0
LINE
  5
286
100
AcDbEntity
  8
化粧台
  6
EXLTYPE2
 62
     6
100
AcDbLine
 10
876.5
 20
1571.7
 30
0.0
 11
933.5
 21
1571.7
 31
0.0
  0
LINE
  5
287
100
AcDbEntity
  8
化粧台
  6
EXLTYPE2
 62
     6
100
AcDbLine
 10
876.5
 20
1569.7
 30
0.0
 11
933.5
 21
1569.7
 31
0.0
  0
LINE
  5
288
100
AcDbEntity
  8
化粧台
  6
EXLTYPE2
 62
     6
100
AcDbLine
 10
876.7
 20
1569.2
 30
0.0
 11
933.3
 21
1569.2
 31
0.0
  0
LINE
  5
289
100
AcDbEntity
  8
化粧台
  6
EXLTYPE2
 62
     6
100
AcDbLine
 10
881.620795
 20
1565.7
 30
0.0
 11
881.620795
 21
1557.9
 31
0.0
  0
LINE
  5
28A
100
AcDbEntity
  8
化粧台
  6
EXLTYPE2
 62
     6
100
AcDbLine
 10
902.879205
 20
1565.7
 30
0.0
 11
902.879205
 21
1557.9
 31
0.0
  0
LINE
  5
28B
100
AcDbEntity
  8
化粧台
  6
EXLTYPE2
 62
     6
100
AcDbLine
 10
907.120795
 20
1565.7
 30
0.0
 11
907.120795
 21
1557.9
 31
0.0
  0
LINE
  5
28C
100
AcDbEntity
  8
化粧台
  6
EXLTYPE2
 62
     6
100
AcDbLine
 10
928.379205
 20
1565.7
 30
0.0
 11
928.379205
 21
1557.9
 31
0.0
  0
LINE
  5
28D
100
AcDbEntity
  8
化粧台
  6
EXLTYPE2
 62
     6
100
AcDbLine
 10
893.328204
 20
1550.5
 30
0.0
 11
893.328204
 21
1534.5
 31
0.0
  0
LINE
  5
28E
100
AcDbEntity
  8
化粧台
  6
EXLTYPE2
 62
     6
100
AcDbLine
 10
895.256412
 20
1550.5
 30
0.0
 11
895.256412
 21
1534.5
 31
0.0
  0
LINE
  5
28F
100
AcDbEntity
  8
化粧台
  6
EXLTYPE2
 62
     6
100
AcDbLine
 10
914.743588
 20
1550.5
 30
0.0
 11
914.743588
 21
1534.5
 31
0.0
  0
LINE
  5
290
100
AcDbEntity
  8
化粧台
  6
EXLTYPE2
 62
     6
100
AcDbLine
 10
916.671796
 20
1550.5
 30
0.0
 11
916.671796
 21
1534.5
 31
0.0
  0
LINE
  5
291
100
AcDbEntity
  8
化粧台
  6
EXLTYPE2
 62
     6
100
AcDbLine
 10
887.1
 20
1530.0
 30
0.0
 11
922.9
 21
1530.0
 31
0.0
  0
LINE
  5
292
100
AcDbEntity
  8
化粧台
  6
EXLTYPE2
 62
     6
100
AcDbLine
 10
887.1
 20
1480.0
 30
0.0
 11
922.9
 21
1480.0
 31
0.0
  0
LINE
  5
293
100
AcDbEntity
  8
化粧台
  6
EXLTYPE2
 62
     6
100
AcDbLine
 10
889.2
 20
1477.9
 30
0.0
 11
920.8
 21
1477.9
 31
0.0
  0
LINE
  5
294
100
AcDbEntity
  8
化粧台
  6
EXLTYPE2
 62
     6
100
AcDbLine
 10
905.0
 20
1391.5
 30
0.0
 11
924.0
 21
1410.5
 31
0.0
  0
ARC
  5
295
100
AcDbEntity
  8
化粧台
  6
EXLTYPE2
 62
     6
100
AcDbCircle
 10
939.0
 20
1425.5
 30
0.0
 40
15.0
100
AcDbArc
 50
180.0
 51
270.0
  0
LINE
  5
296
100
AcDbEntity
  8
化粧台
  6
EXLTYPE2
 62
     6
100
AcDbLine
 10
923.0
 20
1372.5
 30
0.0
 11
923.0
 21
1409.5
 31
0.0
  0
LINE
  5
297
100
AcDbEntity
  8
化粧台
  6
EXLTYPE2
 62
     6
100
AcDbLine
 10
886.0
 20
1409.5
 30
0.0
 11
923.0
 21
1409.5
 31
0.0
  0
LINE
  5
298
100
AcDbEntity
  8
化粧台
  6
EXLTYPE2
 62
     6
100
AcDbLine
 10
888.75
 20
1406.5
 30
0.0
 11
920.0
 21
1406.5
 31
0.0
  0
LINE
  5
299
100
AcDbEntity
  8
化粧台
  6
EXLTYPE2
 62
     6
100
AcDbLine
 10
920.0
 20
1375.25
 30
0.0
 11
920.0
 21
1406.5
 31
0.0
  0
LINE
  5
29A
100
AcDbEntity
  8
化粧台
  6
EXLTYPE2
 62
     6
100
AcDbLine
 10
941.7
 20
1372.5
 30
0.0
 11
923.0
 21
1372.5
 31
0.0
  0
LINE
  5
29B
100
AcDbEntity
  8
化粧台
  6
EXLTYPE2
 62
     6
100
AcDbLine
 10
886.0
 20
1409.5
 30
0.0
 11
886.0
 21
1428.2
 31
0.0
  0
LINE
  5
29C
100
AcDbEntity
  8
化粧台
  6
EXLTYPE2
 62
     6
100
AcDbLine
 10
888.75
 20
1391.5
 30
0.0
 11
888.75
 21
1406.5
 31
0.0
  0
LINE
  5
29D
100
AcDbEntity
  8
化粧台
  6
EXLTYPE2
 62
     6
100
AcDbLine
 10
905.0
 20
1375.25
 30
0.0
 11
920.0
 21
1375.25
 31
0.0
  0
ARC
  5
29E
100
AcDbEntity
  8
化粧台
  6
EXLTYPE2
 62
     6
100
AcDbCircle
 10
905.0
 20
1391.5
 30
0.0
 40
16.25
100
AcDbArc
 50
180.0
 51
270.0
  0
LINE
  5
29F
100
AcDbEntity
  8
化粧台
  6
EXLTYPE2
 62
     6
100
AcDbLine
 10
923.0
 20
1372.5
 30
0.0
 11
920.0
 21
1375.25
 31
0.0
  0
LINE
  5
2A0
100
AcDbEntity
  8
化粧台
  6
EXLTYPE2
 62
     6
100
AcDbLine
 10
886.0
 20
1409.5
 30
0.0
 11
888.75
 21
1406.5
 31
0.0
  0
LINE
  5
2A1
100
AcDbEntity
  8
化粧台
  6
EXLTYPE2
 62
     6
100
AcDbLine
 10
941.7
 20
1410.5
 30
0.0
 11
924.0
 21
1410.5
 31
0.0
  0
LINE
  5
2A2
100
AcDbEntity
  8
化粧台
  6
EXLTYPE2
 62
     6
100
AcDbLine
 10
924.0
 20
1410.5
 30
0.0
 11
924.0
 21
1428.2
 31
0.0
  0
LINE
  5
2A3
100
AcDbEntity
  8
化粧台
  6
EXLTYPE2
 62
     6
100
AcDbLine
 10
959.5
 20
1414.3
 30
0.0
 11
941.7
 21
1414.3
 31
0.0
  0
LINE
  5
2A4
100
AcDbEntity
  8
化粧台
  6
EXLTYPE2
 62
     6
100
AcDbLine
 10
959.5
 20
1368.7
 30
0.0
 11
941.7
 21
1368.7
 31
0.0
  0
LINE
  5
2A5
100
AcDbEntity
  8
化粧台
  6
EXLTYPE2
 62
     6
100
AcDbLine
 10
959.5
 20
1414.3
 30
0.0
 11
959.5
 21
1368.7
 31
0.0
  0
LINE
  5
2A6
100
AcDbEntity
  8
化粧台
  6
EXLTYPE2
 62
     6
100
AcDbLine
 10
941.7
 20
1414.3
 30
0.0
 11
941.7
 21
1368.7
 31
0.0
  0
LINE
  5
2A7
100
AcDbEntity
  8
化粧台
  6
EXLTYPE2
 62
     6
100
AcDbLine
 10
882.2
 20
1446.0
 30
0.0
 11
882.2
 21
1428.2
 31
0.0
  0
LINE
  5
2A8
100
AcDbEntity
  8
化粧台
  6
EXLTYPE2
 62
     6
100
AcDbLine
 10
927.8
 20
1446.0
 30
0.0
 11
927.8
 21
1428.2
 31
0.0
  0
LINE
  5
2A9
100
AcDbEntity
  8
化粧台
  6
EXLTYPE2
 62
     6
100
AcDbLine
 10
882.2
 20
1446.0
 30
0.0
 11
927.8
 21
1446.0
 31
0.0
  0
LINE
  5
2AA
100
AcDbEntity
  8
化粧台
  6
EXLTYPE2
 62
     6
100
AcDbLine
 10
882.2
 20
1428.2
 30
0.0
 11
927.8
 21
1428.2
 31
0.0
  0
LINE
  5
2AB
100
AcDbEntity
  8
化粧台
  6
EXLTYPE2
 62
     6
100
AcDbLine
 10
926.643357
 20
1444.0
 30
0.0
 11
926.643357
 21
1428.2
 31
0.0
  0
LINE
  5
2AC
100
AcDbEntity
  8
化粧台
  6
EXLTYPE2
 62
     6
100
AcDbLine
 10
883.356643
 20
1444.0
 30
0.0
 11
883.356643
 21
1428.2
 31
0.0
  0
LINE
  5
2AD
100
AcDbEntity
  8
化粧台
  6
EXLTYPE2
 62
     6
100
AcDbLine
 10
915.600712
 20
1444.0
 30
0.0
 11
915.600712
 21
1428.2
 31
0.0
  0
LINE
  5
2AE
100
AcDbEntity
  8
化粧台
  6
EXLTYPE2
 62
     6
100
AcDbLine
 10
912.808329
 20
1444.0
 30
0.0
 11
912.808329
 21
1428.2
 31
0.0
  0
LINE
  5
2AF
100
AcDbEntity
  8
化粧台
  6
EXLTYPE2
 62
     6
100
AcDbLine
 10
897.191671
 20
1444.0
 30
0.0
 11
897.191671
 21
1428.2
 31
0.0
  0
LINE
  5
2B0
100
AcDbEntity
  8
化粧台
  6
EXLTYPE2
 62
     6
100
AcDbLine
 10
894.399288
 20
1444.0
 30
0.0
 11
894.399288
 21
1428.2
 31
0.0
  0
LINE
  5
2B1
100
AcDbEntity
  8
化粧台
  6
EXLTYPE2
 62
     6
100
AcDbLine
 10
957.5
 20
1369.856643
 30
0.0
 11
941.7
 21
1369.856643
 31
0.0
  0
LINE
  5
2B2
100
AcDbEntity
  8
化粧台
  6
EXLTYPE2
 62
     6
100
AcDbLine
 10
957.5
 20
1413.143357
 30
0.0
 11
941.7
 21
1413.143357
 31
0.0
  0
LINE
  5
2B3
100
AcDbEntity
  8
化粧台
  6
EXLTYPE2
 62
     6
100
AcDbLine
 10
957.5
 20
1380.899288
 30
0.0
 11
941.7
 21
1380.899288
 31
0.0
  0
LINE
  5
2B4
100
AcDbEntity
  8
化粧台
  6
EXLTYPE2
 62
     6
100
AcDbLine
 10
957.5
 20
1383.691671
 30
0.0
 11
941.7
 21
1383.691671
 31
0.0
  0
LINE
  5
2B5
100
AcDbEntity
  8
化粧台
  6
EXLTYPE2
 62
     6
100
AcDbLine
 10
957.5
 20
1399.308329
 30
0.0
 11
941.7
 21
1399.308329
 31
0.0
  0
LINE
  5
2B6
100
AcDbEntity
  8
化粧台
  6
EXLTYPE2
 62
     6
100
AcDbLine
 10
957.5
 20
1402.100712
 30
0.0
 11
941.7
 21
1402.100712
 31
0.0
  0
LINE
  5
2B7
100
AcDbEntity
  8
化粧台
  6
EXLTYPE2
 62
     6
100
AcDbLine
 10
889.2
 20
1477.9
 30
0.0
 11
889.2
 21
1446.0
 31
0.0
  0
LINE
  5
2B8
100
AcDbEntity
  8
化粧台
  6
EXLTYPE2
 62
     6
100
AcDbLine
 10
920.8
 20
1477.9
 30
0.0
 11
920.8
 21
1446.0
 31
0.0
  0
ARC
  5
2B9
100
AcDbEntity
  8
化粧台
  6
EXLTYPE2
 62
     6
100
AcDbCircle
 10
1039.0
 20
1375.5
 30
0.0
 40
32.0
100
AcDbArc
 50
0.0
 51
90.0
  0
LINE
  5
2BA
100
AcDbEntity
  8
化粧台
  6
EXLTYPE2
 62
     6
100
AcDbLine
 10
1039.0
 20
1407.5
 30
0.0
 11
959.5
 21
1407.5
 31
0.0
  0
LINE
  5
2BB
100
AcDbEntity
  8
化粧台
  6
EXLTYPE2
 62
     6
100
AcDbLine
 10
1039.0
 20
1375.5
 30
0.0
 11
959.5
 21
1375.5
 31
0.0
  0
LINE
  5
2BC
100
AcDbEntity
  8
化粧台
  6
EXLTYPE2
 62
     6
100
AcDbLine
 10
1039.0
 20
1344.5
 30
0.0
 11
1039.0
 21
1375.5
 31
0.0
  0
LINE
  5
2BD
100
AcDbEntity
  8
化粧台
  6
EXLTYPE2
 62
     6
100
AcDbLine
 10
1071.0
 20
1344.5
 30
0.0
 11
1071.0
 21
1375.5
 31
0.0
  0
LINE
  5
2BE
100
AcDbEntity
  8
化粧台
  6
EXLTYPE2
 62
     6
100
AcDbLine
 10
967.0
 20
1365.0
 30
0.0
 11
967.0
 21
1354.0
 31
0.0
  0
LINE
  5
2BF
100
AcDbEntity
  8
化粧台
  6
EXLTYPE2
 62
     6
100
AcDbLine
 10
993.0
 20
1365.0
 30
0.0
 11
993.0
 21
1354.0
 31
0.0
  0
LINE
  5
2C0
100
AcDbEntity
  8
化粧台
  6
EXLTYPE2
 62
     6
100
AcDbLine
 10
967.0
 20
1365.0
 30
0.0
 11
993.0
 21
1365.0
 31
0.0
  0
LINE
  5
2C1
100
AcDbEntity
  8
化粧台
  6
EXLTYPE2
 62
     6
100
AcDbLine
 10
990.0
 20
1394.0
 30
0.0
 11
990.0
 21
1365.0
 31
0.0
  0
LINE
  5
2C2
100
AcDbEntity
  8
化粧台
  6
EXLTYPE2
 62
     6
100
AcDbLine
 10
970.0
 20
1394.0
 30
0.0
 11
970.0
 21
1365.0
 31
0.0
  0
LINE
  5
2C3
100
AcDbEntity
  8
化粧台
  6
EXLTYPE2
 62
     6
100
AcDbLine
 10
965.5
 20
1408.0
 30
0.0
 11
994.5
 21
1408.0
 31
0.0
  0
LINE
  5
2C4
100
AcDbEntity
  8
化粧台
  6
EXLTYPE2
 62
     6
100
AcDbLine
 10
965.5
 20
1394.0
 30
0.0
 11
965.5
 21
1408.0
 31
0.0
  0
LINE
  5
2C5
100
AcDbEntity
  8
化粧台
  6
EXLTYPE2
 62
     6
100
AcDbLine
 10
994.5
 20
1394.0
 30
0.0
 11
994.5
 21
1408.0
 31
0.0
  0
LINE
  5
2C6
100
AcDbEntity
  8
化粧台
  6
EXLTYPE2
 62
     6
100
AcDbLine
 10
965.5
 20
1394.0
 30
0.0
 11
994.5
 21
1394.0
 31
0.0
  0
LINE
  5
2C7
100
AcDbEntity
  8
化粧台
  6
EXLTYPE2
 62
     6
100
AcDbLine
 10
843.0
 20
1325.163691
 30
0.0
 11
843.0
 21
1336.836309
 31
0.0
  0
LINE
  5
2C8
100
AcDbEntity
  8
化粧台
  6
EXLTYPE2
 62
     6
100
AcDbLine
 10
841.554392
 20
1339.340176
 30
0.0
 11
831.445608
 21
1345.176485
 31
0.0
  0
LINE
  5
2C9
100
AcDbEntity
  8
化粧台
  6
EXLTYPE2
 62
     6
100
AcDbLine
 10
828.554392
 20
1345.176485
 30
0.0
 11
818.445608
 21
1339.340176
 31
0.0
  0
LINE
  5
2CA
100
AcDbEntity
  8
化粧台
  6
EXLTYPE2
 62
     6
100
AcDbLine
 10
817.0
 20
1336.836309
 30
0.0
 11
817.0
 21
1325.163691
 31
0.0
  0
LINE
  5
2CB
100
AcDbEntity
  8
化粧台
  6
EXLTYPE2
 62
     6
100
AcDbLine
 10
818.445608
 20
1322.659824
 30
0.0
 11
828.554392
 21
1316.823515
 31
0.0
  0
LINE
  5
2CC
100
AcDbEntity
  8
化粧台
  6
EXLTYPE2
 62
     6
100
AcDbLine
 10
831.445608
 20
1316.823515
 30
0.0
 11
841.554392
 21
1322.659824
 31
0.0
  0
ARC
  5
2CD
100
AcDbEntity
  8
化粧台
  6
EXLTYPE2
 62
     6
100
AcDbCircle
 10
830.0
 20
1331.0
 30
0.0
 40
14.25
100
AcDbArc
 50
264.177545
 51
275.822455
  0
ARC
  5
2CE
100
AcDbEntity
  8
化粧台
  6
EXLTYPE2
 62
     6
100
AcDbCircle
 10
830.0
 20
1331.0
 30
0.0
 40
14.25
100
AcDbArc
 50
324.177545
 51
335.822455
  0
ARC
  5
2CF
100
AcDbEntity
  8
化粧台
  6
EXLTYPE2
 62
     6
100
AcDbCircle
 10
830.0
 20
1331.0
 30
0.0
 40
14.25
100
AcDbArc
 50
24.177545
 51
35.822455
  0
ARC
  5
2D0
100
AcDbEntity
  8
化粧台
  6
EXLTYPE2
 62
     6
100
AcDbCircle
 10
830.0
 20
1331.0
 30
0.0
 40
14.25
100
AcDbArc
 50
144.177545
 51
155.822455
  0
ARC
  5
2D1
100
AcDbEntity
  8
化粧台
  6
EXLTYPE2
 62
     6
100
AcDbCircle
 10
830.0
 20
1331.0
 30
0.0
 40
14.25
100
AcDbArc
 50
204.177545
 51
215.822455
  0
CIRCLE
  5
2D2
100
AcDbEntity
  8
化粧台
  6
EXLTYPE2
 62
     6
100
AcDbCircle
 10
830.0
 20
1331.0
 30
0.0
 40
4.75
  0
CIRCLE
  5
2D3
100
AcDbEntity
  8
化粧台
  6
EXLTYPE2
 62
     6
100
AcDbCircle
 10
830.0
 20
1331.0
 30
0.0
 40
12.074349
  0
LINE
  5
2D4
100
AcDbEntity
  8
化粧台
  6
EXLTYPE2
 62
     6
100
AcDbLine
 10
819.5
 20
1354.0
 30
0.0
 11
819.5
 21
1339.948929
 31
0.0
  0
LINE
  5
2D5
100
AcDbEntity
  8
化粧台
  6
EXLTYPE2
 62
     6
100
AcDbLine
 10
840.5
 20
1354.0
 30
0.0
 11
840.5
 21
1339.948929
 31
0.0
  0
ARC
  5
2D6
100
AcDbEntity
  8
化粧台
  6
EXLTYPE2
 62
     6
100
AcDbCircle
 10
830.0
 20
1331.0
 30
0.0
 40
14.25
100
AcDbArc
 50
84.177545
 51
95.822455
  0
LINE
  5
2D7
100
AcDbEntity
  8
化粧台
  6
EXLTYPE2
 62
     6
100
AcDbLine
 10
817.0
 20
1365.0
 30
0.0
 11
817.0
 21
1354.0
 31
0.0
  0
LINE
  5
2D8
100
AcDbEntity
  8
化粧台
  6
EXLTYPE2
 62
     6
100
AcDbLine
 10
843.0
 20
1365.0
 30
0.0
 11
843.0
 21
1354.0
 31
0.0
  0
LINE
  5
2D9
100
AcDbEntity
  8
化粧台
  6
EXLTYPE2
 62
     6
100
AcDbLine
 10
817.0
 20
1365.0
 30
0.0
 11
843.0
 21
1365.0
 31
0.0
  0
LINE
  5
2DA
100
AcDbEntity
  8
化粧台
  6
EXLTYPE2
 62
     6
100
AcDbLine
 10
840.0
 20
1394.0
 30
0.0
 11
840.0
 21
1365.0
 31
0.0
  0
LINE
  5
2DB
100
AcDbEntity
  8
化粧台
  6
EXLTYPE2
 62
     6
100
AcDbLine
 10
820.0
 20
1394.0
 30
0.0
 11
820.0
 21
1365.0
 31
0.0
  0
LINE
  5
2DC
100
AcDbEntity
  8
化粧台
  6
EXLTYPE2
 62
     6
100
AcDbLine
 10
815.5
 20
1408.0
 30
0.0
 11
844.5
 21
1408.0
 31
0.0
  0
LINE
  5
2DD
100
AcDbEntity
  8
化粧台
  6
EXLTYPE2
 62
     6
100
AcDbLine
 10
815.5
 20
1394.0
 30
0.0
 11
815.5
 21
1408.0
 31
0.0
  0
LINE
  5
2DE
100
AcDbEntity
  8
化粧台
  6
EXLTYPE2
 62
     6
100
AcDbLine
 10
844.5
 20
1394.0
 30
0.0
 11
844.5
 21
1408.0
 31
0.0
  0
LINE
  5
2DF
100
AcDbEntity
  8
化粧台
  6
EXLTYPE2
 62
     6
100
AcDbLine
 10
815.5
 20
1394.0
 30
0.0
 11
844.5
 21
1394.0
 31
0.0
  0
LINE
  5
2E0
100
AcDbEntity
  8
化粧台
  6
EXLTYPE2
 62
     6
100
AcDbLine
 10
817.0
 20
1354.0
 30
0.0
 11
843.0
 21
1354.0
 31
0.0
  0
LINE
  5
2E1
100
AcDbEntity
  8
化粧台
  6
EXLTYPE2
 62
     6
100
AcDbLine
 10
824.0
 20
1458.874225
 30
0.0
 11
824.0
 21
1408.0
 31
0.0
  0
LINE
  5
2E2
100
AcDbEntity
  8
化粧台
  6
EXLTYPE2
 62
     6
100
AcDbLine
 10
836.0
 20
1408.0
 30
0.0
 11
836.0
 21
1458.874225
 31
0.0
  0
ARC
  5
2E3
100
AcDbEntity
  8
化粧台
  6
EXLTYPE2
 62
     6
100
AcDbCircle
 10
1036.0
 20
1458.874225
 30
0.0
 40
200.0
100
AcDbArc
 50
144.505213
 51
180.0
  0
ARC
  5
2E4
100
AcDbEntity
  8
化粧台
  6
EXLTYPE2
 62
     6
100
AcDbCircle
 10
1036.0
 20
1458.874225
 30
0.0
 40
212.0
100
AcDbArc
 50
144.269819
 51
180.0
  0
ARC
  5
2E5
100
AcDbEntity
  8
化粧台
  6
EXLTYPE2
 62
     6
100
AcDbCircle
 10
774.0
 20
1458.874225
 30
0.0
 40
200.0
100
AcDbArc
 50
0.0
 51
35.494787
  0
ARC
  5
2E6
100
AcDbEntity
  8
化粧台
  6
EXLTYPE2
 62
     6
100
AcDbCircle
 10
774.0
 20
1458.874225
 30
0.0
 40
212.0
100
AcDbArc
 50
0.0
 51
35.730181
  0
LINE
  5
2E7
100
AcDbEntity
  8
化粧台
  6
EXLTYPE2
 62
     6
100
AcDbLine
 10
974.0
 20
1458.874225
 30
0.0
 11
974.0
 21
1408.0
 31
0.0
  0
LINE
  5
2E8
100
AcDbEntity
  8
化粧台
  6
EXLTYPE2
 62
     6
100
AcDbLine
 10
986.0
 20
1408.0
 30
0.0
 11
986.0
 21
1458.874225
 31
0.0
  0
ARC
  5
2E9
100
AcDbEntity
  8
化粧台
  6
EXLTYPE2
 62
     6
100
AcDbCircle
 10
1113.678125
 20
1298.328125
 30
0.0
 40
15.471875
100
AcDbArc
 50
0.0
 51
180.0
  0
ARC
  5
2EA
100
AcDbEntity
  8
化粧台
  6
EXLTYPE2
 62
     6
100
AcDbCircle
 10
1113.678125
 20
1298.328125
 30
0.0
 40
47.171875
100
AcDbArc
 50
0.0
 51
138.405648
  0
LINE
  5
2EB
100
AcDbEntity
  8
化粧台
  6
EXLTYPE2
 62
     6
100
AcDbLine
 10
1122.2
 20
973.2
 30
0.0
 11
1167.8
 21
973.2
 31
0.0
  0
LINE
  5
2EC
100
AcDbEntity
  8
化粧台
  6
EXLTYPE2
 62
     6
100
AcDbLine
 10
1122.2
 20
991.0
 30
0.0
 11
1167.8
 21
991.0
 31
0.0
  0
LINE
  5
2ED
100
AcDbEntity
  8
化粧台
  6
EXLTYPE2
 62
     6
100
AcDbLine
 10
1167.8
 20
991.0
 30
0.0
 11
1167.8
 21
973.2
 31
0.0
  0
LINE
  5
2EE
100
AcDbEntity
  8
化粧台
  6
EXLTYPE2
 62
     6
100
AcDbLine
 10
1122.2
 20
991.0
 30
0.0
 11
1122.2
 21
973.2
 31
0.0
  0
LINE
  5
2EF
100
AcDbEntity
  8
化粧台
  6
EXLTYPE2
 62
     6
100
AcDbLine
 10
1111.5
 20
933.0
 30
0.0
 11
1178.5
 21
933.0
 31
0.0
  0
LINE
  5
2F0
100
AcDbEntity
  8
化粧台
  6
EXLTYPE2
 62
     6
100
AcDbLine
 10
1124.3
 20
973.2
 30
0.0
 11
1124.3
 21
971.0
 31
0.0
  0
LINE
  5
2F1
100
AcDbEntity
  8
化粧台
  6
EXLTYPE2
 62
     6
100
AcDbLine
 10
1165.7
 20
973.2
 30
0.0
 11
1165.7
 21
971.0
 31
0.0
  0
LINE
  5
2F2
100
AcDbEntity
  8
化粧台
  6
EXLTYPE2
 62
     6
100
AcDbLine
 10
1178.5
 20
953.0
 30
0.0
 11
1178.5
 21
933.0
 31
0.0
  0
ARC
  5
2F3
100
AcDbEntity
  8
化粧台
  6
EXLTYPE2
 62
     6
100
AcDbCircle
 10
1175.5
 20
953.0
 30
0.0
 40
3.0
100
AcDbArc
 50
0.0
 51
90.0
  0
LINE
  5
2F4
100
AcDbEntity
  8
化粧台
  6
EXLTYPE2
 62
     6
100
AcDbLine
 10
1172.0
 20
968.0
 30
0.0
 11
1172.0
 21
956.0
 31
0.0
  0
ARC
  5
2F5
100
AcDbEntity
  8
化粧台
  6
EXLTYPE2
 62
     6
100
AcDbCircle
 10
1169.0
 20
968.0
 30
0.0
 40
3.0
100
AcDbArc
 50
0.0
 51
90.0
  0
LINE
  5
2F6
100
AcDbEntity
  8
化粧台
  6
EXLTYPE2
 62
     6
100
AcDbLine
 10
1118.0
 20
968.0
 30
0.0
 11
1118.0
 21
956.0
 31
0.0
  0
LINE
  5
2F7
100
AcDbEntity
  8
化粧台
  6
EXLTYPE2
 62
     6
100
AcDbLine
 10
1121.0
 20
971.0
 30
0.0
 11
1169.0
 21
971.0
 31
0.0
  0
ARC
  5
2F8
100
AcDbEntity
  8
化粧台
  6
EXLTYPE2
 62
     6
100
AcDbCircle
 10
1121.0
 20
968.0
 30
0.0
 40
3.0
100
AcDbArc
 50
90.0
 51
180.0
  0
LINE
  5
2F9
100
AcDbEntity
  8
化粧台
  6
EXLTYPE2
 62
     6
100
AcDbLine
 10
1111.5
 20
953.0
 30
0.0
 11
1111.5
 21
933.0
 31
0.0
  0
LINE
  5
2FA
100
AcDbEntity
  8
化粧台
  6
EXLTYPE2
 62
     6
100
AcDbLine
 10
1114.5
 20
956.0
 30
0.0
 11
1175.5
 21
956.0
 31
0.0
  0
ARC
  5
2FB
100
AcDbEntity
  8
化粧台
  6
EXLTYPE2
 62
     6
100
AcDbCircle
 10
1114.5
 20
953.0
 30
0.0
 40
3.0
100
AcDbArc
 50
90.0
 51
180.0
  0
LINE
  5
2FC
100
AcDbEntity
  8
化粧台
  6
EXLTYPE2
 62
     6
100
AcDbLine
 10
1134.399288
 20
989.0
 30
0.0
 11
1134.399288
 21
973.2
 31
0.0
  0
LINE
  5
2FD
100
AcDbEntity
  8
化粧台
  6
EXLTYPE2
 62
     6
100
AcDbLine
 10
1137.191671
 20
989.0
 30
0.0
 11
1137.191671
 21
973.2
 31
0.0
  0
LINE
  5
2FE
100
AcDbEntity
  8
化粧台
  6
EXLTYPE2
 62
     6
100
AcDbLine
 10
1152.808329
 20
989.0
 30
0.0
 11
1152.808329
 21
973.2
 31
0.0
  0
LINE
  5
2FF
100
AcDbEntity
  8
化粧台
  6
EXLTYPE2
 62
     6
100
AcDbLine
 10
1155.600712
 20
989.0
 30
0.0
 11
1155.600712
 21
973.2
 31
0.0
  0
LINE
  5
300
100
AcDbEntity
  8
化粧台
  6
EXLTYPE2
 62
     6
100
AcDbLine
 10
1123.356643
 20
989.0
 30
0.0
 11
1123.356643
 21
973.2
 31
0.0
  0
LINE
  5
301
100
AcDbEntity
  8
化粧台
  6
EXLTYPE2
 62
     6
100
AcDbLine
 10
1166.643357
 20
989.0
 30
0.0
 11
1166.643357
 21
973.2
 31
0.0
  0
LINE
  5
302
100
AcDbEntity
  8
化粧台
  6
EXLTYPE2
 62
     6
100
AcDbLine
 10
1160.85
 20
911.0
 30
0.0
 11
1160.85
 21
1298.328125
 31
0.0
  0
LINE
  5
303
100
AcDbEntity
  8
化粧台
  6
EXLTYPE2
 62
     6
100
AcDbLine
 10
1129.15
 20
1298.328125
 30
0.0
 11
1129.15
 21
911.0
 31
0.0
  0
LINE
  5
304
100
AcDbEntity
  8
化粧台
  6
EXLTYPE2
 62
     6
100
AcDbLine
 10
1036.5
 20
1326.5
 30
0.0
 11
1036.5
 21
1291.5
 31
0.0
  0
LINE
  5
305
100
AcDbEntity
  8
化粧台
  6
EXLTYPE2
 62
     6
100
AcDbLine
 10
1073.5
 20
1326.5
 30
0.0
 11
1073.5
 21
1291.5
 31
0.0
  0
LINE
  5
306
100
AcDbEntity
  8
化粧台
  6
EXLTYPE2
 62
     6
100
AcDbLine
 10
1039.15
 20
1288.85
 30
0.0
 11
1039.15
 21
1251.093255
 31
0.0
  0
LINE
  5
307
100
AcDbEntity
  8
化粧台
  6
EXLTYPE2
 62
     6
100
AcDbLine
 10
1070.85
 20
1288.85
 30
0.0
 11
1070.85
 21
1248.5
 31
0.0
  0
LINE
  5
308
100
AcDbEntity
  8
化粧台
  6
EXLTYPE2
 62
     6
100
AcDbLine
 10
1070.85
 20
1253.5
 30
0.0
 11
1086.178125
 21
1253.5
 31
0.0
  0
LINE
  5
309
100
AcDbEntity
  8
化粧台
  6
EXLTYPE2
 62
     6
100
AcDbLine
 10
1100.85625
 20
1278.5
 30
0.0
 11
1100.85625
 21
1248.5
 31
0.0
  0
LINE
  5
30A
100
AcDbEntity
  8
化粧台
  6
EXLTYPE2
 62
     6
100
AcDbLine
 10
1051.178125
 20
1223.525322
 30
0.0
 11
1051.178125
 21
1219.0
 31
0.0
  0
LINE
  5
30B
100
AcDbEntity
  8
化粧台
  6
EXLTYPE2
 62
     6
100
AcDbLine
 10
1086.178125
 20
1253.5
 30
0.0
 11
1086.178125
 21
1219.0
 31
0.0
  0
LINE
  5
30C
100
AcDbEntity
  8
化粧台
  6
EXLTYPE2
 62
     6
100
AcDbLine
 10
1073.5
 20
1291.5
 30
0.0
 11
1070.85
 21
1288.85
 31
0.0
  0
LINE
  5
30D
100
AcDbEntity
  8
化粧台
  6
EXLTYPE2
 62
     6
100
AcDbLine
 10
1036.5
 20
1291.5
 30
0.0
 11
1039.15
 21
1288.85
 31
0.0
  0
LINE
  5
30E
100
AcDbEntity
  8
化粧台
  6
EXLTYPE2
 62
     6
100
AcDbLine
 10
1086.75625
 20
1248.5
 30
0.0
 11
1100.85625
 21
1248.5
 31
0.0
  0
LINE
  5
30F
100
AcDbEntity
  8
化粧台
  6
EXLTYPE2
 62
     6
100
AcDbLine
 10
1031.6
 20
1326.5
 30
0.0
 11
1078.4
 21
1326.5
 31
0.0
  0
LINE
  5
310
100
AcDbEntity
  8
化粧台
  6
EXLTYPE2
 62
     6
100
AcDbLine
 10
1033.6
 20
1344.5
 30
0.0
 11
1076.4
 21
1344.5
 31
0.0
  0
LINE
  5
311
100
AcDbEntity
  8
化粧台
  6
EXLTYPE2
 62
     6
100
AcDbLine
 10
1031.6
 20
1342.5
 30
0.0
 11
1031.6
 21
1326.5
 31
0.0
  0
LINE
  5
312
100
AcDbEntity
  8
化粧台
  6
EXLTYPE2
 62
     6
100
AcDbLine
 10
1078.4
 20
1342.5
 30
0.0
 11
1078.4
 21
1326.5
 31
0.0
  0
ARC
  5
313
100
AcDbEntity
  8
化粧台
  6
EXLTYPE2
 62
     6
100
AcDbCircle
 10
1033.6
 20
1342.5
 30
0.0
 40
2.0
100
AcDbArc
 50
90.0
 51
180.0
  0
ARC
  5
314
100
AcDbEntity
  8
化粧台
  6
EXLTYPE2
 62
     6
100
AcDbCircle
 10
1076.4
 20
1342.5
 30
0.0
 40
2.0
100
AcDbArc
 50
0.0
 51
90.0
  0
LINE
  5
315
100
AcDbEntity
  8
化粧台
  6
EXLTYPE2
 62
     6
100
AcDbLine
 10
1070.85
 20
1278.5
 30
0.0
 11
1105.75625
 21
1278.5
 31
0.0
  0
LINE
  5
316
100
AcDbEntity
  8
化粧台
  6
EXLTYPE2
 62
     6
100
AcDbLine
 10
1073.5
 20
1296.5
 30
0.0
 11
1103.75625
 21
1296.5
 31
0.0
  0
LINE
  5
317
100
AcDbEntity
  8
化粧台
  6
EXLTYPE2
 62
     6
100
AcDbLine
 10
1105.75625
 20
1294.5
 30
0.0
 11
1105.75625
 21
1278.5
 31
0.0
  0
ARC
  5
318
100
AcDbEntity
  8
化粧台
  6
EXLTYPE2
 62
     6
100
AcDbCircle
 10
1103.75625
 20
1294.5
 30
0.0
 40
2.0
100
AcDbArc
 50
0.0
 51
90.0
  0
LINE
  5
319
100
AcDbEntity
  8
化粧台
  6
EXLTYPE2
 62
     6
100
AcDbLine
 10
1045.678125
 20
1219.0
 30
0.0
 11
1091.678125
 21
1219.0
 31
0.0
  0
LINE
  5
31A
100
AcDbEntity
  8
化粧台
  6
EXLTYPE2
 62
     6
100
AcDbLine
 10
1047.178125
 20
1202.5
 30
0.0
 11
1090.178125
 21
1202.5
 31
0.0
  0
LINE
  5
31B
100
AcDbEntity
  8
化粧台
  6
EXLTYPE2
 62
     6
100
AcDbLine
 10
1091.678125
 20
1204.0
 30
0.0
 11
1091.678125
 21
1219.0
 31
0.0
  0
LINE
  5
31C
100
AcDbEntity
  8
化粧台
  6
EXLTYPE2
 62
     6
100
AcDbLine
 10
1045.678125
 20
1204.0
 30
0.0
 11
1045.678125
 21
1219.0
 31
0.0
  0
ARC
  5
31D
100
AcDbEntity
  8
化粧台
  6
EXLTYPE2
 62
     6
100
AcDbCircle
 10
1047.178125
 20
1204.0
 30
0.0
 40
1.5
100
AcDbArc
 50
180.0
 51
270.0
  0
ARC
  5
31E
100
AcDbEntity
  8
化粧台
  6
EXLTYPE2
 62
     6
100
AcDbCircle
 10
1090.178125
 20
1204.0
 30
0.0
 40
1.5
100
AcDbArc
 50
270.0
 51
0.0
  0
LINE
  5
31F
100
AcDbEntity
  8
化粧台
  6
EXLTYPE2
 62
     6
100
AcDbLine
 10
1039.15
 20
1288.85
 30
0.0
 11
1070.85
 21
1288.85
 31
0.0
  0
ARC
  5
320
100
AcDbEntity
  8
化粧台
  6
EXLTYPE2
 62
     6
100
AcDbCircle
 10
1079.15
 20
1251.093255
 30
0.0
 40
40.0
100
AcDbArc
 50
180.0
 51
216.143789
  0
ARC
  5
321
100
AcDbEntity
  8
化粧台
  6
EXLTYPE2
 62
     6
100
AcDbCircle
 10
1058.961516
 20
1236.347912
 30
0.0
 40
15.0
100
AcDbArc
 50
216.143789
 51
310.373975
  0
ARC
  5
322
100
AcDbEntity
  8
化粧台
  6
EXLTYPE2
 62
     6
100
AcDbCircle
 10
1056.595911
 20
1249.423829
 30
0.0
 40
40.0
100
AcDbArc
 50
317.693553
 51
358.676594
  0
LINE
  5
323
100
AcDbEntity
  8
化粧台
  6
EXLTYPE2
 62
     6
100
AcDbLine
 10
1098.20625
 20
1298.328125
 30
0.0
 11
1098.20625
 21
1296.5
 31
0.0
  0
LINE
  5
324
100
AcDbEntity
  8
化粧台
  6
EXLTYPE2
 62
     6
100
AcDbLine
 10
1037.870011
 20
1342.5
 30
0.0
 11
1037.870011
 21
1326.5
 31
0.0
  0
LINE
  5
325
100
AcDbEntity
  8
化粧台
  6
EXLTYPE2
 62
     6
100
AcDbLine
 10
1048.729989
 20
1342.5
 30
0.0
 11
1048.729989
 21
1326.5
 31
0.0
  0
LINE
  5
326
100
AcDbEntity
  8
化粧台
  6
EXLTYPE2
 62
     6
100
AcDbLine
 10
1061.270011
 20
1342.5
 30
0.0
 11
1061.270011
 21
1326.5
 31
0.0
  0
LINE
  5
327
100
AcDbEntity
  8
化粧台
  6
EXLTYPE2
 62
     6
100
AcDbLine
 10
1072.129989
 20
1342.5
 30
0.0
 11
1072.129989
 21
1326.5
 31
0.0
  0
LINE
  5
328
100
AcDbEntity
  8
化粧台
  6
EXLTYPE2
 62
     6
100
AcDbLine
 10
1076.086239
 20
1294.5
 30
0.0
 11
1076.086239
 21
1278.5
 31
0.0
  0
LINE
  5
329
100
AcDbEntity
  8
化粧台
  6
EXLTYPE2
 62
     6
100
AcDbLine
 10
1088.626261
 20
1294.5
 30
0.0
 11
1088.626261
 21
1278.5
 31
0.0
  0
LINE
  5
32A
100
AcDbEntity
  8
化粧台
  6
EXLTYPE2
 62
     6
100
AcDbLine
 10
1099.486239
 20
1294.5
 30
0.0
 11
1099.486239
 21
1278.5
 31
0.0
  0
LINE
  5
32B
100
AcDbEntity
  8
化粧台
  6
EXLTYPE2
 62
     6
100
AcDbLine
 10
1047.824466
 20
1202.5
 30
0.0
 11
1047.824466
 21
1219.0
 31
0.0
  0
LINE
  5
32C
100
AcDbEntity
  8
化粧台
  6
EXLTYPE2
 62
     6
100
AcDbLine
 10
1089.531784
 20
1202.5
 30
0.0
 11
1089.531784
 21
1219.0
 31
0.0
  0
LINE
  5
32D
100
AcDbEntity
  8
化粧台
  6
EXLTYPE2
 62
     6
100
AcDbLine
 10
1060.394586
 20
1204.0
 30
0.0
 11
1060.394586
 21
1219.0
 31
0.0
  0
LINE
  5
32E
100
AcDbEntity
  8
化粧台
  6
EXLTYPE2
 62
     6
100
AcDbLine
 10
1076.961664
 20
1204.0
 30
0.0
 11
1076.961664
 21
1219.0
 31
0.0
  0
LINE
  5
32F
100
AcDbEntity
  8
化粧台
  6
EXLTYPE2
 62
     6
100
AcDbLine
 10
1055.928125
 20
1219.0
 30
0.0
 11
1055.928125
 21
1204.0
 31
0.0
  0
LINE
  5
330
100
AcDbEntity
  8
化粧台
  6
EXLTYPE2
 62
     6
100
AcDbLine
 10
1081.428125
 20
1219.0
 30
0.0
 11
1081.428125
 21
1204.0
 31
0.0
  0
LINE
  5
331
100
AcDbEntity
  8
化粧台
  6
EXLTYPE2
 62
     6
100
AcDbLine
 10
993.0
 20
1325.163691
 30
0.0
 11
993.0
 21
1336.836309
 31
0.0
  0
LINE
  5
332
100
AcDbEntity
  8
化粧台
  6
EXLTYPE2
 62
     6
100
AcDbLine
 10
991.554392
 20
1339.340176
 30
0.0
 11
981.445608
 21
1345.176485
 31
0.0
  0
LINE
  5
333
100
AcDbEntity
  8
化粧台
  6
EXLTYPE2
 62
     6
100
AcDbLine
 10
978.554392
 20
1345.176485
 30
0.0
 11
968.445608
 21
1339.340176
 31
0.0
  0
LINE
  5
334
100
AcDbEntity
  8
化粧台
  6
EXLTYPE2
 62
     6
100
AcDbLine
 10
967.0
 20
1336.836309
 30
0.0
 11
967.0
 21
1325.163691
 31
0.0
  0
LINE
  5
335
100
AcDbEntity
  8
化粧台
  6
EXLTYPE2
 62
     6
100
AcDbLine
 10
968.445608
 20
1322.659824
 30
0.0
 11
978.554392
 21
1316.823515
 31
0.0
  0
LINE
  5
336
100
AcDbEntity
  8
化粧台
  6
EXLTYPE2
 62
     6
100
AcDbLine
 10
981.445608
 20
1316.823515
 30
0.0
 11
991.554392
 21
1322.659824
 31
0.0
  0
ARC
  5
337
100
AcDbEntity
  8
化粧台
  6
EXLTYPE2
 62
     6
100
AcDbCircle
 10
980.0
 20
1331.0
 30
0.0
 40
14.25
100
AcDbArc
 50
264.177545
 51
275.822455
  0
ARC
  5
338
100
AcDbEntity
  8
化粧台
  6
EXLTYPE2
 62
     6
100
AcDbCircle
 10
980.0
 20
1331.0
 30
0.0
 40
14.25
100
AcDbArc
 50
324.177545
 51
335.822455
  0
ARC
  5
339
100
AcDbEntity
  8
化粧台
  6
EXLTYPE2
 62
     6
100
AcDbCircle
 10
980.0
 20
1331.0
 30
0.0
 40
14.25
100
AcDbArc
 50
24.177545
 51
35.822455
  0
ARC
  5
33A
100
AcDbEntity
  8
化粧台
  6
EXLTYPE2
 62
     6
100
AcDbCircle
 10
980.0
 20
1331.0
 30
0.0
 40
14.25
100
AcDbArc
 50
144.177545
 51
155.822455
  0
ARC
  5
33B
100
AcDbEntity
  8
化粧台
  6
EXLTYPE2
 62
     6
100
AcDbCircle
 10
980.0
 20
1331.0
 30
0.0
 40
14.25
100
AcDbArc
 50
204.177545
 51
215.822455
  0
CIRCLE
  5
33C
100
AcDbEntity
  8
化粧台
  6
EXLTYPE2
 62
     6
100
AcDbCircle
 10
980.0
 20
1331.0
 30
0.0
 40
4.75
  0
CIRCLE
  5
33D
100
AcDbEntity
  8
化粧台
  6
EXLTYPE2
 62
     6
100
AcDbCircle
 10
980.0
 20
1331.0
 30
0.0
 40
12.074349
  0
LINE
  5
33E
100
AcDbEntity
  8
化粧台
  6
EXLTYPE2
 62
     6
100
AcDbLine
 10
969.5
 20
1354.0
 30
0.0
 11
969.5
 21
1339.948929
 31
0.0
  0
LINE
  5
33F
100
AcDbEntity
  8
化粧台
  6
EXLTYPE2
 62
     6
100
AcDbLine
 10
990.5
 20
1354.0
 30
0.0
 11
990.5
 21
1339.948929
 31
0.0
  0
ARC
  5
340
100
AcDbEntity
  8
化粧台
  6
EXLTYPE2
 62
     6
100
AcDbCircle
 10
980.0
 20
1331.0
 30
0.0
 40
14.25
100
AcDbArc
 50
84.177545
 51
95.822455
  0
LINE
  5
341
100
AcDbEntity
  8
化粧台
  6
EXLTYPE2
 62
     6
100
AcDbLine
 10
967.0
 20
1354.0
 30
0.0
 11
993.0
 21
1354.0
 31
0.0
  0
LINE
  5
342
100
AcDbEntity
  8
化粧台
  6
CONTINUOUS
 62
     6
100
AcDbLine
 10
800.0
 20
1331.0
 30
0.0
 11
860.0
 21
1331.0
 31
0.0
  0
LINE
  5
343
100
AcDbEntity
  8
化粧台
  6
CONTINUOUS
 62
     6
100
AcDbLine
 10
830.0
 20
1361.0
 30
0.0
 11
830.0
 21
1301.0
 31
0.0
  0
LINE
  5
344
100
AcDbEntity
  8
化粧台
  6
CONTINUOUS
 62
     6
100
AcDbLine
 10
950.0
 20
1331.0
 30
0.0
 11
1010.0
 21
1331.0
 31
0.0
  0
LINE
  5
345
100
AcDbEntity
  8
化粧台
  6
CONTINUOUS
 62
     6
100
AcDbLine
 10
980.0
 20
1361.0
 30
0.0
 11
980.0
 21
1301.0
 31
0.0
  0
LINE
  5
346
100
AcDbEntity
  8
化粧台
  6
EXLTYPE3
 62
     6
100
AcDbLine
 10
905.0
 20
1893.0
 30
0.0
 11
905.0
 21
896.0
 31
0.0
  0
LINE
  5
347
100
AcDbEntity
  8
化粧台
  6
CONTINUOUS
 62
     2
100
AcDbLine
 10
1129.15
 20
846.5
 30
0.0
 11
1160.85
 21
846.5
 31
0.0
  0
LINE
  5
348
100
AcDbEntity
  8
化粧台
  6
CONTINUOUS
 62
     2
100
AcDbLine
 10
1160.85
 20
846.5
 30
0.0
 11
1160.85
 21
911.0
 31
0.0
  0
LINE
  5
349
100
AcDbEntity
  8
化粧台
  6
CONTINUOUS
 62
     2
100
AcDbLine
 10
1129.15
 20
911.0
 30
0.0
 11
1129.15
 21
846.5
 31
0.0
  0
LINE
  5
34A
100
AcDbEntity
  8
化粧台
  6
EXLTYPE3
 62
     6
100
AcDbLine
 10
1145.0
 20
1088.5
 30
0.0
 11
1145.0
 21
831.5
 31
0.0
  0
LINE
  5
34B
100
AcDbEntity
  8
化粧台
  6
EXLTYPE2
 62
     6
100
AcDbLine
 10
780.0
 20
1051.0
 30
0.0
 11
1030.0
 21
1051.0
 31
0.0
  0
LINE
  5
34C
100
AcDbEntity
  8
化粧台
  6
EXLTYPE2
 62
     6
100
AcDbLine
 10
780.0
 20
1016.0
 30
0.0
 11
1030.0
 21
1016.0
 31
0.0
  0
LINE
  5
34D
100
AcDbEntity
  8
化粧台
  6
EXLTYPE2
 62
     6
100
AcDbLine
 10
780.0
 20
1051.0
 30
0.0
 11
780.0
 21
1016.0
 31
0.0
  0
LINE
  5
34E
100
AcDbEntity
  8
化粧台
  6
EXLTYPE2
 62
     6
100
AcDbLine
 10
1030.0
 20
1051.0
 30
0.0
 11
1030.0
 21
1016.0
 31
0.0
  0
LINE
  5
34F
100
AcDbEntity
  8
化粧台
  6
EXLTYPE4
 62
     6
100
AcDbLine
 10
2535.0
 20
911.0
 30
0.0
 11
1906.5
 21
911.0
 31
0.0
  0
TEXT
  5
350
100
AcDbEntity
  8
化粧台
  6
CONTINUOUS
 62
     2
100
AcDbText
 10
1906.5
 20
911.0
 30
0.0
 40
60.0
  1
F.L.
 41
0.4125
  7
EXCADSTD
 72
     5
 11
1997.2434
 21
911.0
 31
0.0
100
AcDbText
  0
LINE
  5
351
100
AcDbEntity
  8
化粧台
  6
CONTINUOUS
 62
     2
100
AcDbLine
 10
2535.0
 20
1610.0
 30
0.0
 11
2535.0
 21
1591.0
 31
0.0
  0
ARC
  5
352
100
AcDbEntity
  8
化粧台
  6
CONTINUOUS
 62
     2
100
AcDbCircle
 10
2087.0
 20
1608.0
 30
0.0
 40
2.0
100
AcDbArc
 50
90.0
 51
180.0
  0
LINE
  5
353
100
AcDbEntity
  8
化粧台
  6
CONTINUOUS
 62
     2
100
AcDbLine
 10
2085.0
 20
1608.0
 30
0.0
 11
2085.0
 21
1593.0
 31
0.0
  0
ARC
  5
354
100
AcDbEntity
  8
化粧台
  6
CONTINUOUS
 62
     2
100
AcDbCircle
 10
2087.0
 20
1593.0
 30
0.0
 40
2.0
100
AcDbArc
 50
180.0
 51
270.0
  0
LINE
  5
355
100
AcDbEntity
  8
化粧台
  6
CONTINUOUS
 62
     2
100
AcDbLine
 10
2110.0
 20
911.0
 30
0.0
 11
2535.0
 21
911.0
 31
0.0
  0
LINE
  5
356
100
AcDbEntity
  8
化粧台
  6
CONTINUOUS
 62
     2
100
AcDbLine
 10
2535.0
 20
911.0
 30
0.0
 11
2535.0
 21
1591.0
 31
0.0
  0
LINE
  5
357
100
AcDbEntity
  8
化粧台
  6
CONTINUOUS
 62
     2
100
AcDbLine
 10
2110.0
 20
911.0
 30
0.0
 11
2110.0
 21
1591.0
 31
0.0
  0
LINE
  5
358
100
AcDbEntity
  8
化粧台
  6
CONTINUOUS
 62
     2
100
AcDbLine
 10
2089.5
 20
1001.0
 30
0.0
 11
2106.5
 21
1001.0
 31
0.0
  0
LINE
  5
359
100
AcDbEntity
  8
化粧台
  6
CONTINUOUS
 62
     2
100
AcDbLine
 10
2089.5
 20
1411.0
 30
0.0
 11
2106.5
 21
1411.0
 31
0.0
  0
LINE
  5
35A
100
AcDbEntity
  8
化粧台
  6
CONTINUOUS
 62
     2
100
AcDbLine
 10
2089.5
 20
1556.0
 30
0.0
 11
2106.5
 21
1556.0
 31
0.0
  0
LINE
  5
35B
100
AcDbEntity
  8
化粧台
  6
CONTINUOUS
 62
     2
100
AcDbLine
 10
2089.5
 20
1411.0
 30
0.0
 11
2089.5
 21
1556.0
 31
0.0
  0
LINE
  5
35C
100
AcDbEntity
  8
化粧台
  6
CONTINUOUS
 62
     2
100
AcDbLine
 10
2106.5
 20
1411.0
 30
0.0
 11
2106.5
 21
1556.0
 31
0.0
  0
LINE
  5
35D
100
AcDbEntity
  8
化粧台
  6
CONTINUOUS
 62
     6
100
AcDbLine
 10
2088.5
 20
1556.0
 30
0.0
 11
2106.5
 21
1556.0
 31
0.0
  0
ARC
  5
35E
100
AcDbEntity
  8
化粧台
  6
CONTINUOUS
 62
     6
100
AcDbCircle
 10
2105.15
 20
1582.95
 30
0.0
 40
1.0
100
AcDbArc
 50
0.0
 51
90.0
  0
ARC
  5
35F
100
AcDbEntity
  8
化粧台
  6
CONTINUOUS
 62
     6
100
AcDbCircle
 10
2105.0
 20
1583.0
 30
0.0
 40
3.0
100
AcDbArc
 50
0.0
 51
90.0
  0
ARC
  5
360
100
AcDbEntity
  8
化粧台
  6
CONTINUOUS
 62
     6
100
AcDbCircle
 10
2088.75
 20
1577.75
 30
0.0
 40
1.75
100
AcDbArc
 50
170.744962
 51
68.766314
  0
ARC
  5
361
100
AcDbEntity
  8
化粧台
  6
CONTINUOUS
 62
     6
100
AcDbCircle
 10
2101.827515
 20
1575.619011
 30
0.0
 40
13.0
100
AcDbArc
 50
142.344254
 51
163.178039
  0
ARC
  5
362
100
AcDbEntity
  8
化粧台
  6
CONTINUOUS
 62
     6
100
AcDbCircle
 10
2092.327167
 20
1582.95
 30
0.0
 40
1.0
100
AcDbArc
 50
90.0
 51
142.344254
  0
ARC
  5
363
100
AcDbEntity
  8
化粧台
  6
CONTINUOUS
 62
     6
100
AcDbCircle
 10
2101.827515
 20
1575.619011
 30
0.0
 40
15.0
100
AcDbArc
 50
142.042092
 51
170.744962
  0
ARC
  5
364
100
AcDbEntity
  8
化粧台
  6
CONTINUOUS
 62
     6
100
AcDbCircle
 10
2092.365961
 20
1583.0
 30
0.0
 40
3.0
100
AcDbArc
 50
90.0
 51
142.042092
  0
LINE
  5
365
100
AcDbEntity
  8
化粧台
  6
CONTINUOUS
 62
     6
100
AcDbLine
 10
2092.365961
 20
1586.0
 30
0.0
 11
2105.0
 21
1586.0
 31
0.0
  0
LINE
  5
366
100
AcDbEntity
  8
化粧台
  6
CONTINUOUS
 62
     6
100
AcDbLine
 10
2092.327167
 20
1583.95
 30
0.0
 11
2105.15
 21
1583.95
 31
0.0
  0
LINE
  5
367
100
AcDbEntity
  8
化粧台
  6
CONTINUOUS
 62
     6
100
AcDbLine
 10
2106.15
 20
1582.95
 30
0.0
 11
2106.15
 21
1566.560271
 31
0.0
  0
LINE
  5
368
100
AcDbEntity
  8
化粧台
  6
CONTINUOUS
 62
     6
100
AcDbLine
 10
2106.5
 20
1556.0
 30
0.0
 11
2106.5
 21
1541.0
 31
0.0
  0
LINE
  5
369
100
AcDbEntity
  8
化粧台
  6
CONTINUOUS
 62
     6
100
AcDbLine
 10
2087.950253
 20
1558.042314
 30
0.0
 11
2098.547979
 21
1558.570176
 31
0.0
  0
ARC
  5
36A
100
AcDbEntity
  8
化粧台
  6
CONTINUOUS
 62
     6
100
AcDbCircle
 10
2098.15
 20
1566.560271
 30
0.0
 40
8.0
100
AcDbArc
 50
272.851492
 51
0.0
  0
ARC
  5
36B
100
AcDbEntity
  8
化粧台
  6
CONTINUOUS
 62
     6
100
AcDbCircle
 10
2088.0
 20
1557.043552
 30
0.0
 40
1.0
100
AcDbArc
 50
92.851492
 51
180.0
  0
ARC
  5
36C
100
AcDbEntity
  8
化粧台
  6
CONTINUOUS
 62
     6
100
AcDbCircle
 10
2107.0
 20
1542.0
 30
0.0
 40
1.0
100
AcDbArc
 50
270.0
 51
0.0
  0
LINE
  5
36D
100
AcDbEntity
  8
化粧台
  6
CONTINUOUS
 62
     6
100
AcDbLine
 10
2108.0
 20
1583.0
 30
0.0
 11
2108.0
 21
1542.0
 31
0.0
  0
LINE
  5
36E
100
AcDbEntity
  8
化粧台
  6
CONTINUOUS
 62
     6
100
AcDbLine
 10
2106.5
 20
1541.0
 30
0.0
 11
2107.0
 21
1541.0
 31
0.0
  0
ARC
  5
36F
100
AcDbEntity
  8
化粧台
  6
CONTINUOUS
 62
     6
100
AcDbCircle
 10
2088.0
 20
1555.0
 30
0.0
 40
1.0
100
AcDbArc
 50
180.0
 51
270.0
  0
LINE
  5
370
100
AcDbEntity
  8
化粧台
  6
CONTINUOUS
 62
     6
100
AcDbLine
 10
2088.5
 20
1554.0
 30
0.0
 11
2088.0
 21
1554.0
 31
0.0
  0
LINE
  5
371
100
AcDbEntity
  8
化粧台
  6
CONTINUOUS
 62
     6
100
AcDbLine
 10
2087.0
 20
1557.043552
 30
0.0
 11
2087.0
 21
1555.0
 31
0.0
  0
LINE
  5
372
100
AcDbEntity
  8
化粧台
  6
CONTINUOUS
 62
     6
100
AcDbLine
 10
2088.5
 20
1556.0
 30
0.0
 11
2088.5
 21
1554.0
 31
0.0
  0
LINE
  5
373
100
AcDbEntity
  8
化粧台
  6
CONTINUOUS
 62
     2
100
AcDbLine
 10
2089.5
 20
1377.0
 30
0.0
 11
2106.5
 21
1377.0
 31
0.0
  0
LINE
  5
374
100
AcDbEntity
  8
化粧台
  6
CONTINUOUS
 62
     2
100
AcDbLine
 10
2089.5
 20
1001.0
 30
0.0
 11
2089.5
 21
1377.0
 31
0.0
  0
LINE
  5
375
100
AcDbEntity
  8
化粧台
  6
CONTINUOUS
 62
     2
100
AcDbLine
 10
2106.5
 20
1001.0
 30
0.0
 11
2106.5
 21
1377.0
 31
0.0
  0
LINE
  5
376
100
AcDbEntity
  8
化粧台
  6
CONTINUOUS
 62
     6
100
AcDbLine
 10
2088.5
 20
1377.0
 30
0.0
 11
2106.5
 21
1377.0
 31
0.0
  0
ARC
  5
377
100
AcDbEntity
  8
化粧台
  6
CONTINUOUS
 62
     6
100
AcDbCircle
 10
2105.15
 20
1403.95
 30
0.0
 40
1.0
100
AcDbArc
 50
0.0
 51
90.0
  0
ARC
  5
378
100
AcDbEntity
  8
化粧台
  6
CONTINUOUS
 62
     6
100
AcDbCircle
 10
2105.0
 20
1404.0
 30
0.0
 40
3.0
100
AcDbArc
 50
0.0
 51
90.0
  0
ARC
  5
379
100
AcDbEntity
  8
化粧台
  6
CONTINUOUS
 62
     6
100
AcDbCircle
 10
2088.75
 20
1398.75
 30
0.0
 40
1.75
100
AcDbArc
 50
170.744962
 51
68.766314
  0
ARC
  5
37A
100
AcDbEntity
  8
化粧台
  6
CONTINUOUS
 62
     6
100
AcDbCircle
 10
2101.827515
 20
1396.619011
 30
0.0
 40
13.0
100
AcDbArc
 50
142.344254
 51
163.178039
  0
ARC
  5
37B
100
AcDbEntity
  8
化粧台
  6
CONTINUOUS
 62
     6
100
AcDbCircle
 10
2092.327167
 20
1403.95
 30
0.0
 40
1.0
100
AcDbArc
 50
90.0
 51
142.344254
  0
ARC
  5
37C
100
AcDbEntity
  8
化粧台
  6
CONTINUOUS
 62
     6
100
AcDbCircle
 10
2101.827515
 20
1396.619011
 30
0.0
 40
15.0
100
AcDbArc
 50
142.042092
 51
170.744962
  0
ARC
  5
37D
100
AcDbEntity
  8
化粧台
  6
CONTINUOUS
 62
     6
100
AcDbCircle
 10
2092.365961
 20
1404.0
 30
0.0
 40
3.0
100
AcDbArc
 50
90.0
 51
142.042092
  0
LINE
  5
37E
100
AcDbEntity
  8
化粧台
  6
CONTINUOUS
 62
     6
100
AcDbLine
 10
2092.365961
 20
1407.0
 30
0.0
 11
2105.0
 21
1407.0
 31
0.0
  0
LINE
  5
37F
100
AcDbEntity
  8
化粧台
  6
CONTINUOUS
 62
     6
100
AcDbLine
 10
2092.327167
 20
1404.95
 30
0.0
 11
2105.15
 21
1404.95
 31
0.0
  0
LINE
  5
380
100
AcDbEntity
  8
化粧台
  6
CONTINUOUS
 62
     6
100
AcDbLine
 10
2106.15
 20
1403.95
 30
0.0
 11
2106.15
 21
1387.560271
 31
0.0
  0
LINE
  5
381
100
AcDbEntity
  8
化粧台
  6
CONTINUOUS
 62
     6
100
AcDbLine
 10
2106.5
 20
1377.0
 30
0.0
 11
2106.5
 21
1362.0
 31
0.0
  0
LINE
  5
382
100
AcDbEntity
  8
化粧台
  6
CONTINUOUS
 62
     6
100
AcDbLine
 10
2087.950253
 20
1379.042314
 30
0.0
 11
2098.547979
 21
1379.570176
 31
0.0
  0
ARC
  5
383
100
AcDbEntity
  8
化粧台
  6
CONTINUOUS
 62
     6
100
AcDbCircle
 10
2098.15
 20
1387.560271
 30
0.0
 40
8.0
100
AcDbArc
 50
272.851492
 51
0.0
  0
ARC
  5
384
100
AcDbEntity
  8
化粧台
  6
CONTINUOUS
 62
     6
100
AcDbCircle
 10
2088.0
 20
1378.043552
 30
0.0
 40
1.0
100
AcDbArc
 50
92.851492
 51
180.0
  0
ARC
  5
385
100
AcDbEntity
  8
化粧台
  6
CONTINUOUS
 62
     6
100
AcDbCircle
 10
2107.0
 20
1363.0
 30
0.0
 40
1.0
100
AcDbArc
 50
270.0
 51
0.0
  0
LINE
  5
386
100
AcDbEntity
  8
化粧台
  6
CONTINUOUS
 62
     6
100
AcDbLine
 10
2108.0
 20
1404.0
 30
0.0
 11
2108.0
 21
1363.0
 31
0.0
  0
LINE
  5
387
100
AcDbEntity
  8
化粧台
  6
CONTINUOUS
 62
     6
100
AcDbLine
 10
2106.5
 20
1362.0
 30
0.0
 11
2107.0
 21
1362.0
 31
0.0
  0
ARC
  5
388
100
AcDbEntity
  8
化粧台
  6
CONTINUOUS
 62
     6
100
AcDbCircle
 10
2088.0
 20
1376.0
 30
0.0
 40
1.0
100
AcDbArc
 50
180.0
 51
270.0
  0
LINE
  5
389
100
AcDbEntity
  8
化粧台
  6
CONTINUOUS
 62
     6
100
AcDbLine
 10
2088.5
 20
1375.0
 30
0.0
 11
2088.0
 21
1375.0
 31
0.0
  0
LINE
  5
38A
100
AcDbEntity
  8
化粧台
  6
CONTINUOUS
 62
     6
100
AcDbLine
 10
2087.0
 20
1378.043552
 30
0.0
 11
2087.0
 21
1376.0
 31
0.0
  0
LINE
  5
38B
100
AcDbEntity
  8
化粧台
  6
CONTINUOUS
 62
     6
100
AcDbLine
 10
2088.5
 20
1377.0
 30
0.0
 11
2088.5
 21
1375.0
 31
0.0
  0
LINE
  5
38C
100
AcDbEntity
  8
化粧台
  6
CONTINUOUS
 62
     2
100
AcDbLine
 10
2535.0
 20
1610.0
 30
0.0
 11
2087.0
 21
1610.0
 31
0.0
  0
LINE
  5
38D
100
AcDbEntity
  8
化粧台
  6
CONTINUOUS
 62
     2
100
AcDbLine
 10
2535.0
 20
1591.0
 30
0.0
 11
2087.0
 21
1591.0
 31
0.0
  0
LINE
  5
38E
100
AcDbEntity
  8
化粧台
  6
EXLTYPE2
 62
     6
100
AcDbLine
 10
2128.5
 20
1591.0
 30
0.0
 11
2128.5
 21
1541.0
 31
0.0
  0
LINE
  5
38F
100
AcDbEntity
  8
化粧台
  6
EXLTYPE2
 62
     6
100
AcDbLine
 10
2111.0
 20
1591.0
 30
0.0
 11
2111.0
 21
1541.0
 31
0.0
  0
LINE
  5
390
100
AcDbEntity
  8
化粧台
  6
EXLTYPE2
 62
     6
100
AcDbLine
 10
2111.0
 20
1541.0
 30
0.0
 11
2128.5
 21
1541.0
 31
0.0
  0
LINE
  5
391
100
AcDbEntity
  8
化粧台
  6
EXLTYPE2
 62
     6
100
AcDbLine
 10
2211.5
 20
1441.0
 30
0.0
 11
2211.5
 21
1501.0
 31
0.0
  0
LINE
  5
392
100
AcDbEntity
  8
化粧台
  6
EXLTYPE2
 62
     6
100
AcDbLine
 10
2454.5
 20
1501.0
 30
0.0
 11
2454.5
 21
1426.0
 31
0.0
  0
LINE
  5
393
100
AcDbEntity
  8
化粧台
  6
EXLTYPE2
 62
     6
100
AcDbLine
 10
2376.5
 20
1501.0
 30
0.0
 11
2376.5
 21
1426.0
 31
0.0
  0
LINE
  5
394
100
AcDbEntity
  8
化粧台
  6
EXLTYPE2
 62
     6
100
AcDbLine
 10
2454.5
 20
1426.0
 30
0.0
 11
2106.5
 21
1426.0
 31
0.0
  0
LINE
  5
395
100
AcDbEntity
  8
化粧台
  6
EXLTYPE2
 62
     6
100
AcDbLine
 10
2226.5
 20
1426.0
 30
0.0
 11
2226.5
 21
1501.0
 31
0.0
  0
LINE
  5
396
100
AcDbEntity
  8
化粧台
  6
EXLTYPE2
 62
     6
100
AcDbLine
 10
2454.5
 20
1501.0
 30
0.0
 11
2106.5
 21
1501.0
 31
0.0
  0
LINE
  5
397
100
AcDbEntity
  8
化粧台
  6
EXLTYPE2
 62
     6
100
AcDbLine
 10
2211.5
 20
1441.0
 30
0.0
 11
2106.5
 21
1441.0
 31
0.0
  0
LINE
  5
398
100
AcDbEntity
  8
化粧台
  6
EXLTYPE2
 62
     6
100
AcDbLine
 10
2454.5
 20
1031.0
 30
0.0
 11
2106.5
 21
1031.0
 31
0.0
  0
LINE
  5
399
100
AcDbEntity
  8
化粧台
  6
EXLTYPE2
 62
     6
100
AcDbLine
 10
2454.5
 20
1171.0
 30
0.0
 11
2454.5
 21
1031.0
 31
0.0
  0
LINE
  5
39A
100
AcDbEntity
  8
化粧台
  6
EXLTYPE2
 62
     6
100
AcDbLine
 10
2376.5
 20
1171.0
 30
0.0
 11
2376.5
 21
1031.0
 31
0.0
  0
LINE
  5
39B
100
AcDbEntity
  8
化粧台
  6
EXLTYPE2
 62
     6
100
AcDbLine
 10
2361.5
 20
1171.0
 30
0.0
 11
2361.5
 21
1046.0
 31
0.0
  0
LINE
  5
39C
100
AcDbEntity
  8
化粧台
  6
EXLTYPE2
 62
     6
100
AcDbLine
 10
2454.5
 20
1171.0
 30
0.0
 11
2106.5
 21
1171.0
 31
0.0
  0
LINE
  5
39D
100
AcDbEntity
  8
化粧台
  6
EXLTYPE2
 62
     6
100
AcDbLine
 10
2361.5
 20
1046.0
 30
0.0
 11
2106.5
 21
1046.0
 31
0.0
  0
LINE
  5
39E
100
AcDbEntity
  8
化粧台
  6
EXLTYPE2
 62
     6
100
AcDbLine
 10
2111.0
 20
1016.0
 30
0.0
 11
2111.0
 21
1001.0
 31
0.0
  0
LINE
  5
39F
100
AcDbEntity
  8
化粧台
  6
EXLTYPE2
 62
     6
100
AcDbLine
 10
2320.0
 20
911.0
 30
0.0
 11
2320.0
 21
1001.0
 31
0.0
  0
LINE
  5
3A0
100
AcDbEntity
  8
化粧台
  6
EXLTYPE2
 62
     6
100
AcDbLine
 10
2315.0
 20
1016.0
 30
0.0
 11
2315.0
 21
1013.0
 31
0.0
  0
LINE
  5
3A1
100
AcDbEntity
  8
化粧台
  6
EXLTYPE2
 62
     6
100
AcDbLine
 10
2335.0
 20
911.0
 30
0.0
 11
2335.0
 21
1013.0
 31
0.0
  0
LINE
  5
3A2
100
AcDbEntity
  8
化粧台
  6
EXLTYPE2
 62
     6
100
AcDbLine
 10
2487.0
 20
1013.0
 30
0.0
 11
2487.0
 21
998.0
 31
0.0
  0
LINE
  5
3A3
100
AcDbEntity
  8
化粧台
  6
EXLTYPE2
 62
     6
100
AcDbLine
 10
2111.0
 20
1001.0
 30
0.0
 11
2335.0
 21
1001.0
 31
0.0
  0
LINE
  5
3A4
100
AcDbEntity
  8
化粧台
  6
EXLTYPE2
 62
     6
100
AcDbLine
 10
2487.0
 20
998.0
 30
0.0
 11
2517.0
 21
998.0
 31
0.0
  0
LINE
  5
3A5
100
AcDbEntity
  8
化粧台
  6
EXLTYPE2
 62
     6
100
AcDbLine
 10
2315.0
 20
1013.0
 30
0.0
 11
2517.0
 21
1013.0
 31
0.0
  0
LINE
  5
3A6
100
AcDbEntity
  8
化粧台
  6
EXLTYPE2
 62
     6
100
AcDbLine
 10
2111.0
 20
1016.0
 30
0.0
 11
2517.0
 21
1016.0
 31
0.0
  0
LINE
  5
3A7
100
AcDbEntity
  8
化粧台
  6
EXLTYPE2
 62
     6
100
AcDbLine
 10
2520.0
 20
1051.0
 30
0.0
 11
2535.0
 21
1051.0
 31
0.0
  0
LINE
  5
3A8
100
AcDbEntity
  8
化粧台
  6
EXLTYPE2
 62
     6
100
AcDbLine
 10
2520.0
 20
1471.0
 30
0.0
 11
2535.0
 21
1471.0
 31
0.0
  0
LINE
  5
3A9
100
AcDbEntity
  8
化粧台
  6
EXLTYPE2
 62
     6
100
AcDbLine
 10
2520.0
 20
1001.0
 30
0.0
 11
2520.0
 21
1591.0
 31
0.0
  0
LINE
  5
3AA
100
AcDbEntity
  8
化粧台
  6
EXLTYPE2
 62
     6
100
AcDbLine
 10
2517.0
 20
1001.0
 30
0.0
 11
2535.0
 21
1001.0
 31
0.0
  0
LINE
  5
3AB
100
AcDbEntity
  8
化粧台
  6
EXLTYPE2
 62
     6
100
AcDbLine
 10
2517.0
 20
998.0
 30
0.0
 11
2517.0
 21
1591.0
 31
0.0
  0
LINE
  5
3AC
100
AcDbEntity
  8
化粧台
  6
CONTINUOUS
 62
     2
100
AcDbLine
 10
2035.076464
 20
1744.128913
 30
0.0
 11
2058.076464
 21
1614.128913
 31
0.0
  0
LINE
  5
3AD
100
AcDbEntity
  8
化粧台
  6
CONTINUOUS
 62
     2
100
AcDbLine
 10
2535.0
 20
1610.0
 30
0.0
 11
2063.0
 21
1610.0
 31
0.0
  0
LINE
  5
3AE
100
AcDbEntity
  8
化粧台
  6
CONTINUOUS
 62
     2
100
AcDbLine
 10
2535.0
 20
1750.0
 30
0.0
 11
2040.0
 21
1750.0
 31
0.0
  0
ARC
  5
3AF
100
AcDbEntity
  8
化粧台
  6
CONTINUOUS
 62
     2
100
AcDbCircle
 10
2040.0
 20
1745.0
 30
0.0
 40
5.0
100
AcDbArc
 50
90.0
 51
190.033121
  0
ARC
  5
3B0
100
AcDbEntity
  8
化粧台
  6
CONTINUOUS
 62
     2
100
AcDbCircle
 10
2063.0
 20
1615.0
 30
0.0
 40
5.0
100
AcDbArc
 50
190.033121
 51
270.0
  0
LINE
  5
3B1
100
AcDbEntity
  8
化粧台
  6
CONTINUOUS
 62
     2
100
AcDbLine
 10
2535.0
 20
1750.0
 30
0.0
 11
2535.0
 21
1610.0
 31
0.0
  0
LINE
  5
3B2
100
AcDbEntity
  8
化粧台
  6
CONTINUOUS
 62
     2
100
AcDbLine
 10
2450.85
 20
846.5
 30
0.0
 11
2419.15
 21
846.5
 31
0.0
  0
LINE
  5
3B3
100
AcDbEntity
  8
化粧台
  6
CONTINUOUS
 62
     2
100
AcDbLine
 10
2318.57746
 20
1807.86011
 30
0.0
 11
2339.42254
 21
1798.13989
 31
0.0
  0
LINE
  5
3B4
100
AcDbEntity
  8
化粧台
  6
CONTINUOUS
 62
     2
100
AcDbLine
 10
2318.57746
 20
1807.86011
 30
0.0
 11
2321.343012
 21
1813.790855
 31
0.0
  0
LINE
  5
3B5
100
AcDbEntity
  8
化粧台
  6
CONTINUOUS
 62
     2
100
AcDbLine
 10
2339.42254
 20
1798.13989
 30
0.0
 11
2341.337682
 21
1802.246927
 31
0.0
  0
LINE
  5
3B6
100
AcDbEntity
  8
化粧台
  6
CONTINUOUS
 62
     2
100
AcDbLine
 10
2365.0
 20
1872.5
 30
0.0
 11
2365.0
 21
1864.5
 31
0.0
  0
LINE
  5
3B7
100
AcDbEntity
  8
化粧台
  6
CONTINUOUS
 62
     2
100
AcDbLine
 10
2365.0
 20
1864.5
 30
0.0
 11
2425.5
 21
1864.5
 31
0.0
  0
LINE
  5
3B8
100
AcDbEntity
  8
化粧台
  6
CONTINUOUS
 62
     2
100
AcDbLine
 10
2365.0
 20
1872.5
 30
0.0
 11
2425.5
 21
1872.5
 31
0.0
  0
ELLIPSE
  5
3B9
100
AcDbEntity
  8
化粧台
  6
CONTINUOUS
 62
     2
100
AcDbEllipse
 10
2425.5
 20
1770.976298
 30
0.0
 11
0.0000000000000122
 21
-17.320508075649741
 31
0.0
210
0.0
220
0.0
230
1.0
 40
0.296102
 41
0.0
 42
3.1415926535897931
  0
LINE
  5
3BA
100
AcDbEntity
  8
化粧台
  6
CONTINUOUS
 62
     2
100
AcDbLine
 10
2341.337682
 20
1802.246927
 30
0.0
 11
2425.5
 21
1753.65579
 31
0.0
  0
ELLIPSE
  5
3BB
100
AcDbEntity
  8
化粧台
  6
CONTINUOUS
 62
     2
100
AcDbEllipse
 10
2331.340347
 20
1808.018891
 30
0.0
 11
9.997335021550132
 21
-5.7719640659000797
 31
0.0
210
0.0
220
0.0
230
1.0
 40
0.401725
 41
0.000000000002572
 42
3.1415926535916872
  0
LINE
  5
3BC
100
AcDbEntity
  8
化粧台
  6
CONTINUOUS
 62
     2
100
AcDbLine
 10
2450.0
 20
1836.0
 30
0.0
 11
2474.5
 21
1850.145082
 31
0.0
  0
LINE
  5
3BD
100
AcDbEntity
  8
化粧台
  6
CONTINUOUS
 62
     2
100
AcDbLine
 10
2425.5
 20
1834.0
 30
0.0
 11
2474.5
 21
1834.0
 31
0.0
  0
LINE
  5
3BE
100
AcDbEntity
  8
化粧台
  6
CONTINUOUS
 62
     2
100
AcDbLine
 10
2425.5
 20
1836.0
 30
0.0
 11
2450.0
 21
1836.0
 31
0.0
  0
LINE
  5
3BF
100
AcDbEntity
  8
化粧台
  6
CONTINUOUS
 62
     2
100
AcDbLine
 10
2425.5
 20
1834.0
 30
0.0
 11
2425.5
 21
1788.296806
 31
0.0
  0
ARC
  5
3C0
100
AcDbEntity
  8
化粧台
  6
CONTINUOUS
 62
     2
100
AcDbCircle
 10
2427.5
 20
1876.0
 30
0.0
 40
2.0
100
AcDbArc
 50
90.0
 51
180.0
  0
LINE
  5
3C1
100
AcDbEntity
  8
化粧台
  6
CONTINUOUS
 62
     2
100
AcDbLine
 10
2474.5
 20
1876.0
 30
0.0
 11
2474.5
 21
1850.145082
 31
0.0
  0
LINE
  5
3C2
100
AcDbEntity
  8
化粧台
  6
CONTINUOUS
 62
     2
100
AcDbLine
 10
2427.5
 20
1878.0
 30
0.0
 11
2472.5
 21
1878.0
 31
0.0
  0
ARC
  5
3C3
100
AcDbEntity
  8
化粧台
  6
CONTINUOUS
 62
     2
100
AcDbCircle
 10
2472.5
 20
1876.0
 30
0.0
 40
2.0
100
AcDbArc
 50
0.0
 51
90.0
  0
LINE
  5
3C4
100
AcDbEntity
  8
化粧台
  6
CONTINUOUS
 62
     2
100
AcDbLine
 10
2333.366025
 20
1841.490381
 30
0.0
 11
2425.5
 21
1788.296806
 31
0.0
  0
ARC
  5
3C5
100
AcDbEntity
  8
化粧台
  6
CONTINUOUS
 62
     2
100
AcDbCircle
 10
2332.866025
 20
1840.624356
 30
0.0
 40
1.0
100
AcDbArc
 50
60.0
 51
150.0
  0
LINE
  5
3C6
100
AcDbEntity
  8
化粧台
  6
CONTINUOUS
 62
     2
100
AcDbLine
 10
2332.0
 20
1841.124356
 30
0.0
 11
2318.0
 21
1816.875644
 31
0.0
  0
LINE
  5
3C7
100
AcDbEntity
  8
化粧台
  6
CONTINUOUS
 62
     2
100
AcDbLine
 10
2318.366025
 20
1815.509619
 30
0.0
 11
2321.343012
 21
1813.790855
 31
0.0
  0
ARC
  5
3C8
100
AcDbEntity
  8
化粧台
  6
CONTINUOUS
 62
     2
100
AcDbCircle
 10
2318.866025
 20
1816.375644
 30
0.0
 40
1.0
100
AcDbArc
 50
150.0
 51
240.0
  0
ARC
  5
3C9
100
AcDbEntity
  8
化粧台
  6
CONTINUOUS
 62
     2
100
AcDbCircle
 10
2450.0
 20
1834.0
 30
0.0
 40
21.504709
100
AcDbArc
 50
0.0
 51
34.61977
  0
LINE
  5
3CA
100
AcDbEntity
  8
化粧台
  6
CONTINUOUS
 62
     2
100
AcDbLine
 10
2425.5
 20
1876.0
 30
0.0
 11
2425.5
 21
1872.5
 31
0.0
  0
LINE
  5
3CB
100
AcDbEntity
  8
化粧台
  6
CONTINUOUS
 62
     2
100
AcDbLine
 10
2425.5
 20
1864.5
 30
0.0
 11
2425.5
 21
1836.0
 31
0.0
  0
ELLIPSE
  5
3CC
100
AcDbEntity
  8
化粧台
  6
CONTINUOUS
 62
     2
100
AcDbEllipse
 10
2425.5
 20
1868.5
 30
0.0
 11
-0.0000000000000024
 21
4.0
 31
0.0
210
0.0
220
0.0
230
1.0
 40
0.152582
 41
3.1415926535897922
 42
0.0
  0
LINE
  5
3CD
100
AcDbEntity
  8
化粧台
  6
CONTINUOUS
 62
     6
100
AcDbLine
 10
2401.782032
 20
1801.990381
 30
0.0
 11
2386.782032
 21
1776.009619
 31
0.0
  0
LINE
  5
3CE
100
AcDbEntity
  8
化粧台
  6
CONTINUOUS
 62
     2
100
AcDbLine
 10
2425.5
 20
1753.65579
 30
0.0
 11
2425.5
 21
1750.0
 31
0.0
  0
LINE
  5
3CF
100
AcDbEntity
  8
化粧台
  6
CONTINUOUS
 62
     2
100
AcDbLine
 10
2474.5
 20
1834.0
 30
0.0
 11
2474.5
 21
1750.0
 31
0.0
  0
LINE
  5
3D0
100
AcDbEntity
  8
化粧台
  6
CONTINUOUS
 62
     2
100
AcDbLine
 10
2419.15
 20
846.5
 30
0.0
 11
2419.15
 21
911.0
 31
0.0
  0
LINE
  5
3D1
100
AcDbEntity
  8
化粧台
  6
CONTINUOUS
 62
     2
100
AcDbLine
 10
2450.85
 20
911.0
 30
0.0
 11
2450.85
 21
846.5
 31
0.0
  0
LINE
  5
3D2
100
AcDbEntity
  8
化粧台
  6
EXLTYPE3
 62
     6
100
AcDbLine
 10
2450.0
 20
1893.0
 30
0.0
 11
2450.0
 21
1720.0
 31
0.0
  0
LINE
  5
3D3
100
AcDbEntity
  8
化粧台
  6
EXLTYPE3
 62
     6
100
AcDbLine
 10
2435.0
 20
831.5
 30
0.0
 11
2435.0
 21
1088.5
 31
0.0
  0
LINE
  5
3D4
100
AcDbEntity
  8
化粧台
  6
EXLTYPE2
 62
     6
100
AcDbLine
 10
2259.38673
 20
1579.292893
 30
0.0
 11
2255.0
 21
1610.0
 31
0.0
  0
ARC
  5
3D5
100
AcDbEntity
  8
化粧台
  6
EXLTYPE2
 62
     6
100
AcDbCircle
 10
2264.336477
 20
1580.0
 30
0.0
 40
5.0
100
AcDbArc
 50
188.130102
 51
270.0
  0
LINE
  5
3D6
100
AcDbEntity
  8
化粧台
  6
EXLTYPE2
 62
     6
100
AcDbLine
 10
2264.336477
 20
1575.0
 30
0.0
 11
2335.663523
 21
1575.0
 31
0.0
  0
ARC
  5
3D7
100
AcDbEntity
  8
化粧台
  6
EXLTYPE2
 62
     6
100
AcDbCircle
 10
2335.663523
 20
1580.0
 30
0.0
 40
5.0
100
AcDbArc
 50
270.0
 51
351.869898
  0
ARC
  5
3D8
100
AcDbEntity
  8
化粧台
  6
EXLTYPE2
 62
     6
100
AcDbCircle
 10
2328.709238
 20
1612.206325
 30
0.0
 40
35.0
100
AcDbArc
 50
289.883894
 51
338.8865
  0
LINE
  5
3D9
100
AcDbEntity
  8
化粧台
  6
EXLTYPE2
 62
     6
100
AcDbLine
 10
2361.359642
 20
1599.598743
 30
0.0
 11
2365.375969
 21
1610.0
 31
0.0
  0
ARC
  5
3DA
100
AcDbEntity
  8
化粧台
  6
EXLTYPE2
 62
     6
100
AcDbCircle
 10
2454.811111
 20
1505.0
 30
0.0
 40
174.511111
100
AcDbArc
 50
171.763621
 51
188.236379
  0
LINE
  5
3DB
100
AcDbEntity
  8
化粧台
  6
EXLTYPE2
 62
     6
100
AcDbLine
 10
2282.1
 20
1480.0
 30
0.0
 11
2284.2
 21
1477.9
 31
0.0
  0
LINE
  5
3DC
100
AcDbEntity
  8
化粧台
  6
EXLTYPE2
 62
     6
100
AcDbLine
 10
2317.9
 20
1480.0
 30
0.0
 11
2315.8
 21
1477.9
 31
0.0
  0
LINE
  5
3DD
100
AcDbEntity
  8
化粧台
  6
EXLTYPE2
 62
     6
100
AcDbLine
 10
2347.0
 20
1511.5
 30
0.0
 11
2344.0
 21
1507.2
 31
0.0
  0
LINE
  5
3DE
100
AcDbEntity
  8
化粧台
  6
EXLTYPE2
 62
     6
100
AcDbLine
 10
2347.0
 20
1478.5
 30
0.0
 11
2344.0
 21
1482.8
 31
0.0
  0
LINE
  5
3DF
100
AcDbEntity
  8
化粧台
  6
EXLTYPE2
 62
     6
100
AcDbLine
 10
2344.0
 20
1507.2
 30
0.0
 11
2319.686132
 21
1507.2
 31
0.0
  0
LINE
  5
3E0
100
AcDbEntity
  8
化粧台
  6
EXLTYPE2
 62
     6
100
AcDbLine
 10
2344.0
 20
1482.8
 30
0.0
 11
2318.282181
 21
1482.8
 31
0.0
  0
LINE
  5
3E1
100
AcDbEntity
  8
化粧台
  6
EXLTYPE2
 62
     6
100
AcDbLine
 10
2334.686132
 20
1507.2
 30
0.0
 11
2319.340225
 21
1516.2
 31
0.0
  0
LINE
  5
3E2
100
AcDbEntity
  8
化粧台
  6
EXLTYPE2
 62
     6
100
AcDbLine
 10
2334.686132
 20
1482.8
 30
0.0
 11
2315.8
 21
1471.723744
 31
0.0
  0
LINE
  5
3E3
100
AcDbEntity
  8
化粧台
  6
EXLTYPE2
 62
     6
100
AcDbLine
 10
2334.686132
 20
1496.25
 30
0.0
 11
2313.4
 21
1496.25
 31
0.0
  0
LINE
  5
3E4
100
AcDbEntity
  8
化粧台
  6
EXLTYPE2
 62
     6
100
AcDbLine
 10
2334.686132
 20
1493.75
 30
0.0
 11
2313.4
 21
1493.75
 31
0.0
  0
LINE
  5
3E5
100
AcDbEntity
  8
化粧台
  6
EXLTYPE2
 62
     6
100
AcDbLine
 10
2334.686132
 20
1496.25
 30
0.0
 11
2334.686132
 21
1493.75
 31
0.0
  0
ARC
  5
3E6
100
AcDbEntity
  8
化粧台
  6
EXLTYPE2
 62
     6
100
AcDbCircle
 10
2145.188889
 20
1505.0
 30
0.0
 40
174.511111
100
AcDbArc
 50
351.763621
 51
352.691455
  0
ARC
  5
3E7
100
AcDbEntity
  8
化粧台
  6
EXLTYPE2
 62
     6
100
AcDbCircle
 10
2145.188889
 20
1505.0
 30
0.0
 40
174.511111
100
AcDbArc
 50
0.722327
 51
8.236379
  0
ELLIPSE
  5
3E8
100
AcDbEntity
  8
化粧台
  6
EXLTYPE2
 62
     6
100
AcDbEllipse
 10
2318.984157
 20
1495.0
 30
0.0
 11
-0.7019753845999902
 21
-12.200000000000056
 31
0.0
210
0.0
220
0.0
230
1.0
 40
0.215354
 41
3.1415926535898118
 42
4.6221483396039345
  0
ELLIPSE
  5
3E9
100
AcDbEntity
  8
化粧台
  6
EXLTYPE2
 62
     6
100
AcDbEllipse
 10
2318.984157
 20
1495.0
 30
0.0
 11
-0.7019753845999902
 21
-12.200000000000056
 31
0.0
210
0.0
220
0.0
230
1.0
 40
0.215354
 41
4.8274107966977384
 42
0.0247811754805761
  0
LINE
  5
3EA
100
AcDbEntity
  8
化粧台
  6
EXLTYPE2
 62
     6
100
AcDbLine
 10
2347.0
 20
1512.5
 30
0.0
 11
2347.0
 21
1477.5
 31
0.0
  0
LINE
  5
3EB
100
AcDbEntity
  8
化粧台
  6
EXLTYPE2
 62
     6
100
AcDbLine
 10
2326.25
 20
1550.5
 30
0.0
 11
2273.75
 21
1550.5
 31
0.0
  0
ARC
  5
3EC
100
AcDbEntity
  8
化粧台
  6
EXLTYPE2
 62
     6
100
AcDbCircle
 10
2323.25
 20
1534.5
 30
0.0
 40
3.0
100
AcDbArc
 50
270.0
 51
0.0
  0
ARC
  5
3ED
100
AcDbEntity
  8
化粧台
  6
EXLTYPE2
 62
     6
100
AcDbCircle
 10
2276.75
 20
1534.5
 30
0.0
 40
3.0
100
AcDbArc
 50
180.0
 51
270.0
  0
LINE
  5
3EE
100
AcDbEntity
  8
化粧台
  6
EXLTYPE2
 62
     6
100
AcDbLine
 10
2273.75
 20
1550.5
 30
0.0
 11
2273.75
 21
1534.5
 31
0.0
  0
LINE
  5
3EF
100
AcDbEntity
  8
化粧台
  6
EXLTYPE2
 62
     6
100
AcDbLine
 10
2323.25
 20
1531.5
 30
0.0
 11
2276.75
 21
1531.5
 31
0.0
  0
LINE
  5
3F0
100
AcDbEntity
  8
化粧台
  6
EXLTYPE2
 62
     6
100
AcDbLine
 10
2326.25
 20
1550.5
 30
0.0
 11
2326.25
 21
1534.5
 31
0.0
  0
LINE
  5
3F1
100
AcDbEntity
  8
化粧台
  6
EXLTYPE2
 62
     6
100
AcDbLine
 10
2317.9
 20
1530.0
 30
0.0
 11
2317.9
 21
1531.5
 31
0.0
  0
LINE
  5
3F2
100
AcDbEntity
  8
化粧台
  6
EXLTYPE2
 62
     6
100
AcDbLine
 10
2282.1
 20
1530.0
 30
0.0
 11
2282.1
 21
1531.5
 31
0.0
  0
LINE
  5
3F3
100
AcDbEntity
  8
化粧台
  6
EXLTYPE2
 62
     6
100
AcDbLine
 10
2328.3
 20
1569.2
 30
0.0
 11
2328.3
 21
1557.9
 31
0.0
  0
LINE
  5
3F4
100
AcDbEntity
  8
化粧台
  6
EXLTYPE2
 62
     6
100
AcDbLine
 10
2271.7
 20
1569.2
 30
0.0
 11
2271.7
 21
1557.9
 31
0.0
  0
LINE
  5
3F5
100
AcDbEntity
  8
化粧台
  6
EXLTYPE2
 62
     6
100
AcDbLine
 10
2328.3
 20
1557.9
 30
0.0
 11
2271.7
 21
1557.9
 31
0.0
  0
LINE
  5
3F6
100
AcDbEntity
  8
化粧台
  6
EXLTYPE2
 62
     6
100
AcDbLine
 10
2328.3
 20
1565.7
 30
0.0
 11
2271.7
 21
1565.7
 31
0.0
  0
LINE
  5
3F7
100
AcDbEntity
  8
化粧台
  6
EXLTYPE2
 62
     6
100
AcDbLine
 10
2323.5
 20
1557.9
 30
0.0
 11
2323.5
 21
1550.5
 31
0.0
  0
LINE
  5
3F8
100
AcDbEntity
  8
化粧台
  6
EXLTYPE2
 62
     6
100
AcDbLine
 10
2276.5
 20
1557.9
 30
0.0
 11
2276.5
 21
1550.5
 31
0.0
  0
LINE
  5
3F9
100
AcDbEntity
  8
化粧台
  6
EXLTYPE2
 62
     6
100
AcDbLine
 10
2328.5
 20
1569.7
 30
0.0
 11
2328.5
 21
1571.7
 31
0.0
  0
LINE
  5
3FA
100
AcDbEntity
  8
化粧台
  6
EXLTYPE2
 62
     6
100
AcDbLine
 10
2271.5
 20
1569.7
 30
0.0
 11
2271.5
 21
1571.7
 31
0.0
  0
LINE
  5
3FB
100
AcDbEntity
  8
化粧台
  6
EXLTYPE2
 62
     6
100
AcDbLine
 10
2323.275
 20
1575.0
 30
0.0
 11
2328.5
 21
1571.7
 31
0.0
  0
LINE
  5
3FC
100
AcDbEntity
  8
化粧台
  6
EXLTYPE2
 62
     6
100
AcDbLine
 10
2276.725
 20
1575.0
 30
0.0
 11
2271.5
 21
1571.7
 31
0.0
  0
LINE
  5
3FD
100
AcDbEntity
  8
化粧台
  6
EXLTYPE2
 62
     6
100
AcDbLine
 10
2358.0
 20
1512.5
 30
0.0
 11
2347.0
 21
1512.5
 31
0.0
  0
LINE
  5
3FE
100
AcDbEntity
  8
化粧台
  6
EXLTYPE2
 62
     6
100
AcDbLine
 10
2358.0
 20
1477.5
 30
0.0
 11
2347.0
 21
1477.5
 31
0.0
  0
LINE
  5
3FF
100
AcDbEntity
  8
化粧台
  6
EXLTYPE2
 62
     6
100
AcDbLine
 10
2358.0
 20
1512.5
 30
0.0
 11
2358.0
 21
1477.5
 31
0.0
  0
LINE
  5
400
100
AcDbEntity
  8
化粧台
  6
EXLTYPE2
 62
     6
100
AcDbLine
 10
2365.0
 20
1508.0
 30
0.0
 11
2365.0
 21
1482.0
 31
0.0
  0
LINE
  5
401
100
AcDbEntity
  8
化粧台
  6
EXLTYPE2
 62
     6
100
AcDbLine
 10
2365.0
 20
1508.0
 30
0.0
 11
2358.0
 21
1510.5
 31
0.0
  0
LINE
  5
402
100
AcDbEntity
  8
化粧台
  6
EXLTYPE2
 62
     6
100
AcDbLine
 10
2365.0
 20
1482.0
 30
0.0
 11
2358.0
 21
1479.5
 31
0.0
  0
LINE
  5
403
100
AcDbEntity
  8
化粧台
  6
EXLTYPE2
 62
     6
100
AcDbLine
 10
2370.0
 20
1498.5
 30
0.0
 11
2370.0
 21
1491.5
 31
0.0
  0
LINE
  5
404
100
AcDbEntity
  8
化粧台
  6
EXLTYPE2
 62
     6
100
AcDbLine
 10
2370.0
 20
1492.5
 30
0.0
 11
2392.9
 21
1492.5
 31
0.0
  0
LINE
  5
405
100
AcDbEntity
  8
化粧台
  6
EXLTYPE2
 62
     6
100
AcDbLine
 10
2370.0
 20
1498.5
 30
0.0
 11
2365.0
 21
1498.5
 31
0.0
  0
LINE
  5
406
100
AcDbEntity
  8
化粧台
  6
EXLTYPE2
 62
     6
100
AcDbLine
 10
2370.0
 20
1491.5
 30
0.0
 11
2365.0
 21
1491.5
 31
0.0
  0
LINE
  5
407
100
AcDbEntity
  8
化粧台
  6
EXLTYPE2
 62
     6
100
AcDbLine
 10
2392.9
 20
1497.5
 30
0.0
 11
2370.0
 21
1497.5
 31
0.0
  0
LINE
  5
408
100
AcDbEntity
  8
化粧台
  6
EXLTYPE2
 62
     6
100
AcDbLine
 10
2328.5
 20
1571.7
 30
0.0
 11
2271.5
 21
1571.7
 31
0.0
  0
LINE
  5
409
100
AcDbEntity
  8
化粧台
  6
EXLTYPE2
 62
     6
100
AcDbLine
 10
2328.5
 20
1569.7
 30
0.0
 11
2271.5
 21
1569.7
 31
0.0
  0
LINE
  5
40A
100
AcDbEntity
  8
化粧台
  6
EXLTYPE2
 62
     6
100
AcDbLine
 10
2328.3
 20
1569.2
 30
0.0
 11
2271.7
 21
1569.2
 31
0.0
  0
LINE
  5
40B
100
AcDbEntity
  8
化粧台
  6
EXLTYPE2
 62
     6
100
AcDbLine
 10
2284.053127
 20
1565.7
 30
0.0
 11
2284.053127
 21
1557.9
 31
0.0
  0
LINE
  5
40C
100
AcDbEntity
  8
化粧台
  6
EXLTYPE2
 62
     6
100
AcDbLine
 10
2287.726451
 20
1565.7
 30
0.0
 11
2287.726451
 21
1557.9
 31
0.0
  0
LINE
  5
40D
100
AcDbEntity
  8
化粧台
  6
EXLTYPE2
 62
     6
100
AcDbLine
 10
2312.273549
 20
1565.7
 30
0.0
 11
2312.273549
 21
1557.9
 31
0.0
  0
LINE
  5
40E
100
AcDbEntity
  8
化粧台
  6
EXLTYPE2
 62
     6
100
AcDbLine
 10
2315.946873
 20
1565.7
 30
0.0
 11
2315.946873
 21
1557.9
 31
0.0
  0
LINE
  5
40F
100
AcDbEntity
  8
化粧台
  6
EXLTYPE2
 62
     6
100
AcDbLine
 10
2288.328204
 20
1550.5
 30
0.0
 11
2288.328204
 21
1534.5
 31
0.0
  0
LINE
  5
410
100
AcDbEntity
  8
化粧台
  6
EXLTYPE2
 62
     6
100
AcDbLine
 10
2290.256412
 20
1550.5
 30
0.0
 11
2290.256412
 21
1534.5
 31
0.0
  0
LINE
  5
411
100
AcDbEntity
  8
化粧台
  6
EXLTYPE2
 62
     6
100
AcDbLine
 10
2309.743588
 20
1550.5
 30
0.0
 11
2309.743588
 21
1534.5
 31
0.0
  0
LINE
  5
412
100
AcDbEntity
  8
化粧台
  6
EXLTYPE2
 62
     6
100
AcDbLine
 10
2311.671796
 20
1550.5
 30
0.0
 11
2311.671796
 21
1534.5
 31
0.0
  0
LINE
  5
413
100
AcDbEntity
  8
化粧台
  6
EXLTYPE2
 62
     6
100
AcDbLine
 10
2317.9
 20
1530.0
 30
0.0
 11
2282.1
 21
1530.0
 31
0.0
  0
LINE
  5
414
100
AcDbEntity
  8
化粧台
  6
EXLTYPE2
 62
     6
100
AcDbLine
 10
2317.9
 20
1480.0
 30
0.0
 11
2282.1
 21
1480.0
 31
0.0
  0
LINE
  5
415
100
AcDbEntity
  8
化粧台
  6
EXLTYPE2
 62
     6
100
AcDbLine
 10
2315.8
 20
1477.9
 30
0.0
 11
2284.2
 21
1477.9
 31
0.0
  0
LINE
  5
416
100
AcDbEntity
  8
化粧台
  6
EXLTYPE2
 62
     6
100
AcDbLine
 10
2344.0
 20
1507.2
 30
0.0
 11
2344.0
 21
1482.8
 31
0.0
  0
LINE
  5
417
100
AcDbEntity
  8
化粧台
  6
EXLTYPE2
 62
     6
100
AcDbLine
 10
2300.0
 20
1391.5
 30
0.0
 11
2319.0
 21
1410.5
 31
0.0
  0
ARC
  5
418
100
AcDbEntity
  8
化粧台
  6
EXLTYPE2
 62
     6
100
AcDbCircle
 10
2334.0
 20
1425.5
 30
0.0
 40
15.0
100
AcDbArc
 50
180.0
 51
270.0
  0
LINE
  5
419
100
AcDbEntity
  8
化粧台
  6
EXLTYPE2
 62
     6
100
AcDbLine
 10
2318.0
 20
1372.5
 30
0.0
 11
2318.0
 21
1409.5
 31
0.0
  0
LINE
  5
41A
100
AcDbEntity
  8
化粧台
  6
EXLTYPE2
 62
     6
100
AcDbLine
 10
2281.0
 20
1409.5
 30
0.0
 11
2318.0
 21
1409.5
 31
0.0
  0
LINE
  5
41B
100
AcDbEntity
  8
化粧台
  6
EXLTYPE2
 62
     6
100
AcDbLine
 10
2283.75
 20
1406.5
 30
0.0
 11
2315.0
 21
1406.5
 31
0.0
  0
LINE
  5
41C
100
AcDbEntity
  8
化粧台
  6
EXLTYPE2
 62
     6
100
AcDbLine
 10
2315.0
 20
1375.25
 30
0.0
 11
2315.0
 21
1406.5
 31
0.0
  0
LINE
  5
41D
100
AcDbEntity
  8
化粧台
  6
EXLTYPE2
 62
     6
100
AcDbLine
 10
2336.7
 20
1372.5
 30
0.0
 11
2318.0
 21
1372.5
 31
0.0
  0
LINE
  5
41E
100
AcDbEntity
  8
化粧台
  6
EXLTYPE2
 62
     6
100
AcDbLine
 10
2281.0
 20
1409.5
 30
0.0
 11
2281.0
 21
1428.2
 31
0.0
  0
LINE
  5
41F
100
AcDbEntity
  8
化粧台
  6
EXLTYPE2
 62
     6
100
AcDbLine
 10
2283.75
 20
1391.5
 30
0.0
 11
2283.75
 21
1406.5
 31
0.0
  0
LINE
  5
420
100
AcDbEntity
  8
化粧台
  6
EXLTYPE2
 62
     6
100
AcDbLine
 10
2300.0
 20
1375.25
 30
0.0
 11
2315.0
 21
1375.25
 31
0.0
  0
ARC
  5
421
100
AcDbEntity
  8
化粧台
  6
EXLTYPE2
 62
     6
100
AcDbCircle
 10
2300.0
 20
1391.5
 30
0.0
 40
16.25
100
AcDbArc
 50
180.0
 51
270.0
  0
LINE
  5
422
100
AcDbEntity
  8
化粧台
  6
EXLTYPE2
 62
     6
100
AcDbLine
 10
2318.0
 20
1372.5
 30
0.0
 11
2315.0
 21
1375.25
 31
0.0
  0
LINE
  5
423
100
AcDbEntity
  8
化粧台
  6
EXLTYPE2
 62
     6
100
AcDbLine
 10
2281.0
 20
1409.5
 30
0.0
 11
2283.75
 21
1406.5
 31
0.0
  0
LINE
  5
424
100
AcDbEntity
  8
化粧台
  6
EXLTYPE2
 62
     6
100
AcDbLine
 10
2336.7
 20
1410.5
 30
0.0
 11
2319.0
 21
1410.5
 31
0.0
  0
LINE
  5
425
100
AcDbEntity
  8
化粧台
  6
EXLTYPE2
 62
     6
100
AcDbLine
 10
2319.0
 20
1410.5
 30
0.0
 11
2319.0
 21
1428.2
 31
0.0
  0
LINE
  5
426
100
AcDbEntity
  8
化粧台
  6
EXLTYPE2
 62
     6
100
AcDbLine
 10
2354.5
 20
1414.3
 30
0.0
 11
2336.7
 21
1414.3
 31
0.0
  0
LINE
  5
427
100
AcDbEntity
  8
化粧台
  6
EXLTYPE2
 62
     6
100
AcDbLine
 10
2354.5
 20
1368.7
 30
0.0
 11
2336.7
 21
1368.7
 31
0.0
  0
LINE
  5
428
100
AcDbEntity
  8
化粧台
  6
EXLTYPE2
 62
     6
100
AcDbLine
 10
2354.5
 20
1414.3
 30
0.0
 11
2354.5
 21
1368.7
 31
0.0
  0
LINE
  5
429
100
AcDbEntity
  8
化粧台
  6
EXLTYPE2
 62
     6
100
AcDbLine
 10
2336.7
 20
1414.3
 30
0.0
 11
2336.7
 21
1368.7
 31
0.0
  0
LINE
  5
42A
100
AcDbEntity
  8
化粧台
  6
EXLTYPE2
 62
     6
100
AcDbLine
 10
2277.2
 20
1446.0
 30
0.0
 11
2277.2
 21
1428.2
 31
0.0
  0
LINE
  5
42B
100
AcDbEntity
  8
化粧台
  6
EXLTYPE2
 62
     6
100
AcDbLine
 10
2322.8
 20
1446.0
 30
0.0
 11
2322.8
 21
1428.2
 31
0.0
  0
LINE
  5
42C
100
AcDbEntity
  8
化粧台
  6
EXLTYPE2
 62
     6
100
AcDbLine
 10
2277.2
 20
1446.0
 30
0.0
 11
2322.8
 21
1446.0
 31
0.0
  0
LINE
  5
42D
100
AcDbEntity
  8
化粧台
  6
EXLTYPE2
 62
     6
100
AcDbLine
 10
2277.2
 20
1428.2
 30
0.0
 11
2322.8
 21
1428.2
 31
0.0
  0
LINE
  5
42E
100
AcDbEntity
  8
化粧台
  6
EXLTYPE2
 62
     6
100
AcDbLine
 10
2321.643357
 20
1444.0
 30
0.0
 11
2321.643357
 21
1428.2
 31
0.0
  0
LINE
  5
42F
100
AcDbEntity
  8
化粧台
  6
EXLTYPE2
 62
     6
100
AcDbLine
 10
2278.356643
 20
1444.0
 30
0.0
 11
2278.356643
 21
1428.2
 31
0.0
  0
LINE
  5
430
100
AcDbEntity
  8
化粧台
  6
EXLTYPE2
 62
     6
100
AcDbLine
 10
2310.600712
 20
1444.0
 30
0.0
 11
2310.600712
 21
1428.2
 31
0.0
  0
LINE
  5
431
100
AcDbEntity
  8
化粧台
  6
EXLTYPE2
 62
     6
100
AcDbLine
 10
2307.808329
 20
1444.0
 30
0.0
 11
2307.808329
 21
1428.2
 31
0.0
  0
LINE
  5
432
100
AcDbEntity
  8
化粧台
  6
EXLTYPE2
 62
     6
100
AcDbLine
 10
2292.191671
 20
1444.0
 30
0.0
 11
2292.191671
 21
1428.2
 31
0.0
  0
LINE
  5
433
100
AcDbEntity
  8
化粧台
  6
EXLTYPE2
 62
     6
100
AcDbLine
 10
2289.399288
 20
1444.0
 30
0.0
 11
2289.399288
 21
1428.2
 31
0.0
  0
LINE
  5
434
100
AcDbEntity
  8
化粧台
  6
EXLTYPE2
 62
     6
100
AcDbLine
 10
2352.5
 20
1369.856643
 30
0.0
 11
2336.7
 21
1369.856643
 31
0.0
  0
LINE
  5
435
100
AcDbEntity
  8
化粧台
  6
EXLTYPE2
 62
     6
100
AcDbLine
 10
2352.5
 20
1413.143357
 30
0.0
 11
2336.7
 21
1413.143357
 31
0.0
  0
LINE
  5
436
100
AcDbEntity
  8
化粧台
  6
EXLTYPE2
 62
     6
100
AcDbLine
 10
2352.5
 20
1380.899288
 30
0.0
 11
2336.7
 21
1380.899288
 31
0.0
  0
LINE
  5
437
100
AcDbEntity
  8
化粧台
  6
EXLTYPE2
 62
     6
100
AcDbLine
 10
2352.5
 20
1383.691671
 30
0.0
 11
2336.7
 21
1383.691671
 31
0.0
  0
LINE
  5
438
100
AcDbEntity
  8
化粧台
  6
EXLTYPE2
 62
     6
100
AcDbLine
 10
2352.5
 20
1399.308329
 30
0.0
 11
2336.7
 21
1399.308329
 31
0.0
  0
LINE
  5
439
100
AcDbEntity
  8
化粧台
  6
EXLTYPE2
 62
     6
100
AcDbLine
 10
2352.5
 20
1402.100712
 30
0.0
 11
2336.7
 21
1402.100712
 31
0.0
  0
LINE
  5
43A
100
AcDbEntity
  8
化粧台
  6
EXLTYPE2
 62
     6
100
AcDbLine
 10
2284.2
 20
1477.9
 30
0.0
 11
2284.2
 21
1446.0
 31
0.0
  0
LINE
  5
43B
100
AcDbEntity
  8
化粧台
  6
EXLTYPE2
 62
     6
100
AcDbLine
 10
2315.8
 20
1477.9
 30
0.0
 11
2315.8
 21
1446.0
 31
0.0
  0
ARC
  5
43C
100
AcDbEntity
  8
化粧台
  6
EXLTYPE2
 62
     6
100
AcDbCircle
 10
2419.0
 20
1375.5
 30
0.0
 40
32.0
100
AcDbArc
 50
0.0
 51
90.0
  0
LINE
  5
43D
100
AcDbEntity
  8
化粧台
  6
EXLTYPE2
 62
     6
100
AcDbLine
 10
2419.0
 20
1407.5
 30
0.0
 11
2354.5
 21
1407.5
 31
0.0
  0
LINE
  5
43E
100
AcDbEntity
  8
化粧台
  6
EXLTYPE2
 62
     6
100
AcDbLine
 10
2419.0
 20
1375.5
 30
0.0
 11
2354.5
 21
1375.5
 31
0.0
  0
LINE
  5
43F
100
AcDbEntity
  8
化粧台
  6
EXLTYPE2
 62
     6
100
AcDbLine
 10
2416.5
 20
1326.5
 30
0.0
 11
2416.5
 21
1291.5
 31
0.0
  0
LINE
  5
440
100
AcDbEntity
  8
化粧台
  6
EXLTYPE2
 62
     6
100
AcDbLine
 10
2450.85
 20
1288.85
 30
0.0
 11
2450.85
 21
1263.834963
 31
0.0
  0
LINE
  5
441
100
AcDbEntity
  8
化粧台
  6
EXLTYPE2
 62
     6
100
AcDbLine
 10
2416.5
 20
1291.5
 30
0.0
 11
2419.15
 21
1288.85
 31
0.0
  0
LINE
  5
442
100
AcDbEntity
  8
化粧台
  6
EXLTYPE2
 62
     6
100
AcDbLine
 10
2453.5
 20
1291.5
 30
0.0
 11
2450.85
 21
1288.85
 31
0.0
  0
LINE
  5
443
100
AcDbEntity
  8
化粧台
  6
EXLTYPE2
 62
     6
100
AcDbLine
 10
2411.6
 20
1342.5
 30
0.0
 11
2411.6
 21
1326.5
 31
0.0
  0
ARC
  5
444
100
AcDbEntity
  8
化粧台
  6
EXLTYPE2
 62
     6
100
AcDbCircle
 10
2413.6
 20
1342.5
 30
0.0
 40
2.0
100
AcDbArc
 50
90.0
 51
180.0
  0
LINE
  5
445
100
AcDbEntity
  8
化粧台
  6
EXLTYPE2
 62
     6
100
AcDbLine
 10
2477.521127
 20
1204.0
 30
0.0
 11
2477.521127
 21
1219.0
 31
0.0
  0
ARC
  5
446
100
AcDbEntity
  8
化粧台
  6
EXLTYPE2
 62
     6
100
AcDbCircle
 10
2476.021127
 20
1204.0
 30
0.0
 40
1.5
100
AcDbArc
 50
270.0
 51
0.0
  0
LINE
  5
447
100
AcDbEntity
  8
化粧台
  6
EXLTYPE2
 62
     6
100
AcDbLine
 10
2501.442253
 20
1278.5
 30
0.0
 11
2454.642253
 21
1278.5
 31
0.0
  0
LINE
  5
448
100
AcDbEntity
  8
化粧台
  6
EXLTYPE2
 62
     6
100
AcDbLine
 10
2499.442253
 20
1296.5
 30
0.0
 11
2456.642253
 21
1296.5
 31
0.0
  0
LINE
  5
449
100
AcDbEntity
  8
化粧台
  6
EXLTYPE2
 62
     6
100
AcDbLine
 10
2501.442253
 20
1294.5
 30
0.0
 11
2501.442253
 21
1278.5
 31
0.0
  0
LINE
  5
44A
100
AcDbEntity
  8
化粧台
  6
EXLTYPE2
 62
     6
100
AcDbLine
 10
2454.642253
 20
1294.5
 30
0.0
 11
2454.642253
 21
1278.5
 31
0.0
  0
ARC
  5
44B
100
AcDbEntity
  8
化粧台
  6
EXLTYPE2
 62
     6
100
AcDbCircle
 10
2499.442253
 20
1294.5
 30
0.0
 40
2.0
100
AcDbArc
 50
0.0
 51
90.0
  0
ARC
  5
44C
100
AcDbEntity
  8
化粧台
  6
EXLTYPE2
 62
     6
100
AcDbCircle
 10
2456.642253
 20
1294.5
 30
0.0
 40
2.0
100
AcDbArc
 50
90.0
 51
180.0
  0
LINE
  5
44D
100
AcDbEntity
  8
化粧台
  6
EXLTYPE2
 62
     6
100
AcDbLine
 10
2496.542253
 20
1278.5
 30
0.0
 11
2496.542253
 21
1248.5
 31
0.0
  0
LINE
  5
44E
100
AcDbEntity
  8
化粧台
  6
EXLTYPE2
 62
     6
100
AcDbLine
 10
2493.892253
 20
1308.128873
 30
0.0
 11
2493.892253
 21
1296.5
 31
0.0
  0
LINE
  5
44F
100
AcDbEntity
  8
化粧台
  6
EXLTYPE2
 62
     6
100
AcDbLine
 10
2462.192253
 20
1308.128873
 30
0.0
 11
2462.192253
 21
1296.5
 31
0.0
  0
LINE
  5
450
100
AcDbEntity
  8
化粧台
  6
EXLTYPE2
 62
     6
100
AcDbLine
 10
2417.870011
 20
1342.5
 30
0.0
 11
2417.870011
 21
1326.5
 31
0.0
  0
LINE
  5
451
100
AcDbEntity
  8
化粧台
  6
EXLTYPE2
 62
     6
100
AcDbLine
 10
2476.774648
 20
1204.0
 30
0.0
 11
2476.774648
 21
1219.0
 31
0.0
  0
LINE
  5
452
100
AcDbEntity
  8
化粧台
  6
EXLTYPE2
 62
     6
100
AcDbLine
 10
2473.343495
 20
1204.0
 30
0.0
 11
2473.343495
 21
1219.0
 31
0.0
  0
LINE
  5
453
100
AcDbEntity
  8
化粧台
  6
EXLTYPE2
 62
     6
100
AcDbLine
 10
2458.995985
 20
1204.0
 30
0.0
 11
2458.995985
 21
1219.0
 31
0.0
  0
LINE
  5
454
100
AcDbEntity
  8
化粧台
  6
EXLTYPE2
 62
     6
100
AcDbLine
 10
2454.046268
 20
1204.0
 30
0.0
 11
2454.046268
 21
1219.0
 31
0.0
  0
LINE
  5
455
100
AcDbEntity
  8
化粧台
  6
EXLTYPE2
 62
     6
100
AcDbLine
 10
2495.172242
 20
1294.5
 30
0.0
 11
2495.172242
 21
1278.5
 31
0.0
  0
LINE
  5
456
100
AcDbEntity
  8
化粧台
  6
EXLTYPE2
 62
     6
100
AcDbLine
 10
2484.312265
 20
1294.5
 30
0.0
 11
2484.312265
 21
1278.5
 31
0.0
  0
LINE
  5
457
100
AcDbEntity
  8
化粧台
  6
EXLTYPE2
 62
     6
100
AcDbLine
 10
2471.772242
 20
1294.5
 30
0.0
 11
2471.772242
 21
1278.5
 31
0.0
  0
LINE
  5
458
100
AcDbEntity
  8
化粧台
  6
EXLTYPE2
 62
     6
100
AcDbLine
 10
2460.912265
 20
1294.5
 30
0.0
 11
2460.912265
 21
1278.5
 31
0.0
  0
ARC
  5
459
100
AcDbEntity
  8
化粧台
  6
EXLTYPE2
 62
     6
100
AcDbCircle
 10
2456.521127
 20
1308.128873
 30
0.0
 40
37.371127
100
AcDbArc
 50
0.0
 51
180.0
  0
ARC
  5
45A
100
AcDbEntity
  8
化粧台
  6
EXLTYPE2
 62
     6
100
AcDbCircle
 10
2456.521127
 20
1308.128873
 30
0.0
 40
5.671127
100
AcDbArc
 50
0.0
 51
180.0
  0
LINE
  5
45B
100
AcDbEntity
  8
化粧台
  6
EXLTYPE2
 62
     6
100
AcDbLine
 10
2428.729989
 20
1342.5
 30
0.0
 11
2428.729989
 21
1333.113944
 31
0.0
  0
LINE
  5
45C
100
AcDbEntity
  8
化粧台
  6
EXLTYPE2
 62
     6
100
AcDbLine
 10
2423.977267
 20
1326.5
 30
0.0
 11
2411.6
 21
1326.5
 31
0.0
  0
LINE
  5
45D
100
AcDbEntity
  8
化粧台
  6
EXLTYPE2
 62
     6
100
AcDbLine
 10
2453.5
 20
1312.928297
 30
0.0
 11
2453.5
 21
1291.5
 31
0.0
  0
LINE
  5
45E
100
AcDbEntity
  8
化粧台
  6
EXLTYPE2
 62
     6
100
AcDbLine
 10
2447.933796
 20
1344.5
 30
0.0
 11
2413.6
 21
1344.5
 31
0.0
  0
LINE
  5
45F
100
AcDbEntity
  8
化粧台
  6
EXLTYPE2
 62
     6
100
AcDbLine
 10
2459.542253
 20
1278.5
 30
0.0
 11
2459.542253
 21
1248.5
 31
0.0
  0
LINE
  5
460
100
AcDbEntity
  8
化粧台
  6
EXLTYPE2
 62
     6
100
AcDbLine
 10
2496.542253
 20
1248.5
 30
0.0
 11
2459.542253
 21
1248.5
 31
0.0
  0
LINE
  5
461
100
AcDbEntity
  8
化粧台
  6
EXLTYPE2
 62
     6
100
AcDbLine
 10
2474.021127
 20
1226.850662
 30
0.0
 11
2474.021127
 21
1219.0
 31
0.0
  0
ARC
  5
462
100
AcDbEntity
  8
化粧台
  6
EXLTYPE2
 62
     6
100
AcDbCircle
 10
2456.521127
 20
1259.871127
 30
0.0
 40
37.371127
100
AcDbArc
 50
265.207599
 51
342.285405
  0
LINE
  5
463
100
AcDbEntity
  8
化粧台
  6
EXLTYPE2
 62
     6
100
AcDbLine
 10
2477.521127
 20
1219.0
 30
0.0
 11
2450.85
 21
1219.0
 31
0.0
  0
LINE
  5
464
100
AcDbEntity
  8
化粧台
  6
EXLTYPE2
 62
     6
100
AcDbLine
 10
2476.021127
 20
1202.5
 30
0.0
 11
2450.85
 21
1202.5
 31
0.0
  0
ARC
  5
465
100
AcDbEntity
  8
化粧台
  6
EXLTYPE2
 62
     6
100
AcDbCircle
 10
2455.196127
 20
1256.45397
 30
0.0
 40
4.346127
100
AcDbArc
 50
180.0
 51
0.0
  0
LINE
  5
466
100
AcDbEntity
  8
化粧台
  6
EXLTYPE2
 62
     6
100
AcDbLine
 10
2451.0
 20
1345.08991
 30
0.0
 11
2451.0
 21
1375.5
 31
0.0
  0
LINE
  5
467
100
AcDbEntity
  8
化粧台
  6
EXLTYPE2
 62
     6
100
AcDbLine
 10
2419.0
 20
1344.5
 30
0.0
 11
2419.0
 21
1375.5
 31
0.0
  0
LINE
  5
468
100
AcDbEntity
  8
化粧台
  6
EXLTYPE2
 62
     6
100
AcDbLine
 10
2412.2
 20
973.2
 30
0.0
 11
2457.8
 21
973.2
 31
0.0
  0
LINE
  5
469
100
AcDbEntity
  8
化粧台
  6
EXLTYPE2
 62
     6
100
AcDbLine
 10
2412.2
 20
991.0
 30
0.0
 11
2457.8
 21
991.0
 31
0.0
  0
LINE
  5
46A
100
AcDbEntity
  8
化粧台
  6
EXLTYPE2
 62
     6
100
AcDbLine
 10
2457.8
 20
991.0
 30
0.0
 11
2457.8
 21
973.2
 31
0.0
  0
LINE
  5
46B
100
AcDbEntity
  8
化粧台
  6
EXLTYPE2
 62
     6
100
AcDbLine
 10
2412.2
 20
991.0
 30
0.0
 11
2412.2
 21
973.2
 31
0.0
  0
LINE
  5
46C
100
AcDbEntity
  8
化粧台
  6
EXLTYPE2
 62
     6
100
AcDbLine
 10
2401.5
 20
933.0
 30
0.0
 11
2468.5
 21
933.0
 31
0.0
  0
LINE
  5
46D
100
AcDbEntity
  8
化粧台
  6
EXLTYPE2
 62
     6
100
AcDbLine
 10
2414.3
 20
973.2
 30
0.0
 11
2414.3
 21
971.0
 31
0.0
  0
LINE
  5
46E
100
AcDbEntity
  8
化粧台
  6
EXLTYPE2
 62
     6
100
AcDbLine
 10
2455.7
 20
973.2
 30
0.0
 11
2455.7
 21
971.0
 31
0.0
  0
LINE
  5
46F
100
AcDbEntity
  8
化粧台
  6
EXLTYPE2
 62
     6
100
AcDbLine
 10
2468.5
 20
953.0
 30
0.0
 11
2468.5
 21
933.0
 31
0.0
  0
ARC
  5
470
100
AcDbEntity
  8
化粧台
  6
EXLTYPE2
 62
     6
100
AcDbCircle
 10
2465.5
 20
953.0
 30
0.0
 40
3.0
100
AcDbArc
 50
0.0
 51
90.0
  0
LINE
  5
471
100
AcDbEntity
  8
化粧台
  6
EXLTYPE2
 62
     6
100
AcDbLine
 10
2462.0
 20
968.0
 30
0.0
 11
2462.0
 21
956.0
 31
0.0
  0
ARC
  5
472
100
AcDbEntity
  8
化粧台
  6
EXLTYPE2
 62
     6
100
AcDbCircle
 10
2459.0
 20
968.0
 30
0.0
 40
3.0
100
AcDbArc
 50
0.0
 51
90.0
  0
LINE
  5
473
100
AcDbEntity
  8
化粧台
  6
EXLTYPE2
 62
     6
100
AcDbLine
 10
2408.0
 20
968.0
 30
0.0
 11
2408.0
 21
956.0
 31
0.0
  0
LINE
  5
474
100
AcDbEntity
  8
化粧台
  6
EXLTYPE2
 62
     6
100
AcDbLine
 10
2411.0
 20
971.0
 30
0.0
 11
2459.0
 21
971.0
 31
0.0
  0
ARC
  5
475
100
AcDbEntity
  8
化粧台
  6
EXLTYPE2
 62
     6
100
AcDbCircle
 10
2411.0
 20
968.0
 30
0.0
 40
3.0
100
AcDbArc
 50
90.0
 51
180.0
  0
LINE
  5
476
100
AcDbEntity
  8
化粧台
  6
EXLTYPE2
 62
     6
100
AcDbLine
 10
2401.5
 20
953.0
 30
0.0
 11
2401.5
 21
933.0
 31
0.0
  0
LINE
  5
477
100
AcDbEntity
  8
化粧台
  6
EXLTYPE2
 62
     6
100
AcDbLine
 10
2404.5
 20
956.0
 30
0.0
 11
2465.5
 21
956.0
 31
0.0
  0
ARC
  5
478
100
AcDbEntity
  8
化粧台
  6
EXLTYPE2
 62
     6
100
AcDbCircle
 10
2404.5
 20
953.0
 30
0.0
 40
3.0
100
AcDbArc
 50
90.0
 51
180.0
  0
LINE
  5
479
100
AcDbEntity
  8
化粧台
  6
EXLTYPE2
 62
     6
100
AcDbLine
 10
2424.399288
 20
989.0
 30
0.0
 11
2424.399288
 21
973.2
 31
0.0
  0
LINE
  5
47A
100
AcDbEntity
  8
化粧台
  6
EXLTYPE2
 62
     6
100
AcDbLine
 10
2427.191671
 20
989.0
 30
0.0
 11
2427.191671
 21
973.2
 31
0.0
  0
LINE
  5
47B
100
AcDbEntity
  8
化粧台
  6
EXLTYPE2
 62
     6
100
AcDbLine
 10
2442.808329
 20
989.0
 30
0.0
 11
2442.808329
 21
973.2
 31
0.0
  0
LINE
  5
47C
100
AcDbEntity
  8
化粧台
  6
EXLTYPE2
 62
     6
100
AcDbLine
 10
2445.600712
 20
989.0
 30
0.0
 11
2445.600712
 21
973.2
 31
0.0
  0
LINE
  5
47D
100
AcDbEntity
  8
化粧台
  6
EXLTYPE2
 62
     6
100
AcDbLine
 10
2413.356643
 20
989.0
 30
0.0
 11
2413.356643
 21
973.2
 31
0.0
  0
LINE
  5
47E
100
AcDbEntity
  8
化粧台
  6
EXLTYPE2
 62
     6
100
AcDbLine
 10
2456.643357
 20
989.0
 30
0.0
 11
2456.643357
 21
973.2
 31
0.0
  0
LINE
  5
47F
100
AcDbEntity
  8
化粧台
  6
EXLTYPE2
 62
     6
100
AcDbLine
 10
2419.15
 20
911.0
 30
0.0
 11
2419.15
 21
1308.128873
 31
0.0
  0
LINE
  5
480
100
AcDbEntity
  8
化粧台
  6
EXLTYPE2
 62
     6
100
AcDbLine
 10
2450.85
 20
1308.128873
 30
0.0
 11
2450.85
 21
911.0
 31
0.0
  0
LINE
  5
481
100
AcDbEntity
  8
化粧台
  6
CONTINUOUS
 62
     6
100
AcDbLine
 10
2535.0
 20
1320.5
 30
0.0
 11
2543.0
 21
1320.5
 31
0.0
  0
LINE
  5
482
100
AcDbEntity
  8
化粧台
  6
CONTINUOUS
 62
     6
100
AcDbLine
 10
2543.0
 20
1341.5
 30
0.0
 11
2543.0
 21
1320.5
 31
0.0
  0
LINE
  5
483
100
AcDbEntity
  8
化粧台
  6
CONTINUOUS
 62
     6
100
AcDbLine
 10
2535.0
 20
1341.5
 30
0.0
 11
2543.0
 21
1341.5
 31
0.0
  0
LINE
  5
484
100
AcDbEntity
  8
化粧台
  6
CONTINUOUS
 62
     6
100
AcDbLine
 10
2450.0
 20
1361.0
 30
0.0
 11
2450.0
 21
1301.0
 31
0.0
  0
LINE
  5
485
100
AcDbEntity
  8
化粧台
  6
CONTINUOUS
 62
     6
100
AcDbLine
 10
2402.0
 20
1331.0
 30
0.0
 11
2558.0
 21
1331.0
 31
0.0
  0
ARC
  5
486
100
AcDbEntity
  8
化粧台
  6
EXLTYPE2
 62
     6
100
AcDbCircle
 10
2466.10588
 20
1350.0
 30
0.0
 40
6.5
100
AcDbArc
 50
270.0
 51
318.84583
  0
ARC
  5
487
100
AcDbEntity
  8
化粧台
  6
EXLTYPE2
 62
     6
100
AcDbCircle
 10
2466.10588
 20
1312.0
 30
0.0
 40
6.5
100
AcDbArc
 50
41.15417
 51
90.0
  0
LINE
  5
488
100
AcDbEntity
  8
化粧台
  6
EXLTYPE2
 62
     6
100
AcDbLine
 10
2478.0
 20
1343.25
 30
0.0
 11
2476.572541
 21
1345.722432
 31
0.0
  0
LINE
  5
489
100
AcDbEntity
  8
化粧台
  6
EXLTYPE2
 62
     6
100
AcDbLine
 10
2478.0
 20
1318.75
 30
0.0
 11
2476.572541
 21
1316.277568
 31
0.0
  0
LINE
  5
48A
100
AcDbEntity
  8
化粧台
  6
EXLTYPE2
 62
     6
100
AcDbLine
 10
2478.0
 20
1343.25
 30
0.0
 11
2478.0
 21
1318.75
 31
0.0
  0
LINE
  5
48B
100
AcDbEntity
  8
化粧台
  6
EXLTYPE2
 62
     6
100
AcDbLine
 10
2476.572541
 20
1316.277568
 30
0.0
 11
2471.0
 21
1316.277568
 31
0.0
  0
ARC
  5
48C
100
AcDbEntity
  8
化粧台
  6
EXLTYPE2
 62
     6
100
AcDbCircle
 10
2436.0
 20
1347.0
 30
0.0
 40
3.5
100
AcDbArc
 50
270.0
 51
0.0
  0
ARC
  5
48D
100
AcDbEntity
  8
化粧台
  6
EXLTYPE2
 62
     6
100
AcDbCircle
 10
2464.0
 20
1347.0
 30
0.0
 40
3.5
100
AcDbArc
 50
180.0
 51
270.0
  0
LINE
  5
48E
100
AcDbEntity
  8
化粧台
  6
EXLTYPE2
 62
     6
100
AcDbLine
 10
2464.0
 20
1343.5
 30
0.0
 11
2466.10588
 21
1343.5
 31
0.0
  0
LINE
  5
48F
100
AcDbEntity
  8
化粧台
  6
EXLTYPE2
 62
     6
100
AcDbLine
 10
2422.6
 20
1325.7
 30
0.0
 11
2422.6
 21
1336.3
 31
0.0
  0
LINE
  5
490
100
AcDbEntity
  8
化粧台
  6
EXLTYPE2
 62
     6
100
AcDbLine
 10
2435.5
 20
1318.25
 30
0.0
 11
2435.5
 21
1343.75
 31
0.0
  0
ARC
  5
491
100
AcDbEntity
  8
化粧台
  6
EXLTYPE2
 62
     6
100
AcDbCircle
 10
2431.725083
 20
1322.25
 30
0.0
 40
5.5
100
AcDbArc
 50
217.187626
 51
313.341758
  0
LINE
  5
492
100
AcDbEntity
  8
化粧台
  6
EXLTYPE2
 62
     6
100
AcDbLine
 10
2422.6
 20
1325.7
 30
0.0
 11
2427.34345
 21
1318.925651
 31
0.0
  0
ARC
  5
493
100
AcDbEntity
  8
化粧台
  6
EXLTYPE2
 62
     6
100
AcDbCircle
 10
2431.725083
 20
1339.75
 30
0.0
 40
5.5
100
AcDbArc
 50
46.658242
 51
142.812374
  0
LINE
  5
494
100
AcDbEntity
  8
化粧台
  6
EXLTYPE2
 62
     6
100
AcDbLine
 10
2422.6
 20
1336.3
 30
0.0
 11
2427.34345
 21
1343.074349
 31
0.0
  0
LINE
  5
495
100
AcDbEntity
  8
化粧台
  6
EXLTYPE2
 62
     6
100
AcDbLine
 10
2427.34345
 20
1318.925651
 30
0.0
 11
2427.34345
 21
1343.074349
 31
0.0
  0
LINE
  5
496
100
AcDbEntity
  8
化粧台
  6
EXLTYPE2
 62
     6
100
AcDbLine
 10
2435.5
 20
1343.5
 30
0.0
 11
2436.0
 21
1343.5
 31
0.0
  0
LINE
  5
497
100
AcDbEntity
  8
化粧台
  6
EXLTYPE2
 62
     6
100
AcDbLine
 10
2435.5
 20
1318.5
 30
0.0
 11
2466.10588
 21
1318.5
 31
0.0
  0
LINE
  5
498
100
AcDbEntity
  8
化粧台
  6
EXLTYPE2
 62
     6
100
AcDbLine
 10
2417.0
 20
1335.75
 30
0.0
 11
2422.6
 21
1335.75
 31
0.0
  0
LINE
  5
499
100
AcDbEntity
  8
化粧台
  6
EXLTYPE2
 62
     6
100
AcDbLine
 10
2417.0
 20
1326.25
 30
0.0
 11
2422.6
 21
1326.25
 31
0.0
  0
LINE
  5
49A
100
AcDbEntity
  8
化粧台
  6
EXLTYPE2
 62
     6
100
AcDbLine
 10
2417.0
 20
1335.75
 30
0.0
 11
2417.0
 21
1326.25
 31
0.0
  0
LINE
  5
49B
100
AcDbEntity
  8
化粧台
  6
EXLTYPE2
 62
     6
100
AcDbLine
 10
2478.0
 20
1320.5
 30
0.0
 11
2535.0
 21
1320.5
 31
0.0
  0
LINE
  5
49C
100
AcDbEntity
  8
化粧台
  6
EXLTYPE2
 62
     6
100
AcDbLine
 10
2478.0
 20
1341.5
 30
0.0
 11
2535.0
 21
1341.5
 31
0.0
  0
LINE
  5
49D
100
AcDbEntity
  8
化粧台
  6
EXLTYPE2
 62
     6
100
AcDbLine
 10
2476.572541
 20
1345.722432
 30
0.0
 11
2471.0
 21
1345.722432
 31
0.0
  0
LINE
  5
49E
100
AcDbEntity
  8
化粧台
  6
EXLTYPE2
 62
     6
100
AcDbLine
 10
2460.0
 20
1394.0
 30
0.0
 11
2460.0
 21
1365.0
 31
0.0
  0
LINE
  5
49F
100
AcDbEntity
  8
化粧台
  6
EXLTYPE2
 62
     6
100
AcDbLine
 10
2440.0
 20
1394.0
 30
0.0
 11
2440.0
 21
1365.0
 31
0.0
  0
LINE
  5
4A0
100
AcDbEntity
  8
化粧台
  6
EXLTYPE2
 62
     6
100
AcDbLine
 10
2462.0
 20
1365.0
 30
0.0
 11
2462.0
 21
1354.0
 31
0.0
  0
LINE
  5
4A1
100
AcDbEntity
  8
化粧台
  6
EXLTYPE2
 62
     6
100
AcDbLine
 10
2438.0
 20
1365.0
 30
0.0
 11
2438.0
 21
1354.0
 31
0.0
  0
LINE
  5
4A2
100
AcDbEntity
  8
化粧台
  6
EXLTYPE2
 62
     6
100
AcDbLine
 10
2438.0
 20
1354.0
 30
0.0
 11
2462.0
 21
1354.0
 31
0.0
  0
LINE
  5
4A3
100
AcDbEntity
  8
化粧台
  6
EXLTYPE2
 62
     6
100
AcDbLine
 10
2438.0
 20
1365.0
 30
0.0
 11
2462.0
 21
1365.0
 31
0.0
  0
LINE
  5
4A4
100
AcDbEntity
  8
化粧台
  6
EXLTYPE2
 62
     6
100
AcDbLine
 10
2434.0
 20
1408.0
 30
0.0
 11
2434.0
 21
1394.0
 31
0.0
  0
LINE
  5
4A5
100
AcDbEntity
  8
化粧台
  6
EXLTYPE2
 62
     6
100
AcDbLine
 10
2464.0
 20
1406.0
 30
0.0
 11
2464.0
 21
1394.0
 31
0.0
  0
LINE
  5
4A6
100
AcDbEntity
  8
化粧台
  6
EXLTYPE2
 62
     6
100
AcDbLine
 10
2434.0
 20
1394.0
 30
0.0
 11
2464.0
 21
1394.0
 31
0.0
  0
LINE
  5
4A7
100
AcDbEntity
  8
化粧台
  6
EXLTYPE2
 62
     6
100
AcDbLine
 10
2442.0
 20
1408.0
 30
0.0
 11
2442.0
 21
1394.0
 31
0.0
  0
LINE
  5
4A8
100
AcDbEntity
  8
化粧台
  6
EXLTYPE2
 62
     6
100
AcDbLine
 10
2434.0
 20
1408.0
 30
0.0
 11
2442.0
 21
1408.0
 31
0.0
  0
LINE
  5
4A9
100
AcDbEntity
  8
化粧台
  6
EXLTYPE2
 62
     6
100
AcDbLine
 10
2442.0
 20
1406.0
 30
0.0
 11
2464.0
 21
1406.0
 31
0.0
  0
LINE
  5
4AA
100
AcDbEntity
  8
化粧台
  6
EXLTYPE2
 62
     6
100
AcDbLine
 10
2442.5
 20
1408.0
 30
0.0
 11
2457.5
 21
1408.0
 31
0.0
  0
LINE
  5
4AB
100
AcDbEntity
  8
化粧台
  6
EXLTYPE2
 62
     6
100
AcDbLine
 10
2442.5
 20
1406.0
 30
0.0
 11
2442.5
 21
1408.0
 31
0.0
  0
LINE
  5
4AC
100
AcDbEntity
  8
化粧台
  6
EXLTYPE2
 62
     6
100
AcDbLine
 10
2457.5
 20
1406.0
 30
0.0
 11
2457.5
 21
1408.0
 31
0.0
  0
LINE
  5
4AD
100
AcDbEntity
  8
化粧台
  6
EXLTYPE2
 62
     6
100
AcDbLine
 10
2439.5
 20
1347.0
 30
0.0
 11
2439.5
 21
1354.0
 31
0.0
  0
LINE
  5
4AE
100
AcDbEntity
  8
化粧台
  6
EXLTYPE2
 62
     6
100
AcDbLine
 10
2460.5
 20
1347.0
 30
0.0
 11
2460.5
 21
1354.0
 31
0.0
  0
LINE
  5
4AF
100
AcDbEntity
  8
化粧台
  6
EXLTYPE2
 62
     6
100
AcDbLine
 10
2444.0
 20
1610.0
 30
0.0
 11
2444.0
 21
1408.0
 31
0.0
  0
LINE
  5
4B0
100
AcDbEntity
  8
化粧台
  6
EXLTYPE2
 62
     6
100
AcDbLine
 10
2456.0
 20
1610.0
 30
0.0
 11
2456.0
 21
1408.0
 31
0.0
  0
LINE
  5
4B1
100
AcDbEntity
  8
化粧台
  6
EXLTYPE3
 62
     6
100
AcDbLine
 10
2300.0
 20
1590.0
 30
0.0
 11
2300.0
 21
1395.0
 31
0.0
  0
LINE
  5
4B2
100
AcDbEntity
  8
化粧台
  6
CONTINUOUS
 62
     6
100
AcDbLine
 10
2535.0
 20
1493.0
 30
0.0
 11
2567.5
 21
1491.0
 31
0.0
  0
LINE
  5
4B3
100
AcDbEntity
  8
化粧台
  6
CONTINUOUS
 62
     6
100
AcDbLine
 10
2567.5
 20
1491.0
 30
0.0
 11
2535.0
 21
1489.0
 31
0.0
  0
LINE
  5
4B4
100
AcDbEntity
  8
化粧台
  6
CONTINUOUS
 62
     6
100
AcDbLine
 10
2517.0
 20
1498.5
 30
0.0
 11
2516.0
 21
1498.5
 31
0.0
  0
LINE
  5
4B5
100
AcDbEntity
  8
化粧台
  6
CONTINUOUS
 62
     6
100
AcDbLine
 10
2517.0
 20
1483.5
 30
0.0
 11
2516.0
 21
1483.5
 31
0.0
  0
ARC
  5
4B6
100
AcDbEntity
  8
化粧台
  6
CONTINUOUS
 62
     6
100
AcDbCircle
 10
2517.039655
 20
1491.0
 30
0.0
 40
3.939655
100
AcDbArc
 50
105.301302
 51
254.698698
  0
LINE
  5
4B7
100
AcDbEntity
  8
化粧台
  6
CONTINUOUS
 62
     6
100
AcDbLine
 10
2516.0
 20
1498.5
 30
0.0
 11
2516.0
 21
1483.5
 31
0.0
  0
LINE
  5
4B8
100
AcDbEntity
  8
化粧台
  6
CONTINUOUS
 62
     6
100
AcDbLine
 10
2503.1
 20
1491.0
 30
0.0
 11
2577.5
 21
1491.0
 31
0.0
  0
LINE
  5
4B9
100
AcDbEntity
  8
化粧台
  6
EXLTYPE2
 62
     6
100
AcDbLine
 10
2517.0
 20
1051.0
 30
0.0
 11
2424.0
 21
1051.0
 31
0.0
  0
LINE
  5
4BA
100
AcDbEntity
  8
化粧台
  6
EXLTYPE2
 62
     6
100
AcDbLine
 10
2517.0
 20
1016.0
 30
0.0
 11
2424.0
 21
1016.0
 31
0.0
  0
LINE
  5
4BB
100
AcDbEntity
  8
化粧台
  6
EXLTYPE2
 62
     6
100
AcDbLine
 10
2424.0
 20
1051.0
 30
0.0
 11
2424.0
 21
1016.0
 31
0.0
  0
LINE
  5
4BC
100
AcDbEntity
  8
化粧台
  6
EXLTYPE2
 62
     6
100
AcDbLine
 10
2517.0
 20
1051.0
 30
0.0
 11
2517.0
 21
1016.0
 31
0.0
  0
LINE
  5
4BD
100
AcDbEntity
  8
化粧台
  6
CONTINUOUS
 62
     6
100
AcDbLine
 10
729.5
 20
903.0
 30
0.0
 11
750.5
 21
903.0
 31
0.0
  0
LINE
  5
4BE
100
AcDbEntity
  8
化粧台
  6
EXLTYPE3
 62
     6
100
AcDbLine
 10
740.0
 20
1121.0
 30
0.0
 11
740.0
 21
893.0
 31
0.0
  0
LINE
  5
4BF
100
AcDbEntity
  8
化粧台
  6
EXLTYPE4
 62
     6
100
AcDbLine
 10
750.5
 20
1111.0
 30
0.0
 11
750.5
 21
903.0
 31
0.0
  0
LINE
  5
4C0
100
AcDbEntity
  8
化粧台
  6
EXLTYPE4
 62
     6
100
AcDbLine
 10
729.5
 20
1111.0
 30
0.0
 11
729.5
 21
903.0
 31
0.0
  0
LINE
  5
4C1
100
AcDbEntity
  8
化粧台
  6
CONTINUOUS
 62
     6
100
AcDbLine
 10
1080.5
 20
903.0
 30
0.0
 11
1059.5
 21
903.0
 31
0.0
  0
LINE
  5
4C2
100
AcDbEntity
  8
化粧台
  6
EXLTYPE3
 62
     6
100
AcDbLine
 10
1070.0
 20
1121.0
 30
0.0
 11
1070.0
 21
893.0
 31
0.0
  0
LINE
  5
4C3
100
AcDbEntity
  8
化粧台
  6
EXLTYPE4
 62
     6
100
AcDbLine
 10
1059.5
 20
1111.0
 30
0.0
 11
1059.5
 21
903.0
 31
0.0
  0
LINE
  5
4C4
100
AcDbEntity
  8
化粧台
  6
EXLTYPE4
 62
     6
100
AcDbLine
 10
1080.5
 20
1111.0
 30
0.0
 11
1080.5
 21
903.0
 31
0.0
  0
LINE
  5
4C5
100
AcDbEntity
  8
化粧台
  6
CONTINUOUS
 62
     6
100
AcDbLine
 10
2444.5
 20
903.0
 30
0.0
 11
2465.5
 21
903.0
 31
0.0
  0
LINE
  5
4C6
100
AcDbEntity
  8
化粧台
  6
EXLTYPE3
 62
     6
100
AcDbLine
 10
2455.0
 20
1121.0
 30
0.0
 11
2455.0
 21
893.0
 31
0.0
  0
LINE
  5
4C7
100
AcDbEntity
  8
化粧台
  6
EXLTYPE4
 62
     6
100
AcDbLine
 10
2465.5
 20
1111.0
 30
0.0
 11
2465.5
 21
903.0
 31
0.0
  0
LINE
  5
4C8
100
AcDbEntity
  8
化粧台
  6
EXLTYPE4
 62
     6
100
AcDbLine
 10
2444.5
 20
1111.0
 30
0.0
 11
2444.5
 21
903.0
 31
0.0
  0
LINE
  5
4C9
100
AcDbEntity
  8
化粧台
  6
CONTINUOUS
 62
     2
100
AcDbLine
 10
1263.0
 20
911.0
 30
0.0
 11
1263.0
 21
1001.0
 31
0.0
  0
LINE
  5
4CA
100
AcDbEntity
  8
化粧台
  6
CONTINUOUS
 62
     2
100
AcDbLine
 10
1280.0
 20
1610.0
 30
0.0
 11
1280.0
 21
1591.0
 31
0.0
  0
LINE
  5
4CB
100
AcDbEntity
  8
化粧台
  6
CONTINUOUS
 62
     6
100
AcDbLine
 10
1160.0
 20
1504.0
 30
0.0
 11
1160.0
 21
1478.0
 31
0.0
  0
LINE
  5
4CC
100
AcDbEntity
  8
化粧台
  6
CONTINUOUS
 62
     6
100
AcDbLine
 10
1173.0
 20
1491.0
 30
0.0
 11
1147.0
 21
1491.0
 31
0.0
  0
LINE
  5
4CD
100
AcDbEntity
  8
化粧台
  6
CONTINUOUS
 62
     2
100
AcDbLine
 10
1278.0
 20
911.0
 30
0.0
 11
1278.0
 21
1591.0
 31
0.0
  0
LINE
  5
4CE
100
AcDbEntity
  8
化粧台
  6
CONTINUOUS
 62
     6
100
AcDbLine
 10
1275.0
 20
1586.0
 30
0.0
 11
1275.0
 21
1554.0
 31
0.0
  0
LINE
  5
4CF
100
AcDbEntity
  8
化粧台
  6
CONTINUOUS
 62
     2
100
AcDbLine
 10
1275.0
 20
1554.0
 30
0.0
 11
1275.0
 21
1411.0
 31
0.0
  0
LINE
  5
4D0
100
AcDbEntity
  8
化粧台
  6
CONTINUOUS
 62
     6
100
AcDbLine
 10
1275.0
 20
1407.0
 30
0.0
 11
1275.0
 21
1375.0
 31
0.0
  0
LINE
  5
4D1
100
AcDbEntity
  8
化粧台
  6
CONTINUOUS
 62
     2
100
AcDbLine
 10
1275.0
 20
1375.0
 30
0.0
 11
1275.0
 21
1001.0
 31
0.0
  0
LINE
  5
4D2
100
AcDbEntity
  8
化粧台
  6
CONTINUOUS
 62
     2
100
AcDbLine
 10
1248.0
 20
911.0
 30
0.0
 11
1248.0
 21
1001.0
 31
0.0
  0
LINE
  5
4D3
100
AcDbEntity
  8
化粧台
  6
CONTINUOUS
 62
     2
100
AcDbLine
 10
562.0
 20
911.0
 30
0.0
 11
562.0
 21
1001.0
 31
0.0
  0
LINE
  5
4D4
100
AcDbEntity
  8
化粧台
  6
CONTINUOUS
 62
     2
100
AcDbLine
 10
535.0
 20
1375.0
 30
0.0
 11
535.0
 21
1001.0
 31
0.0
  0
LINE
  5
4D5
100
AcDbEntity
  8
化粧台
  6
CONTINUOUS
 62
     6
100
AcDbLine
 10
535.0
 20
1407.0
 30
0.0
 11
535.0
 21
1375.0
 31
0.0
  0
LINE
  5
4D6
100
AcDbEntity
  8
化粧台
  6
CONTINUOUS
 62
     2
100
AcDbLine
 10
535.0
 20
1554.0
 30
0.0
 11
535.0
 21
1411.0
 31
0.0
  0
LINE
  5
4D7
100
AcDbEntity
  8
化粧台
  6
CONTINUOUS
 62
     6
100
AcDbLine
 10
535.0
 20
1586.0
 30
0.0
 11
535.0
 21
1554.0
 31
0.0
  0
LINE
  5
4D8
100
AcDbEntity
  8
化粧台
  6
CONTINUOUS
 62
     2
100
AcDbLine
 10
532.0
 20
911.0
 30
0.0
 11
532.0
 21
1591.0
 31
0.0
  0
LINE
  5
4D9
100
AcDbEntity
  8
化粧台
  6
CONTINUOUS
 62
     6
100
AcDbLine
 10
637.0
 20
1491.0
 30
0.0
 11
663.0
 21
1491.0
 31
0.0
  0
LINE
  5
4DA
100
AcDbEntity
  8
化粧台
  6
CONTINUOUS
 62
     6
100
AcDbLine
 10
650.0
 20
1504.0
 30
0.0
 11
650.0
 21
1478.0
 31
0.0
  0
LINE
  5
4DB
100
AcDbEntity
  8
化粧台
  6
CONTINUOUS
 62
     2
100
AcDbLine
 10
530.0
 20
1610.0
 30
0.0
 11
530.0
 21
1591.0
 31
0.0
  0
LINE
  5
4DC
100
AcDbEntity
  8
化粧台
  6
CONTINUOUS
 62
     2
100
AcDbLine
 10
547.0
 20
911.0
 30
0.0
 11
547.0
 21
1001.0
 31
0.0
  0
LINE
  5
4DD
100
AcDbEntity
  8
化粧台
  6
CONTINUOUS
 62
     6
100
AcDbLine
 10
1275.0
 20
1554.0
 30
0.0
 11
535.0
 21
1554.0
 31
0.0
  0
LINE
  5
4DE
100
AcDbEntity
  8
化粧台
  6
CONTINUOUS
 62
     6
100
AcDbLine
 10
1275.0
 20
1558.042314
 30
0.0
 11
535.0
 21
1558.042314
 31
0.0
  0
LINE
  5
4DF
100
AcDbEntity
  8
化粧台
  6
CONTINUOUS
 62
     6
100
AcDbLine
 10
1275.0
 20
1375.0
 30
0.0
 11
535.0
 21
1375.0
 31
0.0
  0
LINE
  5
4E0
100
AcDbEntity
  8
化粧台
  6
CONTINUOUS
 62
     6
100
AcDbLine
 10
1275.0
 20
1379.042314
 30
0.0
 11
535.0
 21
1379.042314
 31
0.0
  0
LINE
  5
4E1
100
AcDbEntity
  8
化粧台
  6
CONTINUOUS
 62
     2
100
AcDbLine
 10
1275.0
 20
1001.0
 30
0.0
 11
535.0
 21
1001.0
 31
0.0
  0
LINE
  5
4E2
100
AcDbEntity
  8
化粧台
  6
CONTINUOUS
 62
     2
100
AcDbLine
 10
1275.0
 20
1411.0
 30
0.0
 11
535.0
 21
1411.0
 31
0.0
  0
LINE
  5
4E3
100
AcDbEntity
  8
化粧台
  6
CONTINUOUS
 62
     6
100
AcDbLine
 10
1275.0
 20
1407.0
 30
0.0
 11
535.0
 21
1407.0
 31
0.0
  0
LINE
  5
4E4
100
AcDbEntity
  8
化粧台
  6
CONTINUOUS
 62
     6
100
AcDbLine
 10
1275.0
 20
1397.0
 30
0.0
 11
535.0
 21
1397.0
 31
0.0
  0
LINE
  5
4E5
100
AcDbEntity
  8
化粧台
  6
CONTINUOUS
 62
     6
100
AcDbLine
 10
1275.0
 20
1586.0
 30
0.0
 11
535.0
 21
1586.0
 31
0.0
  0
LINE
  5
4E6
100
AcDbEntity
  8
化粧台
  6
CONTINUOUS
 62
     6
100
AcDbLine
 10
1275.0
 20
1576.0
 30
0.0
 11
535.0
 21
1576.0
 31
0.0
  0
LINE
  5
4E7
100
AcDbEntity
  8
化粧台
  6
CONTINUOUS
 62
     2
100
AcDbLine
 10
532.0
 20
911.0
 30
0.0
 11
1278.0
 21
911.0
 31
0.0
  0
LINE
  5
4E8
100
AcDbEntity
  8
化粧台
  6
CONTINUOUS
 62
     2
100
AcDbLine
 10
1280.0
 20
1610.0
 30
0.0
 11
530.0
 21
1610.0
 31
0.0
  0
LINE
  5
4E9
100
AcDbEntity
  8
化粧台
  6
CONTINUOUS
 62
     2
100
AcDbLine
 10
1280.0
 20
1591.0
 30
0.0
 11
530.0
 21
1591.0
 31
0.0
  0
TEXT
  5
4EA
100
AcDbEntity
  8
化粧台
  6
CONTINUOUS
 62
     2
100
AcDbText
 10
2535.0
 20
2913.000001
 30
0.0
 40
60.0
  1
W.L.
 50
90.0
 41
0.4125
  7
EXCADSTD
 72
     5
 11
2535.0
 21
3003.7434
 31
0.0
100
AcDbText
  0
LINE
  5
4EB
100
AcDbEntity
  8
化粧台
  6
EXLTYPE4
 62
     6
100
AcDbLine
 10
2535.0
 20
911.0
 30
0.0
 11
2535.0
 21
3013.5
 31
0.0
  0
LINE
  5
4EC
100
AcDbEntity
  8
化粧台
  6
EXLTYPE4
 62
     6
100
AcDbLine
 10
1785.0
 20
911.0
 30
0.0
 11
305.0
 21
911.0
 31
0.0
  0
LINE
  5
4ED
100
AcDbEntity
  8
鏡台
  6
CONTINUOUS
 62
     2
100
AcDbLine
 10
530.0
 20
3844.0
 30
0.0
 11
1280.0
 21
3844.0
 31
0.0
  0
LINE
  5
4EE
100
AcDbEntity
  8
鏡台
  6
CONTINUOUS
 62
     2
100
AcDbLine
 10
530.0
 20
3964.0
 30
0.0
 11
1280.0
 21
3964.0
 31
0.0
  0
LINE
  5
4EF
100
AcDbEntity
  8
鏡台
  6
CONTINUOUS
 62
     2
100
AcDbLine
 10
530.0
 20
3844.0
 30
0.0
 11
530.0
 21
3964.0
 31
0.0
  0
LINE
  5
4F0
100
AcDbEntity
  8
鏡台
  6
CONTINUOUS
 62
     2
100
AcDbLine
 10
1280.0
 20
3844.0
 30
0.0
 11
1280.0
 21
3964.0
 31
0.0
  0
LINE
  5
4F1
100
AcDbEntity
  8
鏡台
  6
CONTINUOUS
 62
     2
100
AcDbLine
 10
545.0
 20
3844.0
 30
0.0
 11
545.0
 21
3964.0
 31
0.0
  0
LINE
  5
4F2
100
AcDbEntity
  8
鏡台
  6
CONTINUOUS
 62
     2
100
AcDbLine
 10
1265.0
 20
3844.0
 30
0.0
 11
1265.0
 21
3964.0
 31
0.0
  0
LINE
  5
4F3
100
AcDbEntity
  8
鏡台
  6
CONTINUOUS
 62
     6
100
AcDbLine
 10
1178.0
 20
3964.0
 30
0.0
 11
1180.0
 21
3996.5
 31
0.0
  0
LINE
  5
4F4
100
AcDbEntity
  8
鏡台
  6
CONTINUOUS
 62
     6
100
AcDbLine
 10
1180.0
 20
3996.5
 30
0.0
 11
1182.0
 21
3964.0
 31
0.0
  0
LINE
  5
4F5
100
AcDbEntity
  8
鏡台
  6
CONTINUOUS
 62
     6
100
AcDbLine
 10
1180.0
 20
3954.0
 30
0.0
 11
1180.0
 21
4006.5
 31
0.0
  0
LINE
  5
4F6
100
AcDbEntity
  8
鏡台
  6
CONTINUOUS
 62
     6
100
AcDbLine
 10
628.0
 20
3964.0
 30
0.0
 11
630.0
 21
3996.5
 31
0.0
  0
LINE
  5
4F7
100
AcDbEntity
  8
鏡台
  6
CONTINUOUS
 62
     6
100
AcDbLine
 10
630.0
 20
3996.5
 30
0.0
 11
632.0
 21
3964.0
 31
0.0
  0
LINE
  5
4F8
100
AcDbEntity
  8
鏡台
  6
CONTINUOUS
 62
     6
100
AcDbLine
 10
630.0
 20
3954.0
 30
0.0
 11
630.0
 21
4006.5
 31
0.0
  0
LINE
  5
4F9
100
AcDbEntity
  8
鏡台
  6
CONTINUOUS
 62
     6
100
AcDbLine
 10
678.0
 20
3964.0
 30
0.0
 11
680.0
 21
3996.5
 31
0.0
  0
LINE
  5
4FA
100
AcDbEntity
  8
鏡台
  6
CONTINUOUS
 62
     6
100
AcDbLine
 10
680.0
 20
3996.5
 30
0.0
 11
682.0
 21
3964.0
 31
0.0
  0
LINE
  5
4FB
100
AcDbEntity
  8
鏡台
  6
CONTINUOUS
 62
     6
100
AcDbLine
 10
680.0
 20
3954.0
 30
0.0
 11
680.0
 21
4006.5
 31
0.0
  0
LINE
  5
4FC
100
AcDbEntity
  8
鏡台
  6
CONTINUOUS
 62
     6
100
AcDbLine
 10
1128.0
 20
3964.0
 30
0.0
 11
1130.0
 21
3996.5
 31
0.0
  0
LINE
  5
4FD
100
AcDbEntity
  8
鏡台
  6
CONTINUOUS
 62
     6
100
AcDbLine
 10
1130.0
 20
3996.5
 30
0.0
 11
1132.0
 21
3964.0
 31
0.0
  0
LINE
  5
4FE
100
AcDbEntity
  8
鏡台
  6
CONTINUOUS
 62
     6
100
AcDbLine
 10
1130.0
 20
3954.0
 30
0.0
 11
1130.0
 21
4006.5
 31
0.0
  0
LINE
  5
4FF
100
AcDbEntity
  8
鏡台
  6
CONTINUOUS
 62
     2
100
AcDbLine
 10
530.0
 20
2811.0
 30
0.0
 11
1280.0
 21
2811.0
 31
0.0
  0
LINE
  5
500
100
AcDbEntity
  8
鏡台
  6
CONTINUOUS
 62
     2
100
AcDbLine
 10
530.0
 20
2011.0
 30
0.0
 11
1280.0
 21
2011.0
 31
0.0
  0
LINE
  5
501
100
AcDbEntity
  8
鏡台
  6
CONTINUOUS
 62
     2
100
AcDbLine
 10
530.0
 20
2811.0
 30
0.0
 11
530.0
 21
2011.0
 31
0.0
  0
LINE
  5
502
100
AcDbEntity
  8
鏡台
  6
CONTINUOUS
 62
     2
100
AcDbLine
 10
1280.0
 20
2811.0
 30
0.0
 11
1280.0
 21
2011.0
 31
0.0
  0
LINE
  5
503
100
AcDbEntity
  8
鏡台
  6
CONTINUOUS
 62
     2
100
AcDbLine
 10
1265.0
 20
2811.0
 30
0.0
 11
1265.0
 21
2011.0
 31
0.0
  0
LINE
  5
504
100
AcDbEntity
  8
鏡台
  6
CONTINUOUS
 62
     2
100
AcDbLine
 10
545.0
 20
2811.0
 30
0.0
 11
545.0
 21
2011.0
 31
0.0
  0
LINE
  5
505
100
AcDbEntity
  8
鏡台
  6
CONTINUOUS
 62
     2
100
AcDbLine
 10
545.0
 20
2029.0
 30
0.0
 11
1265.0
 21
2029.0
 31
0.0
  0
LINE
  5
506
100
AcDbEntity
  8
鏡台
  6
CONTINUOUS
 62
     2
100
AcDbLine
 10
545.0
 20
2795.5
 30
0.0
 11
1265.0
 21
2795.5
 31
0.0
  0
LINE
  5
507
100
AcDbEntity
  8
鏡台
  6
CONTINUOUS
 62
     2
100
AcDbLine
 10
1070.0
 20
2795.5
 30
0.0
 11
1070.0
 21
2029.0
 31
0.0
  0
LINE
  5
508
100
AcDbEntity
  8
鏡台
  6
CONTINUOUS
 62
     2
100
AcDbLine
 10
1055.0
 20
2795.5
 30
0.0
 11
1055.0
 21
2029.0
 31
0.0
  0
LINE
  5
509
100
AcDbEntity
  8
鏡台
  6
CONTINUOUS
 62
     2
100
AcDbLine
 10
1070.0
 20
2134.0
 30
0.0
 11
1265.0
 21
2134.0
 31
0.0
  0
LINE
  5
50A
100
AcDbEntity
  8
鏡台
  6
CONTINUOUS
 62
     2
100
AcDbLine
 10
1070.0
 20
2094.0
 30
0.0
 11
1265.0
 21
2094.0
 31
0.0
  0
LINE
  5
50B
100
AcDbEntity
  8
鏡台
  6
CONTINUOUS
 62
     2
100
AcDbLine
 10
1070.0
 20
2324.0
 30
0.0
 11
1265.0
 21
2324.0
 31
0.0
  0
LINE
  5
50C
100
AcDbEntity
  8
鏡台
  6
CONTINUOUS
 62
     2
100
AcDbLine
 10
1070.0
 20
2364.0
 30
0.0
 11
1265.0
 21
2364.0
 31
0.0
  0
LINE
  5
50D
100
AcDbEntity
  8
鏡台
  6
CONTINUOUS
 62
     2
100
AcDbLine
 10
1070.0
 20
2614.0
 30
0.0
 11
1265.0
 21
2614.0
 31
0.0
  0
LINE
  5
50E
100
AcDbEntity
  8
鏡台
  6
CONTINUOUS
 62
     2
100
AcDbLine
 10
1070.0
 20
2574.0
 30
0.0
 11
1265.0
 21
2574.0
 31
0.0
  0
LINE
  5
50F
100
AcDbEntity
  8
鏡台
  6
CONTINUOUS
 62
     6
100
AcDbLine
 10
1153.25
 20
2065.6
 30
0.0
 11
1153.25
 21
2042.4
 31
0.0
  0
LINE
  5
510
100
AcDbEntity
  8
鏡台
  6
CONTINUOUS
 62
     6
100
AcDbLine
 10
1181.75
 20
2065.6
 30
0.0
 11
1181.75
 21
2042.4
 31
0.0
  0
LINE
  5
511
100
AcDbEntity
  8
鏡台
  6
CONTINUOUS
 62
     6
100
AcDbLine
 10
1153.25
 20
2042.4
 30
0.0
 11
1181.75
 21
2042.4
 31
0.0
  0
LINE
  5
512
100
AcDbEntity
  8
鏡台
  6
CONTINUOUS
 62
     6
100
AcDbLine
 10
1153.25
 20
2065.6
 30
0.0
 11
1181.75
 21
2065.6
 31
0.0
  0
LINE
  5
513
100
AcDbEntity
  8
鏡台
  6
CONTINUOUS
 62
     6
100
AcDbLine
 10
1108.25
 20
2065.6
 30
0.0
 11
1108.25
 21
2042.4
 31
0.0
  0
LINE
  5
514
100
AcDbEntity
  8
鏡台
  6
CONTINUOUS
 62
     6
100
AcDbLine
 10
1136.75
 20
2065.6
 30
0.0
 11
1136.75
 21
2042.4
 31
0.0
  0
LINE
  5
515
100
AcDbEntity
  8
鏡台
  6
CONTINUOUS
 62
     6
100
AcDbLine
 10
1108.25
 20
2042.4
 30
0.0
 11
1136.75
 21
2042.4
 31
0.0
  0
LINE
  5
516
100
AcDbEntity
  8
鏡台
  6
CONTINUOUS
 62
     6
100
AcDbLine
 10
1108.25
 20
2065.6
 30
0.0
 11
1136.75
 21
2065.6
 31
0.0
  0
LINE
  5
517
100
AcDbEntity
  8
鏡台
  6
CONTINUOUS
 62
     6
100
AcDbLine
 10
1198.25
 20
2065.6
 30
0.0
 11
1198.25
 21
2042.4
 31
0.0
  0
LINE
  5
518
100
AcDbEntity
  8
鏡台
  6
CONTINUOUS
 62
     6
100
AcDbLine
 10
1226.75
 20
2065.6
 30
0.0
 11
1226.75
 21
2042.4
 31
0.0
  0
LINE
  5
519
100
AcDbEntity
  8
鏡台
  6
CONTINUOUS
 62
     6
100
AcDbLine
 10
1198.25
 20
2042.4
 30
0.0
 11
1226.75
 21
2042.4
 31
0.0
  0
LINE
  5
51A
100
AcDbEntity
  8
鏡台
  6
CONTINUOUS
 62
     6
100
AcDbLine
 10
1198.25
 20
2065.6
 30
0.0
 11
1226.75
 21
2065.6
 31
0.0
  0
ARC
  5
51B
100
AcDbEntity
  8
鏡台
  6
CONTINUOUS
 62
     6
100
AcDbCircle
 10
1083.0
 20
2068.5
 30
0.0
 40
3.0
100
AcDbArc
 50
90.0
 51
180.0
  0
LINE
  5
51C
100
AcDbEntity
  8
鏡台
  6
CONTINUOUS
 62
     6
100
AcDbLine
 10
1080.0
 20
2068.5
 30
0.0
 11
1080.0
 21
2039.5
 31
0.0
  0
ARC
  5
51D
100
AcDbEntity
  8
鏡台
  6
CONTINUOUS
 62
     6
100
AcDbCircle
 10
1083.0
 20
2039.5
 30
0.0
 40
3.0
100
AcDbArc
 50
180.0
 51
270.0
  0
LINE
  5
51E
100
AcDbEntity
  8
鏡台
  6
CONTINUOUS
 62
     6
100
AcDbLine
 10
1083.0
 20
2036.5
 30
0.0
 11
1252.0
 21
2036.5
 31
0.0
  0
ARC
  5
51F
100
AcDbEntity
  8
鏡台
  6
CONTINUOUS
 62
     6
100
AcDbCircle
 10
1252.0
 20
2039.5
 30
0.0
 40
3.0
100
AcDbArc
 50
270.0
 51
0.0
  0
LINE
  5
520
100
AcDbEntity
  8
鏡台
  6
CONTINUOUS
 62
     6
100
AcDbLine
 10
1255.0
 20
2068.5
 30
0.0
 11
1255.0
 21
2039.5
 31
0.0
  0
LINE
  5
521
100
AcDbEntity
  8
鏡台
  6
CONTINUOUS
 62
     6
100
AcDbLine
 10
1083.0
 20
2071.5
 30
0.0
 11
1252.0
 21
2071.5
 31
0.0
  0
ARC
  5
522
100
AcDbEntity
  8
鏡台
  6
CONTINUOUS
 62
     6
100
AcDbCircle
 10
1252.0
 20
2068.5
 30
0.0
 40
3.0
100
AcDbArc
 50
0.0
 51
90.0
  0
CIRCLE
  5
523
100
AcDbEntity
  8
鏡台
  6
CONTINUOUS
 62
     6
100
AcDbCircle
 10
1212.5
 20
2054.0
 30
0.0
 40
11.0
  0
LINE
  5
524
100
AcDbEntity
  8
鏡台
  6
CONTINUOUS
 62
     6
100
AcDbLine
 10
1155.25
 20
2062.6
 30
0.0
 11
1155.25
 21
2045.4
 31
0.0
  0
LINE
  5
525
100
AcDbEntity
  8
鏡台
  6
CONTINUOUS
 62
     6
100
AcDbLine
 10
1179.75
 20
2062.6
 30
0.0
 11
1179.75
 21
2045.4
 31
0.0
  0
LINE
  5
526
100
AcDbEntity
  8
鏡台
  6
CONTINUOUS
 62
     6
100
AcDbLine
 10
1177.75
 20
2062.6
 30
0.0
 11
1177.75
 21
2045.4
 31
0.0
  0
LINE
  5
527
100
AcDbEntity
  8
鏡台
  6
CONTINUOUS
 62
     6
100
AcDbLine
 10
1155.25
 20
2045.4
 30
0.0
 11
1179.75
 21
2045.4
 31
0.0
  0
LINE
  5
528
100
AcDbEntity
  8
鏡台
  6
CONTINUOUS
 62
     6
100
AcDbLine
 10
1155.25
 20
2062.6
 30
0.0
 11
1179.75
 21
2062.6
 31
0.0
  0
CIRCLE
  5
529
100
AcDbEntity
  8
鏡台
  6
CONTINUOUS
 62
     6
100
AcDbCircle
 10
1174.05
 20
2054.0
 30
0.0
 40
1.0
  0
LINE
  5
52A
100
AcDbEntity
  8
鏡台
  6
CONTINUOUS
 62
     6
100
AcDbLine
 10
1110.25
 20
2062.6
 30
0.0
 11
1110.25
 21
2045.4
 31
0.0
  0
LINE
  5
52B
100
AcDbEntity
  8
鏡台
  6
CONTINUOUS
 62
     6
100
AcDbLine
 10
1134.75
 20
2062.6
 30
0.0
 11
1134.75
 21
2045.4
 31
0.0
  0
LINE
  5
52C
100
AcDbEntity
  8
鏡台
  6
CONTINUOUS
 62
     6
100
AcDbLine
 10
1132.75
 20
2062.6
 30
0.0
 11
1132.75
 21
2045.4
 31
0.0
  0
LINE
  5
52D
100
AcDbEntity
  8
鏡台
  6
CONTINUOUS
 62
     6
100
AcDbLine
 10
1110.25
 20
2045.4
 30
0.0
 11
1134.75
 21
2045.4
 31
0.0
  0
LINE
  5
52E
100
AcDbEntity
  8
鏡台
  6
CONTINUOUS
 62
     6
100
AcDbLine
 10
1110.25
 20
2062.6
 30
0.0
 11
1134.75
 21
2062.6
 31
0.0
  0
CIRCLE
  5
52F
100
AcDbEntity
  8
鏡台
  6
CONTINUOUS
 62
     6
100
AcDbCircle
 10
1129.05
 20
2054.0
 30
0.0
 40
1.0
  0
LINE
  5
530
100
AcDbEntity
  8
鏡台
  6
CONTINUOUS
 62
     6
100
AcDbLine
 10
1208.5
 20
2060.0
 30
0.0
 11
1216.5
 21
2060.0
 31
0.0
  0
LINE
  5
531
100
AcDbEntity
  8
鏡台
  6
CONTINUOUS
 62
     6
100
AcDbLine
 10
1208.5
 20
2048.0
 30
0.0
 11
1216.5
 21
2048.0
 31
0.0
  0
LINE
  5
532
100
AcDbEntity
  8
鏡台
  6
CONTINUOUS
 62
     2
100
AcDbLine
 10
545.0
 20
2070.0
 30
0.0
 11
1055.0
 21
2070.0
 31
0.0
  0
LINE
  5
533
100
AcDbEntity
  8
鏡台
  6
CONTINUOUS
 62
     2
100
AcDbLine
 10
545.0
 20
2693.5
 30
0.0
 11
1055.0
 21
2693.5
 31
0.0
  0
LINE
  5
534
100
AcDbEntity
  8
鏡台
  6
CONTINUOUS
 62
     2
100
AcDbLine
 10
545.0
 20
2684.5
 30
0.0
 11
1055.0
 21
2684.5
 31
0.0
  0
LINE
  5
535
100
AcDbEntity
  8
鏡台
  6
CONTINUOUS
 62
     6
100
AcDbLine
 10
545.0
 20
2792.5
 30
0.0
 11
1055.0
 21
2792.5
 31
0.0
  0
LINE
  5
536
100
AcDbEntity
  8
鏡台
  6
CONTINUOUS
 62
     6
100
AcDbLine
 10
545.0
 20
2701.5
 30
0.0
 11
1055.0
 21
2701.5
 31
0.0
  0
LINE
  5
537
100
AcDbEntity
  8
鏡台
  6
CONTINUOUS
 62
     5
100
AcDbLine
 10
1070.0
 20
2609.75
 30
0.0
 11
1265.0
 21
2609.75
 31
0.0
  0
LINE
  5
538
100
AcDbEntity
  8
鏡台
  6
CONTINUOUS
 62
     5
100
AcDbLine
 10
1070.0
 20
2603.75
 30
0.0
 11
1265.0
 21
2603.75
 31
0.0
  0
LINE
  5
539
100
AcDbEntity
  8
鏡台
  6
CONTINUOUS
 62
     5
100
AcDbLine
 10
1070.0
 20
2597.75
 30
0.0
 11
1265.0
 21
2597.75
 31
0.0
  0
LINE
  5
53A
100
AcDbEntity
  8
鏡台
  6
CONTINUOUS
 62
     5
100
AcDbLine
 10
1070.0
 20
2591.75
 30
0.0
 11
1265.0
 21
2591.75
 31
0.0
  0
LINE
  5
53B
100
AcDbEntity
  8
鏡台
  6
CONTINUOUS
 62
     5
100
AcDbLine
 10
1070.0
 20
2585.75
 30
0.0
 11
1265.0
 21
2585.75
 31
0.0
  0
LINE
  5
53C
100
AcDbEntity
  8
鏡台
  6
CONTINUOUS
 62
     5
100
AcDbLine
 10
1070.0
 20
2579.75
 30
0.0
 11
1265.0
 21
2579.75
 31
0.0
  0
LINE
  5
53D
100
AcDbEntity
  8
鏡台
  6
CONTINUOUS
 62
     5
100
AcDbLine
 10
1070.0
 20
2359.75
 30
0.0
 11
1265.0
 21
2359.75
 31
0.0
  0
LINE
  5
53E
100
AcDbEntity
  8
鏡台
  6
CONTINUOUS
 62
     5
100
AcDbLine
 10
1070.0
 20
2353.75
 30
0.0
 11
1265.0
 21
2353.75
 31
0.0
  0
LINE
  5
53F
100
AcDbEntity
  8
鏡台
  6
CONTINUOUS
 62
     5
100
AcDbLine
 10
1070.0
 20
2347.75
 30
0.0
 11
1265.0
 21
2347.75
 31
0.0
  0
LINE
  5
540
100
AcDbEntity
  8
鏡台
  6
CONTINUOUS
 62
     5
100
AcDbLine
 10
1070.0
 20
2341.75
 30
0.0
 11
1265.0
 21
2341.75
 31
0.0
  0
LINE
  5
541
100
AcDbEntity
  8
鏡台
  6
CONTINUOUS
 62
     5
100
AcDbLine
 10
1070.0
 20
2335.75
 30
0.0
 11
1265.0
 21
2335.75
 31
0.0
  0
LINE
  5
542
100
AcDbEntity
  8
鏡台
  6
CONTINUOUS
 62
     5
100
AcDbLine
 10
1070.0
 20
2329.75
 30
0.0
 11
1265.0
 21
2329.75
 31
0.0
  0
LINE
  5
543
100
AcDbEntity
  8
鏡台
  6
CONTINUOUS
 62
     5
100
AcDbLine
 10
1070.0
 20
2129.75
 30
0.0
 11
1265.0
 21
2129.75
 31
0.0
  0
LINE
  5
544
100
AcDbEntity
  8
鏡台
  6
CONTINUOUS
 62
     5
100
AcDbLine
 10
1070.0
 20
2123.75
 30
0.0
 11
1265.0
 21
2123.75
 31
0.0
  0
LINE
  5
545
100
AcDbEntity
  8
鏡台
  6
CONTINUOUS
 62
     5
100
AcDbLine
 10
1070.0
 20
2117.75
 30
0.0
 11
1265.0
 21
2117.75
 31
0.0
  0
LINE
  5
546
100
AcDbEntity
  8
鏡台
  6
CONTINUOUS
 62
     5
100
AcDbLine
 10
1070.0
 20
2111.75
 30
0.0
 11
1265.0
 21
2111.75
 31
0.0
  0
LINE
  5
547
100
AcDbEntity
  8
鏡台
  6
CONTINUOUS
 62
     5
100
AcDbLine
 10
1070.0
 20
2105.75
 30
0.0
 11
1265.0
 21
2105.75
 31
0.0
  0
LINE
  5
548
100
AcDbEntity
  8
鏡台
  6
CONTINUOUS
 62
     5
100
AcDbLine
 10
1070.0
 20
2099.75
 30
0.0
 11
1265.0
 21
2099.75
 31
0.0
  0
LINE
  5
549
100
AcDbEntity
  8
鏡台
  6
CONTINUOUS
 62
     5
100
AcDbLine
 10
545.0
 20
2065.75
 30
0.0
 11
1055.0
 21
2065.75
 31
0.0
  0
LINE
  5
54A
100
AcDbEntity
  8
鏡台
  6
CONTINUOUS
 62
     5
100
AcDbLine
 10
545.0
 20
2059.75
 30
0.0
 11
1055.0
 21
2059.75
 31
0.0
  0
LINE
  5
54B
100
AcDbEntity
  8
鏡台
  6
CONTINUOUS
 62
     5
100
AcDbLine
 10
545.0
 20
2053.75
 30
0.0
 11
1055.0
 21
2053.75
 31
0.0
  0
LINE
  5
54C
100
AcDbEntity
  8
鏡台
  6
CONTINUOUS
 62
     5
100
AcDbLine
 10
545.0
 20
2047.75
 30
0.0
 11
1055.0
 21
2047.75
 31
0.0
  0
LINE
  5
54D
100
AcDbEntity
  8
鏡台
  6
CONTINUOUS
 62
     5
100
AcDbLine
 10
545.0
 20
2041.75
 30
0.0
 11
1055.0
 21
2041.75
 31
0.0
  0
LINE
  5
54E
100
AcDbEntity
  8
鏡台
  6
CONTINUOUS
 62
     5
100
AcDbLine
 10
545.0
 20
2035.75
 30
0.0
 11
1055.0
 21
2035.75
 31
0.0
  0
LINE
  5
54F
100
AcDbEntity
  8
鏡台
  6
CONTINUOUS
 62
     5
100
AcDbLine
 10
545.0
 20
2783.5
 30
0.0
 11
1055.0
 21
2783.5
 31
0.0
  0
LINE
  5
550
100
AcDbEntity
  8
鏡台
  6
CONTINUOUS
 62
     5
100
AcDbLine
 10
545.0
 20
2774.5
 30
0.0
 11
1055.0
 21
2774.5
 31
0.0
  0
LINE
  5
551
100
AcDbEntity
  8
鏡台
  6
CONTINUOUS
 62
     5
100
AcDbLine
 10
545.0
 20
2765.5
 30
0.0
 11
1055.0
 21
2765.5
 31
0.0
  0
LINE
  5
552
100
AcDbEntity
  8
鏡台
  6
CONTINUOUS
 62
     5
100
AcDbLine
 10
545.0
 20
2756.5
 30
0.0
 11
1055.0
 21
2756.5
 31
0.0
  0
LINE
  5
553
100
AcDbEntity
  8
鏡台
  6
CONTINUOUS
 62
     5
100
AcDbLine
 10
545.0
 20
2747.5
 30
0.0
 11
1055.0
 21
2747.5
 31
0.0
  0
LINE
  5
554
100
AcDbEntity
  8
鏡台
  6
CONTINUOUS
 62
     5
100
AcDbLine
 10
545.0
 20
2738.5
 30
0.0
 11
1055.0
 21
2738.5
 31
0.0
  0
LINE
  5
555
100
AcDbEntity
  8
鏡台
  6
CONTINUOUS
 62
     5
100
AcDbLine
 10
545.0
 20
2729.5
 30
0.0
 11
1055.0
 21
2729.5
 31
0.0
  0
LINE
  5
556
100
AcDbEntity
  8
鏡台
  6
CONTINUOUS
 62
     5
100
AcDbLine
 10
545.0
 20
2720.5
 30
0.0
 11
1055.0
 21
2720.5
 31
0.0
  0
LINE
  5
557
100
AcDbEntity
  8
鏡台
  6
CONTINUOUS
 62
     5
100
AcDbLine
 10
545.0
 20
2711.5
 30
0.0
 11
1055.0
 21
2711.5
 31
0.0
  0
LINE
  5
558
100
AcDbEntity
  8
鏡台
  6
CONTINUOUS
 62
     6
100
AcDbLine
 10
927.714466
 20
2583.785534
 30
0.0
 11
914.964466
 21
2571.035534
 31
0.0
  0
LINE
  5
559
100
AcDbEntity
  8
鏡台
  6
CONTINUOUS
 62
     6
100
AcDbLine
 10
907.0
 20
2556.0
 30
0.0
 11
939.5
 21
2588.5
 31
0.0
  0
LINE
  5
55A
100
AcDbEntity
  8
鏡台
  6
CONTINUOUS
 62
     6
100
AcDbLine
 10
917.535534
 20
2559.464466
 30
0.0
 11
932.535534
 21
2574.464466
 31
0.0
  0
LINE
  5
55B
100
AcDbEntity
  8
鏡台
  6
CONTINUOUS
 62
     6
100
AcDbLine
 10
677.214466
 20
2373.785534
 30
0.0
 11
664.464466
 21
2361.035534
 31
0.0
  0
LINE
  5
55C
100
AcDbEntity
  8
鏡台
  6
CONTINUOUS
 62
     6
100
AcDbLine
 10
656.5
 20
2346.0
 30
0.0
 11
689.0
 21
2378.5
 31
0.0
  0
LINE
  5
55D
100
AcDbEntity
  8
鏡台
  6
CONTINUOUS
 62
     6
100
AcDbLine
 10
667.035534
 20
2349.464466
 30
0.0
 11
682.035534
 21
2364.464466
 31
0.0
  0
LINE
  5
55E
100
AcDbEntity
  8
鏡台
  6
CONTINUOUS
 62
     6
100
AcDbLine
 10
864.714466
 20
2187.785534
 30
0.0
 11
851.964466
 21
2175.035534
 31
0.0
  0
LINE
  5
55F
100
AcDbEntity
  8
鏡台
  6
CONTINUOUS
 62
     6
100
AcDbLine
 10
844.0
 20
2160.0
 30
0.0
 11
876.5
 21
2192.5
 31
0.0
  0
LINE
  5
560
100
AcDbEntity
  8
鏡台
  6
CONTINUOUS
 62
     6
100
AcDbLine
 10
854.535534
 20
2163.464466
 30
0.0
 11
869.535534
 21
2178.464466
 31
0.0
  0
LINE
  5
561
100
AcDbEntity
  8
鏡台
  6
CONTINUOUS
 62
     6
100
AcDbLine
 10
1090.0
 20
2785.5
 30
0.0
 11
1090.0
 21
2839.076697
 31
0.0
  0
CIRCLE
  5
562
100
AcDbEntity
  8
鏡台
  6
CONTINUOUS
 62
     2
100
AcDbCircle
 10
1180.0
 20
2751.0
 30
0.0
 40
8.0
  0
LINE
  5
563
100
AcDbEntity
  8
鏡台
  6
CONTINUOUS
 62
     6
100
AcDbLine
 10
1193.0
 20
2751.0
 30
0.0
 11
1167.0
 21
2751.0
 31
0.0
  0
LINE
  5
564
100
AcDbEntity
  8
鏡台
  6
CONTINUOUS
 62
     6
100
AcDbLine
 10
1180.0
 20
2764.0
 30
0.0
 11
1180.0
 21
2738.0
 31
0.0
  0
LINE
  5
565
100
AcDbEntity
  8
鏡台
  6
CONTINUOUS
 62
     6
100
AcDbLine
 10
643.0
 20
2751.0
 30
0.0
 11
617.0
 21
2751.0
 31
0.0
  0
LINE
  5
566
100
AcDbEntity
  8
鏡台
  6
CONTINUOUS
 62
     6
100
AcDbLine
 10
630.0
 20
2764.0
 30
0.0
 11
630.0
 21
2738.0
 31
0.0
  0
CIRCLE
  5
567
100
AcDbEntity
  8
鏡台
  6
EXLTYPE2
 62
     6
100
AcDbCircle
 10
630.0
 20
2751.0
 30
0.0
 40
8.0
  0
LINE
  5
568
100
AcDbEntity
  8
鏡台
  6
CONTINUOUS
 62
     6
100
AcDbLine
 10
1143.0
 20
2041.0
 30
0.0
 11
1117.0
 21
2041.0
 31
0.0
  0
LINE
  5
569
100
AcDbEntity
  8
鏡台
  6
CONTINUOUS
 62
     6
100
AcDbLine
 10
1130.0
 20
2054.0
 30
0.0
 11
1130.0
 21
2028.0
 31
0.0
  0
CIRCLE
  5
56A
100
AcDbEntity
  8
鏡台
  6
EXLTYPE2
 62
     6
100
AcDbCircle
 10
1130.0
 20
2041.0
 30
0.0
 40
8.0
  0
LINE
  5
56B
100
AcDbEntity
  8
鏡台
  6
CONTINUOUS
 62
     6
100
AcDbLine
 10
693.0
 20
2041.0
 30
0.0
 11
667.0
 21
2041.0
 31
0.0
  0
LINE
  5
56C
100
AcDbEntity
  8
鏡台
  6
CONTINUOUS
 62
     6
100
AcDbLine
 10
680.0
 20
2054.0
 30
0.0
 11
680.0
 21
2028.0
 31
0.0
  0
CIRCLE
  5
56D
100
AcDbEntity
  8
鏡台
  6
EXLTYPE2
 62
     6
100
AcDbCircle
 10
680.0
 20
2041.0
 30
0.0
 40
8.0
  0
ARC
  5
56E
100
AcDbEntity
  8
鏡台
  6
CONTINUOUS
 62
     6
100
AcDbCircle
 10
1023.189941
 20
2722.748657
 30
0.0
 40
120.0
100
AcDbArc
 50
62.423126
 51
85.409607
  0
ARC
  5
56F
100
AcDbEntity
  8
鏡台
  6
CONTINUOUS
 62
     6
100
AcDbCircle
 10
1024.416992
 20
2728.644653
 30
0.0
 40
120.0
100
AcDbArc
 50
60.778137
 51
86.650879
  0
ARC
  5
570
100
AcDbEntity
  8
鏡台
  6
CONTINUOUS
 62
     6
100
AcDbCircle
 10
1016.015259
 20
2839.627808
 30
0.0
 40
17.00025
100
AcDbArc
 50
321.927124
 51
18.071106
  0
ARC
  5
571
100
AcDbEntity
  8
鏡台
  6
CONTINUOUS
 62
     6
100
AcDbCircle
 10
1048.338562
 20
2850.174561
 30
0.0
 40
17.000208
100
AcDbArc
 50
169.998962
 51
198.071045
  0
ARC
  5
572
100
AcDbEntity
  8
鏡台
  6
CONTINUOUS
 62
     6
100
AcDbCircle
 10
1048.338379
 20
2850.174683
 30
0.0
 40
17.000029
100
AcDbArc
 50
141.926392
 51
169.998962
  0
ARC
  5
573
100
AcDbEntity
  8
鏡台
  6
CONTINUOUS
 62
     6
100
AcDbCircle
 10
1008.015259
 20
2839.627808
 30
0.0
 40
17.00025
100
AcDbArc
 50
321.927124
 51
18.071106
  0
ARC
  5
574
100
AcDbEntity
  8
鏡台
  6
CONTINUOUS
 62
     6
100
AcDbCircle
 10
1040.338562
 20
2850.174561
 30
0.0
 40
17.000208
100
AcDbArc
 50
169.998962
 51
198.071045
  0
ARC
  5
575
100
AcDbEntity
  8
鏡台
  6
CONTINUOUS
 62
     6
100
AcDbCircle
 10
1040.338379
 20
2850.174683
 30
0.0
 40
17.000029
100
AcDbArc
 50
141.926392
 51
169.998962
  0
ARC
  5
576
100
AcDbEntity
  8
鏡台
  6
CONTINUOUS
 62
     6
100
AcDbCircle
 10
1063.0
 20
2811.0
 30
0.0
 40
24.0
100
AcDbArc
 50
0.0
 51
49.009033
  0
ARC
  5
577
100
AcDbEntity
  8
鏡台
  6
CONTINUOUS
 62
     6
100
AcDbCircle
 10
1063.0
 20
2811.0
 30
0.0
 40
30.0
100
AcDbArc
 50
0.0
 51
48.206329
  0
LINE
  5
578
100
AcDbEntity
  8
鏡台
  6
CONTINUOUS
 62
     6
100
AcDbLine
 10
970.496104
 20
2848.302
 30
0.0
 11
973.355649
 21
2858.923743
 31
0.0
  0
LINE
  5
579
100
AcDbEntity
  8
鏡台
  6
CONTINUOUS
 62
     6
100
AcDbLine
 10
984.497569
 20
2844.532641
 30
0.0
 11
987.686461
 21
2858.690269
 31
0.0
  0
LINE
  5
57A
100
AcDbEntity
  8
鏡台
  6
CONTINUOUS
 62
     6
100
AcDbLine
 10
990.091034
 20
2847.998955
 30
0.0
 11
992.527977
 21
2857.051114
 31
0.0
  0
LINE
  5
57B
100
AcDbEntity
  8
鏡台
  6
CONTINUOUS
 62
     6
100
AcDbLine
 10
987.686461
 20
2858.690269
 30
0.0
 11
1009.197371
 21
2851.407454
 31
0.0
  0
LINE
  5
57C
100
AcDbEntity
  8
鏡台
  6
CONTINUOUS
 62
     6
100
AcDbLine
 10
1007.347618
 20
2844.531794
 30
0.0
 11
988.372881
 21
2848.34419
 31
0.0
  0
LINE
  5
57D
100
AcDbEntity
  8
鏡台
  6
CONTINUOUS
 62
     6
100
AcDbLine
 10
967.785107
 20
2832.462132
 30
0.0
 11
971.944556
 21
2847.912081
 31
0.0
  0
LINE
  5
57E
100
AcDbEntity
  8
鏡台
  6
CONTINUOUS
 62
     6
100
AcDbLine
 10
976.47575
 20
2830.122511
 30
0.0
 11
980.63513
 21
2845.572359
 31
0.0
  0
LINE
  5
57F
100
AcDbEntity
  8
鏡台
  6
CONTINUOUS
 62
     6
100
AcDbLine
 10
973.355719
 20
2858.923843
 30
0.0
 11
984.943027
 21
2855.804251
 31
0.0
  0
LINE
  5
580
100
AcDbEntity
  8
鏡台
  6
CONTINUOUS
 62
     6
100
AcDbLine
 10
982.083582
 20
2845.182438
 30
0.0
 11
984.943027
 21
2855.804251
 31
0.0
  0
LINE
  5
581
100
AcDbEntity
  8
鏡台
  6
CONTINUOUS
 62
     6
100
AcDbLine
 10
984.497569
 20
2844.532641
 30
0.0
 11
984.860716
 21
2846.085943
 31
0.0
  0
LINE
  5
582
100
AcDbEntity
  8
鏡台
  6
CONTINUOUS
 62
     6
100
AcDbLine
 10
967.599269
 20
2849.081941
 30
0.0
 11
972.161484
 21
2862.420951
 31
0.0
  0
LINE
  5
583
100
AcDbEntity
  8
鏡台
  6
CONTINUOUS
 62
     6
100
AcDbLine
 10
984.497569
 20
2844.532641
 30
0.0
 11
967.599269
 21
2849.081941
 31
0.0
  0
LINE
  5
584
100
AcDbEntity
  8
鏡台
  6
CONTINUOUS
 62
     6
100
AcDbLine
 10
986.980179
 20
2859.398291
 30
0.0
 11
973.367621
 21
2863.063032
 31
0.0
  0
LINE
  5
585
100
AcDbEntity
  8
鏡台
  6
CONTINUOUS
 62
     6
100
AcDbLine
 10
1008.510227
 20
2845.252307
 30
0.0
 11
1009.842341
 21
2850.200332
 31
0.0
  0
ARC
  5
586
100
AcDbEntity
  8
鏡台
  6
CONTINUOUS
 62
     6
100
AcDbCircle
 10
987.78193
 20
2845.402984
 30
0.0
 40
3.0
100
AcDbArc
 50
78.639511
 51
166.841477
  0
ARC
  5
587
100
AcDbEntity
  8
鏡台
  6
CONTINUOUS
 62
     6
100
AcDbCircle
 10
1008.876705
 20
2850.46028
 30
0.0
 40
1.0
100
AcDbArc
 50
344.932297
 51
71.2957
  0
ARC
  5
588
100
AcDbEntity
  8
鏡台
  6
CONTINUOUS
 62
     6
100
AcDbCircle
 10
1007.544592
 20
2845.512254
 30
0.0
 40
1.0
100
AcDbArc
 50
258.639511
 51
344.932236
  0
ARC
  5
589
100
AcDbEntity
  8
鏡台
  6
CONTINUOUS
 62
     6
100
AcDbCircle
 10
974.452005
 20
2839.915617
 30
0.0
 40
10.0
100
AcDbArc
 50
228.188584
 51
281.675858
  0
ARC
  5
58A
100
AcDbEntity
  8
鏡台
  6
CONTINUOUS
 62
     6
100
AcDbCircle
 10
973.107674
 20
2862.097398
 30
0.0
 40
1.0
100
AcDbArc
 50
74.932236
 51
161.118454
  0
ARC
  5
58B
100
AcDbEntity
  8
鏡台
  6
CONTINUOUS
 62
     6
100
AcDbCircle
 10
986.720232
 20
2858.432656
 30
0.0
 40
1.0
100
AcDbArc
 50
346.841355
 51
74.932236
  0
ARC
  5
58C
100
AcDbEntity
  8
鏡台
  6
CONTINUOUS
 62
     6
100
AcDbCircle
 10
987.78193
 20
2845.402984
 30
0.0
 40
3.0
100
AcDbArc
 50
78.639511
 51
166.841477
  0
ARC
  5
58D
100
AcDbEntity
  8
鏡台
  6
CONTINUOUS
 62
     6
100
AcDbCircle
 10
1008.876705
 20
2850.46028
 30
0.0
 40
1.0
100
AcDbArc
 50
344.932297
 51
71.2957
  0
ARC
  5
58E
100
AcDbEntity
  8
鏡台
  6
CONTINUOUS
 62
     6
100
AcDbCircle
 10
1007.544592
 20
2845.512254
 30
0.0
 40
1.0
100
AcDbArc
 50
258.639511
 51
344.932236
  0
ARC
  5
58F
100
AcDbEntity
  8
鏡台
  6
CONTINUOUS
 62
     6
100
AcDbCircle
 10
974.452005
 20
2839.915617
 30
0.0
 40
10.0
100
AcDbArc
 50
228.188584
 51
281.675858
  0
ARC
  5
590
100
AcDbEntity
  8
鏡台
  6
CONTINUOUS
 62
     6
100
AcDbCircle
 10
973.107674
 20
2862.097398
 30
0.0
 40
1.0
100
AcDbArc
 50
74.932236
 51
161.118454
  0
ARC
  5
591
100
AcDbEntity
  8
鏡台
  6
CONTINUOUS
 62
     6
100
AcDbCircle
 10
986.720232
 20
2858.432656
 30
0.0
 40
1.0
100
AcDbArc
 50
346.841355
 51
74.932236
  0
ARC
  5
592
100
AcDbEntity
  8
鏡台
  6
CONTINUOUS
 62
     6
100
AcDbCircle
 10
1034.883301
 20
2998.149475
 30
0.0
 40
150.0
100
AcDbArc
 50
260.395458
 51
265.614136
  0
ARC
  5
593
100
AcDbEntity
  8
鏡台
  6
CONTINUOUS
 62
     6
100
AcDbCircle
 10
1035.165039
 20
2992.656677
 30
0.0
 40
150.0
100
AcDbArc
 50
259.743488
 51
265.989014
  0
LINE
  5
594
100
AcDbEntity
  8
鏡台
  6
CONTINUOUS
 62
     2
100
AcDbLine
 10
2415.0
 20
2811.0
 30
0.0
 11
2415.0
 21
2011.0
 31
0.0
  0
LINE
  5
595
100
AcDbEntity
  8
鏡台
  6
CONTINUOUS
 62
     2
100
AcDbLine
 10
2535.0
 20
2811.0
 30
0.0
 11
2535.0
 21
2011.0
 31
0.0
  0
LINE
  5
596
100
AcDbEntity
  8
鏡台
  6
CONTINUOUS
 62
     2
100
AcDbLine
 10
2415.0
 20
2811.0
 30
0.0
 11
2535.0
 21
2811.0
 31
0.0
  0
LINE
  5
597
100
AcDbEntity
  8
鏡台
  6
CONTINUOUS
 62
     2
100
AcDbLine
 10
2415.0
 20
2011.0
 30
0.0
 11
2535.0
 21
2011.0
 31
0.0
  0
LINE
  5
598
100
AcDbEntity
  8
鏡台
  6
CONTINUOUS
 62
     6
100
AcDbLine
 10
2535.0
 20
2753.0
 30
0.0
 11
2567.5
 21
2751.0
 31
0.0
  0
LINE
  5
599
100
AcDbEntity
  8
鏡台
  6
CONTINUOUS
 62
     6
100
AcDbLine
 10
2567.5
 20
2751.0
 30
0.0
 11
2535.0
 21
2749.0
 31
0.0
  0
LINE
  5
59A
100
AcDbEntity
  8
鏡台
  6
CONTINUOUS
 62
     6
100
AcDbLine
 10
2525.0
 20
2751.0
 30
0.0
 11
2577.5
 21
2751.0
 31
0.0
  0
LINE
  5
59B
100
AcDbEntity
  8
鏡台
  6
CONTINUOUS
 62
     6
100
AcDbLine
 10
2535.0
 20
2043.0
 30
0.0
 11
2567.5
 21
2041.0
 31
0.0
  0
LINE
  5
59C
100
AcDbEntity
  8
鏡台
  6
CONTINUOUS
 62
     6
100
AcDbLine
 10
2567.5
 20
2041.0
 30
0.0
 11
2535.0
 21
2039.0
 31
0.0
  0
LINE
  5
59D
100
AcDbEntity
  8
鏡台
  6
CONTINUOUS
 62
     6
100
AcDbLine
 10
2525.0
 20
2041.0
 30
0.0
 11
2577.5
 21
2041.0
 31
0.0
  0
LINE
  5
59E
100
AcDbEntity
  8
鏡台
  6
CONTINUOUS
 62
     6
100
AcDbLine
 10
2495.0
 20
2014.0
 30
0.0
 11
2495.0
 21
2011.0
 31
0.0
  0
LINE
  5
59F
100
AcDbEntity
  8
鏡台
  6
CONTINUOUS
 62
     6
100
AcDbLine
 10
2532.0
 20
2051.0
 30
0.0
 11
2535.0
 21
2051.0
 31
0.0
  0
LINE
  5
5A0
100
AcDbEntity
  8
鏡台
  6
EXLTYPE2
 62
     6
100
AcDbLine
 10
2495.0
 20
2014.0
 30
0.0
 11
2532.0
 21
2014.0
 31
0.0
  0
LINE
  5
5A1
100
AcDbEntity
  8
鏡台
  6
EXLTYPE2
 62
     6
100
AcDbLine
 10
2532.0
 20
2051.0
 30
0.0
 11
2532.0
 21
2014.0
 31
0.0
  0
ENDSEC
  0
SECTION
  2
OBJECTS
  0
DICTIONARY
  5
19
100
AcDbDictionary
  3
ACAD_GROUP
350
1A
  3
ACAD_MLINESTYLE
350
1B
  0
DICTIONARY
  5
1A
102
{ACAD_REACTORS
330
19
102
}
100
AcDbDictionary
  0
DICTIONARY
  5
1B
102
{ACAD_REACTORS
330
19
102
}
100
AcDbDictionary
  3
STANDARD
350
1C
  0
MLINESTYLE
  5
1C
102
{ACAD_REACTORS
330
1B
102
}
100
AcDbMlineStyle
  2
Standard
 70
     0
  3

 62
     0
 51
90.0
 52
90.0
 71
     2
 49
0.5
 62
   256
  6
ByLayer
 49
-0.5
 62
   256
  6
ByLayer
  0
ENDSEC
  0
EOF
