  0
SECTION
  2
HEADER
  9
$ACADVER
  1
AC1014
  9
$ACADMAINTVER
 70
     0
  9
$DWGCODEPAGE
  3
ANSI_932
  9
$INSBASE
 10
0.0
 20
0.0
 30
0.0
  9
$EXTMIN
 10
1.0
 20
13.5
 30
0.0
  9
$EXTMAX
 10
200.0
 20
288.5
 30
0.0
  9
$LIMMIN
 10
0.0
 20
0.0
  9
$LIMMAX
 10
210.0
 20
297.0
  9
$ORTHOMODE
 70
     0
  9
$REGENMODE
 70
     1
  9
$FILLMODE
 70
     1
  9
$QTEXTMODE
 70
     0
  9
$MIRRTEXT
 70
     1
  9
$DRAGMODE
 70
     2
  9
$LTSCALE
 40
1.0
  9
$OSMODE
 70
     0
  9
$ATTMODE
 70
     1
  9
$TEXTSIZE
 40
0.2
  9
$TRACEWID
 40
0.05
  9
$TEXTSTYLE
  7
STANDARD
  9
$CLAYER
  8
化粧台
  9
$CELTYPE
  6
CONTINUOUS
  9
$CECOLOR
 62
   256
  9
$CELTSCALE
 40
1.0
  9
$DELOBJ
 70
     1
  9
$DISPSILH
 70
     0
  9
$DIMSCALE
 40
1.0
  9
$DIMASZ
 40
0.18
  9
$DIMEXO
 40
0.0625
  9
$DIMDLI
 40
0.38
  9
$DIMRND
 40
0.0
  9
$DIMDLE
 40
0.0
  9
$DIMEXE
 40
0.18
  9
$DIMTP
 40
0.0
  9
$DIMTM
 40
0.0
  9
$DIMTXT
 40
0.18
  9
$DIMCEN
 40
0.09
  9
$DIMTSZ
 40
0.0
  9
$DIMTOL
 70
     0
  9
$DIMLIM
 70
     0
  9
$DIMTIH
 70
     1
  9
$DIMTOH
 70
     1
  9
$DIMSE1
 70
     0
  9
$DIMSE2
 70
     0
  9
$DIMTAD
 70
     0
  9
$DIMZIN
 70
     0
  9
$DIMBLK
  1

  9
$DIMASO
 70
     1
  9
$DIMSHO
 70
     1
  9
$DIMPOST
  1

  9
$DIMAPOST
  1

  9
$DIMALT
 70
     0
  9
$DIMALTD
 70
     2
  9
$DIMALTF
 40
25.4
  9
$DIMLFAC
 40
1.0
  9
$DIMTOFL
 70
     0
  9
$DIMTVP
 40
0.0
  9
$DIMTIX
 70
     0
  9
$DIMSOXD
 70
     0
  9
$DIMSAH
 70
     0
  9
$DIMBLK1
  1

  9
$DIMBLK2
  1

  9
$DIMSTYLE
  2
STANDARD
  9
$DIMCLRD
 70
     0
  9
$DIMCLRE
 70
     0
  9
$DIMCLRT
 70
     0
  9
$DIMTFAC
 40
1.0
  9
$DIMGAP
 40
0.09
  9
$DIMJUST
 70
     0
  9
$DIMSD1
 70
     0
  9
$DIMSD2
 70
     0
  9
$DIMTOLJ
 70
     1
  9
$DIMTZIN
 70
     0
  9
$DIMALTZ
 70
     0
  9
$DIMALTTZ
 70
     0
  9
$DIMFIT
 70
     3
  9
$DIMUPT
 70
     0
  9
$DIMUNIT
 70
     2
  9
$DIMDEC
 70
     4
  9
$DIMTDEC
 70
     4
  9
$DIMALTU
 70
     2
  9
$DIMALTTD
 70
     2
  9
$DIMTXSTY
  7
STANDARD
  9
$DIMAUNIT
 70
     0
  9
$LUNITS
 70
     2
  9
$LUPREC
 70
     4
  9
$SKETCHINC
 40
0.1
  9
$FILLETRAD
 40
0.0
  9
$AUNITS
 70
     0
  9
$AUPREC
 70
     0
  9
$MENU
  1
acad
  9
$ELEVATION
 40
0.0
  9
$PELEVATION
 40
0.0
  9
$THICKNESS
 40
0.0
  9
$LIMCHECK
 70
     0
  9
$BLIPMODE
 70
     1
  9
$CHAMFERA
 40
0.0
  9
$CHAMFERB
 40
0.0
  9
$CHAMFERC
 40
0.0
  9
$CHAMFERD
 40
0.0
  9
$SKPOLY
 70
     0
  9
$TDCREATE
 40
2455240.325586760
  9
$TDUPDATE
 40
2455240.325586760
  9
$TDINDWG
 40
0.0000000000
  9
$TDUSRTIMER
 40
0.0000000000
  9
$USRTIMER
 70
     1
  9
$ANGBASE
 50
0.0
  9
$ANGDIR
 70
     0
  9
$PDMODE
 70
     0
  9
$PDSIZE
 40
0.0
  9
$PLINEWID
 40
0.0
  9
$COORDS
 70
     1
  9
$SPLFRAME
 70
     0
  9
$SPLINETYPE
 70
     6
  9
$SPLINESEGS
 70
     8
  9
$ATTDIA
 70
     0
  9
$ATTREQ
 70
     1
  9
$HANDLING
 70
     1
  9
$HANDSEED
  5
57E
  9
$SURFTAB1
 70
     6
  9
$SURFTAB2
 70
     6
  9
$SURFTYPE
 70
     6
  9
$SURFU
 70
     6
  9
$SURFV
 70
     6
  9
$UCSNAME
  2

  9
$UCSORG
 10
0.0
 20
0.0
 30
0.0
  9
$UCSXDIR
 10
1.0
 20
0.0
 30
0.0
  9
$UCSYDIR
 10
0.0
 20
1.0
 30
0.0
  9
$PUCSNAME
  2

  9
$PUCSORG
 10
0.0
 20
0.0
 30
0.0
  9
$PUCSXDIR
 10
1.0
 20
0.0
 30
0.0
  9
$PUCSYDIR
 10
0.0
 20
1.0
 30
0.0
  9
$USERI1
 70
     0
  9
$USERI2
 70
     0
  9
$USERI3
 70
     0
  9
$USERI4
 70
     0
  9
$USERI5
 70
     0
  9
$USERR1
 40
0.0
  9
$USERR2
 40
0.0
  9
$USERR3
 40
0.0
  9
$USERR4
 40
0.0
  9
$USERR5
 40
0.0
  9
$WORLDVIEW
 70
     1
  9
$SHADEDGE
 70
     3
  9
$SHADEDIF
 70
    70
  9
$TILEMODE
 70
     1
  9
$MAXACTVP
 70
    16
  9
$PINSBASE
 10
0.0
 20
0.0
 30
0.0
  9
$PLIMCHECK
 70
     0
  9
$PEXTMIN
 10
1.000000E+20
 20
1.000000E+20
 30
1.000000E+20
  9
$PEXTMAX
 10
-1.000000E+20
 20
-1.000000E+20
 30
-1.000000E+20
  9
$PLIMMIN
 10
0.0
 20
0.0
  9
$PLIMMAX
 10
12.0
 20
9.0
  9
$UNITMODE
 70
     0
  9
$VISRETAIN
 70
     0
  9
$PLINEGEN
 70
     1
  9
$PSLTSCALE
 70
     0
  9
$TREEDEPTH
 70
  3020
  9
$PICKSTYLE
 70
     1
  9
$CMLSTYLE
  2
Standard
  9
$CMLJUST
 70
     0
  9
$CMLSCALE
 40
1.0
  9
$PROXYGRAPHICS
 70
     0
  9
$MEASUREMENT
 70
     0
  0
ENDSEC
  0
SECTION
  2
CLASSES
  0
CLASS
  1
LWPOLYLINE
  2
AcDbPolyline
  3
"AutoCAD"
 90
        0
280
     0
281
     1
  0
CLASS
  1
IMAGE
  2
AcDbRasterImage
  3
ISM
 90
      127
280
     0
281
     1
  0
CLASS
  1
OLE2FRAME
  2
AcDbOle2Frame
  3
""
 90
        0
280
     0
281
     1
  0
CLASS
  1
HATCH
  2
AcDbHatch
  3
"ACAD_SEDONA"
 90
        0
280
     0
281
     1
  0
CLASS
  1
DICTIONARYVAR
  2
AcDbDictionaryVar
  3
"AutoCAD"
 90
        0
280
     0
281
     0
  0
CLASS
  1
RASTERVARIABLES
  2
AcDbRasterVariables
  3
ISM
 90
        0
280
     0
281
     0
  0
CLASS
  1
IMAGEDEF
  2
AcDbRasterImageDef
  3
ISM
 90
        0
280
     0
281
     0
  0
CLASS
  1
IMAGEDEF_REACTOR
  2
AcDbRasterImageDefReactor
  3
ISM
 90
        1
280
     0
281
     0
  0
CLASS
  1
IDBUFFER
  2
AcDbIdBuffer
  3
"Acad"
 90
        0
280
     0
281
     0
  0
CLASS
  1
SPATIAL_FILTER
  2
AcDbSpatialFilter
  3
"Acad"
 90
        0
280
     0
281
     0
  0
CLASS
  1
XRECORD
  2
AcDbXrecord
  3
"<Built In>"
 90
        0
280
     0
281
     0
  0
CLASS
  1
SORTENTSTABLE
  2
AcDbSortentsTable
  3
"AutoCAD"
 90
        0
280
     0
281
     0
  0
CLASS
  1
LAYER_INDEX
  2
AcDbLayerIndex
  3
"Acad"
 90
        0
280
     0
281
     0
  0
CLASS
  1
SPATIAL_INDEX
  2
AcDbSpatialIndex
  3
"Acad"
 90
        0
280
     0
281
     0
  0
CLASS
  1
OBJECT_PTR
  2
CAseDLPNTableRecord
  3
"ASE-LPNTableRecord"
 90
        1
280
     0
281
     0
  0
CLASS
  1
LAYOUT
  2
AcDbLayout
  3
"AutoCAD 2000"
 90
        1
280
     0
281
     0
  0
CLASS
  1
PLOTSETTINGS
  2
AcDbPlotSettings
  3
"AutoCAD 2000"
 90
        1
280
     0
281
     0
  0
CLASS
  1
ACDBDICTIONARYWDFLT
  2
AcDbDictionaryWithDefault
  3
"AutoCAD 2000"
 90
        1
280
     0
281
     0
  0
CLASS
  1
ACDBPLACEHOLDER
  2
AcDbPlaceHolder
  3
"AutoCAD 2000"
 90
        1
280
     0
281
     0
  0
CLASS
  1
VBA_PROJECT
  2
AcDbVbaProject
  3
"acadvba"
 90
        1
280
     0
281
     0
  0
CLASS
  1
WIPEOUT
  2
AcDbWipeout
  3
WipeOut|AutoCAD Express Tool|expresstools@autodesk.com
 90
      127
280
     0
281
     1
  0
CLASS
  1
WIPEOUTVARIABLES
  2
AcDbWipeoutVariables
  3
WipeOut|AutoCAD Express Tool|expresstools@autodesk.com
 90
        0
280
     0
281
     0
  0
CLASS
  1
RTEXT
  2
RText
  3
RText|AutoCAD Express Tool|expresstools@autodesk.com
 90
        0
280
     0
281
     1
  0
CLASS
  1
ARCALIGNEDTEXT
  2
AcDbArcAlignedText
  3
ATEXT|AutoCAD Express Tool|expresstools@autodesk.com
 90
        0
280
     0
281
     1
  0
ENDSEC
  0
SECTION
  2
TABLES
  0
TABLE
  2
VPORT
  5
7
100
AcDbSymbolTable
 70
     1
  0
VPORT
  5
15
100
AcDbSymbolTableRecord
100
AcDbViewportTableRecord
  2
*ACTIVE
 70
     0
 10
0.0
 20
0.0
 11
1.0
 21
1.0
 12
1507.5
 22
2265.0
 13
0.0
 23
0.0
 14
1.0
 24
1.0
 15
0.0
 25
0.0
 16
0.0
 26
0.0
 36
1.0
 17
0.0
 27
0.0
 37
0.0
 40
4125.0
 41
1.722533
 42
50.0
 43
0.0
 44
0.0
 50
0.0
 51
0.0
 71
     0
 72
   100
 73
     1
 74
     1
 75
     0
 76
     0
 77
     0
 78
     0
  0
ENDTAB
  0
TABLE
  2
LTYPE
  5
4
100
AcDbSymbolTable
 70
     9
  0
LTYPE
  5
11
100
AcDbSymbolTableRecord
100
AcDbLinetypeTableRecord
  2
BYBLOCK
 70
    64
  3

 72
    65
 73
     0
 40
0.0
  0
LTYPE
  5
12
100
AcDbSymbolTableRecord
100
AcDbLinetypeTableRecord
  2
BYLAYER
 70
    64
  3

 72
    65
 73
     0
 40
0.0
  0
LTYPE
  5
13
100
AcDbSymbolTableRecord
100
AcDbLinetypeTableRecord
  2
CONTINUOUS
 70
    64
  3
実線
 72
    65
 73
     0
 40
0.0
  0
LTYPE
  5
1D
100
AcDbSymbolTableRecord
100
AcDbLinetypeTableRecord
  2
EXLTYPE1
 70
    64
  3
破線
 72
    65
 73
     2
 40
3.0
 49
2.0
 74
     0
 49
-1.0
 74
     0
  0
LTYPE
  5
1E
100
AcDbSymbolTableRecord
100
AcDbLinetypeTableRecord
  2
EXLTYPE2
 70
    64
  3
点線
 72
    65
 73
     2
 40
2.0
 49
1.0
 74
     0
 49
-1.0
 74
     0
  0
LTYPE
  5
1F
100
AcDbSymbolTableRecord
100
AcDbLinetypeTableRecord
  2
EXLTYPE3
 70
    64
  3
一点鎖線
 72
    65
 73
     4
 40
10.0
 49
7.0
 74
     0
 49
-1.0
 74
     0
 49
1.0
 74
     0
 49
-1.0
 74
     0
  0
LTYPE
  5
20
100
AcDbSymbolTableRecord
100
AcDbLinetypeTableRecord
  2
EXLTYPE4
 70
    64
  3
二点鎖線
 72
    65
 73
     6
 40
12.0
 49
7.0
 74
     0
 49
-1.0
 74
     0
 49
1.0
 74
     0
 49
-1.0
 74
     0
 49
1.0
 74
     0
 49
-1.0
 74
     0
  0
LTYPE
  5
21
100
AcDbSymbolTableRecord
100
AcDbLinetypeTableRecord
  2
EXLTYPE5
 70
    64
  3
三点鎖線
 72
    65
 73
     8
 40
37.0
 49
30.0
 74
     0
 49
-1.0
 74
     0
 49
1.0
 74
     0
 49
-1.0
 74
     0
 49
1.0
 74
     0
 49
-1.0
 74
     0
 49
1.0
 74
     0
 49
-1.0
 74
     0
  0
LTYPE
  5
22
100
AcDbSymbolTableRecord
100
AcDbLinetypeTableRecord
  2
EXLTYPE6
 70
    64
  3
四点鎖線
 72
    65
 73
    10
 40
39.0
 49
30.0
 74
     0
 49
-1.0
 74
     0
 49
1.0
 74
     0
 49
-1.0
 74
     0
 49
1.0
 74
     0
 49
-1.0
 74
     0
 49
1.0
 74
     0
 49
-1.0
 74
     0
 49
1.0
 74
     0
 49
-1.0
 74
     0
  0
ENDTAB
  0
TABLE
  2
LAYER
  5
2
100
AcDbSymbolTable
 70
     6
  0
LAYER
  5
14
100
AcDbSymbolTableRecord
100
AcDbLayerTableRecord
  2
0
 70
     0
 62
     7
  6
CONTINUOUS
  0
LAYER
  5
25
100
AcDbSymbolTableRecord
100
AcDbLayerTableRecord
  2
枠・表
 70
    64
 62
     7
  6
CONTINUOUS
  0
LAYER
  5
26
100
AcDbSymbolTableRecord
100
AcDbLayerTableRecord
  2
化粧台
 70
    64
 62
     7
  6
CONTINUOUS
  0
LAYER
  5
27
100
AcDbSymbolTableRecord
100
AcDbLayerTableRecord
  2
鏡台
 70
    64
 62
     7
  6
CONTINUOUS
  0
LAYER
  5
28
100
AcDbSymbolTableRecord
100
AcDbLayerTableRecord
  2
付属金具
 70
    64
 62
     7
  6
CONTINUOUS
  0
LAYER
  5
29
100
AcDbSymbolTableRecord
100
AcDbLayerTableRecord
  2
寸法
 70
    64
 62
     7
  6
CONTINUOUS
  0
ENDTAB
  0
TABLE
  2
STYLE
  5
3
100
AcDbSymbolTable
 70
     5
  0
STYLE
  5
17
100
AcDbSymbolTableRecord
100
AcDbTextStyleTableRecord
  2
STANDARD
 70
     0
 40
0.0
 41
1.0
 50
0.0
 71
     0
 42
0.0
  3
monotxt
  4
extfont
  0
STYLE
  5
23
100
AcDbSymbolTableRecord
100
AcDbTextStyleTableRecord
  2
EXCADSTD
 70
    64
 40
0.0
 41
1.0
 50
0.0
 71
     0
 42
0.2
  3
monotxt
  4
extfont
  0
STYLE
  5
24
100
AcDbSymbolTableRecord
100
AcDbTextStyleTableRecord
  2
EXCADVERT
 70
    68
 40
0.0
 41
1.0
 50
0.0
 71
     0
 42
0.286885
  3
monotxt
  4
extfont
  0
STYLE
  5
E9
100
AcDbSymbolTableRecord
100
AcDbTextStyleTableRecord
  2
EXCADTTF1
 70
    64
 40
0.0
 41
1.0
 50
0.0
 71
     0
 42
0.2
  3
MS Gothic.ttf
  4

1001
ACAD
1000
MS Gothic
1071
    32817
  0
STYLE
  5
458
100
AcDbSymbolTableRecord
100
AcDbTextStyleTableRecord
  2
EXCADDIM1
 70
    64
 40
0.0
 41
0.84
 50
0.0
 71
     0
 42
0.2
  3
monotxt
  4
extfont
  0
ENDTAB
  0
TABLE
  2
VIEW
  5
5
100
AcDbSymbolTable
 70
     0
  0
ENDTAB
  0
TABLE
  2
UCS
  5
6
100
AcDbSymbolTable
 70
     0
  0
ENDTAB
  0
TABLE
  2
APPID
  5
8
100
AcDbSymbolTable
 70
     1
  0
APPID
  5
16
100
AcDbSymbolTableRecord
100
AcDbRegAppTableRecord
  2
ACAD
 70
     0
  0
ENDTAB
  0
TABLE
  2
DIMSTYLE
  5
9
100
AcDbSymbolTable
 70
     1
  0
DIMSTYLE
105
18
100
AcDbSymbolTableRecord
100
AcDbDimStyleTableRecord
  2
STANDARD
 70
     0
  3

  4

  5

  6

  7

 40
1.0
 41
0.18
 42
0.0625
 43
0.38
 44
0.18
 45
0.0
 46
0.0
 47
0.0
 48
0.0
 71
     0
 72
     0
 73
     1
 74
     1
 75
     0
 76
     0
 77
     0
 78
     0
140
0.18
141
0.09
142
0.0
143
25.4
144
1.0
145
0.0
146
1.0
147
0.09
170
     0
171
     2
172
     1
173
     0
174
     0
175
     0
176
     0
177
     0
178
     0
270
     2
271
     4
272
     4
273
     2
274
     2
275
     0
280
     0
281
     0
282
     0
283
     1
284
     0
285
     0
286
     0
287
     0
288
     0
340
17
  0
ENDTAB
  0
TABLE
  2
BLOCK_RECORD
  5
1
100
AcDbSymbolTable
 70
    39
  0
BLOCK_RECORD
  5
A
100
AcDbSymbolTableRecord
100
AcDbBlockTableRecord
  2
*MODEL_SPACE
  0
BLOCK_RECORD
  5
B
100
AcDbSymbolTableRecord
100
AcDbBlockTableRecord
  2
*PAPER_SPACE
  0
BLOCK_RECORD
  5
2A
100
AcDbSymbolTableRecord
100
AcDbBlockTableRecord
  2
_EX_NORM
  0
BLOCK_RECORD
  5
2B
100
AcDbSymbolTableRecord
100
AcDbBlockTableRecord
  2
_EX_BNORM
  0
BLOCK_RECORD
  5
2C
100
AcDbSymbolTableRecord
100
AcDbBlockTableRecord
  2
_EX_BCIR
  0
BLOCK_RECORD
  5
2D
100
AcDbSymbolTableRecord
100
AcDbBlockTableRecord
  2
_EX_RCIVIL
  0
BLOCK_RECORD
  5
2E
100
AcDbSymbolTableRecord
100
AcDbBlockTableRecord
  2
_EX_SLANT
  0
BLOCK_RECORD
  5
2F
100
AcDbSymbolTableRecord
100
AcDbBlockTableRecord
  2
_EX_NONE
  0
BLOCK_RECORD
  5
30
100
AcDbSymbolTableRecord
100
AcDbBlockTableRecord
  2
_EX_CIVIL
  0
BLOCK_RECORD
  5
31
100
AcDbSymbolTableRecord
100
AcDbBlockTableRecord
  2
_EX_WCIR
  0
BLOCK_RECORD
  5
32
100
AcDbSymbolTableRecord
100
AcDbBlockTableRecord
  2
_EX_WCIR2
  0
BLOCK_RECORD
  5
33
100
AcDbSymbolTableRecord
100
AcDbBlockTableRecord
  2
_EX_WNORM
  0
BLOCK_RECORD
  5
34
100
AcDbSymbolTableRecord
100
AcDbBlockTableRecord
  2
_EX_NNORM
  0
BLOCK_RECORD
  5
35
100
AcDbSymbolTableRecord
100
AcDbBlockTableRecord
  2
_EX_BBOX
  0
BLOCK_RECORD
  5
36
100
AcDbSymbolTableRecord
100
AcDbBlockTableRecord
  2
_EX_WBOX
  0
BLOCK_RECORD
  5
37
100
AcDbSymbolTableRecord
100
AcDbBlockTableRecord
  2
_EX_INTEGRAL
  0
BLOCK_RECORD
  5
44E
100
AcDbSymbolTableRecord
100
AcDbBlockTableRecord
  2
*D14
  0
BLOCK_RECORD
  5
45A
100
AcDbSymbolTableRecord
100
AcDbBlockTableRecord
  2
*D15
  0
BLOCK_RECORD
  5
466
100
AcDbSymbolTableRecord
100
AcDbBlockTableRecord
  2
*D16
  0
BLOCK_RECORD
  5
471
100
AcDbSymbolTableRecord
100
AcDbBlockTableRecord
  2
*D17
  0
BLOCK_RECORD
  5
47D
100
AcDbSymbolTableRecord
100
AcDbBlockTableRecord
  2
*D18
  0
BLOCK_RECORD
  5
488
100
AcDbSymbolTableRecord
100
AcDbBlockTableRecord
  2
*D19
  0
BLOCK_RECORD
  5
493
100
AcDbSymbolTableRecord
100
AcDbBlockTableRecord
  2
*D20
  0
BLOCK_RECORD
  5
49E
100
AcDbSymbolTableRecord
100
AcDbBlockTableRecord
  2
*D21
  0
BLOCK_RECORD
  5
4A9
100
AcDbSymbolTableRecord
100
AcDbBlockTableRecord
  2
*D22
  0
BLOCK_RECORD
  5
4B6
100
AcDbSymbolTableRecord
100
AcDbBlockTableRecord
  2
*D23
  0
BLOCK_RECORD
  5
4C2
100
AcDbSymbolTableRecord
100
AcDbBlockTableRecord
  2
*D24
  0
BLOCK_RECORD
  5
4CE
100
AcDbSymbolTableRecord
100
AcDbBlockTableRecord
  2
*D25
  0
BLOCK_RECORD
  5
4DA
100
AcDbSymbolTableRecord
100
AcDbBlockTableRecord
  2
*D26
  0
BLOCK_RECORD
  5
4E6
100
AcDbSymbolTableRecord
100
AcDbBlockTableRecord
  2
*D27
  0
BLOCK_RECORD
  5
4F2
100
AcDbSymbolTableRecord
100
AcDbBlockTableRecord
  2
*D28
  0
BLOCK_RECORD
  5
500
100
AcDbSymbolTableRecord
100
AcDbBlockTableRecord
  2
*D29
  0
BLOCK_RECORD
  5
50C
100
AcDbSymbolTableRecord
100
AcDbBlockTableRecord
  2
*D30
  0
BLOCK_RECORD
  5
518
100
AcDbSymbolTableRecord
100
AcDbBlockTableRecord
  2
*D31
  0
BLOCK_RECORD
  5
528
100
AcDbSymbolTableRecord
100
AcDbBlockTableRecord
  2
*D32
  0
BLOCK_RECORD
  5
534
100
AcDbSymbolTableRecord
100
AcDbBlockTableRecord
  2
*D33
  0
BLOCK_RECORD
  5
542
100
AcDbSymbolTableRecord
100
AcDbBlockTableRecord
  2
*D34
  0
BLOCK_RECORD
  5
54E
100
AcDbSymbolTableRecord
100
AcDbBlockTableRecord
  2
*D35
  0
BLOCK_RECORD
  5
55A
100
AcDbSymbolTableRecord
100
AcDbBlockTableRecord
  2
*D36
  0
BLOCK_RECORD
  5
566
100
AcDbSymbolTableRecord
100
AcDbBlockTableRecord
  2
*D37
  0
BLOCK_RECORD
  5
572
100
AcDbSymbolTableRecord
100
AcDbBlockTableRecord
  2
*D38
  0
ENDTAB
  0
ENDSEC
  0
SECTION
  2
BLOCKS
  0
BLOCK
  5
D
100
AcDbEntity
  8
0
100
AcDbBlockBegin
  2
*MODEL_SPACE
 70
     0
 10
0.0
 20
0.0
 30
0.0
  3
*MODEL_SPACE
  1

  0
ENDBLK
  5
E
100
AcDbEntity
  8
0
100
AcDbBlockEnd
  0
BLOCK
  5
F
100
AcDbEntity
 67
     1
  8
0
100
AcDbBlockBegin
  2
*PAPER_SPACE
 70
     0
 10
0.0
 20
0.0
 30
0.0
  3
*PAPER_SPACE
  1

  0
ENDBLK
  5
10
100
AcDbEntity
 67
     1
  8
0
100
AcDbBlockEnd
  0
BLOCK
  5
38
100
AcDbEntity
  8
0
100
AcDbBlockBegin
  2
_EX_NORM
 70
     0
 10
0.0
 20
0.0
 30
0.0
  3
_EX_NORM
  1

  0
LINE
  5
39
100
AcDbEntity
  8
0
  6
CONTINUOUS
 62
     0
100
AcDbLine
 10
0.0
 20
0.0
 30
0.0
 11
-1.0
 21
0.0
 31
0.0
  0
LINE
  5
3A
100
AcDbEntity
  8
0
  6
CONTINUOUS
 62
     0
100
AcDbLine
 10
0.0
 20
0.0
 30
0.0
 11
-1.0
 21
0.166667
 31
0.0
  0
LINE
  5
3B
100
AcDbEntity
  8
0
  6
CONTINUOUS
 62
     0
100
AcDbLine
 10
0.0
 20
0.0
 30
0.0
 11
-1.0
 21
-0.166667
 31
0.0
  0
ENDBLK
  5
3C
100
AcDbEntity
  8
0
100
AcDbBlockEnd
  0
BLOCK
  5
3D
100
AcDbEntity
  8
0
100
AcDbBlockBegin
  2
_EX_BNORM
 70
     0
 10
0.0
 20
0.0
 30
0.0
  3
_EX_BNORM
  1

  0
LINE
  5
3E
100
AcDbEntity
  8
0
  6
CONTINUOUS
 62
     0
100
AcDbLine
 10
0.0
 20
0.0
 30
0.0
 11
-1.0
 21
0.0
 31
0.0
  0
LINE
  5
3F
100
AcDbEntity
  8
0
  6
CONTINUOUS
 62
     0
100
AcDbLine
 10
0.0
 20
0.0
 30
0.0
 11
-1.0
 21
0.166667
 31
0.0
  0
LINE
  5
40
100
AcDbEntity
  8
0
  6
CONTINUOUS
 62
     0
100
AcDbLine
 10
0.0
 20
0.0
 30
0.0
 11
-1.0
 21
-0.166667
 31
0.0
  0
LINE
  5
41
100
AcDbEntity
  8
0
  6
CONTINUOUS
 62
     0
100
AcDbLine
 10
0.0
 20
0.0
 30
0.0
 11
-1.0
 21
0.083333
 31
0.0
  0
LINE
  5
42
100
AcDbEntity
  8
0
  6
CONTINUOUS
 62
     0
100
AcDbLine
 10
0.0
 20
0.0
 30
0.0
 11
-1.0
 21
-0.083333
 31
0.0
  0
LINE
  5
43
100
AcDbEntity
  8
0
  6
CONTINUOUS
 62
     0
100
AcDbLine
 10
-1.0
 20
0.166667
 30
0.0
 11
-1.0
 21
-0.166667
 31
0.0
  0
ENDBLK
  5
44
100
AcDbEntity
  8
0
100
AcDbBlockEnd
  0
BLOCK
  5
45
100
AcDbEntity
  8
0
100
AcDbBlockBegin
  2
_EX_BCIR
 70
     0
 10
0.0
 20
0.0
 30
0.0
  3
_EX_BCIR
  1

  0
LINE
  5
46
100
AcDbEntity
  8
0
  6
CONTINUOUS
 62
     0
100
AcDbLine
 10
0.0
 20
0.0
 30
0.0
 11
-1.0
 21
0.0
 31
0.0
  0
CIRCLE
  5
47
100
AcDbEntity
  8
0
  6
CONTINUOUS
 62
     0
100
AcDbCircle
 10
0.0
 20
0.0
 30
0.0
 40
0.5
  0
CIRCLE
  5
48
100
AcDbEntity
  8
0
  6
CONTINUOUS
 62
     0
100
AcDbCircle
 10
0.0
 20
0.0
 30
0.0
 40
0.25
  0
ENDBLK
  5
49
100
AcDbEntity
  8
0
100
AcDbBlockEnd
  0
BLOCK
  5
4A
100
AcDbEntity
  8
0
100
AcDbBlockBegin
  2
_EX_RCIVIL
 70
     0
 10
0.0
 20
0.0
 30
0.0
  3
_EX_RCIVIL
  1

  0
LINE
  5
4B
100
AcDbEntity
  8
0
  6
CONTINUOUS
 62
     0
100
AcDbLine
 10
0.0
 20
0.0
 30
0.0
 11
-1.0
 21
0.0
 31
0.0
  0
LINE
  5
4C
100
AcDbEntity
  8
0
  6
CONTINUOUS
 62
     0
100
AcDbLine
 10
-1.0
 20
-0.25
 30
0.0
 11
0.0
 21
-0.25
 31
0.0
  0
LINE
  5
4D
100
AcDbEntity
  8
0
  6
CONTINUOUS
 62
     0
100
AcDbLine
 10
-1.0
 20
-0.125
 30
0.0
 11
0.0
 21
-0.125
 31
0.0
  0
ENDBLK
  5
4E
100
AcDbEntity
  8
0
100
AcDbBlockEnd
  0
BLOCK
  5
4F
100
AcDbEntity
  8
0
100
AcDbBlockBegin
  2
_EX_SLANT
 70
     0
 10
0.0
 20
0.0
 30
0.0
  3
_EX_SLANT
  1

  0
LINE
  5
50
100
AcDbEntity
  8
0
  6
CONTINUOUS
 62
     0
100
AcDbLine
 10
0.0
 20
0.0
 30
0.0
 11
-1.0
 21
0.0
 31
0.0
  0
LINE
  5
51
100
AcDbEntity
  8
0
  6
CONTINUOUS
 62
     0
100
AcDbLine
 10
0.707107
 20
0.707107
 30
0.0
 11
-0.707107
 21
-0.707107
 31
0.0
  0
ENDBLK
  5
52
100
AcDbEntity
  8
0
100
AcDbBlockEnd
  0
BLOCK
  5
53
100
AcDbEntity
  8
0
100
AcDbBlockBegin
  2
_EX_NONE
 70
     0
 10
0.0
 20
0.0
 30
0.0
  3
_EX_NONE
  1

  0
LINE
  5
54
100
AcDbEntity
  8
0
  6
CONTINUOUS
 62
     0
100
AcDbLine
 10
0.0
 20
0.0
 30
0.0
 11
-1.0
 21
0.0
 31
0.0
  0
ENDBLK
  5
55
100
AcDbEntity
  8
0
100
AcDbBlockEnd
  0
BLOCK
  5
56
100
AcDbEntity
  8
0
100
AcDbBlockBegin
  2
_EX_CIVIL
 70
     0
 10
0.0
 20
0.0
 30
0.0
  3
_EX_CIVIL
  1

  0
LINE
  5
57
100
AcDbEntity
  8
0
  6
CONTINUOUS
 62
     0
100
AcDbLine
 10
0.0
 20
0.0
 30
0.0
 11
-1.0
 21
0.0
 31
0.0
  0
LINE
  5
58
100
AcDbEntity
  8
0
  6
CONTINUOUS
 62
     0
100
AcDbLine
 10
-1.0
 20
0.25
 30
0.0
 11
0.0
 21
0.25
 31
0.0
  0
LINE
  5
59
100
AcDbEntity
  8
0
  6
CONTINUOUS
 62
     0
100
AcDbLine
 10
-1.0
 20
0.125
 30
0.0
 11
0.0
 21
0.125
 31
0.0
  0
ENDBLK
  5
5A
100
AcDbEntity
  8
0
100
AcDbBlockEnd
  0
BLOCK
  5
5B
100
AcDbEntity
  8
0
100
AcDbBlockBegin
  2
_EX_WCIR
 70
     0
 10
0.0
 20
0.0
 30
0.0
  3
_EX_WCIR
  1

  0
LINE
  5
5C
100
AcDbEntity
  8
0
  6
CONTINUOUS
 62
     0
100
AcDbLine
 10
0.0
 20
0.0
 30
0.0
 11
-1.0
 21
0.0
 31
0.0
  0
CIRCLE
  5
5D
100
AcDbEntity
  8
0
  6
CONTINUOUS
 62
     0
100
AcDbCircle
 10
0.0
 20
0.0
 30
0.0
 40
0.5
  0
ENDBLK
  5
5E
100
AcDbEntity
  8
0
100
AcDbBlockEnd
  0
BLOCK
  5
5F
100
AcDbEntity
  8
0
100
AcDbBlockBegin
  2
_EX_WCIR2
 70
     0
 10
0.0
 20
0.0
 30
0.0
  3
_EX_WCIR2
  1

  0
LINE
  5
60
100
AcDbEntity
  8
0
  6
CONTINUOUS
 62
     0
100
AcDbLine
 10
-0.5
 20
0.0
 30
0.0
 11
-1.0
 21
0.0
 31
0.0
  0
CIRCLE
  5
61
100
AcDbEntity
  8
0
  6
CONTINUOUS
 62
     0
100
AcDbCircle
 10
0.0
 20
0.0
 30
0.0
 40
0.5
  0
ENDBLK
  5
62
100
AcDbEntity
  8
0
100
AcDbBlockEnd
  0
BLOCK
  5
63
100
AcDbEntity
  8
0
100
AcDbBlockBegin
  2
_EX_WNORM
 70
     0
 10
0.0
 20
0.0
 30
0.0
  3
_EX_WNORM
  1

  0
LINE
  5
64
100
AcDbEntity
  8
0
  6
CONTINUOUS
 62
     0
100
AcDbLine
 10
-1.0
 20
0.0
 30
0.0
 11
-1.0
 21
0.0
 31
0.0
  0
LINE
  5
65
100
AcDbEntity
  8
0
  6
CONTINUOUS
 62
     0
100
AcDbLine
 10
0.0
 20
0.0
 30
0.0
 11
-1.0
 21
0.166667
 31
0.0
  0
LINE
  5
66
100
AcDbEntity
  8
0
  6
CONTINUOUS
 62
     0
100
AcDbLine
 10
0.0
 20
0.0
 30
0.0
 11
-1.0
 21
-0.166667
 31
0.0
  0
LINE
  5
67
100
AcDbEntity
  8
0
  6
CONTINUOUS
 62
     0
100
AcDbLine
 10
-1.0
 20
0.166667
 30
0.0
 11
-1.0
 21
-0.166667
 31
0.0
  0
ENDBLK
  5
68
100
AcDbEntity
  8
0
100
AcDbBlockEnd
  0
BLOCK
  5
69
100
AcDbEntity
  8
0
100
AcDbBlockBegin
  2
_EX_NNORM
 70
     0
 10
0.0
 20
0.0
 30
0.0
  3
_EX_NNORM
  1

  0
LINE
  5
6A
100
AcDbEntity
  8
0
  6
CONTINUOUS
 62
     0
100
AcDbLine
 10
0.0
 20
0.0
 30
0.0
 11
-1.0
 21
0.0
 31
0.0
  0
LINE
  5
6B
100
AcDbEntity
  8
0
  6
CONTINUOUS
 62
     0
100
AcDbLine
 10
0.0
 20
0.0
 30
0.0
 11
-1.0
 21
0.166667
 31
0.0
  0
LINE
  5
6C
100
AcDbEntity
  8
0
  6
CONTINUOUS
 62
     0
100
AcDbLine
 10
0.0
 20
0.0
 30
0.0
 11
-1.0
 21
-0.166667
 31
0.0
  0
LINE
  5
6D
100
AcDbEntity
  8
0
  6
CONTINUOUS
 62
     0
100
AcDbLine
 10
-1.0
 20
0.166667
 30
0.0
 11
-1.0
 21
-0.166667
 31
0.0
  0
ENDBLK
  5
6E
100
AcDbEntity
  8
0
100
AcDbBlockEnd
  0
BLOCK
  5
6F
100
AcDbEntity
  8
0
100
AcDbBlockBegin
  2
_EX_BBOX
 70
     0
 10
0.0
 20
0.0
 30
0.0
  3
_EX_BBOX
  1

  0
LINE
  5
70
100
AcDbEntity
  8
0
  6
CONTINUOUS
 62
     0
100
AcDbLine
 10
0.0
 20
0.0
 30
0.0
 11
-1.0
 21
0.0
 31
0.0
  0
LINE
  5
71
100
AcDbEntity
  8
0
  6
CONTINUOUS
 62
     0
100
AcDbLine
 10
-0.5
 20
0.5
 30
0.0
 11
0.5
 21
0.5
 31
0.0
  0
LINE
  5
72
100
AcDbEntity
  8
0
  6
CONTINUOUS
 62
     0
100
AcDbLine
 10
0.5
 20
0.5
 30
0.0
 11
0.5
 21
-0.5
 31
0.0
  0
LINE
  5
73
100
AcDbEntity
  8
0
  6
CONTINUOUS
 62
     0
100
AcDbLine
 10
0.5
 20
-0.5
 30
0.0
 11
-0.5
 21
-0.5
 31
0.0
  0
LINE
  5
74
100
AcDbEntity
  8
0
  6
CONTINUOUS
 62
     0
100
AcDbLine
 10
-0.5
 20
-0.5
 30
0.0
 11
-0.5
 21
0.5
 31
0.0
  0
LINE
  5
75
100
AcDbEntity
  8
0
  6
CONTINUOUS
 62
     0
100
AcDbLine
 10
-0.25
 20
0.25
 30
0.0
 11
0.25
 21
0.25
 31
0.0
  0
LINE
  5
76
100
AcDbEntity
  8
0
  6
CONTINUOUS
 62
     0
100
AcDbLine
 10
0.25
 20
0.25
 30
0.0
 11
0.25
 21
-0.25
 31
0.0
  0
LINE
  5
77
100
AcDbEntity
  8
0
  6
CONTINUOUS
 62
     0
100
AcDbLine
 10
0.25
 20
-0.25
 30
0.0
 11
-0.25
 21
-0.25
 31
0.0
  0
LINE
  5
78
100
AcDbEntity
  8
0
  6
CONTINUOUS
 62
     0
100
AcDbLine
 10
-0.25
 20
-0.25
 30
0.0
 11
-0.25
 21
0.25
 31
0.0
  0
ENDBLK
  5
79
100
AcDbEntity
  8
0
100
AcDbBlockEnd
  0
BLOCK
  5
7A
100
AcDbEntity
  8
0
100
AcDbBlockBegin
  2
_EX_WBOX
 70
     0
 10
0.0
 20
0.0
 30
0.0
  3
_EX_WBOX
  1

  0
LINE
  5
7B
100
AcDbEntity
  8
0
  6
CONTINUOUS
 62
     0
100
AcDbLine
 10
-0.5
 20
0.0
 30
0.0
 11
-1.0
 21
0.0
 31
0.0
  0
LINE
  5
7C
100
AcDbEntity
  8
0
  6
CONTINUOUS
 62
     0
100
AcDbLine
 10
-0.5
 20
0.5
 30
0.0
 11
0.5
 21
0.5
 31
0.0
  0
LINE
  5
7D
100
AcDbEntity
  8
0
  6
CONTINUOUS
 62
     0
100
AcDbLine
 10
0.5
 20
0.5
 30
0.0
 11
0.5
 21
-0.5
 31
0.0
  0
LINE
  5
7E
100
AcDbEntity
  8
0
  6
CONTINUOUS
 62
     0
100
AcDbLine
 10
0.5
 20
-0.5
 30
0.0
 11
-0.5
 21
-0.5
 31
0.0
  0
LINE
  5
7F
100
AcDbEntity
  8
0
  6
CONTINUOUS
 62
     0
100
AcDbLine
 10
-0.5
 20
-0.5
 30
0.0
 11
-0.5
 21
0.5
 31
0.0
  0
ENDBLK
  5
80
100
AcDbEntity
  8
0
100
AcDbBlockEnd
  0
BLOCK
  5
81
100
AcDbEntity
  8
0
100
AcDbBlockBegin
  2
_EX_INTEGRAL
 70
     0
 10
0.0
 20
0.0
 30
0.0
  3
_EX_INTEGRAL
  1

  0
LINE
  5
82
100
AcDbEntity
  8
0
  6
CONTINUOUS
 62
     0
100
AcDbLine
 10
0.0
 20
0.0
 30
0.0
 11
-1.0
 21
0.0
 31
0.0
  0
ARC
  5
83
100
AcDbEntity
  8
0
  6
CONTINUOUS
 62
     0
100
AcDbCircle
 10
0.542115
 20
0.164992
 30
0.0
 40
0.56667
100
AcDbArc
 50
73.07249
 51
196.927513
  0
ARC
  5
84
100
AcDbEntity
  8
0
  6
CONTINUOUS
 62
     0
100
AcDbCircle
 10
-0.542115
 20
-0.164992
 30
0.0
 40
0.56667
100
AcDbArc
 50
253.072487
 51
16.927513
  0
ENDBLK
  5
85
100
AcDbEntity
  8
0
100
AcDbBlockEnd
  0
BLOCK
  5
44F
100
AcDbEntity
  8
0
100
AcDbBlockBegin
  2
*D14
 70
    65
 10
0.0
 20
0.0
 30
0.0
  3
*D14
  1

  0
LINE
  5
450
100
AcDbEntity
  8
寸法
  6
CONTINUOUS
 62
     3
100
AcDbLine
 10
650.0
 20
4151.999996
 30
0.0
 11
650.0
 21
4183.0
 31
0.0
  0
TEXT
  5
451
100
AcDbEntity
  8
寸法
  6
CONTINUOUS
 62
     2
100
AcDbText
 10
762.5
 20
4173.25
 30
0.0
 40
60.0
  1
540（壁固定）
 41
0.84
  7
EXCADSTD
 72
     1
 11
920.0
 21
4173.25
 31
0.0
100
AcDbText
  0
LINE
  5
452
100
AcDbEntity
  8
寸法
  6
CONTINUOUS
 62
     3
100
AcDbLine
 10
650.0
 20
4168.0
 30
0.0
 11
1190.0
 21
4168.0
 31
0.0
  0
LINE
  5
453
100
AcDbEntity
  8
寸法
  6
CONTINUOUS
 62
     3
100
AcDbLine
 10
695.0
 20
4175.5
 30
0.0
 11
650.0
 21
4168.0
 31
0.0
  0
LINE
  5
454
100
AcDbEntity
  8
寸法
  6
CONTINUOUS
 62
     3
100
AcDbLine
 10
650.0
 20
4168.0
 30
0.0
 11
695.0
 21
4160.5
 31
0.0
  0
LINE
  5
455
100
AcDbEntity
  8
寸法
  6
CONTINUOUS
 62
     3
100
AcDbLine
 10
1145.0
 20
4160.5
 30
0.0
 11
1190.0
 21
4168.0
 31
0.0
  0
LINE
  5
456
100
AcDbEntity
  8
寸法
  6
CONTINUOUS
 62
     3
100
AcDbLine
 10
1190.0
 20
4168.0
 30
0.0
 11
1145.0
 21
4175.5
 31
0.0
  0
ENDBLK
  5
457
100
AcDbEntity
  8
0
100
AcDbBlockEnd
  0
BLOCK
  5
45B
100
AcDbEntity
  8
0
100
AcDbBlockBegin
  2
*D15
 70
    65
 10
0.0
 20
0.0
 30
0.0
  3
*D15
  1

  0
LINE
  5
45C
100
AcDbEntity
  8
寸法
  6
CONTINUOUS
 62
     3
100
AcDbLine
 10
545.0
 20
3512.098405
 30
0.0
 11
545.0
 21
3373.0
 31
0.0
  0
LINE
  5
45D
100
AcDbEntity
  8
寸法
  6
CONTINUOUS
 62
     3
100
AcDbLine
 10
1295.0
 20
3512.098405
 30
0.0
 11
1295.0
 21
3373.0
 31
0.0
  0
TEXT
  5
45E
100
AcDbEntity
  8
寸法
  6
CONTINUOUS
 62
     2
100
AcDbText
 10
857.0
 20
3393.25
 30
0.0
 40
60.0
  1
750
 41
0.84
  7
EXCADSTD
 72
     1
 11
920.0
 21
3393.25
 31
0.0
100
AcDbText
  0
LINE
  5
45F
100
AcDbEntity
  8
寸法
  6
CONTINUOUS
 62
     3
100
AcDbLine
 10
545.0
 20
3388.0
 30
0.0
 11
1295.0
 21
3388.0
 31
0.0
  0
LINE
  5
460
100
AcDbEntity
  8
寸法
  6
CONTINUOUS
 62
     3
100
AcDbLine
 10
590.0
 20
3395.5
 30
0.0
 11
545.0
 21
3388.0
 31
0.0
  0
LINE
  5
461
100
AcDbEntity
  8
寸法
  6
CONTINUOUS
 62
     3
100
AcDbLine
 10
545.0
 20
3388.0
 30
0.0
 11
590.0
 21
3380.5
 31
0.0
  0
LINE
  5
462
100
AcDbEntity
  8
寸法
  6
CONTINUOUS
 62
     3
100
AcDbLine
 10
1250.0
 20
3380.5
 30
0.0
 11
1295.0
 21
3388.0
 31
0.0
  0
LINE
  5
463
100
AcDbEntity
  8
寸法
  6
CONTINUOUS
 62
     3
100
AcDbLine
 10
1295.0
 20
3388.0
 30
0.0
 11
1250.0
 21
3395.5
 31
0.0
  0
ENDBLK
  5
464
100
AcDbEntity
  8
0
100
AcDbBlockEnd
  0
BLOCK
  5
467
100
AcDbEntity
  8
0
100
AcDbBlockBegin
  2
*D16
 70
    65
 10
0.0
 20
0.0
 30
0.0
  3
*D16
  1

  0
LINE
  5
468
100
AcDbEntity
  8
寸法
  6
CONTINUOUS
 62
     3
100
AcDbLine
 10
930.5
 20
3493.0
 30
0.0
 11
1415.0
 21
3493.0
 31
0.0
  0
TEXT
  5
469
100
AcDbEntity
  8
寸法
  6
CONTINUOUS
 62
     2
100
AcDbText
 10
1394.75
 20
3670.0
 30
0.0
 40
60.0
  1
480
 50
90.0
 41
0.84
  7
EXCADSTD
 72
     1
 11
1394.75
 21
3733.0
 31
0.0
100
AcDbText
  0
LINE
  5
46A
100
AcDbEntity
  8
寸法
  6
CONTINUOUS
 62
     3
100
AcDbLine
 10
1400.0
 20
3493.0
 30
0.0
 11
1400.0
 21
3973.0
 31
0.0
  0
LINE
  5
46B
100
AcDbEntity
  8
寸法
  6
CONTINUOUS
 62
     3
100
AcDbLine
 10
1392.5
 20
3538.0
 30
0.0
 11
1400.0
 21
3493.0
 31
0.0
  0
LINE
  5
46C
100
AcDbEntity
  8
寸法
  6
CONTINUOUS
 62
     3
100
AcDbLine
 10
1400.0
 20
3493.0
 30
0.0
 11
1407.5
 21
3538.0
 31
0.0
  0
LINE
  5
46D
100
AcDbEntity
  8
寸法
  6
CONTINUOUS
 62
     3
100
AcDbLine
 10
1407.5
 20
3928.0
 30
0.0
 11
1400.0
 21
3973.0
 31
0.0
  0
LINE
  5
46E
100
AcDbEntity
  8
寸法
  6
CONTINUOUS
 62
     3
100
AcDbLine
 10
1400.0
 20
3973.0
 30
0.0
 11
1392.5
 21
3928.0
 31
0.0
  0
ENDBLK
  5
46F
100
AcDbEntity
  8
0
100
AcDbBlockEnd
  0
BLOCK
  5
472
100
AcDbEntity
  8
0
100
AcDbBlockBegin
  2
*D17
 70
    65
 10
0.0
 20
0.0
 30
0.0
  3
*D17
  1

  0
LINE
  5
473
100
AcDbEntity
  8
寸法
  6
CONTINUOUS
 62
     3
100
AcDbLine
 10
545.0
 20
2749.0
 30
0.0
 11
545.0
 21
2938.5
 31
0.0
  0
LINE
  5
474
100
AcDbEntity
  8
寸法
  6
CONTINUOUS
 62
     3
100
AcDbLine
 10
1295.0
 20
2749.0
 30
0.0
 11
1295.0
 21
2938.5
 31
0.0
  0
TEXT
  5
475
100
AcDbEntity
  8
寸法
  6
CONTINUOUS
 62
     2
100
AcDbText
 10
857.0
 20
2928.75
 30
0.0
 40
60.0
  1
750
 41
0.84
  7
EXCADSTD
 72
     1
 11
920.0
 21
2928.75
 31
0.0
100
AcDbText
  0
LINE
  5
476
100
AcDbEntity
  8
寸法
  6
CONTINUOUS
 62
     3
100
AcDbLine
 10
545.0
 20
2923.5
 30
0.0
 11
1295.0
 21
2923.5
 31
0.0
  0
LINE
  5
477
100
AcDbEntity
  8
寸法
  6
CONTINUOUS
 62
     3
100
AcDbLine
 10
590.0
 20
2931.0
 30
0.0
 11
545.0
 21
2923.5
 31
0.0
  0
LINE
  5
478
100
AcDbEntity
  8
寸法
  6
CONTINUOUS
 62
     3
100
AcDbLine
 10
545.0
 20
2923.5
 30
0.0
 11
590.0
 21
2916.0
 31
0.0
  0
LINE
  5
479
100
AcDbEntity
  8
寸法
  6
CONTINUOUS
 62
     3
100
AcDbLine
 10
1250.0
 20
2916.0
 30
0.0
 11
1295.0
 21
2923.5
 31
0.0
  0
LINE
  5
47A
100
AcDbEntity
  8
寸法
  6
CONTINUOUS
 62
     3
100
AcDbLine
 10
1295.0
 20
2923.5
 30
0.0
 11
1250.0
 21
2931.0
 31
0.0
  0
ENDBLK
  5
47B
100
AcDbEntity
  8
0
100
AcDbBlockEnd
  0
BLOCK
  5
47E
100
AcDbEntity
  8
0
100
AcDbBlockBegin
  2
*D18
 70
    65
 10
0.0
 20
0.0
 30
0.0
  3
*D18
  1

  0
LINE
  5
47F
100
AcDbEntity
  8
寸法
  6
CONTINUOUS
 62
     3
100
AcDbLine
 10
930.5
 20
1728.5
 30
0.0
 11
1462.5
 21
1728.5
 31
0.0
  0
TEXT
  5
480
100
AcDbEntity
  8
寸法
  6
CONTINUOUS
 62
     2
100
AcDbText
 10
1442.25
 20
1275.5
 30
0.0
 40
60.0
  1
780
 50
90.0
 41
0.84
  7
EXCADSTD
 72
     1
 11
1442.25
 21
1338.5
 31
0.0
100
AcDbText
  0
LINE
  5
481
100
AcDbEntity
  8
寸法
  6
CONTINUOUS
 62
     3
100
AcDbLine
 10
1447.5
 20
948.5
 30
0.0
 11
1447.5
 21
1728.5
 31
0.0
  0
LINE
  5
482
100
AcDbEntity
  8
寸法
  6
CONTINUOUS
 62
     3
100
AcDbLine
 10
1440.0
 20
993.5
 30
0.0
 11
1447.5
 21
948.5
 31
0.0
  0
LINE
  5
483
100
AcDbEntity
  8
寸法
  6
CONTINUOUS
 62
     3
100
AcDbLine
 10
1447.5
 20
948.5
 30
0.0
 11
1455.0
 21
993.5
 31
0.0
  0
LINE
  5
484
100
AcDbEntity
  8
寸法
  6
CONTINUOUS
 62
     3
100
AcDbLine
 10
1455.0
 20
1683.5
 30
0.0
 11
1447.5
 21
1728.5
 31
0.0
  0
LINE
  5
485
100
AcDbEntity
  8
寸法
  6
CONTINUOUS
 62
     3
100
AcDbLine
 10
1447.5
 20
1728.5
 30
0.0
 11
1440.0
 21
1683.5
 31
0.0
  0
ENDBLK
  5
486
100
AcDbEntity
  8
0
100
AcDbBlockEnd
  0
BLOCK
  5
489
100
AcDbEntity
  8
0
100
AcDbBlockBegin
  2
*D19
 70
    65
 10
0.0
 20
0.0
 30
0.0
  3
*D19
  1

  0
LINE
  5
48A
100
AcDbEntity
  8
寸法
  6
CONTINUOUS
 62
     3
100
AcDbLine
 10
1300.5
 20
1743.5
 30
0.0
 11
1552.5
 21
1743.5
 31
0.0
  0
TEXT
  5
48B
100
AcDbEntity
  8
寸法
  6
CONTINUOUS
 62
     2
100
AcDbText
 10
1532.25
 20
1283.0
 30
0.0
 40
60.0
  1
795
 50
90.0
 41
0.84
  7
EXCADSTD
 72
     1
 11
1532.25
 21
1346.0
 31
0.0
100
AcDbText
  0
LINE
  5
48C
100
AcDbEntity
  8
寸法
  6
CONTINUOUS
 62
     3
100
AcDbLine
 10
1537.5
 20
948.5
 30
0.0
 11
1537.5
 21
1743.5
 31
0.0
  0
LINE
  5
48D
100
AcDbEntity
  8
寸法
  6
CONTINUOUS
 62
     3
100
AcDbLine
 10
1530.0
 20
993.5
 30
0.0
 11
1537.5
 21
948.5
 31
0.0
  0
LINE
  5
48E
100
AcDbEntity
  8
寸法
  6
CONTINUOUS
 62
     3
100
AcDbLine
 10
1537.5
 20
948.5
 30
0.0
 11
1545.0
 21
993.5
 31
0.0
  0
LINE
  5
48F
100
AcDbEntity
  8
寸法
  6
CONTINUOUS
 62
     3
100
AcDbLine
 10
1545.0
 20
1698.5
 30
0.0
 11
1537.5
 21
1743.5
 31
0.0
  0
LINE
  5
490
100
AcDbEntity
  8
寸法
  6
CONTINUOUS
 62
     3
100
AcDbLine
 10
1537.5
 20
1743.5
 30
0.0
 11
1530.0
 21
1698.5
 31
0.0
  0
ENDBLK
  5
491
100
AcDbEntity
  8
0
100
AcDbBlockEnd
  0
BLOCK
  5
494
100
AcDbEntity
  8
0
100
AcDbBlockBegin
  2
*D20
 70
    65
 10
0.0
 20
0.0
 30
0.0
  3
*D20
  1

  0
LINE
  5
495
100
AcDbEntity
  8
寸法
  6
CONTINUOUS
 62
     3
100
AcDbLine
 10
1300.499805
 20
2743.499996
 30
0.0
 11
1552.5
 21
2743.499996
 31
0.0
  0
TEXT
  5
496
100
AcDbEntity
  8
寸法
  6
CONTINUOUS
 62
     2
100
AcDbText
 10
1532.25
 20
2161.599998
 30
0.0
 40
60.0
  1
1000
 50
90.0
 41
0.84
  7
EXCADSTD
 72
     1
 11
1532.25
 21
2243.499998
 31
0.0
100
AcDbText
  0
LINE
  5
497
100
AcDbEntity
  8
寸法
  6
CONTINUOUS
 62
     3
100
AcDbLine
 10
1537.5
 20
1743.5
 30
0.0
 11
1537.5
 21
2743.499996
 31
0.0
  0
LINE
  5
498
100
AcDbEntity
  8
寸法
  6
CONTINUOUS
 62
     3
100
AcDbLine
 10
1530.0
 20
1788.5
 30
0.0
 11
1537.5
 21
1743.5
 31
0.0
  0
LINE
  5
499
100
AcDbEntity
  8
寸法
  6
CONTINUOUS
 62
     3
100
AcDbLine
 10
1537.5
 20
1743.5
 30
0.0
 11
1545.0
 21
1788.5
 31
0.0
  0
LINE
  5
49A
100
AcDbEntity
  8
寸法
  6
CONTINUOUS
 62
     3
100
AcDbLine
 10
1545.0
 20
2698.499996
 30
0.0
 11
1537.5
 21
2743.499996
 31
0.0
  0
LINE
  5
49B
100
AcDbEntity
  8
寸法
  6
CONTINUOUS
 62
     3
100
AcDbLine
 10
1537.5
 20
2743.499996
 30
0.0
 11
1530.0
 21
2698.499996
 31
0.0
  0
ENDBLK
  5
49C
100
AcDbEntity
  8
0
100
AcDbBlockEnd
  0
BLOCK
  5
49F
100
AcDbEntity
  8
0
100
AcDbBlockBegin
  2
*D21
 70
    65
 10
0.0
 20
0.0
 30
0.0
  3
*D21
  1

  0
LINE
  5
4A0
100
AcDbEntity
  8
寸法
  6
CONTINUOUS
 62
     3
100
AcDbLine
 10
1300.499805
 20
2743.499996
 30
0.0
 11
1642.5
 21
2743.499996
 31
0.0
  0
TEXT
  5
4A1
100
AcDbEntity
  8
寸法
  6
CONTINUOUS
 62
     2
100
AcDbText
 10
1622.25
 20
1764.099998
 30
0.0
 40
60.0
  1
1795
 50
90.0
 41
0.84
  7
EXCADSTD
 72
     1
 11
1622.25
 21
1845.999998
 31
0.0
100
AcDbText
  0
LINE
  5
4A2
100
AcDbEntity
  8
寸法
  6
CONTINUOUS
 62
     3
100
AcDbLine
 10
1627.5
 20
948.5
 30
0.0
 11
1627.5
 21
2743.499996
 31
0.0
  0
LINE
  5
4A3
100
AcDbEntity
  8
寸法
  6
CONTINUOUS
 62
     3
100
AcDbLine
 10
1620.0
 20
993.5
 30
0.0
 11
1627.5
 21
948.5
 31
0.0
  0
LINE
  5
4A4
100
AcDbEntity
  8
寸法
  6
CONTINUOUS
 62
     3
100
AcDbLine
 10
1627.5
 20
948.5
 30
0.0
 11
1635.0
 21
993.5
 31
0.0
  0
LINE
  5
4A5
100
AcDbEntity
  8
寸法
  6
CONTINUOUS
 62
     3
100
AcDbLine
 10
1635.0
 20
2698.499996
 30
0.0
 11
1627.5
 21
2743.499996
 31
0.0
  0
LINE
  5
4A6
100
AcDbEntity
  8
寸法
  6
CONTINUOUS
 62
     3
100
AcDbLine
 10
1627.5
 20
2743.499996
 30
0.0
 11
1620.0
 21
2698.499996
 31
0.0
  0
ENDBLK
  5
4A7
100
AcDbEntity
  8
0
100
AcDbBlockEnd
  0
BLOCK
  5
4AA
100
AcDbEntity
  8
0
100
AcDbBlockBegin
  2
*D22
 70
    65
 10
0.0
 20
0.0
 30
0.0
  3
*D22
  1

  0
LINE
  5
4AB
100
AcDbEntity
  8
寸法
  6
CONTINUOUS
 62
     3
100
AcDbLine
 10
1318.576697
 20
1873.5
 30
0.0
 11
1462.5
 21
1873.5
 31
0.0
  0
TEXT
  5
4AC
100
AcDbEntity
  8
寸法
  6
CONTINUOUS
 62
     2
100
AcDbText
 10
1442.25
 20
1745.5
 30
0.0
 40
60.0
  1
130
 50
90.0
 41
0.84
  7
EXCADSTD
 72
     1
 11
1442.25
 21
1808.5
 31
0.0
100
AcDbText
  0
LINE
  5
4AD
100
AcDbEntity
  8
寸法
  6
CONTINUOUS
 62
     3
100
AcDbLine
 10
1447.5
 20
1743.5
 30
0.0
 11
1447.5
 21
1873.5
 31
0.0
  0
LINE
  5
4AE
100
AcDbEntity
  8
寸法
  6
CONTINUOUS
 62
     3
100
AcDbLine
 10
1440.0
 20
1788.5
 30
0.0
 11
1447.5
 21
1743.5
 31
0.0
  0
LINE
  5
4AF
100
AcDbEntity
  8
寸法
  6
CONTINUOUS
 62
     3
100
AcDbLine
 10
1447.5
 20
1743.5
 30
0.0
 11
1455.0
 21
1788.5
 31
0.0
  0
LINE
  5
4B0
100
AcDbEntity
  8
寸法
  6
CONTINUOUS
 62
     3
100
AcDbLine
 10
1455.0
 20
1828.5
 30
0.0
 11
1447.5
 21
1873.5
 31
0.0
  0
LINE
  5
4B1
100
AcDbEntity
  8
寸法
  6
CONTINUOUS
 62
     3
100
AcDbLine
 10
1447.5
 20
1873.5
 30
0.0
 11
1440.0
 21
1828.5
 31
0.0
  0
ENDBLK
  5
4B2
100
AcDbEntity
  8
0
100
AcDbBlockEnd
  0
BLOCK
  5
4B7
100
AcDbEntity
  8
0
100
AcDbBlockBegin
  2
*D23
 70
    65
 10
0.0
 20
0.0
 30
0.0
  3
*D23
  1

  0
LINE
  5
4B8
100
AcDbEntity
  8
寸法
  6
CONTINUOUS
 62
     3
100
AcDbLine
 10
2380.0
 20
930.0
 30
0.0
 11
2380.0
 21
813.5
 31
0.0
  0
LINE
  5
4B9
100
AcDbEntity
  8
寸法
  6
CONTINUOUS
 62
     3
100
AcDbLine
 10
2465.0
 20
938.0
 30
0.0
 11
2465.0
 21
813.5
 31
0.0
  0
TEXT
  5
4BA
100
AcDbEntity
  8
寸法
  6
CONTINUOUS
 62
     2
100
AcDbText
 10
2536.4
 20
833.75
 30
0.0
 40
60.0
  1
85（床給水）
 41
0.84
  7
EXCADSTD
 72
     1
 11
2675.0
 21
833.75
 31
0.0
100
AcDbText
  0
LINE
  5
4BB
100
AcDbEntity
  8
寸法
  6
CONTINUOUS
 62
     3
100
AcDbLine
 10
2335.0
 20
828.5
 30
0.0
 11
2845.250006
 21
828.5
 31
0.0
  0
LINE
  5
4BC
100
AcDbEntity
  8
寸法
  6
CONTINUOUS
 62
     3
100
AcDbLine
 10
2335.0
 20
821.0
 30
0.0
 11
2380.0
 21
828.5
 31
0.0
  0
LINE
  5
4BD
100
AcDbEntity
  8
寸法
  6
CONTINUOUS
 62
     3
100
AcDbLine
 10
2380.0
 20
828.5
 30
0.0
 11
2335.0
 21
836.0
 31
0.0
  0
LINE
  5
4BE
100
AcDbEntity
  8
寸法
  6
CONTINUOUS
 62
     3
100
AcDbLine
 10
2510.0
 20
836.0
 30
0.0
 11
2465.0
 21
828.5
 31
0.0
  0
LINE
  5
4BF
100
AcDbEntity
  8
寸法
  6
CONTINUOUS
 62
     3
100
AcDbLine
 10
2465.0
 20
828.5
 30
0.0
 11
2510.0
 21
821.0
 31
0.0
  0
ENDBLK
  5
4C0
100
AcDbEntity
  8
0
100
AcDbBlockEnd
  0
BLOCK
  5
4C3
100
AcDbEntity
  8
0
100
AcDbBlockBegin
  2
*D24
 70
    65
 10
0.0
 20
0.0
 30
0.0
  3
*D24
  1

  0
LINE
  5
4C4
100
AcDbEntity
  8
寸法
  6
CONTINUOUS
 62
     3
100
AcDbLine
 10
2475.5
 20
948.5
 30
0.0
 11
2585.0
 21
948.5
 31
0.0
  0
LINE
  5
4C5
100
AcDbEntity
  8
寸法
  6
CONTINUOUS
 62
     3
100
AcDbLine
 10
2483.5
 20
1298.5
 30
0.0
 11
2585.0
 21
1298.5
 31
0.0
  0
TEXT
  5
4C6
100
AcDbEntity
  8
寸法
  6
CONTINUOUS
 62
     2
100
AcDbText
 10
2564.75
 20
966.0
 30
0.0
 40
60.0
  1
350（壁給水）
 50
90.0
 41
0.84
  7
EXCADSTD
 72
     1
 11
2564.75
 21
1123.5
 31
0.0
100
AcDbText
  0
LINE
  5
4C7
100
AcDbEntity
  8
寸法
  6
CONTINUOUS
 62
     3
100
AcDbLine
 10
2570.0
 20
948.5
 30
0.0
 11
2570.0
 21
1298.5
 31
0.0
  0
LINE
  5
4C8
100
AcDbEntity
  8
寸法
  6
CONTINUOUS
 62
     3
100
AcDbLine
 10
2562.5
 20
993.5
 30
0.0
 11
2570.0
 21
948.5
 31
0.0
  0
LINE
  5
4C9
100
AcDbEntity
  8
寸法
  6
CONTINUOUS
 62
     3
100
AcDbLine
 10
2570.0
 20
948.5
 30
0.0
 11
2577.5
 21
993.5
 31
0.0
  0
LINE
  5
4CA
100
AcDbEntity
  8
寸法
  6
CONTINUOUS
 62
     3
100
AcDbLine
 10
2577.5
 20
1253.5
 30
0.0
 11
2570.0
 21
1298.5
 31
0.0
  0
LINE
  5
4CB
100
AcDbEntity
  8
寸法
  6
CONTINUOUS
 62
     3
100
AcDbLine
 10
2570.0
 20
1298.5
 30
0.0
 11
2562.5
 21
1253.5
 31
0.0
  0
ENDBLK
  5
4CC
100
AcDbEntity
  8
0
100
AcDbBlockEnd
  0
BLOCK
  5
4CF
100
AcDbEntity
  8
0
100
AcDbBlockBegin
  2
*D25
 70
    65
 10
0.0
 20
0.0
 30
0.0
  3
*D25
  1

  0
LINE
  5
4D0
100
AcDbEntity
  8
寸法
  6
CONTINUOUS
 62
     3
100
AcDbLine
 10
2475.5
 20
948.5
 30
0.0
 11
2675.0
 21
948.5
 31
0.0
  0
LINE
  5
4D1
100
AcDbEntity
  8
寸法
  6
CONTINUOUS
 62
     3
100
AcDbLine
 10
2496.5
 20
1448.5
 30
0.0
 11
2675.0
 21
1448.5
 31
0.0
  0
TEXT
  5
4D2
100
AcDbEntity
  8
寸法
  6
CONTINUOUS
 62
     2
100
AcDbText
 10
2654.75
 20
1041.0
 30
0.0
 40
60.0
  1
500（壁排水）
 50
90.0
 41
0.84
  7
EXCADSTD
 72
     1
 11
2654.75
 21
1198.5
 31
0.0
100
AcDbText
  0
LINE
  5
4D3
100
AcDbEntity
  8
寸法
  6
CONTINUOUS
 62
     3
100
AcDbLine
 10
2660.0
 20
948.5
 30
0.0
 11
2660.0
 21
1448.5
 31
0.0
  0
LINE
  5
4D4
100
AcDbEntity
  8
寸法
  6
CONTINUOUS
 62
     3
100
AcDbLine
 10
2652.5
 20
993.5
 30
0.0
 11
2660.0
 21
948.5
 31
0.0
  0
LINE
  5
4D5
100
AcDbEntity
  8
寸法
  6
CONTINUOUS
 62
     3
100
AcDbLine
 10
2660.0
 20
948.5
 30
0.0
 11
2667.5
 21
993.5
 31
0.0
  0
LINE
  5
4D6
100
AcDbEntity
  8
寸法
  6
CONTINUOUS
 62
     3
100
AcDbLine
 10
2667.5
 20
1403.5
 30
0.0
 11
2660.0
 21
1448.5
 31
0.0
  0
LINE
  5
4D7
100
AcDbEntity
  8
寸法
  6
CONTINUOUS
 62
     3
100
AcDbLine
 10
2660.0
 20
1448.5
 30
0.0
 11
2652.5
 21
1403.5
 31
0.0
  0
ENDBLK
  5
4D8
100
AcDbEntity
  8
0
100
AcDbBlockEnd
  0
BLOCK
  5
4DB
100
AcDbEntity
  8
0
100
AcDbBlockBegin
  2
*D26
 70
    65
 10
0.0
 20
0.0
 30
0.0
  3
*D26
  1

  0
LINE
  5
4DC
100
AcDbEntity
  8
寸法
  6
CONTINUOUS
 62
     3
100
AcDbLine
 10
2475.5
 20
948.5
 30
0.0
 11
2765.0
 21
948.5
 31
0.0
  0
LINE
  5
4DD
100
AcDbEntity
  8
寸法
  6
CONTINUOUS
 62
     3
100
AcDbLine
 10
2508.0
 20
1503.5
 30
0.0
 11
2765.0
 21
1503.5
 31
0.0
  0
TEXT
  5
4DE
100
AcDbEntity
  8
寸法
  6
CONTINUOUS
 62
     2
100
AcDbText
 10
2744.75
 20
1068.5
 30
0.0
 40
60.0
  1
555（壁固定）
 50
90.0
 41
0.84
  7
EXCADSTD
 72
     1
 11
2744.75
 21
1226.0
 31
0.0
100
AcDbText
  0
LINE
  5
4DF
100
AcDbEntity
  8
寸法
  6
CONTINUOUS
 62
     3
100
AcDbLine
 10
2750.0
 20
948.5
 30
0.0
 11
2750.0
 21
1503.5
 31
0.0
  0
LINE
  5
4E0
100
AcDbEntity
  8
寸法
  6
CONTINUOUS
 62
     3
100
AcDbLine
 10
2742.5
 20
993.5
 30
0.0
 11
2750.0
 21
948.5
 31
0.0
  0
LINE
  5
4E1
100
AcDbEntity
  8
寸法
  6
CONTINUOUS
 62
     3
100
AcDbLine
 10
2750.0
 20
948.5
 30
0.0
 11
2757.5
 21
993.5
 31
0.0
  0
LINE
  5
4E2
100
AcDbEntity
  8
寸法
  6
CONTINUOUS
 62
     3
100
AcDbLine
 10
2757.5
 20
1458.5
 30
0.0
 11
2750.0
 21
1503.5
 31
0.0
  0
LINE
  5
4E3
100
AcDbEntity
  8
寸法
  6
CONTINUOUS
 62
     3
100
AcDbLine
 10
2750.0
 20
1503.5
 30
0.0
 11
2742.5
 21
1458.5
 31
0.0
  0
ENDBLK
  5
4E4
100
AcDbEntity
  8
0
100
AcDbBlockEnd
  0
BLOCK
  5
4E7
100
AcDbEntity
  8
0
100
AcDbBlockBegin
  2
*D27
 70
    65
 10
0.0
 20
0.0
 30
0.0
  3
*D27
  1

  0
LINE
  5
4E8
100
AcDbEntity
  8
寸法
  6
CONTINUOUS
 62
     3
100
AcDbLine
 10
2475.5
 20
948.5
 30
0.0
 11
2855.0
 21
948.5
 31
0.0
  0
LINE
  5
4E9
100
AcDbEntity
  8
寸法
  6
CONTINUOUS
 62
     3
100
AcDbLine
 10
2508.0
 20
1808.5
 30
0.0
 11
2855.0
 21
1808.5
 31
0.0
  0
TEXT
  5
4EA
100
AcDbEntity
  8
寸法
  6
CONTINUOUS
 62
     2
100
AcDbText
 10
2834.75
 20
1315.5
 30
0.0
 40
60.0
  1
860
 50
90.0
 41
0.84
  7
EXCADSTD
 72
     1
 11
2834.75
 21
1378.5
 31
0.0
100
AcDbText
  0
LINE
  5
4EB
100
AcDbEntity
  8
寸法
  6
CONTINUOUS
 62
     3
100
AcDbLine
 10
2840.0
 20
948.5
 30
0.0
 11
2840.0
 21
1808.5
 31
0.0
  0
LINE
  5
4EC
100
AcDbEntity
  8
寸法
  6
CONTINUOUS
 62
     3
100
AcDbLine
 10
2832.5
 20
993.5
 30
0.0
 11
2840.0
 21
948.5
 31
0.0
  0
LINE
  5
4ED
100
AcDbEntity
  8
寸法
  6
CONTINUOUS
 62
     3
100
AcDbLine
 10
2840.0
 20
948.5
 30
0.0
 11
2847.5
 21
993.5
 31
0.0
  0
LINE
  5
4EE
100
AcDbEntity
  8
寸法
  6
CONTINUOUS
 62
     3
100
AcDbLine
 10
2847.5
 20
1763.5
 30
0.0
 11
2840.0
 21
1808.5
 31
0.0
  0
LINE
  5
4EF
100
AcDbEntity
  8
寸法
  6
CONTINUOUS
 62
     3
100
AcDbLine
 10
2840.0
 20
1808.5
 30
0.0
 11
2832.5
 21
1763.5
 31
0.0
  0
ENDBLK
  5
4F0
100
AcDbEntity
  8
0
100
AcDbBlockEnd
  0
BLOCK
  5
4F3
100
AcDbEntity
  8
0
100
AcDbBlockBegin
  2
*D28
 70
    65
 10
0.0
 20
0.0
 30
0.0
  3
*D28
  1

  0
LINE
  5
4F4
100
AcDbEntity
  8
寸法
  6
CONTINUOUS
 62
     3
100
AcDbLine
 10
2075.0
 20
941.5
 30
0.0
 11
2075.0
 21
633.5
 31
0.0
  0
LINE
  5
4F5
100
AcDbEntity
  8
寸法
  6
CONTINUOUS
 62
     3
100
AcDbLine
 10
2465.0
 20
938.0
 30
0.0
 11
2465.0
 21
633.5
 31
0.0
  0
TEXT
  5
4F6
100
AcDbEntity
  8
寸法
  6
CONTINUOUS
 62
     2
100
AcDbText
 10
2207.0
 20
653.75
 30
0.0
 40
60.0
  1
390
 41
0.84
  7
EXCADSTD
 72
     1
 11
2270.0
 21
653.75
 31
0.0
100
AcDbText
  0
LINE
  5
4F7
100
AcDbEntity
  8
寸法
  6
CONTINUOUS
 62
     3
100
AcDbLine
 10
2075.0
 20
648.5
 30
0.0
 11
2465.0
 21
648.5
 31
0.0
  0
LINE
  5
4F8
100
AcDbEntity
  8
寸法
  6
CONTINUOUS
 62
     3
100
AcDbLine
 10
2120.0
 20
656.0
 30
0.0
 11
2075.0
 21
648.5
 31
0.0
  0
LINE
  5
4F9
100
AcDbEntity
  8
寸法
  6
CONTINUOUS
 62
     3
100
AcDbLine
 10
2075.0
 20
648.5
 30
0.0
 11
2120.0
 21
641.0
 31
0.0
  0
LINE
  5
4FA
100
AcDbEntity
  8
寸法
  6
CONTINUOUS
 62
     3
100
AcDbLine
 10
2420.0
 20
641.0
 30
0.0
 11
2465.0
 21
648.5
 31
0.0
  0
LINE
  5
4FB
100
AcDbEntity
  8
寸法
  6
CONTINUOUS
 62
     3
100
AcDbLine
 10
2465.0
 20
648.5
 30
0.0
 11
2420.0
 21
656.0
 31
0.0
  0
ENDBLK
  5
4FC
100
AcDbEntity
  8
0
100
AcDbBlockEnd
  0
BLOCK
  5
501
100
AcDbEntity
  8
0
100
AcDbBlockBegin
  2
*D29
 70
    65
 10
0.0
 20
0.0
 30
0.0
  3
*D29
  1

  0
LINE
  5
502
100
AcDbEntity
  8
寸法
  6
CONTINUOUS
 62
     3
100
AcDbLine
 10
561.5
 20
719.999996
 30
0.0
 11
561.5
 21
633.5
 31
0.0
  0
LINE
  5
503
100
AcDbEntity
  8
寸法
  6
CONTINUOUS
 62
     3
100
AcDbLine
 10
1278.5
 20
719.999996
 30
0.0
 11
1278.5
 21
633.5
 31
0.0
  0
TEXT
  5
504
100
AcDbEntity
  8
寸法
  6
CONTINUOUS
 62
     2
100
AcDbText
 10
857.0
 20
653.75
 30
0.0
 40
60.0
  1
717
 41
0.84
  7
EXCADSTD
 72
     1
 11
920.0
 21
653.75
 31
0.0
100
AcDbText
  0
LINE
  5
505
100
AcDbEntity
  8
寸法
  6
CONTINUOUS
 62
     3
100
AcDbLine
 10
561.5
 20
648.5
 30
0.0
 11
1278.5
 21
648.5
 31
0.0
  0
LINE
  5
506
100
AcDbEntity
  8
寸法
  6
CONTINUOUS
 62
     3
100
AcDbLine
 10
606.5
 20
656.0
 30
0.0
 11
561.5
 21
648.5
 31
0.0
  0
LINE
  5
507
100
AcDbEntity
  8
寸法
  6
CONTINUOUS
 62
     3
100
AcDbLine
 10
561.5
 20
648.5
 30
0.0
 11
606.5
 21
641.0
 31
0.0
  0
LINE
  5
508
100
AcDbEntity
  8
寸法
  6
CONTINUOUS
 62
     3
100
AcDbLine
 10
1233.5
 20
641.0
 30
0.0
 11
1278.5
 21
648.5
 31
0.0
  0
LINE
  5
509
100
AcDbEntity
  8
寸法
  6
CONTINUOUS
 62
     3
100
AcDbLine
 10
1278.5
 20
648.5
 30
0.0
 11
1233.5
 21
656.0
 31
0.0
  0
ENDBLK
  5
50A
100
AcDbEntity
  8
0
100
AcDbBlockEnd
  0
BLOCK
  5
50D
100
AcDbEntity
  8
0
100
AcDbBlockBegin
  2
*D30
 70
    65
 10
0.0
 20
0.0
 30
0.0
  3
*D30
  1

  0
LINE
  5
50E
100
AcDbEntity
  8
寸法
  6
CONTINUOUS
 62
     3
100
AcDbLine
 10
869.0
 20
1741.222388
 30
0.0
 11
869.0
 21
1950.0
 31
0.0
  0
LINE
  5
50F
100
AcDbEntity
  8
寸法
  6
CONTINUOUS
 62
     3
100
AcDbLine
 10
971.0
 20
1750.722388
 30
0.0
 11
971.0
 21
1950.0
 31
0.0
  0
TEXT
  5
510
100
AcDbEntity
  8
寸法
  6
CONTINUOUS
 62
     2
100
AcDbText
 10
857.0
 20
1940.25
 30
0.0
 40
60.0
  1
102
 41
0.84
  7
EXCADSTD
 72
     1
 11
920.0
 21
1940.25
 31
0.0
100
AcDbText
  0
LINE
  5
511
100
AcDbEntity
  8
寸法
  6
CONTINUOUS
 62
     3
100
AcDbLine
 10
824.0
 20
1935.0
 30
0.0
 11
1016.0
 21
1935.0
 31
0.0
  0
LINE
  5
512
100
AcDbEntity
  8
寸法
  6
CONTINUOUS
 62
     3
100
AcDbLine
 10
824.0
 20
1927.5
 30
0.0
 11
869.0
 21
1935.0
 31
0.0
  0
LINE
  5
513
100
AcDbEntity
  8
寸法
  6
CONTINUOUS
 62
     3
100
AcDbLine
 10
869.0
 20
1935.0
 30
0.0
 11
824.0
 21
1942.5
 31
0.0
  0
LINE
  5
514
100
AcDbEntity
  8
寸法
  6
CONTINUOUS
 62
     3
100
AcDbLine
 10
1016.0
 20
1942.5
 30
0.0
 11
971.0
 21
1935.0
 31
0.0
  0
LINE
  5
515
100
AcDbEntity
  8
寸法
  6
CONTINUOUS
 62
     3
100
AcDbLine
 10
971.0
 20
1935.0
 30
0.0
 11
1016.0
 21
1927.5
 31
0.0
  0
ENDBLK
  5
516
100
AcDbEntity
  8
0
100
AcDbBlockEnd
  0
BLOCK
  5
519
100
AcDbEntity
  8
0
100
AcDbBlockBegin
  2
*D31
 70
    65
 10
0.0
 20
0.0
 30
0.0
  3
*D31
  1

  0
LINE
  5
51A
100
AcDbEntity
  8
寸法
  6
CONTINUOUS
 62
     3
100
AcDbLine
 10
2385.0
 20
1744.0
 30
0.0
 11
2385.0
 21
1950.0
 31
0.0
  0
TEXT
  5
51B
100
AcDbEntity
  8
寸法
  6
CONTINUOUS
 62
     2
100
AcDbText
 10
2243.4
 20
1940.25
 30
0.0
 40
60.0
  1
80
 41
0.84
  7
EXCADSTD
 72
     1
 11
2287.5
 21
1940.25
 31
0.0
100
AcDbText
  0
LINE
  5
51C
100
AcDbEntity
  8
寸法
  6
CONTINUOUS
 62
     3
100
AcDbLine
 10
2229.749994
 20
1935.0
 30
0.0
 11
2510.0
 21
1935.0
 31
0.0
  0
LINE
  5
51D
100
AcDbEntity
  8
寸法
  6
CONTINUOUS
 62
     3
100
AcDbLine
 10
2340.0
 20
1927.5
 30
0.0
 11
2385.0
 21
1935.0
 31
0.0
  0
LINE
  5
51E
100
AcDbEntity
  8
寸法
  6
CONTINUOUS
 62
     3
100
AcDbLine
 10
2385.0
 20
1935.0
 30
0.0
 11
2340.0
 21
1942.5
 31
0.0
  0
LINE
  5
51F
100
AcDbEntity
  8
寸法
  6
CONTINUOUS
 62
     3
100
AcDbLine
 10
2510.0
 20
1942.5
 30
0.0
 11
2465.0
 21
1935.0
 31
0.0
  0
LINE
  5
520
100
AcDbEntity
  8
寸法
  6
CONTINUOUS
 62
     3
100
AcDbLine
 10
2465.0
 20
1935.0
 30
0.0
 11
2510.0
 21
1927.5
 31
0.0
  0
ENDBLK
  5
521
100
AcDbEntity
  8
0
100
AcDbBlockEnd
  0
BLOCK
  5
529
100
AcDbEntity
  8
0
100
AcDbBlockBegin
  2
*D32
 70
    65
 10
0.0
 20
0.0
 30
0.0
  3
*D32
  1

  0
LINE
  5
52A
100
AcDbEntity
  8
寸法
  6
CONTINUOUS
 62
     3
100
AcDbLine
 10
2345.0
 20
908.0
 30
0.0
 11
2345.0
 21
723.5
 31
0.0
  0
LINE
  5
52B
100
AcDbEntity
  8
寸法
  6
CONTINUOUS
 62
     3
100
AcDbLine
 10
2465.0
 20
938.0
 30
0.0
 11
2465.0
 21
723.5
 31
0.0
  0
TEXT
  5
52C
100
AcDbEntity
  8
寸法
  6
CONTINUOUS
 62
     2
100
AcDbText
 10
2540.0
 20
743.75
 30
0.0
 40
60.0
  1
120（床排水）
 41
0.84
  7
EXCADSTD
 72
     1
 11
2697.5
 21
743.75
 31
0.0
100
AcDbText
  0
LINE
  5
52D
100
AcDbEntity
  8
寸法
  6
CONTINUOUS
 62
     3
100
AcDbLine
 10
2300.0
 20
738.5
 30
0.0
 11
2890.250006
 21
738.5
 31
0.0
  0
LINE
  5
52E
100
AcDbEntity
  8
寸法
  6
CONTINUOUS
 62
     3
100
AcDbLine
 10
2300.0
 20
731.0
 30
0.0
 11
2345.0
 21
738.5
 31
0.0
  0
LINE
  5
52F
100
AcDbEntity
  8
寸法
  6
CONTINUOUS
 62
     3
100
AcDbLine
 10
2345.0
 20
738.5
 30
0.0
 11
2300.0
 21
746.0
 31
0.0
  0
LINE
  5
530
100
AcDbEntity
  8
寸法
  6
CONTINUOUS
 62
     3
100
AcDbLine
 10
2510.0
 20
746.0
 30
0.0
 11
2465.0
 21
738.5
 31
0.0
  0
LINE
  5
531
100
AcDbEntity
  8
寸法
  6
CONTINUOUS
 62
     3
100
AcDbLine
 10
2465.0
 20
738.5
 30
0.0
 11
2510.0
 21
731.0
 31
0.0
  0
ENDBLK
  5
532
100
AcDbEntity
  8
0
100
AcDbBlockEnd
  0
BLOCK
  5
535
100
AcDbEntity
  8
0
100
AcDbBlockBegin
  2
*D33
 70
    65
 10
0.0
 20
0.0
 30
0.0
  3
*D33
  1

  0
LINE
  5
536
100
AcDbEntity
  8
寸法
  6
CONTINUOUS
 62
     3
100
AcDbLine
 10
820.0
 20
930.0
 30
0.0
 11
820.0
 21
723.5
 31
0.0
  0
LINE
  5
537
100
AcDbEntity
  8
寸法
  6
CONTINUOUS
 62
     3
100
AcDbLine
 10
1020.0
 20
930.0
 30
0.0
 11
1020.0
 21
723.5
 31
0.0
  0
TEXT
  5
538
100
AcDbEntity
  8
寸法
  6
CONTINUOUS
 62
     2
100
AcDbText
 10
1095.0
 20
743.75
 30
0.0
 40
60.0
  1
200（床給水）
 41
0.84
  7
EXCADSTD
 72
     1
 11
1252.5
 21
743.75
 31
0.0
100
AcDbText
  0
LINE
  5
539
100
AcDbEntity
  8
寸法
  6
CONTINUOUS
 62
     3
100
AcDbLine
 10
775.0
 20
738.5
 30
0.0
 11
1445.250006
 21
738.5
 31
0.0
  0
LINE
  5
53A
100
AcDbEntity
  8
寸法
  6
CONTINUOUS
 62
     3
100
AcDbLine
 10
775.0
 20
731.0
 30
0.0
 11
820.0
 21
738.5
 31
0.0
  0
LINE
  5
53B
100
AcDbEntity
  8
寸法
  6
CONTINUOUS
 62
     3
100
AcDbLine
 10
820.0
 20
738.5
 30
0.0
 11
775.0
 21
746.0
 31
0.0
  0
LINE
  5
53C
100
AcDbEntity
  8
寸法
  6
CONTINUOUS
 62
     3
100
AcDbLine
 10
1065.0
 20
746.0
 30
0.0
 11
1020.0
 21
738.5
 31
0.0
  0
LINE
  5
53D
100
AcDbEntity
  8
寸法
  6
CONTINUOUS
 62
     3
100
AcDbLine
 10
1020.0
 20
738.5
 30
0.0
 11
1065.0
 21
731.0
 31
0.0
  0
ENDBLK
  5
53E
100
AcDbEntity
  8
0
100
AcDbBlockEnd
  0
BLOCK
  5
543
100
AcDbEntity
  8
0
100
AcDbBlockBegin
  2
*D34
 70
    65
 10
0.0
 20
0.0
 30
0.0
  3
*D34
  1

  0
LINE
  5
544
100
AcDbEntity
  8
寸法
  6
CONTINUOUS
 62
     3
100
AcDbLine
 10
820.0
 20
3991.5
 30
0.0
 11
820.0
 21
4093.0
 31
0.0
  0
LINE
  5
545
100
AcDbEntity
  8
寸法
  6
CONTINUOUS
 62
     3
100
AcDbLine
 10
1020.0
 20
3991.5
 30
0.0
 11
1020.0
 21
4093.0
 31
0.0
  0
TEXT
  5
546
100
AcDbEntity
  8
寸法
  6
CONTINUOUS
 62
     2
100
AcDbText
 10
1095.0
 20
4083.25
 30
0.0
 40
60.0
  1
200（壁給水）
 41
0.84
  7
EXCADSTD
 72
     1
 11
1252.5
 21
4083.25
 31
0.0
100
AcDbText
  0
LINE
  5
547
100
AcDbEntity
  8
寸法
  6
CONTINUOUS
 62
     3
100
AcDbLine
 10
775.0
 20
4078.0
 30
0.0
 11
1445.250006
 21
4078.0
 31
0.0
  0
LINE
  5
548
100
AcDbEntity
  8
寸法
  6
CONTINUOUS
 62
     3
100
AcDbLine
 10
775.0
 20
4070.5
 30
0.0
 11
820.0
 21
4078.0
 31
0.0
  0
LINE
  5
549
100
AcDbEntity
  8
寸法
  6
CONTINUOUS
 62
     3
100
AcDbLine
 10
820.0
 20
4078.0
 30
0.0
 11
775.0
 21
4085.5
 31
0.0
  0
LINE
  5
54A
100
AcDbEntity
  8
寸法
  6
CONTINUOUS
 62
     3
100
AcDbLine
 10
1065.0
 20
4085.5
 30
0.0
 11
1020.0
 21
4078.0
 31
0.0
  0
LINE
  5
54B
100
AcDbEntity
  8
寸法
  6
CONTINUOUS
 62
     3
100
AcDbLine
 10
1020.0
 20
4078.0
 30
0.0
 11
1065.0
 21
4070.5
 31
0.0
  0
ENDBLK
  5
54C
100
AcDbEntity
  8
0
100
AcDbBlockEnd
  0
BLOCK
  5
54F
100
AcDbEntity
  8
0
100
AcDbBlockBegin
  2
*D35
 70
    65
 10
0.0
 20
0.0
 30
0.0
  3
*D35
  1

  0
LINE
  5
550
100
AcDbEntity
  8
寸法
  6
CONTINUOUS
 62
     3
100
AcDbLine
 10
590.0
 20
2707.5
 30
0.0
 11
590.0
 21
2848.5
 31
0.0
  0
LINE
  5
551
100
AcDbEntity
  8
寸法
  6
CONTINUOUS
 62
     3
100
AcDbLine
 10
1250.0
 20
2707.5
 30
0.0
 11
1250.0
 21
2848.5
 31
0.0
  0
TEXT
  5
552
100
AcDbEntity
  8
寸法
  6
CONTINUOUS
 62
     2
100
AcDbText
 10
762.5
 20
2838.75
 30
0.0
 40
60.0
  1
660（壁固定）
 41
0.84
  7
EXCADSTD
 72
     1
 11
920.0
 21
2838.75
 31
0.0
100
AcDbText
  0
LINE
  5
553
100
AcDbEntity
  8
寸法
  6
CONTINUOUS
 62
     3
100
AcDbLine
 10
590.0
 20
2833.5
 30
0.0
 11
1250.0
 21
2833.5
 31
0.0
  0
LINE
  5
554
100
AcDbEntity
  8
寸法
  6
CONTINUOUS
 62
     3
100
AcDbLine
 10
635.0
 20
2841.0
 30
0.0
 11
590.0
 21
2833.5
 31
0.0
  0
LINE
  5
555
100
AcDbEntity
  8
寸法
  6
CONTINUOUS
 62
     3
100
AcDbLine
 10
590.0
 20
2833.5
 30
0.0
 11
635.0
 21
2826.0
 31
0.0
  0
LINE
  5
556
100
AcDbEntity
  8
寸法
  6
CONTINUOUS
 62
     3
100
AcDbLine
 10
1205.0
 20
2826.0
 30
0.0
 11
1250.0
 21
2833.5
 31
0.0
  0
LINE
  5
557
100
AcDbEntity
  8
寸法
  6
CONTINUOUS
 62
     3
100
AcDbLine
 10
1250.0
 20
2833.5
 30
0.0
 11
1205.0
 21
2841.0
 31
0.0
  0
ENDBLK
  5
558
100
AcDbEntity
  8
0
100
AcDbBlockEnd
  0
BLOCK
  5
55B
100
AcDbEntity
  8
0
100
AcDbBlockBegin
  2
*D36
 70
    65
 10
0.0
 20
0.0
 30
0.0
  3
*D36
  1

  0
LINE
  5
55C
100
AcDbEntity
  8
寸法
  6
CONTINUOUS
 62
     3
100
AcDbLine
 10
625.0
 20
1827.5
 30
0.0
 11
625.0
 21
2127.0
 31
0.0
  0
LINE
  5
55D
100
AcDbEntity
  8
寸法
  6
CONTINUOUS
 62
     3
100
AcDbLine
 10
1215.0
 20
1827.5
 30
0.0
 11
1215.0
 21
2127.0
 31
0.0
  0
TEXT
  5
55E
100
AcDbEntity
  8
寸法
  6
CONTINUOUS
 62
     2
100
AcDbText
 10
762.5
 20
2117.25
 30
0.0
 40
60.0
  1
590（壁固定）
 41
0.84
  7
EXCADSTD
 72
     1
 11
920.0
 21
2117.25
 31
0.0
100
AcDbText
  0
LINE
  5
55F
100
AcDbEntity
  8
寸法
  6
CONTINUOUS
 62
     3
100
AcDbLine
 10
625.0
 20
2112.0
 30
0.0
 11
1215.0
 21
2112.0
 31
0.0
  0
LINE
  5
560
100
AcDbEntity
  8
寸法
  6
CONTINUOUS
 62
     3
100
AcDbLine
 10
670.0
 20
2119.5
 30
0.0
 11
625.0
 21
2112.0
 31
0.0
  0
LINE
  5
561
100
AcDbEntity
  8
寸法
  6
CONTINUOUS
 62
     3
100
AcDbLine
 10
625.0
 20
2112.0
 30
0.0
 11
670.0
 21
2104.5
 31
0.0
  0
LINE
  5
562
100
AcDbEntity
  8
寸法
  6
CONTINUOUS
 62
     3
100
AcDbLine
 10
1170.0
 20
2104.5
 30
0.0
 11
1215.0
 21
2112.0
 31
0.0
  0
LINE
  5
563
100
AcDbEntity
  8
寸法
  6
CONTINUOUS
 62
     3
100
AcDbLine
 10
1215.0
 20
2112.0
 30
0.0
 11
1170.0
 21
2119.5
 31
0.0
  0
ENDBLK
  5
564
100
AcDbEntity
  8
0
100
AcDbBlockEnd
  0
BLOCK
  5
567
100
AcDbEntity
  8
0
100
AcDbBlockBegin
  2
*D37
 70
    65
 10
0.0
 20
0.0
 30
0.0
  3
*D37
  1

  0
LINE
  5
568
100
AcDbEntity
  8
寸法
  6
CONTINUOUS
 62
     3
100
AcDbLine
 10
2508.0
 20
1808.5
 30
0.0
 11
2855.0
 21
1808.5
 31
0.0
  0
LINE
  5
569
100
AcDbEntity
  8
寸法
  6
CONTINUOUS
 62
     3
100
AcDbLine
 10
2508.0
 20
2688.5
 30
0.0
 11
2855.0
 21
2688.5
 31
0.0
  0
TEXT
  5
56A
100
AcDbEntity
  8
寸法
  6
CONTINUOUS
 62
     2
100
AcDbText
 10
2834.75
 20
2185.5
 30
0.0
 40
60.0
  1
880
 50
90.0
 41
0.84
  7
EXCADSTD
 72
     1
 11
2834.75
 21
2248.5
 31
0.0
100
AcDbText
  0
LINE
  5
56B
100
AcDbEntity
  8
寸法
  6
CONTINUOUS
 62
     3
100
AcDbLine
 10
2840.0
 20
1808.5
 30
0.0
 11
2840.0
 21
2688.5
 31
0.0
  0
LINE
  5
56C
100
AcDbEntity
  8
寸法
  6
CONTINUOUS
 62
     3
100
AcDbLine
 10
2832.5
 20
1853.5
 30
0.0
 11
2840.0
 21
1808.5
 31
0.0
  0
LINE
  5
56D
100
AcDbEntity
  8
寸法
  6
CONTINUOUS
 62
     3
100
AcDbLine
 10
2840.0
 20
1808.5
 30
0.0
 11
2847.5
 21
1853.5
 31
0.0
  0
LINE
  5
56E
100
AcDbEntity
  8
寸法
  6
CONTINUOUS
 62
     3
100
AcDbLine
 10
2847.5
 20
2643.5
 30
0.0
 11
2840.0
 21
2688.5
 31
0.0
  0
LINE
  5
56F
100
AcDbEntity
  8
寸法
  6
CONTINUOUS
 62
     3
100
AcDbLine
 10
2840.0
 20
2688.5
 30
0.0
 11
2832.5
 21
2643.5
 31
0.0
  0
ENDBLK
  5
570
100
AcDbEntity
  8
0
100
AcDbBlockEnd
  0
BLOCK
  5
573
100
AcDbEntity
  8
0
100
AcDbBlockBegin
  2
*D38
 70
    65
 10
0.0
 20
0.0
 30
0.0
  3
*D38
  1

  0
LINE
  5
574
100
AcDbEntity
  8
寸法
  6
CONTINUOUS
 62
     3
100
AcDbLine
 10
2313.74118
 20
2725.702357
 30
0.0
 11
2313.74118
 21
2848.5
 31
0.0
  0
TEXT
  5
575
100
AcDbEntity
  8
寸法
  6
CONTINUOUS
 62
     2
100
AcDbText
 10
2326.37059
 20
2838.75
 30
0.0
 40
60.0
  1
151
 41
0.84
  7
EXCADSTD
 72
     1
 11
2389.37059
 21
2838.75
 31
0.0
100
AcDbText
  0
LINE
  5
576
100
AcDbEntity
  8
寸法
  6
CONTINUOUS
 62
     3
100
AcDbLine
 10
2268.74118
 20
2833.5
 30
0.0
 11
2510.0
 21
2833.5
 31
0.0
  0
LINE
  5
577
100
AcDbEntity
  8
寸法
  6
CONTINUOUS
 62
     3
100
AcDbLine
 10
2268.74118
 20
2826.0
 30
0.0
 11
2313.74118
 21
2833.5
 31
0.0
  0
LINE
  5
578
100
AcDbEntity
  8
寸法
  6
CONTINUOUS
 62
     3
100
AcDbLine
 10
2313.74118
 20
2833.5
 30
0.0
 11
2268.74118
 21
2841.0
 31
0.0
  0
LINE
  5
579
100
AcDbEntity
  8
寸法
  6
CONTINUOUS
 62
     3
100
AcDbLine
 10
2510.0
 20
2841.0
 30
0.0
 11
2465.0
 21
2833.5
 31
0.0
  0
LINE
  5
57A
100
AcDbEntity
  8
寸法
  6
CONTINUOUS
 62
     3
100
AcDbLine
 10
2465.0
 20
2833.5
 30
0.0
 11
2510.0
 21
2826.0
 31
0.0
  0
ENDBLK
  5
57B
100
AcDbEntity
  8
0
100
AcDbBlockEnd
  0
ENDSEC
  0
SECTION
  2
ENTITIES
  0
LINE
  5
86
100
AcDbEntity
  8
枠・表
  6
CONTINUOUS
 62
     7
100
AcDbLine
 10
270.0
 20
202.5
 30
0.0
 11
3000.0
 21
202.5
 31
0.0
  0
LINE
  5
87
100
AcDbEntity
  8
枠・表
  6
CONTINUOUS
 62
     7
100
AcDbLine
 10
3000.0
 20
202.5
 30
0.0
 11
3000.0
 21
4327.5
 31
0.0
  0
LINE
  5
88
100
AcDbEntity
  8
枠・表
  6
CONTINUOUS
 62
     7
100
AcDbLine
 10
270.0
 20
202.5
 30
0.0
 11
270.0
 21
4327.5
 31
0.0
  0
LINE
  5
89
100
AcDbEntity
  8
枠・表
  6
CONTINUOUS
 62
     7
100
AcDbLine
 10
270.0
 20
4327.5
 30
0.0
 11
3000.0
 21
4327.5
 31
0.0
  0
LINE
  5
8A
100
AcDbEntity
  8
枠・表
  6
CONTINUOUS
 62
     7
100
AcDbLine
 10
270.0
 20
532.5
 30
0.0
 11
3000.0
 21
532.5
 31
0.0
  0
LINE
  5
8B
100
AcDbEntity
  8
枠・表
  6
CONTINUOUS
 62
     6
100
AcDbLine
 10
3000.0
 20
352.5
 30
0.0
 11
1125.0
 21
352.5
 31
0.0
  0
LINE
  5
8C
100
AcDbEntity
  8
枠・表
  6
CONTINUOUS
 62
     6
100
AcDbLine
 10
2790.0
 20
532.5
 30
0.0
 11
2790.0
 21
352.5
 31
0.0
  0
LINE
  5
8D
100
AcDbEntity
  8
枠・表
  6
CONTINUOUS
 62
     6
100
AcDbLine
 10
2715.0
 20
532.5
 30
0.0
 11
2715.0
 21
352.5
 31
0.0
  0
LINE
  5
8E
100
AcDbEntity
  8
枠・表
  6
CONTINUOUS
 62
     6
100
AcDbLine
 10
2160.0
 20
532.5
 30
0.0
 11
2160.0
 21
202.5
 31
0.0
  0
LINE
  5
8F
100
AcDbEntity
  8
枠・表
  6
CONTINUOUS
 62
     6
100
AcDbLine
 10
2085.0
 20
532.5
 30
0.0
 11
2085.0
 21
202.5
 31
0.0
  0
LINE
  5
90
100
AcDbEntity
  8
枠・表
  6
CONTINUOUS
 62
     6
100
AcDbLine
 10
1200.0
 20
532.5
 30
0.0
 11
1200.0
 21
352.5
 31
0.0
  0
LINE
  5
91
100
AcDbEntity
  8
枠・表
  6
CONTINUOUS
 62
     6
100
AcDbLine
 10
1125.0
 20
532.5
 30
0.0
 11
1125.0
 21
202.5
 31
0.0
  0
LINE
  5
92
100
AcDbEntity
  8
枠・表
  6
CONTINUOUS
 62
     6
100
AcDbLine
 10
930.0
 20
532.5
 30
0.0
 11
930.0
 21
202.5
 31
0.0
  0
LINE
  5
93
100
AcDbEntity
  8
枠・表
  6
CONTINUOUS
 62
     6
100
AcDbLine
 10
735.0
 20
532.5
 30
0.0
 11
735.0
 21
202.5
 31
0.0
  0
LINE
  5
94
100
AcDbEntity
  8
枠・表
  6
CONTINUOUS
 62
     6
100
AcDbLine
 10
502.5
 20
532.5
 30
0.0
 11
502.5
 21
202.5
 31
0.0
  0
LINE
  5
95
100
AcDbEntity
  8
枠・表
  6
CONTINUOUS
 62
     6
100
AcDbLine
 10
270.0
 20
457.5
 30
0.0
 11
1125.0
 21
457.5
 31
0.0
  0
LINE
  5
96
100
AcDbEntity
  8
枠・表
  6
CONTINUOUS
 62
     6
100
AcDbLine
 10
2838.980713
 20
387.004395
 30
0.0
 11
2954.990845
 21
505.049744
 31
0.0
  0
CIRCLE
  5
97
100
AcDbEntity
  8
枠・表
  6
CONTINUOUS
 62
     6
100
AcDbCircle
 10
345.0
 20
240.0
 30
0.0
 40
1.5
  0
CIRCLE
  5
98
100
AcDbEntity
  8
枠・表
  6
CONTINUOUS
 62
     6
100
AcDbCircle
 10
420.0
 20
240.0
 30
0.0
 40
1.5
  0
CIRCLE
  5
99
100
AcDbEntity
  8
枠・表
  6
CONTINUOUS
 62
     6
100
AcDbCircle
 10
577.5
 20
240.0
 30
0.0
 40
1.5
  0
CIRCLE
  5
9A
100
AcDbEntity
  8
枠・表
  6
CONTINUOUS
 62
     6
100
AcDbCircle
 10
652.5
 20
240.0
 30
0.0
 40
1.5
  0
LINE
  5
9B
100
AcDbEntity
  8
枠・表
  6
EXLTYPE2
 62
     6
100
AcDbLine
 10
270.0
 20
277.5
 30
0.0
 11
735.0
 21
277.5
 31
0.0
  0
TEXT
  5
9C
100
AcDbEntity
  8
枠・表
  6
CONTINUOUS
 62
     2
100
AcDbText
 10
2835.805664
 20
454.084167
 30
0.0
 40
45.0
  1
１
 41
0.826
  7
EXCADSTD
 72
     5
 11
2871.205665
 21
454.084167
 31
0.0
100
AcDbText
  0
TEXT
  5
9D
100
AcDbEntity
  8
枠・表
  6
CONTINUOUS
 62
     2
100
AcDbText
 10
2896.918945
 20
387.52327
 30
0.0
 40
45.0
  1
１５
 41
0.791
  7
EXCADSTD
 72
     5
 11
2974.600797
 21
387.52327
 31
0.0
100
AcDbText
  0
TEXT
  5
9E
100
AcDbEntity
  8
枠・表
  6
CONTINUOUS
 62
     2
100
AcDbText
 10
303.75
 20
463.125
 30
0.0
 40
63.75
  1
製図
 41
1.087059
  7
EXCADSTD
 72
     5
 11
454.989
 21
463.125
 31
0.0
100
AcDbText
  0
TEXT
  5
9F
100
AcDbEntity
  8
枠・表
  6
CONTINUOUS
 62
     2
100
AcDbText
 10
536.25
 20
463.125
 30
0.0
 40
63.75
  1
写図
 41
1.087059
  7
EXCADSTD
 72
     5
 11
687.489
 21
463.125
 31
0.0
100
AcDbText
  0
TEXT
  5
A0
100
AcDbEntity
  8
枠・表
  6
CONTINUOUS
 62
     2
100
AcDbText
 10
761.25
 20
463.125
 30
0.0
 40
63.75
  1
検図
 41
0.938824
  7
EXCADSTD
 72
     5
 11
891.8655
 21
463.125
 31
0.0
100
AcDbText
  0
TEXT
  5
A1
100
AcDbEntity
  8
枠・表
  6
CONTINUOUS
 62
     2
100
AcDbText
 10
956.25
 20
463.125
 30
0.0
 40
63.75
  1
承認
 41
0.938824
  7
EXCADSTD
 72
     5
 11
1086.8655
 21
463.125
 31
0.0
100
AcDbText
  0
TEXT
  5
A2
100
AcDbEntity
  8
枠・表
  6
CONTINUOUS
 62
     2
100
AcDbText
 10
1133.625
 20
448.125
 30
0.0
 40
63.75
  1
品
 41
0.84
  7
EXCADSTD
 72
     5
 11
1184.625
 21
448.125
 31
0.0
100
AcDbText
  0
TEXT
  5
A3
100
AcDbEntity
  8
枠・表
  6
CONTINUOUS
 62
     2
100
AcDbText
 10
1133.625
 20
373.125
 30
0.0
 40
63.75
  1
名
 41
0.84
  7
EXCADSTD
 72
     5
 11
1184.625
 21
373.125
 31
0.0
100
AcDbText
  0
TEXT
  5
A4
100
AcDbEntity
  8
枠・表
  6
CONTINUOUS
 62
     2
100
AcDbText
 10
2093.625
 20
448.125
 30
0.0
 40
63.75
  1
品
 41
0.84
  7
EXCADSTD
 72
     5
 11
2144.625
 21
448.125
 31
0.0
100
AcDbText
  0
TEXT
  5
A5
100
AcDbEntity
  8
枠・表
  6
CONTINUOUS
 62
     2
100
AcDbText
 10
2093.625
 20
373.125
 30
0.0
 40
63.75
  1
番
 41
0.84
  7
EXCADSTD
 72
     5
 11
2144.625
 21
373.125
 31
0.0
100
AcDbText
  0
TEXT
  5
A6
100
AcDbEntity
  8
枠・表
  6
CONTINUOUS
 62
     2
100
AcDbText
 10
2725.125
 20
448.125
 30
0.0
 40
63.75
  1
尺
 41
0.84
  7
EXCADSTD
 72
     5
 11
2776.125
 21
448.125
 31
0.0
100
AcDbText
  0
TEXT
  5
A7
100
AcDbEntity
  8
枠・表
  6
CONTINUOUS
 62
     2
100
AcDbText
 10
2725.125
 20
373.125
 30
0.0
 40
63.75
  1
度
 41
0.84
  7
EXCADSTD
 72
     5
 11
2776.125
 21
373.125
 31
0.0
100
AcDbText
  0
TEXT
  5
A8
100
AcDbEntity
  8
枠・表
  6
CONTINUOUS
 62
     2
100
AcDbText
 10
2093.625
 20
278.625
 30
0.0
 40
63.75
  1
図
 41
0.84
  7
EXCADSTD
 72
     5
 11
2144.625
 21
278.625
 31
0.0
100
AcDbText
  0
TEXT
  5
A9
100
AcDbEntity
  8
枠・表
  6
CONTINUOUS
 62
     2
100
AcDbText
 10
2093.625
 20
214.125
 30
0.0
 40
63.75
  1
番
 41
0.84
  7
EXCADSTD
 72
     5
 11
2144.625
 21
214.125
 31
0.0
100
AcDbText
  0
TEXT
  5
AA
100
AcDbEntity
  8
枠・表
  6
CONTINUOUS
 62
     2
100
AcDbText
 10
1215.0
 20
442.5
 30
0.0
 40
75.0
  1
750㎜幅
 41
0.72072
  7
EXCADSTD
 72
     5
 11
1503.75
 21
442.5
 31
0.0
100
AcDbText
  0
TEXT
  5
AB
100
AcDbEntity
  8
枠・表
  6
CONTINUOUS
 62
     2
100
AcDbText
 10
1215.0
 20
367.5
 30
0.0
 40
75.0
  1
　洗面化粧ユニット
 41
0.924
  7
EXCADSTD
 72
     5
 11
1957.5
 21
367.5
 31
0.0
100
AcDbText
  0
LINE
  5
AC
100
AcDbEntity
  8
枠・表
  6
CONTINUOUS
 62
     6
100
AcDbLine
 10
1875.0
 20
4282.5
 30
0.0
 11
2925.0
 21
4282.5
 31
0.0
  0
LINE
  5
AD
100
AcDbEntity
  8
枠・表
  6
CONTINUOUS
 62
     6
100
AcDbLine
 10
1875.0
 20
4200.0
 30
0.0
 11
2925.0
 21
4200.0
 31
0.0
  0
TEXT
  5
AE
100
AcDbEntity
  8
枠・表
  6
CONTINUOUS
 62
     2
100
AcDbText
 10
1995.0
 20
4211.25
 30
0.0
 40
60.0
  1
品番
 41
1.47
  7
EXCADSTD
 72
     5
 11
2187.486
 21
4211.25
 31
0.0
100
AcDbText
  0
TEXT
  5
AF
100
AcDbEntity
  8
枠・表
  6
CONTINUOUS
 62
     2
100
AcDbText
 10
2445.0
 20
4211.25
 30
0.0
 40
60.0
  1
品名
 41
1.47
  7
EXCADSTD
 72
     5
 11
2637.486
 21
4211.25
 31
0.0
100
AcDbText
  0
TEXT
  5
B0
100
AcDbEntity
  8
枠・表
  6
CONTINUOUS
 62
     2
100
AcDbText
 10
2788.5
 20
4211.25
 30
0.0
 40
60.0
  1
個数
 41
0.861
  7
EXCADSTD
 72
     5
 11
2901.2418
 21
4211.25
 31
0.0
100
AcDbText
  0
TEXT
  5
B1
100
AcDbEntity
  8
枠・表
  6
CONTINUOUS
 62
     2
100
AcDbText
 10
2340.0
 20
4128.75
 30
0.0
 40
60.0
  1
洗面化粧台
 41
0.8106
  7
EXCADSTD
 72
     5
 11
2629.499999
 21
4128.75
 31
0.0
100
AcDbText
  0
TEXT
  5
B2
100
AcDbEntity
  8
枠・表
  6
CONTINUOUS
 62
     2
100
AcDbText
 10
2340.0
 20
3963.75
 30
0.0
 40
60.0
  1
化粧鏡台
 41
0.819
  7
EXCADSTD
 72
     5
 11
2573.999999
 21
3963.75
 31
0.0
100
AcDbText
  0
TEXT
  5
B3
100
AcDbEntity
  8
枠・表
  6
CONTINUOUS
 62
     2
100
AcDbText
 10
2816.25
 20
3963.75
 30
0.0
 40
60.0
  1
１
 41
0.945
  7
EXCADSTD
 72
     5
 11
2870.25
 21
3963.75
 31
0.0
100
AcDbText
  0
LINE
  5
B4
100
AcDbEntity
  8
枠・表
  6
CONTINUOUS
 62
     6
100
AcDbLine
 10
1875.0
 20
3870.0
 30
0.0
 11
2925.0
 21
3870.0
 31
0.0
  0
LINE
  5
B5
100
AcDbEntity
  8
枠・表
  6
CONTINUOUS
 62
     6
100
AcDbLine
 10
1875.0
 20
3952.5
 30
0.0
 11
2925.0
 21
3952.5
 31
0.0
  0
LINE
  5
B6
100
AcDbEntity
  8
枠・表
  6
CONTINUOUS
 62
     6
100
AcDbLine
 10
1875.0
 20
3705.0
 30
0.0
 11
2925.0
 21
3705.0
 31
0.0
  0
TEXT
  5
B7
100
AcDbEntity
  8
枠・表
  6
CONTINUOUS
 62
     2
100
AcDbText
 10
1890.0
 20
3716.25
 30
0.0
 40
60.0
  1
ＮＬ２２１-７５ＷＭＹ
 41
0.49719
  7
EXCADSTD
 72
     5
 11
2274.000006
 21
3716.25
 31
0.0
100
AcDbText
  0
TEXT
  5
B8
100
AcDbEntity
  8
枠・表
  6
CONTINUOUS
 62
     2
100
AcDbText
 10
2816.25
 20
3716.25
 30
0.0
 40
60.0
  1
２
 41
0.945
  7
EXCADSTD
 72
     5
 11
2870.25
 21
3716.25
 31
0.0
100
AcDbText
  0
LINE
  5
B9
100
AcDbEntity
  8
枠・表
  6
CONTINUOUS
 62
     6
100
AcDbLine
 10
1875.0
 20
3787.5
 30
0.0
 11
2925.0
 21
3787.5
 31
0.0
  0
LINE
  5
BA
100
AcDbEntity
  8
枠・表
  6
CONTINUOUS
 62
     6
100
AcDbLine
 10
1875.0
 20
3705.0
 30
0.0
 11
1875.0
 21
3870.0
 31
0.0
  0
LINE
  5
BB
100
AcDbEntity
  8
枠・表
  6
CONTINUOUS
 62
     6
100
AcDbLine
 10
2325.0
 20
3705.0
 30
0.0
 11
2325.0
 21
3870.0
 31
0.0
  0
LINE
  5
BC
100
AcDbEntity
  8
枠・表
  6
CONTINUOUS
 62
     6
100
AcDbLine
 10
2775.0
 20
3705.0
 30
0.0
 11
2775.0
 21
3870.0
 31
0.0
  0
LINE
  5
BD
100
AcDbEntity
  8
枠・表
  6
CONTINUOUS
 62
     6
100
AcDbLine
 10
2925.0
 20
3705.0
 30
0.0
 11
2925.0
 21
3870.0
 31
0.0
  0
TEXT
  5
BE
100
AcDbEntity
  8
枠・表
  6
CONTINUOUS
 62
     2
100
AcDbText
 10
2816.25
 20
3798.75
 30
0.0
 40
60.0
  1
２
 41
0.945
  7
EXCADSTD
 72
     5
 11
2870.25
 21
3798.75
 31
0.0
100
AcDbText
  0
TEXT
  5
BF
100
AcDbEntity
  8
枠・表
  6
CONTINUOUS
 62
     2
100
AcDbText
 10
1890.0
 20
3881.25
 30
0.0
 40
60.0
  1
止水栓手配品番（アングル形の場合）
 41
0.681882
  7
EXCADSTD
 72
     5
 11
2717.999997
 21
3881.25
 31
0.0
100
AcDbText
  0
LINE
  5
C0
100
AcDbEntity
  8
枠・表
  6
CONTINUOUS
 62
     6
100
AcDbLine
 10
1875.0
 20
3622.5
 30
0.0
 11
2925.0
 21
3622.5
 31
0.0
  0
TEXT
  5
C1
100
AcDbEntity
  8
枠・表
  6
CONTINUOUS
 62
     2
100
AcDbText
 10
1890.0
 20
3551.25
 30
0.0
 40
60.0
  1
ＮＬ３０Ｓ４０
 41
0.528
  7
EXCADSTD
 72
     5
 11
2154.000004
 21
3551.25
 31
0.0
100
AcDbText
  0
LINE
  5
C2
100
AcDbEntity
  8
枠・表
  6
CONTINUOUS
 62
     6
100
AcDbLine
 10
1875.0
 20
3457.5
 30
0.0
 11
2925.0
 21
3457.5
 31
0.0
  0
TEXT
  5
C3
100
AcDbEntity
  8
枠・表
  6
CONTINUOUS
 62
     2
100
AcDbText
 10
2816.25
 20
3468.75
 30
0.0
 40
60.0
  1
２
 41
0.945
  7
EXCADSTD
 72
     5
 11
2870.25
 21
3468.75
 31
0.0
100
AcDbText
  0
LINE
  5
C4
100
AcDbEntity
  8
枠・表
  6
CONTINUOUS
 62
     6
100
AcDbLine
 10
1875.0
 20
3540.0
 30
0.0
 11
2925.0
 21
3540.0
 31
0.0
  0
LINE
  5
C5
100
AcDbEntity
  8
枠・表
  6
CONTINUOUS
 62
     6
100
AcDbLine
 10
1875.0
 20
3457.5
 30
0.0
 11
1875.0
 21
3622.5
 31
0.0
  0
LINE
  5
C6
100
AcDbEntity
  8
枠・表
  6
CONTINUOUS
 62
     6
100
AcDbLine
 10
2325.0
 20
3457.5
 30
0.0
 11
2325.0
 21
3622.5
 31
0.0
  0
LINE
  5
C7
100
AcDbEntity
  8
枠・表
  6
CONTINUOUS
 62
     6
100
AcDbLine
 10
2775.0
 20
3457.5
 30
0.0
 11
2775.0
 21
3622.5
 31
0.0
  0
LINE
  5
C8
100
AcDbEntity
  8
枠・表
  6
CONTINUOUS
 62
     6
100
AcDbLine
 10
2925.0
 20
3457.5
 30
0.0
 11
2925.0
 21
3622.5
 31
0.0
  0
TEXT
  5
C9
100
AcDbEntity
  8
枠・表
  6
CONTINUOUS
 62
     2
100
AcDbText
 10
2816.25
 20
3551.25
 30
0.0
 40
60.0
  1
２
 41
0.945
  7
EXCADSTD
 72
     5
 11
2870.25
 21
3551.25
 31
0.0
100
AcDbText
  0
TEXT
  5
CA
100
AcDbEntity
  8
枠・表
  6
CONTINUOUS
 62
     2
100
AcDbText
 10
1890.0
 20
3633.75
 30
0.0
 40
60.0
  1
止水栓手配品番（ストレート形の場合）
 41
0.681333
  7
EXCADSTD
 72
     5
 11
2765.999997
 21
3633.75
 31
0.0
100
AcDbText
  0
TEXT
  5
CB
100
AcDbEntity
  8
枠・表
  6
CONTINUOUS
 62
     2
100
AcDbText
 10
1890.0
 20
3468.75
 30
0.0
 40
60.0
  1
ＮＬ２１１-３３０ＷＭＹ
 41
0.518222
  7
EXCADSTD
 72
     5
 11
2327.24999
 21
3468.75
 31
0.0
100
AcDbText
  0
TEXT
  5
CC
100
AcDbEntity
  8
枠・表
  6
CONTINUOUS
 62
     2
100
AcDbText
 10
2340.0
 20
3468.75
 30
0.0
 40
60.0
  1
ストレート形止水栓（共用形）
 41
0.435
  7
EXCADSTD
 72
     5
 11
2775.00005
 21
3468.75
 31
0.0
100
AcDbText
  0
TEXT
  5
CD
100
AcDbEntity
  8
枠・表
  6
CONTINUOUS
 62
     2
100
AcDbText
 10
2340.0
 20
3551.25
 30
0.0
 40
60.0
  1
フレキシブルパイプ
 41
0.648667
  7
EXCADSTD
 72
     5
 11
2756.999992
 21
3551.25
 31
0.0
100
AcDbText
  0
TEXT
  5
CE
100
AcDbEntity
  8
枠・表
  6
CONTINUOUS
 62
     2
100
AcDbText
 10
2341.5
 20
4046.25
 30
0.0
 40
60.0
  1
洗面化粧台・寒冷地
 41
0.651
  7
EXCADSTD
 72
     5
 11
2760.000016
 21
4046.25
 31
0.0
100
AcDbText
  0
LINE
  5
CF
100
AcDbEntity
  8
枠・表
  6
CONTINUOUS
 62
     6
100
AcDbLine
 10
1875.0
 20
4117.5
 30
0.0
 11
2775.0
 21
4117.5
 31
0.0
  0
TEXT
  5
D0
100
AcDbEntity
  8
枠・表
  6
CONTINUOUS
 62
     2
100
AcDbText
 10
2816.25
 20
4087.5
 30
0.0
 40
60.0
  1
１
 41
0.945
  7
EXCADSTD
 72
     5
 11
2870.25
 21
4087.5
 31
0.0
100
AcDbText
  0
LINE
  5
D1
100
AcDbEntity
  8
枠・表
  6
CONTINUOUS
 62
     6
100
AcDbLine
 10
1875.0
 20
3952.5
 30
0.0
 11
1875.0
 21
4282.5
 31
0.0
  0
LINE
  5
D2
100
AcDbEntity
  8
枠・表
  6
CONTINUOUS
 62
     6
100
AcDbLine
 10
2325.0
 20
3952.5
 30
0.0
 11
2325.0
 21
4282.5
 31
0.0
  0
LINE
  5
D3
100
AcDbEntity
  8
枠・表
  6
CONTINUOUS
 62
     6
100
AcDbLine
 10
2775.0
 20
3952.5
 30
0.0
 11
2775.0
 21
4282.5
 31
0.0
  0
LINE
  5
D4
100
AcDbEntity
  8
枠・表
  6
CONTINUOUS
 62
     6
100
AcDbLine
 10
2925.0
 20
3952.5
 30
0.0
 11
2925.0
 21
4282.5
 31
0.0
  0
LINE
  5
D5
100
AcDbEntity
  8
枠・表
  6
CONTINUOUS
 62
     6
100
AcDbLine
 10
1875.0
 20
4035.0
 30
0.0
 11
2925.0
 21
4035.0
 31
0.0
  0
TEXT
  5
D6
100
AcDbEntity
  8
枠・表
  6
CONTINUOUS
 62
     2
100
AcDbText
 10
1890.0
 20
3798.75
 30
0.0
 40
60.0
  1
ＮＬ３０Ｓ４０
 41
0.528
  7
EXCADSTD
 72
     5
 11
2154.000004
 21
3798.75
 31
0.0
100
AcDbText
  0
TEXT
  5
D7
100
AcDbEntity
  8
枠・表
  6
CONTINUOUS
 62
     2
100
AcDbText
 10
276.75
 20
210.0
 30
0.0
 40
60.0
  1
09
 41
0.5
  7
EXCADSTD
 72
     5
 11
324.75
 21
210.0
 31
0.0
100
AcDbText
  0
TEXT
  5
D8
100
AcDbEntity
  8
枠・表
  6
CONTINUOUS
 62
     2
100
AcDbText
 10
352.5
 20
210.0
 30
0.0
 40
60.0
  1
10
 41
0.5
  7
EXCADSTD
 72
     5
 11
400.5
 21
210.0
 31
0.0
100
AcDbText
  0
TEXT
  5
D9
100
AcDbEntity
  8
枠・表
  6
CONTINUOUS
 62
     2
100
AcDbText
 10
445.125
 20
210.0
 30
0.0
 40
60.0
  1
5
 41
0.5625
  7
EXCADSTD
 72
     5
 11
467.0625
 21
210.0
 31
0.0
100
AcDbText
  0
TEXT
  5
DA
100
AcDbEntity
  8
枠・表
  6
CONTINUOUS
 62
     2
100
AcDbText
 10
311.25
 20
330.0
 30
0.0
 40
75.0
  1
中村
 41
0.882
  7
EXCADSTD
 72
     5
 11
455.6145
 21
330.0
 31
0.0
100
AcDbText
  0
TEXT
  5
DB
100
AcDbEntity
  8
枠・表
  6
CONTINUOUS
 62
     2
100
AcDbText
 10
2340.0
 20
3798.75
 30
0.0
 40
60.0
  1
フレキシブルパイプ
 41
0.648667
  7
EXCADSTD
 72
     5
 11
2756.999992
 21
3798.75
 31
0.0
100
AcDbText
  0
TEXT
  5
DC
100
AcDbEntity
  8
枠・表
  6
CONTINUOUS
 62
     2
100
AcDbText
 10
2340.0
 20
3716.25
 30
0.0
 40
60.0
  1
アングル形止水栓（共用形）
 41
0.474923
  7
EXCADSTD
 72
     5
 11
2780.999998
 21
3716.25
 31
0.0
100
AcDbText
  0
TEXT
  5
DD
100
AcDbEntity
  8
枠・表
  6
CONTINUOUS
 62
     2
100
AcDbText
 10
1890.0
 20
4128.75
 30
0.0
 40
60.0
  1
ＬＵ７５１ＲＳＤ
 41
0.525
  7
EXCADSTD
 72
     5
 11
2190.000004
 21
4128.75
 31
0.0
100
AcDbText
  0
TEXT
  5
DE
100
AcDbEntity
  8
枠・表
  6
CONTINUOUS
 62
     2
100
AcDbText
 10
1890.0
 20
4046.25
 30
0.0
 40
60.0
  1
ＬＵ７５１ＲＳＤＹ
 41
0.522667
  7
EXCADSTD
 72
     5
 11
2226.000005
 21
4046.25
 31
0.0
100
AcDbText
  0
TEXT
  5
DF
100
AcDbEntity
  8
枠・表
  6
CONTINUOUS
 62
     2
100
AcDbText
 10
1890.0
 20
3963.75
 30
0.0
 40
60.0
  1
ＬＵＭ７５１Ｋ（Ｈ）
 41
0.5208
  7
EXCADSTD
 72
     5
 11
2262.000006
 21
3963.75
 31
0.0
100
AcDbText
  0
TEXT
  5
E0
100
AcDbEntity
  8
枠・表
  6
CONTINUOUS
 62
     2
100
AcDbText
 10
2175.0
 20
442.5
 30
0.0
 40
75.0
  1
ＬＵ７５１ＲＳＤ（Ｙ）
 41
0.519273
  7
EXCADSTD
 72
     5
 11
2685.0
 21
442.5
 31
0.0
100
AcDbText
  0
TEXT
  5
E1
100
AcDbEntity
  8
枠・表
  6
CONTINUOUS
 62
     2
100
AcDbText
 10
2175.0
 20
367.5
 30
0.0
 40
75.0
  1
ＬＵＭ７５１Ｋ（Ｈ）
 41
0.5208
  7
EXCADSTD
 72
     5
 11
2640.0
 21
367.5
 31
0.0
100
AcDbText
  0
TEXT
  5
E2
100
AcDbEntity
  8
枠・表
  6
CONTINUOUS
 62
     2
100
AcDbText
 10
1905.0
 20
3381.0
 30
0.0
 40
52.5
  1
※止水栓・フレキシブルパイプは別途
 41
0.659294
  7
EXCADSTD
 72
     5
 11
2605.499997
 21
3381.0
 31
0.0
100
AcDbText
  0
TEXT
  5
E3
100
AcDbEntity
  8
枠・表
  6
CONTINUOUS
 62
     2
100
AcDbText
 10
1905.0
 20
3328.5
 30
0.0
 40
52.5
  1
※化粧鏡台
 41
0.6864
  7
EXCADSTD
 72
     5
 11
2119.499999
 21
3328.5
 31
0.0
100
AcDbText
  0
TEXT
  5
E4
100
AcDbEntity
  8
枠・表
  6
CONTINUOUS
 62
     2
100
AcDbText
 10
1905.0
 20
3276.0
 30
0.0
 40
52.5
  1
・電源：１００Ｖ，５０/６０Ｈｚ
 41
0.641295
  7
EXCADSTD
 72
     5
 11
2538.749997
 21
3276.0
 31
0.0
100
AcDbText
  0
TEXT
  5
E5
100
AcDbEntity
  8
枠・表
  6
CONTINUOUS
 62
     2
100
AcDbText
 10
1905.0
 20
3223.5
 30
0.0
 40
52.5
  1
・コンセント容量：１２００Ｗ
 41
0.661714
  7
EXCADSTD
 72
     5
 11
2483.999998
 21
3223.5
 31
0.0
100
AcDbText
  0
TEXT
  5
E6
100
AcDbEntity
  8
枠・表
  6
CONTINUOUS
 62
     2
100
AcDbText
 10
1905.0
 20
3171.0
 30
0.0
 40
52.5
  1
・電源コードの取出しは、左右及び上側
 41
0.658667
  7
EXCADSTD
 72
     5
 11
2645.999997
 21
3171.0
 31
0.0
100
AcDbText
  0
TEXT
  5
E7
100
AcDbEntity
  8
枠・表
  6
CONTINUOUS
 62
     2
100
AcDbText
 10
1905.0
 20
3118.5
 30
0.0
 40
52.5
  1
・品番末尾にＨの付く場合は、くもり止めヒーター付　
 41
0.65568
  7
EXCADSTD
 72
     5
 11
2929.499996
 21
3118.5
 31
0.0
100
AcDbText
  0
TEXT
  5
E8
100
AcDbEntity
  8
枠・表
  6
CONTINUOUS
 62
     7
100
AcDbText
 10
2178.000003
 20
227.25
 30
0.0
 40
105.0
  1
ＬＵ３１６７７０
 41
0.804
  7
EXCADSTD
 72
     5
 11
2981.999997
 21
227.25
 31
0.0
100
AcDbText
  0
TEXT
  5
EA
100
AcDbEntity
  8
枠・表
  6
CONTINUOUS
 62
     2
100
AcDbText
 10
1155.0
 20
232.5
 30
0.0
 40
67.5
  1
ジャニス工業株式会社
 41
1.0
  7
EXCADTTF1
 72
     5
 11
2055.0
 21
232.5
 31
0.0
100
AcDbText
  0
LINE
  5
EB
100
AcDbEntity
  8
枠・表
  6
EXLTYPE2
 62
     1
100
AcDbLine
 10
270.0
 20
2265.0
 30
0.0
 11
15.0
 21
2265.0
 31
0.0
  0
POLYLINE
  5
EC
100
AcDbEntity
  8
化粧台
  6
CONTINUOUS
 62
     3
100
AcDb2dPolyline
 66
     1
 10
0.0
 20
0.0
 30
0.0
 70
   128
  0
VERTEX
  5
ED
100
AcDbEntity
  8
化粧台
  6
CONTINUOUS
 62
     3
100
AcDbVertex
100
AcDb2dVertex
 10
1452.0
 20
3973.0
 30
0.0
  0
VERTEX
  5
EE
100
AcDbEntity
  8
化粧台
  6
CONTINUOUS
 62
     3
100
AcDbVertex
100
AcDb2dVertex
 10
1475.0
 20
3923.5
 30
0.0
  0
SEQEND
  5
EF
100
AcDbEntity
  8
化粧台
  6
CONTINUOUS
 62
     3
  0
LINE
  5
F0
100
AcDbEntity
  8
化粧台
  6
CONTINUOUS
 62
     3
100
AcDbLine
 10
1477.763749
 20
3935.350575
 30
0.0
 11
1452.0
 21
3973.0
 31
0.0
  0
LINE
  5
F1
100
AcDbEntity
  8
化粧台
  6
CONTINUOUS
 62
     3
100
AcDbLine
 10
1452.0
 20
3973.0
 30
0.0
 11
1464.16049
 21
3929.029868
 31
0.0
  0
POLYLINE
  5
F2
100
AcDbEntity
  8
化粧台
  6
CONTINUOUS
 62
     3
100
AcDb2dPolyline
 66
     1
 10
0.0
 20
0.0
 30
0.0
 70
   128
  0
VERTEX
  5
F3
100
AcDbEntity
  8
化粧台
  6
CONTINUOUS
 62
     3
100
AcDbVertex
100
AcDb2dVertex
 10
2465.0
 20
2935.0
 30
0.0
  0
VERTEX
  5
F4
100
AcDbEntity
  8
化粧台
  6
CONTINUOUS
 62
     3
100
AcDbVertex
100
AcDb2dVertex
 10
2419.0
 20
2955.0
 30
0.0
  0
SEQEND
  5
F5
100
AcDbEntity
  8
化粧台
  6
CONTINUOUS
 62
     3
  0
LINE
  5
F6
100
AcDbEntity
  8
化粧台
  6
CONTINUOUS
 62
     3
100
AcDbLine
 10
2420.741402
 20
2946.06465
 30
0.0
 11
2465.0
 21
2935.0
 31
0.0
  0
LINE
  5
F7
100
AcDbEntity
  8
化粧台
  6
CONTINUOUS
 62
     3
100
AcDbLine
 10
2465.0
 20
2935.0
 30
0.0
 11
2426.722293
 21
2959.8207
 31
0.0
  0
POLYLINE
  5
F8
100
AcDbEntity
  8
化粧台
  6
CONTINUOUS
 62
     3
100
AcDb2dPolyline
 66
     1
 10
0.0
 20
0.0
 30
0.0
 70
   128
  0
VERTEX
  5
F9
100
AcDbEntity
  8
化粧台
  6
CONTINUOUS
 62
     3
100
AcDbVertex
100
AcDb2dVertex
 10
1963.0
 20
948.5
 30
0.0
  0
VERTEX
  5
FA
100
AcDbEntity
  8
化粧台
  6
CONTINUOUS
 62
     3
100
AcDbVertex
100
AcDb2dVertex
 10
1944.0
 20
997.5
 30
0.0
  0
SEQEND
  5
FB
100
AcDbEntity
  8
化粧台
  6
CONTINUOUS
 62
     3
  0
LINE
  5
FC
100
AcDbEntity
  8
化粧台
  6
CONTINUOUS
 62
     3
100
AcDbLine
 10
1939.738537
 20
987.7448
 30
0.0
 11
1963.0
 21
948.5
 31
0.0
  0
LINE
  5
FD
100
AcDbEntity
  8
化粧台
  6
CONTINUOUS
 62
     3
100
AcDbLine
 10
1963.0
 20
948.5
 30
0.0
 11
1953.723956
 21
993.167718
 31
0.0
  0
LINE
  5
FE
100
AcDbEntity
  8
化粧台
  6
EXLTYPE4
 62
     6
100
AcDbLine
 10
333.0
 20
3973.0
 30
0.0
 11
1593.0
 21
3973.0
 31
0.0
  0
TEXT
  5
FF
100
AcDbEntity
  8
化粧台
  6
CONTINUOUS
 62
     2
100
AcDbText
 10
1494.000001
 20
3913.0
 30
0.0
 40
60.0
  1
W.L.
 41
0.4125
  7
EXCADSTD
 72
     5
 11
1584.7434
 21
3913.0
 31
0.0
100
AcDbText
  0
LINE
  5
100
100
AcDbEntity
  8
化粧台
  6
EXLTYPE4
 62
     6
100
AcDbLine
 10
1729.0
 20
948.5
 30
0.0
 11
320.0
 21
948.5
 31
0.0
  0
LINE
  5
101
100
AcDbEntity
  8
化粧台
  6
EXLTYPE4
 62
     6
100
AcDbLine
 10
2465.0
 20
948.5
 30
0.0
 11
1836.5
 21
948.5
 31
0.0
  0
TEXT
  5
102
100
AcDbEntity
  8
化粧台
  6
CONTINUOUS
 62
     2
100
AcDbText
 10
1836.5
 20
948.5
 30
0.0
 40
60.0
  1
F.L.
 41
0.4125
  7
EXCADSTD
 72
     5
 11
1927.2434
 21
948.5
 31
0.0
100
AcDbText
  0
TEXT
  5
103
100
AcDbEntity
  8
化粧台
  6
CONTINUOUS
 62
     2
100
AcDbText
 10
2465.0
 20
2971.000001
 30
0.0
 40
60.0
  1
W.L.
 50
90.0
 41
0.4125
  7
EXCADSTD
 72
     5
 11
2465.0
 21
3061.7434
 31
0.0
100
AcDbText
  0
LINE
  5
104
100
AcDbEntity
  8
化粧台
  6
EXLTYPE4
 62
     6
100
AcDbLine
 10
2465.0
 20
948.5
 30
0.0
 11
2465.0
 21
3069.0
 31
0.0
  0
ARC
  5
105
100
AcDbEntity
  8
化粧台
  6
CONTINUOUS
 62
     2
100
AcDbCircle
 10
1290.0
 20
3955.0
 30
0.0
 40
5.0
100
AcDbArc
 50
270.0
 51
0.0
  0
ARC
  5
106
100
AcDbEntity
  8
化粧台
  6
CONTINUOUS
 62
     2
100
AcDbCircle
 10
550.0
 20
3955.0
 30
0.0
 40
5.0
100
AcDbArc
 50
180.0
 51
270.0
  0
LINE
  5
107
100
AcDbEntity
  8
化粧台
  6
CONTINUOUS
 62
     2
100
AcDbLine
 10
545.0
 20
3973.0
 30
0.0
 11
1295.0
 21
3973.0
 31
0.0
  0
LINE
  5
108
100
AcDbEntity
  8
化粧台
  6
CONTINUOUS
 62
     2
100
AcDbLine
 10
550.0
 20
3950.0
 30
0.0
 11
1290.0
 21
3950.0
 31
0.0
  0
LINE
  5
109
100
AcDbEntity
  8
化粧台
  6
CONTINUOUS
 62
     2
100
AcDbLine
 10
545.0
 20
3973.0
 30
0.0
 11
545.0
 21
3522.598405
 31
0.0
  0
LINE
  5
10A
100
AcDbEntity
  8
化粧台
  6
CONTINUOUS
 62
     2
100
AcDbLine
 10
1295.0
 20
3973.0
 30
0.0
 11
1295.0
 21
3522.598405
 31
0.0
  0
LINE
  5
10B
100
AcDbEntity
  8
化粧台
  6
CONTINUOUS
 62
     2
100
AcDbLine
 10
590.0
 20
3946.0
 30
0.0
 11
590.0
 21
3566.715899
 31
0.0
  0
LINE
  5
10C
100
AcDbEntity
  8
化粧台
  6
CONTINUOUS
 62
     2
100
AcDbLine
 10
1250.0
 20
3946.0
 30
0.0
 11
1250.0
 21
3566.715899
 31
0.0
  0
ARC
  5
10D
100
AcDbEntity
  8
化粧台
  6
CONTINUOUS
 62
     2
100
AcDbCircle
 10
550.0
 20
3522.598405
 30
0.0
 40
5.0
100
AcDbArc
 50
180.0
 51
262.392898
  0
ARC
  5
10E
100
AcDbEntity
  8
化粧台
  6
CONTINUOUS
 62
     2
100
AcDbCircle
 10
920.0
 20
6293.0
 30
0.0
 40
2800.0
100
AcDbArc
 50
262.392898
 51
277.607102
  0
ARC
  5
10F
100
AcDbEntity
  8
化粧台
  6
CONTINUOUS
 62
     2
100
AcDbCircle
 10
1290.0
 20
3522.598405
 30
0.0
 40
5.0
100
AcDbArc
 50
277.607102
 51
0.0
  0
ARC
  5
110
100
AcDbEntity
  8
化粧台
  6
CONTINUOUS
 62
     2
100
AcDbCircle
 10
600.0
 20
3566.715899
 30
0.0
 40
10.0
100
AcDbArc
 50
180.0
 51
263.305489
  0
ARC
  5
111
100
AcDbEntity
  8
化粧台
  6
CONTINUOUS
 62
     2
100
AcDbCircle
 10
920.0
 20
6293.0
 30
0.0
 40
2755.0
100
AcDbArc
 50
263.305489
 51
276.694511
  0
ARC
  5
112
100
AcDbEntity
  8
化粧台
  6
CONTINUOUS
 62
     2
100
AcDbCircle
 10
1240.0
 20
3566.715899
 30
0.0
 40
10.0
100
AcDbArc
 50
276.694511
 51
0.0
  0
ARC
  5
113
100
AcDbEntity
  8
化粧台
  6
CONTINUOUS
 62
     2
100
AcDbCircle
 10
600.0
 20
3856.579602
 30
0.0
 40
10.0
100
AcDbArc
 50
83.354131
 51
180.0
  0
ARC
  5
114
100
AcDbEntity
  8
化粧台
  6
CONTINUOUS
 62
     2
100
AcDbCircle
 10
1240.0
 20
3856.579602
 30
0.0
 40
10.0
100
AcDbArc
 50
0.0
 51
96.645869
  0
LINE
  5
115
100
AcDbEntity
  8
化粧台
  6
CONTINUOUS
 62
     6
100
AcDbLine
 10
872.5
 20
3763.0
 30
0.0
 11
967.5
 21
3763.0
 31
0.0
  0
LINE
  5
116
100
AcDbEntity
  8
化粧台
  6
CONTINUOUS
 62
     6
100
AcDbLine
 10
648.0
 20
3973.0
 30
0.0
 11
650.0
 21
4005.5
 31
0.0
  0
LINE
  5
117
100
AcDbEntity
  8
化粧台
  6
CONTINUOUS
 62
     6
100
AcDbLine
 10
650.0
 20
4005.5
 30
0.0
 11
652.0
 21
3973.0
 31
0.0
  0
LINE
  5
118
100
AcDbEntity
  8
化粧台
  6
CONTINUOUS
 62
     6
100
AcDbLine
 10
650.0
 20
3963.0
 30
0.0
 11
650.0
 21
4015.5
 31
0.0
  0
LINE
  5
119
100
AcDbEntity
  8
化粧台
  6
CONTINUOUS
 62
     6
100
AcDbLine
 10
1192.0
 20
3973.0
 30
0.0
 11
1190.0
 21
4005.5
 31
0.0
  0
LINE
  5
11A
100
AcDbEntity
  8
化粧台
  6
CONTINUOUS
 62
     6
100
AcDbLine
 10
1190.0
 20
4005.5
 30
0.0
 11
1188.0
 21
3973.0
 31
0.0
  0
LINE
  5
11B
100
AcDbEntity
  8
化粧台
  6
CONTINUOUS
 62
     6
100
AcDbLine
 10
1190.0
 20
3963.0
 30
0.0
 11
1190.0
 21
4015.5
 31
0.0
  0
CIRCLE
  5
11C
100
AcDbEntity
  8
化粧台
  6
CONTINUOUS
 62
     6
100
AcDbCircle
 10
940.52877
 20
3781.19658
 30
0.0
 40
3.0
  0
CIRCLE
  5
11D
100
AcDbEntity
  8
化粧台
  6
CONTINUOUS
 62
     6
100
AcDbCircle
 10
951.9
 20
3796.2
 30
0.0
 40
3.0
  0
CIRCLE
  5
11E
100
AcDbEntity
  8
化粧台
  6
CONTINUOUS
 62
     6
100
AcDbCircle
 10
948.7
 20
3787.6
 30
0.0
 40
3.0
  0
CIRCLE
  5
11F
100
AcDbEntity
  8
化粧台
  6
CONTINUOUS
 62
     6
100
AcDbCircle
 10
953.2
 20
3805.3
 30
0.0
 40
3.0
  0
CIRCLE
  5
120
100
AcDbEntity
  8
化粧台
  6
CONTINUOUS
 62
     6
100
AcDbCircle
 10
952.325514
 20
3814.346332
 30
0.0
 40
3.0
  0
CIRCLE
  5
121
100
AcDbEntity
  8
化粧台
  6
CONTINUOUS
 62
     6
100
AcDbCircle
 10
949.52132
 20
3822.47868
 30
0.0
 40
3.0
  0
CIRCLE
  5
122
100
AcDbEntity
  8
化粧台
  6
CONTINUOUS
 62
     6
100
AcDbCircle
 10
943.745399
 20
3829.81627
 30
0.0
 40
3.0
  0
LINE
  5
123
100
AcDbEntity
  8
化粧台
  6
CONTINUOUS
 62
     6
100
AcDbLine
 10
869.0
 20
3933.0
 30
0.0
 11
869.0
 21
3853.0
 31
0.0
  0
LINE
  5
124
100
AcDbEntity
  8
化粧台
  6
CONTINUOUS
 62
     6
100
AcDbLine
 10
971.0
 20
3933.0
 30
0.0
 11
971.0
 21
3853.0
 31
0.0
  0
LINE
  5
125
100
AcDbEntity
  8
化粧台
  6
EXLTYPE3
 62
     6
100
AcDbLine
 10
829.0
 20
3893.0
 30
0.0
 11
1011.0
 21
3893.0
 31
0.0
  0
LINE
  5
126
100
AcDbEntity
  8
化粧台
  6
CONTINUOUS
 62
     6
100
AcDbLine
 10
809.5
 20
3981.0
 30
0.0
 11
830.5
 21
3981.0
 31
0.0
  0
LINE
  5
127
100
AcDbEntity
  8
化粧台
  6
CONTINUOUS
 62
     6
100
AcDbLine
 10
830.5
 20
3973.0
 30
0.0
 11
830.5
 21
3981.0
 31
0.0
  0
LINE
  5
128
100
AcDbEntity
  8
化粧台
  6
CONTINUOUS
 62
     6
100
AcDbLine
 10
809.5
 20
3973.0
 30
0.0
 11
809.5
 21
3981.0
 31
0.0
  0
LINE
  5
129
100
AcDbEntity
  8
化粧台
  6
CONTINUOUS
 62
     6
100
AcDbLine
 10
820.0
 20
3958.0
 30
0.0
 11
820.0
 21
3996.0
 31
0.0
  0
LINE
  5
12A
100
AcDbEntity
  8
化粧台
  6
CONTINUOUS
 62
     6
100
AcDbLine
 10
1009.5
 20
3981.0
 30
0.0
 11
1030.5
 21
3981.0
 31
0.0
  0
LINE
  5
12B
100
AcDbEntity
  8
化粧台
  6
CONTINUOUS
 62
     6
100
AcDbLine
 10
1030.5
 20
3973.0
 30
0.0
 11
1030.5
 21
3981.0
 31
0.0
  0
LINE
  5
12C
100
AcDbEntity
  8
化粧台
  6
CONTINUOUS
 62
     6
100
AcDbLine
 10
1009.5
 20
3973.0
 30
0.0
 11
1009.5
 21
3981.0
 31
0.0
  0
LINE
  5
12D
100
AcDbEntity
  8
化粧台
  6
CONTINUOUS
 62
     6
100
AcDbLine
 10
1020.0
 20
3958.0
 30
0.0
 11
1020.0
 21
3996.0
 31
0.0
  0
LINE
  5
12E
100
AcDbEntity
  8
化粧台
  6
CONTINUOUS
 62
     6
100
AcDbLine
 10
904.0
 20
3993.0
 30
0.0
 11
936.0
 21
3993.0
 31
0.0
  0
LINE
  5
12F
100
AcDbEntity
  8
化粧台
  6
CONTINUOUS
 62
     6
100
AcDbLine
 10
904.0
 20
3993.0
 30
0.0
 11
904.0
 21
3973.0
 31
0.0
  0
LINE
  5
130
100
AcDbEntity
  8
化粧台
  6
CONTINUOUS
 62
     6
100
AcDbLine
 10
936.0
 20
3993.0
 30
0.0
 11
936.0
 21
3973.0
 31
0.0
  0
LINE
  5
131
100
AcDbEntity
  8
化粧台
  6
EXLTYPE3
 62
     6
100
AcDbLine
 10
920.0
 20
4008.0
 30
0.0
 11
920.0
 21
3478.0
 31
0.0
  0
LINE
  5
132
100
AcDbEntity
  8
化粧台
  6
CONTINUOUS
 62
     2
100
AcDbLine
 10
576.5
 20
1613.5
 30
0.0
 11
576.5
 21
1598.5
 31
0.0
  0
LINE
  5
133
100
AcDbEntity
  8
化粧台
  6
EXLTYPE2
 62
     6
100
AcDbLine
 10
576.5
 20
1598.5
 30
0.0
 11
576.5
 21
1043.5
 31
0.0
  0
LINE
  5
134
100
AcDbEntity
  8
化粧台
  6
CONTINUOUS
 62
     2
100
AcDbLine
 10
1263.5
 20
1613.5
 30
0.0
 11
1263.5
 21
1598.5
 31
0.0
  0
LINE
  5
135
100
AcDbEntity
  8
化粧台
  6
EXLTYPE2
 62
     6
100
AcDbLine
 10
1263.5
 20
1598.5
 30
0.0
 11
1263.5
 21
1043.5
 31
0.0
  0
LINE
  5
136
100
AcDbEntity
  8
化粧台
  6
CONTINUOUS
 62
     2
100
AcDbLine
 10
1275.0
 20
1598.5
 30
0.0
 11
1275.0
 21
1043.5
 31
0.0
  0
LINE
  5
137
100
AcDbEntity
  8
化粧台
  6
CONTINUOUS
 62
     2
100
AcDbLine
 10
921.0
 20
1598.5
 30
0.0
 11
921.0
 21
1043.5
 31
0.0
  0
LINE
  5
138
100
AcDbEntity
  8
化粧台
  6
CONTINUOUS
 62
     2
100
AcDbLine
 10
919.0
 20
1598.5
 30
0.0
 11
919.0
 21
1043.5
 31
0.0
  0
LINE
  5
139
100
AcDbEntity
  8
化粧台
  6
CONTINUOUS
 62
     2
100
AcDbLine
 10
565.0
 20
1598.5
 30
0.0
 11
565.0
 21
1043.5
 31
0.0
  0
LINE
  5
13A
100
AcDbEntity
  8
化粧台
  6
CONTINUOUS
 62
     2
100
AcDbLine
 10
921.0
 20
1598.5
 30
0.0
 11
1275.0
 21
1598.5
 31
0.0
  0
LINE
  5
13B
100
AcDbEntity
  8
化粧台
  6
CONTINUOUS
 62
     2
100
AcDbLine
 10
919.0
 20
1598.5
 30
0.0
 11
565.0
 21
1598.5
 31
0.0
  0
LINE
  5
13C
100
AcDbEntity
  8
化粧台
  6
EXLTYPE2
 62
     2
100
AcDbLine
 10
952.13716
 20
1538.5
 30
0.0
 11
887.86284
 21
1538.5
 31
0.0
  0
LINE
  5
13D
100
AcDbEntity
  8
化粧台
  6
EXLTYPE2
 62
     6
100
AcDbLine
 10
920.0
 20
1511.0
 30
0.0
 11
920.0
 21
1528.0
 31
0.0
  0
LINE
  5
13E
100
AcDbEntity
  8
化粧台
  6
EXLTYPE2
 62
     6
100
AcDbLine
 10
885.0
 20
1528.0
 30
0.0
 11
955.0
 21
1528.0
 31
0.0
  0
ARC
  5
13F
100
AcDbEntity
  8
化粧台
  6
EXLTYPE2
 62
     6
100
AcDbCircle
 10
944.251838
 20
1512.385595
 30
0.0
 40
4.385595
100
AcDbArc
 50
198.417706
 51
270.0
  0
LINE
  5
140
100
AcDbEntity
  8
化粧台
  6
EXLTYPE2
 62
     6
100
AcDbLine
 10
940.09088
 20
1511.0
 30
0.0
 11
940.09088
 21
1528.0
 31
0.0
  0
ARC
  5
141
100
AcDbEntity
  8
化粧台
  6
EXLTYPE2
 62
     6
100
AcDbCircle
 10
930.04544
 20
1526.318478
 30
0.0
 40
18.318478
100
AcDbArc
 50
236.74423
 51
303.25577
  0
ARC
  5
142
100
AcDbEntity
  8
化粧台
  6
EXLTYPE2
 62
     6
100
AcDbCircle
 10
909.95456
 20
1526.318478
 30
0.0
 40
18.318478
100
AcDbArc
 50
236.74423
 51
303.25577
  0
LINE
  5
143
100
AcDbEntity
  8
化粧台
  6
EXLTYPE2
 62
     6
100
AcDbLine
 10
899.90912
 20
1511.0
 30
0.0
 11
899.90912
 21
1528.0
 31
0.0
  0
ARC
  5
144
100
AcDbEntity
  8
化粧台
  6
EXLTYPE2
 62
     6
100
AcDbCircle
 10
895.748162
 20
1512.385595
 30
0.0
 40
4.385595
100
AcDbArc
 50
270.0
 51
341.582294
  0
LINE
  5
145
100
AcDbEntity
  8
化粧台
  6
EXLTYPE2
 62
     6
100
AcDbLine
 10
955.0
 20
1535.5
 30
0.0
 11
950.813953
 21
1538.5
 31
0.0
  0
LINE
  5
146
100
AcDbEntity
  8
化粧台
  6
EXLTYPE2
 62
     6
100
AcDbLine
 10
885.0
 20
1535.5
 30
0.0
 11
889.186047
 21
1538.5
 31
0.0
  0
LINE
  5
147
100
AcDbEntity
  8
化粧台
  6
EXLTYPE2
 62
     6
100
AcDbLine
 10
955.0
 20
1535.5
 30
0.0
 11
955.0
 21
1528.0
 31
0.0
  0
LINE
  5
148
100
AcDbEntity
  8
化粧台
  6
EXLTYPE2
 62
     6
100
AcDbLine
 10
885.0
 20
1535.5
 30
0.0
 11
885.0
 21
1528.0
 31
0.0
  0
LINE
  5
149
100
AcDbEntity
  8
化粧台
  6
EXLTYPE2
 62
     6
100
AcDbLine
 10
948.412795
 20
1511.0
 30
0.0
 11
946.25
 21
1508.0
 31
0.0
  0
LINE
  5
14A
100
AcDbEntity
  8
化粧台
  6
EXLTYPE2
 62
     6
100
AcDbLine
 10
948.412795
 20
1528.0
 30
0.0
 11
948.412795
 21
1511.0
 31
0.0
  0
LINE
  5
14B
100
AcDbEntity
  8
化粧台
  6
EXLTYPE2
 62
     6
100
AcDbLine
 10
946.25
 20
1508.0
 30
0.0
 11
946.25
 21
1483.5
 31
0.0
  0
LINE
  5
14C
100
AcDbEntity
  8
化粧台
  6
EXLTYPE2
 62
     6
100
AcDbLine
 10
891.587205
 20
1511.0
 30
0.0
 11
893.75
 21
1508.0
 31
0.0
  0
LINE
  5
14D
100
AcDbEntity
  8
化粧台
  6
EXLTYPE2
 62
     6
100
AcDbLine
 10
891.587205
 20
1528.0
 30
0.0
 11
891.587205
 21
1511.0
 31
0.0
  0
LINE
  5
14E
100
AcDbEntity
  8
化粧台
  6
EXLTYPE2
 62
     6
100
AcDbLine
 10
893.75
 20
1508.0
 30
0.0
 11
893.75
 21
1483.5
 31
0.0
  0
LINE
  5
14F
100
AcDbEntity
  8
化粧台
  6
EXLTYPE2
 62
     6
100
AcDbLine
 10
893.75
 20
1508.0
 30
0.0
 11
946.25
 21
1508.0
 31
0.0
  0
LINE
  5
150
100
AcDbEntity
  8
化粧台
  6
EXLTYPE2
 62
     2
100
AcDbLine
 10
1231.021588
 20
1562.353759
 30
0.0
 11
1236.923077
 21
1613.5
 31
0.0
  0
ARC
  5
151
100
AcDbEntity
  8
化粧台
  6
EXLTYPE2
 62
     2
100
AcDbCircle
 10
1221.087498
 20
1563.5
 30
0.0
 40
10.0
100
AcDbArc
 50
270.0
 51
353.418055
  0
LINE
  5
152
100
AcDbEntity
  8
化粧台
  6
EXLTYPE2
 62
     2
100
AcDbLine
 10
1166.930005
 20
1553.5
 30
0.0
 11
1221.087498
 21
1553.5
 31
0.0
  0
ARC
  5
153
100
AcDbEntity
  8
化粧台
  6
EXLTYPE2
 62
     2
100
AcDbCircle
 10
1166.930005
 20
1563.5
 30
0.0
 40
10.0
100
AcDbArc
 50
200.556045
 51
270.0
  0
LINE
  5
154
100
AcDbEntity
  8
化粧台
  6
EXLTYPE2
 62
     2
100
AcDbLine
 10
1157.566713
 20
1559.988766
 30
0.0
 11
1137.5
 21
1613.5
 31
0.0
  0
ARC
  5
155
100
AcDbEntity
  8
化粧台
  6
EXLTYPE2
 62
     2
100
AcDbCircle
 10
910.083254
 20
2184.395115
 30
0.0
 40
609.0
100
AcDbArc
 50
280.0
 51
290.375591
  0
LINE
  5
156
100
AcDbEntity
  8
化粧台
  6
EXLTYPE2
 62
     2
100
AcDbLine
 10
967.964845
 20
1576.206395
 30
0.0
 11
1015.834994
 21
1584.647194
 31
0.0
  0
ARC
  5
157
100
AcDbEntity
  8
化粧台
  6
EXLTYPE2
 62
     2
100
AcDbCircle
 10
969.527678
 20
1567.343125
 30
0.0
 40
9.0
100
AcDbArc
 50
100.0
 51
172.213817
  0
LINE
  5
158
100
AcDbEntity
  8
化粧台
  6
EXLTYPE2
 62
     2
100
AcDbLine
 10
960.610653
 20
1568.562415
 30
0.0
 11
957.091063
 21
1542.822617
 31
0.0
  0
ARC
  5
159
100
AcDbEntity
  8
化粧台
  6
EXLTYPE2
 62
     2
100
AcDbCircle
 10
952.13716
 20
1543.5
 30
0.0
 40
5.0
100
AcDbArc
 50
270.0
 51
352.213817
  0
ARC
  5
15A
100
AcDbEntity
  8
化粧台
  6
EXLTYPE2
 62
     2
100
AcDbCircle
 10
887.86284
 20
1543.5
 30
0.0
 40
5.0
100
AcDbArc
 50
187.786183
 51
270.0
  0
LINE
  5
15B
100
AcDbEntity
  8
化粧台
  6
EXLTYPE2
 62
     2
100
AcDbLine
 10
879.389347
 20
1568.562415
 30
0.0
 11
882.908937
 21
1542.822617
 31
0.0
  0
ARC
  5
15C
100
AcDbEntity
  8
化粧台
  6
EXLTYPE2
 62
     2
100
AcDbCircle
 10
870.472322
 20
1567.343125
 30
0.0
 40
9.0
100
AcDbArc
 50
7.786183
 51
80.0
  0
LINE
  5
15D
100
AcDbEntity
  8
化粧台
  6
EXLTYPE2
 62
     2
100
AcDbLine
 10
872.035155
 20
1576.206395
 30
0.0
 11
824.165006
 21
1584.647194
 31
0.0
  0
ARC
  5
15E
100
AcDbEntity
  8
化粧台
  6
EXLTYPE2
 62
     2
100
AcDbCircle
 10
929.916746
 20
2184.395115
 30
0.0
 40
609.0
100
AcDbArc
 50
249.624409
 51
260.0
  0
LINE
  5
15F
100
AcDbEntity
  8
化粧台
  6
EXLTYPE2
 62
     2
100
AcDbLine
 10
682.433287
 20
1559.988766
 30
0.0
 11
702.5
 21
1613.5
 31
0.0
  0
ARC
  5
160
100
AcDbEntity
  8
化粧台
  6
EXLTYPE2
 62
     2
100
AcDbCircle
 10
673.069995
 20
1563.5
 30
0.0
 40
10.0
100
AcDbArc
 50
270.0
 51
339.443955
  0
LINE
  5
161
100
AcDbEntity
  8
化粧台
  6
EXLTYPE2
 62
     2
100
AcDbLine
 10
673.069995
 20
1553.5
 30
0.0
 11
618.912502
 21
1553.5
 31
0.0
  0
ARC
  5
162
100
AcDbEntity
  8
化粧台
  6
EXLTYPE2
 62
     2
100
AcDbCircle
 10
618.912502
 20
1563.5
 30
0.0
 40
10.0
100
AcDbArc
 50
186.581945
 51
270.0
  0
LINE
  5
163
100
AcDbEntity
  8
化粧台
  6
EXLTYPE2
 62
     2
100
AcDbLine
 10
608.978412
 20
1562.353759
 30
0.0
 11
603.076923
 21
1613.5
 31
0.0
  0
LINE
  5
164
100
AcDbEntity
  8
化粧台
  6
CONTINUOUS
 62
     2
100
AcDbLine
 10
561.5
 20
1613.5
 30
0.0
 11
561.5
 21
948.5
 31
0.0
  0
LINE
  5
165
100
AcDbEntity
  8
化粧台
  6
CONTINUOUS
 62
     2
100
AcDbLine
 10
1278.5
 20
1613.5
 30
0.0
 11
1278.5
 21
948.5
 31
0.0
  0
LINE
  5
166
100
AcDbEntity
  8
化粧台
  6
CONTINUOUS
 62
     2
100
AcDbLine
 10
1287.118616
 20
1613.5
 30
0.0
 11
552.881384
 21
1613.5
 31
0.0
  0
ARC
  5
167
100
AcDbEntity
  8
化粧台
  6
CONTINUOUS
 62
     2
100
AcDbCircle
 10
1289.759885
 20
1728.5
 30
0.0
 40
5.0
100
AcDbArc
 50
358.624505
 51
91.549446
  0
ARC
  5
168
100
AcDbEntity
  8
化粧台
  6
CONTINUOUS
 62
     2
100
AcDbCircle
 10
1287.118616
 20
1618.5
 30
0.0
 40
5.0
100
AcDbArc
 50
270.0
 51
358.624505
  0
ARC
  5
169
100
AcDbEntity
  8
化粧台
  6
CONTINUOUS
 62
     2
100
AcDbCircle
 10
1290.0
 20
1738.5
 30
0.0
 40
5.0
100
AcDbArc
 50
358.624505
 51
90.0
  0
LINE
  5
16A
100
AcDbEntity
  8
化粧台
  6
CONTINUOUS
 62
     2
100
AcDbLine
 10
1294.998559
 20
1738.379977
 30
0.0
 11
1292.117176
 21
1618.379977
 31
0.0
  0
ARC
  5
16B
100
AcDbEntity
  8
化粧台
  6
CONTINUOUS
 62
     2
100
AcDbCircle
 10
550.240115
 20
1728.5
 30
0.0
 40
5.0
100
AcDbArc
 50
88.450554
 51
181.375495
  0
ARC
  5
16C
100
AcDbEntity
  8
化粧台
  6
CONTINUOUS
 62
     2
100
AcDbCircle
 10
552.881384
 20
1618.5
 30
0.0
 40
5.0
100
AcDbArc
 50
181.375495
 51
270.0
  0
ARC
  5
16D
100
AcDbEntity
  8
化粧台
  6
CONTINUOUS
 62
     2
100
AcDbCircle
 10
550.0
 20
1738.5
 30
0.0
 40
5.0
100
AcDbArc
 50
90.0
 51
181.375495
  0
LINE
  5
16E
100
AcDbEntity
  8
化粧台
  6
CONTINUOUS
 62
     2
100
AcDbLine
 10
545.001441
 20
1738.379977
 30
0.0
 11
547.882824
 21
1618.379977
 31
0.0
  0
LINE
  5
16F
100
AcDbEntity
  8
化粧台
  6
CONTINUOUS
 62
     6
100
AcDbLine
 10
655.5
 20
1503.5
 30
0.0
 11
644.5
 21
1503.5
 31
0.0
  0
LINE
  5
170
100
AcDbEntity
  8
化粧台
  6
CONTINUOUS
 62
     6
100
AcDbLine
 10
650.0
 20
1509.0
 30
0.0
 11
650.0
 21
1498.0
 31
0.0
  0
CIRCLE
  5
171
100
AcDbEntity
  8
化粧台
  6
CONTINUOUS
 62
     6
100
AcDbCircle
 10
650.0
 20
1503.5
 30
0.0
 40
2.5
  0
LINE
  5
172
100
AcDbEntity
  8
化粧台
  6
CONTINUOUS
 62
     6
100
AcDbLine
 10
1195.5
 20
1503.5
 30
0.0
 11
1184.5
 21
1503.5
 31
0.0
  0
LINE
  5
173
100
AcDbEntity
  8
化粧台
  6
CONTINUOUS
 62
     6
100
AcDbLine
 10
1190.0
 20
1509.0
 30
0.0
 11
1190.0
 21
1498.0
 31
0.0
  0
CIRCLE
  5
174
100
AcDbEntity
  8
化粧台
  6
CONTINUOUS
 62
     6
100
AcDbCircle
 10
1190.0
 20
1503.5
 30
0.0
 40
2.5
  0
LINE
  5
175
100
AcDbEntity
  8
化粧台
  6
EXLTYPE2
 62
     6
100
AcDbLine
 10
1263.5
 20
1056.25
 30
0.0
 11
576.5
 21
1056.25
 31
0.0
  0
LINE
  5
176
100
AcDbEntity
  8
化粧台
  6
CONTINUOUS
 62
     2
100
AcDbLine
 10
1263.5
 20
1038.75
 30
0.0
 11
576.5
 21
1038.75
 31
0.0
  0
LINE
  5
177
100
AcDbEntity
  8
化粧台
  6
CONTINUOUS
 62
     2
100
AcDbLine
 10
1263.5
 20
952.5
 30
0.0
 11
576.5
 21
952.5
 31
0.0
  0
LINE
  5
178
100
AcDbEntity
  8
化粧台
  6
CONTINUOUS
 62
     2
100
AcDbLine
 10
576.5
 20
1043.5
 30
0.0
 11
576.5
 21
948.5
 31
0.0
  0
LINE
  5
179
100
AcDbEntity
  8
化粧台
  6
CONTINUOUS
 62
     2
100
AcDbLine
 10
919.0
 20
1043.5
 30
0.0
 11
565.0
 21
1043.5
 31
0.0
  0
LINE
  5
17A
100
AcDbEntity
  8
化粧台
  6
CONTINUOUS
 62
     2
100
AcDbLine
 10
576.5
 20
952.0
 30
0.0
 11
561.5
 21
952.0
 31
0.0
  0
LINE
  5
17B
100
AcDbEntity
  8
化粧台
  6
CONTINUOUS
 62
     2
100
AcDbLine
 10
561.5
 20
948.5
 30
0.0
 11
576.5
 21
948.5
 31
0.0
  0
LINE
  5
17C
100
AcDbEntity
  8
化粧台
  6
CONTINUOUS
 62
     2
100
AcDbLine
 10
1263.5
 20
1043.5
 30
0.0
 11
1263.5
 21
948.5
 31
0.0
  0
LINE
  5
17D
100
AcDbEntity
  8
化粧台
  6
CONTINUOUS
 62
     2
100
AcDbLine
 10
921.0
 20
1043.5
 30
0.0
 11
1275.0
 21
1043.5
 31
0.0
  0
LINE
  5
17E
100
AcDbEntity
  8
化粧台
  6
CONTINUOUS
 62
     2
100
AcDbLine
 10
1263.5
 20
952.0
 30
0.0
 11
1278.5
 21
952.0
 31
0.0
  0
LINE
  5
17F
100
AcDbEntity
  8
化粧台
  6
CONTINUOUS
 62
     2
100
AcDbLine
 10
1278.5
 20
948.5
 30
0.0
 11
1263.5
 21
948.5
 31
0.0
  0
LINE
  5
180
100
AcDbEntity
  8
化粧台
  6
EXLTYPE2
 62
     6
100
AcDbLine
 10
946.25
 20
1483.5
 30
0.0
 11
935.75
 21
1474.5
 31
0.0
  0
LINE
  5
181
100
AcDbEntity
  8
化粧台
  6
EXLTYPE2
 62
     6
100
AcDbLine
 10
893.75
 20
1483.5
 30
0.0
 11
904.25
 21
1474.5
 31
0.0
  0
LINE
  5
182
100
AcDbEntity
  8
化粧台
  6
EXLTYPE2
 62
     6
100
AcDbLine
 10
893.75
 20
1483.5
 30
0.0
 11
946.25
 21
1483.5
 31
0.0
  0
LINE
  5
183
100
AcDbEntity
  8
化粧台
  6
EXLTYPE2
 62
     6
100
AcDbLine
 10
904.25
 20
1474.5
 30
0.0
 11
935.75
 21
1474.5
 31
0.0
  0
LINE
  5
184
100
AcDbEntity
  8
化粧台
  6
EXLTYPE2
 62
     6
100
AcDbLine
 10
938.25
 20
1446.7
 30
0.0
 11
938.25
 21
1406.611864
 31
0.0
  0
LINE
  5
185
100
AcDbEntity
  8
化粧台
  6
EXLTYPE2
 62
     6
100
AcDbLine
 10
901.75
 20
1446.7
 30
0.0
 11
901.75
 21
1406.611864
 31
0.0
  0
LINE
  5
186
100
AcDbEntity
  8
化粧台
  6
EXLTYPE2
 62
     6
100
AcDbLine
 10
938.25
 20
1406.611864
 30
0.0
 11
937.0
 21
1405.611864
 31
0.0
  0
LINE
  5
187
100
AcDbEntity
  8
化粧台
  6
EXLTYPE2
 62
     6
100
AcDbLine
 10
903.0
 20
1405.611864
 30
0.0
 11
901.75
 21
1406.611864
 31
0.0
  0
LINE
  5
188
100
AcDbEntity
  8
化粧台
  6
EXLTYPE2
 62
     6
100
AcDbLine
 10
937.0
 20
1405.611864
 30
0.0
 11
903.0
 21
1405.611864
 31
0.0
  0
LINE
  5
189
100
AcDbEntity
  8
化粧台
  6
EXLTYPE2
 62
     6
100
AcDbLine
 10
944.25
 20
1446.7
 30
0.0
 11
895.75
 21
1446.7
 31
0.0
  0
LINE
  5
18A
100
AcDbEntity
  8
化粧台
  6
EXLTYPE2
 62
     6
100
AcDbLine
 10
944.25
 20
1461.5
 30
0.0
 11
944.25
 21
1446.7
 31
0.0
  0
LINE
  5
18B
100
AcDbEntity
  8
化粧台
  6
EXLTYPE2
 62
     6
100
AcDbLine
 10
941.25
 20
1464.5
 30
0.0
 11
898.75
 21
1464.5
 31
0.0
  0
LINE
  5
18C
100
AcDbEntity
  8
化粧台
  6
EXLTYPE2
 62
     6
100
AcDbLine
 10
895.75
 20
1461.5
 30
0.0
 11
895.75
 21
1446.7
 31
0.0
  0
ARC
  5
18D
100
AcDbEntity
  8
化粧台
  6
EXLTYPE2
 62
     6
100
AcDbCircle
 10
941.25
 20
1461.5
 30
0.0
 40
3.0
100
AcDbArc
 50
0.0
 51
90.0
  0
ARC
  5
18E
100
AcDbEntity
  8
化粧台
  6
EXLTYPE2
 62
     6
100
AcDbCircle
 10
898.75
 20
1461.5
 30
0.0
 40
3.0
100
AcDbArc
 50
90.0
 51
180.0
  0
LINE
  5
18F
100
AcDbEntity
  8
化粧台
  6
EXLTYPE2
 62
     6
100
AcDbLine
 10
903.0
 20
1405.611864
 30
0.0
 11
903.0
 21
1371.986862
 31
0.0
  0
LINE
  5
190
100
AcDbEntity
  8
化粧台
  6
EXLTYPE2
 62
     6
100
AcDbLine
 10
856.223169
 20
1408.811312
 30
0.0
 11
856.223169
 21
1394.011312
 31
0.0
  0
ARC
  5
191
100
AcDbEntity
  8
化粧台
  6
EXLTYPE2
 62
     6
100
AcDbCircle
 10
859.223169
 20
1408.811312
 30
0.0
 40
3.0
100
AcDbArc
 50
90.0
 51
180.0
  0
LINE
  5
192
100
AcDbEntity
  8
化粧台
  6
EXLTYPE2
 62
     6
100
AcDbLine
 10
898.723169
 20
1394.011312
 30
0.0
 11
898.723169
 21
1371.986862
 31
0.0
  0
LINE
  5
193
100
AcDbEntity
  8
化粧台
  6
EXLTYPE2
 62
     6
100
AcDbLine
 10
862.223169
 20
1394.011312
 30
0.0
 11
862.223169
 21
1365.911862
 31
0.0
  0
LINE
  5
194
100
AcDbEntity
  8
化粧台
  6
EXLTYPE2
 62
     6
100
AcDbLine
 10
937.0
 20
1405.611864
 30
0.0
 11
937.0
 21
1373.918262
 31
0.0
  0
ARC
  5
195
100
AcDbEntity
  8
化粧台
  6
EXLTYPE2
 62
     6
100
AcDbCircle
 10
900.236585
 20
1442.148448
 30
0.0
 40
3.763415
100
AcDbArc
 50
66.288047
 51
180.0
  0
LINE
  5
196
100
AcDbEntity
  8
化粧台
  6
EXLTYPE2
 62
     6
100
AcDbLine
 10
896.473169
 20
1442.148448
 30
0.0
 11
896.473169
 21
1411.811312
 31
0.0
  0
LINE
  5
197
100
AcDbEntity
  8
化粧台
  6
EXLTYPE2
 62
     6
100
AcDbLine
 10
864.473169
 20
1442.148448
 30
0.0
 11
864.473169
 21
1411.811312
 31
0.0
  0
LINE
  5
198
100
AcDbEntity
  8
化粧台
  6
EXLTYPE2
 62
     6
100
AcDbLine
 10
901.75
 20
1411.811312
 30
0.0
 11
859.223169
 21
1411.811312
 31
0.0
  0
LINE
  5
199
100
AcDbEntity
  8
化粧台
  6
EXLTYPE2
 62
     6
100
AcDbLine
 10
903.0
 20
1394.011312
 30
0.0
 11
856.223169
 21
1394.011312
 31
0.0
  0
ARC
  5
19A
100
AcDbEntity
  8
化粧台
  6
EXLTYPE2
 62
     6
100
AcDbCircle
 10
900.236585
 20
1442.148448
 30
0.0
 40
35.763415
100
AcDbArc
 50
89.947251
 51
180.0
  0
LINE
  5
19B
100
AcDbEntity
  8
化粧台
  6
EXLTYPE2
 62
     6
100
AcDbLine
 10
904.25
 20
1474.5
 30
0.0
 11
904.25
 21
1464.5
 31
0.0
  0
LINE
  5
19C
100
AcDbEntity
  8
化粧台
  6
EXLTYPE2
 62
     6
100
AcDbLine
 10
935.75
 20
1474.5
 30
0.0
 11
935.75
 21
1464.5
 31
0.0
  0
LINE
  5
19D
100
AcDbEntity
  8
化粧台
  6
EXLTYPE2
 62
     6
100
AcDbLine
 10
953.500004
 20
988.500002
 30
0.0
 11
953.500004
 21
969.0
 31
0.0
  0
ARC
  5
19E
100
AcDbEntity
  8
化粧台
  6
EXLTYPE2
 62
     6
100
AcDbCircle
 10
953.000004
 20
969.0
 30
0.0
 40
0.5
100
AcDbArc
 50
270.0
 51
0.0
  0
LINE
  5
19F
100
AcDbEntity
  8
化粧台
  6
EXLTYPE2
 62
     6
100
AcDbLine
 10
886.499996
 20
988.500002
 30
0.0
 11
886.499996
 21
969.0
 31
0.0
  0
ARC
  5
1A0
100
AcDbEntity
  8
化粧台
  6
EXLTYPE2
 62
     6
100
AcDbCircle
 10
886.999996
 20
969.0
 30
0.0
 40
0.5
100
AcDbArc
 50
180.0
 51
270.0
  0
LINE
  5
1A1
100
AcDbEntity
  8
化粧台
  6
EXLTYPE2
 62
     6
100
AcDbLine
 10
953.000004
 20
968.5
 30
0.0
 11
886.999996
 21
968.5
 31
0.0
  0
LINE
  5
1A2
100
AcDbEntity
  8
化粧台
  6
EXLTYPE2
 62
     6
100
AcDbLine
 10
947.0
 20
1003.500004
 30
0.0
 11
947.0
 21
992.500002
 31
0.0
  0
ARC
  5
1A3
100
AcDbEntity
  8
化粧台
  6
EXLTYPE2
 62
     6
100
AcDbCircle
 10
944.0
 20
1003.500004
 30
0.0
 40
3.0
100
AcDbArc
 50
359.999995
 51
89.999997
  0
ARC
  5
1A4
100
AcDbEntity
  8
化粧台
  6
EXLTYPE2
 62
     6
100
AcDbCircle
 10
948.0
 20
992.500002
 30
0.0
 40
1.0
100
AcDbArc
 50
180.0
 51
270.0
  0
ARC
  5
1A5
100
AcDbEntity
  8
化粧台
  6
EXLTYPE2
 62
     6
100
AcDbCircle
 10
950.500004
 20
988.500002
 30
0.0
 40
3.0
100
AcDbArc
 50
359.999995
 51
89.999997
  0
LINE
  5
1A6
100
AcDbEntity
  8
化粧台
  6
EXLTYPE2
 62
     6
100
AcDbLine
 10
942.999996
 20
1024.346519
 30
0.0
 11
942.999996
 21
1008.54652
 31
0.0
  0
ARC
  5
1A7
100
AcDbEntity
  8
化粧台
  6
EXLTYPE2
 62
     6
100
AcDbCircle
 10
940.999996
 20
1024.346519
 30
0.0
 40
2.0
100
AcDbArc
 50
0.000009
 51
90.000004
  0
LINE
  5
1A8
100
AcDbEntity
  8
化粧台
  6
EXLTYPE2
 62
     6
100
AcDbLine
 10
893.0
 20
1003.500004
 30
0.0
 11
893.0
 21
992.500002
 31
0.0
  0
ARC
  5
1A9
100
AcDbEntity
  8
化粧台
  6
EXLTYPE2
 62
     6
100
AcDbCircle
 10
896.0
 20
1003.500004
 30
0.0
 40
3.0
100
AcDbArc
 50
90.000003
 51
180.000005
  0
ARC
  5
1AA
100
AcDbEntity
  8
化粧台
  6
EXLTYPE2
 62
     6
100
AcDbCircle
 10
892.0
 20
992.500002
 30
0.0
 40
1.0
100
AcDbArc
 50
270.0
 51
0.0
  0
ARC
  5
1AB
100
AcDbEntity
  8
化粧台
  6
EXLTYPE2
 62
     6
100
AcDbCircle
 10
889.499996
 20
988.500002
 30
0.0
 40
3.0
100
AcDbArc
 50
90.000003
 51
180.000005
  0
LINE
  5
1AC
100
AcDbEntity
  8
化粧台
  6
EXLTYPE2
 62
     6
100
AcDbLine
 10
897.000004
 20
1024.346519
 30
0.0
 11
897.000004
 21
1008.54652
 31
0.0
  0
ARC
  5
1AD
100
AcDbEntity
  8
化粧台
  6
EXLTYPE2
 62
     6
100
AcDbCircle
 10
899.000004
 20
1024.346519
 30
0.0
 40
2.0
100
AcDbArc
 50
89.999996
 51
179.999991
  0
LINE
  5
1AE
100
AcDbEntity
  8
化粧台
  6
EXLTYPE2
 62
     6
100
AcDbLine
 10
940.999996
 20
1026.346519
 30
0.0
 11
899.000004
 21
1026.346519
 31
0.0
  0
LINE
  5
1AF
100
AcDbEntity
  8
化粧台
  6
EXLTYPE2
 62
     6
100
AcDbLine
 10
942.999996
 20
1008.54652
 30
0.0
 11
897.000004
 21
1008.54652
 31
0.0
  0
LINE
  5
1B0
100
AcDbEntity
  8
化粧台
  6
EXLTYPE2
 62
     6
100
AcDbLine
 10
944.0
 20
1006.500004
 30
0.0
 11
896.0
 21
1006.500004
 31
0.0
  0
LINE
  5
1B1
100
AcDbEntity
  8
化粧台
  6
EXLTYPE2
 62
     6
100
AcDbLine
 10
950.500004
 20
991.500002
 30
0.0
 11
889.499996
 21
991.500002
 31
0.0
  0
LINE
  5
1B2
100
AcDbEntity
  8
化粧台
  6
EXLTYPE2
 62
     6
100
AcDbLine
 10
915.236585
 20
1332.611861
 30
0.0
 11
885.236585
 21
1332.611861
 31
0.0
  0
LINE
  5
1B3
100
AcDbEntity
  8
化粧台
  6
EXLTYPE2
 62
     6
100
AcDbLine
 10
915.236585
 20
1335.381771
 30
0.0
 11
885.236585
 21
1335.381771
 31
0.0
  0
LINE
  5
1B4
100
AcDbEntity
  8
化粧台
  6
EXLTYPE2
 62
     6
100
AcDbLine
 10
915.236585
 20
1335.381771
 30
0.0
 11
915.236585
 21
1320.111865
 31
0.0
  0
LINE
  5
1B5
100
AcDbEntity
  8
化粧台
  6
EXLTYPE2
 62
     6
100
AcDbLine
 10
913.736585
 20
1318.611865
 30
0.0
 11
886.736585
 21
1318.611865
 31
0.0
  0
LINE
  5
1B6
100
AcDbEntity
  8
化粧台
  6
EXLTYPE2
 62
     6
100
AcDbLine
 10
885.236585
 20
1335.381771
 30
0.0
 11
885.236585
 21
1320.111865
 31
0.0
  0
ARC
  5
1B7
100
AcDbEntity
  8
化粧台
  6
EXLTYPE2
 62
     6
100
AcDbCircle
 10
913.736585
 20
1320.111865
 30
0.0
 40
1.5
100
AcDbArc
 50
270.0
 51
0.0
  0
ARC
  5
1B8
100
AcDbEntity
  8
化粧台
  6
EXLTYPE2
 62
     6
100
AcDbCircle
 10
886.736585
 20
1320.111865
 30
0.0
 40
1.5
100
AcDbArc
 50
180.0
 51
270.0
  0
ARC
  5
1B9
100
AcDbEntity
  8
化粧台
  6
EXLTYPE2
 62
     6
100
AcDbCircle
 10
863.223169
 20
1365.911862
 30
0.0
 40
1.0
100
AcDbArc
 50
180.0
 51
270.0
  0
ARC
  5
1BA
100
AcDbEntity
  8
化粧台
  6
EXLTYPE2
 62
     6
100
AcDbCircle
 10
906.598169
 20
1371.986862
 30
0.0
 40
7.875
100
AcDbArc
 50
180.0
 51
223.242956
  0
ARC
  5
1BB
100
AcDbEntity
  8
化粧台
  6
EXLTYPE2
 62
     6
100
AcDbCircle
 10
895.125
 20
1371.986862
 30
0.0
 40
7.875
100
AcDbArc
 50
284.057614
 51
0.0
  0
ARC
  5
1BC
100
AcDbEntity
  8
化粧台
  6
EXLTYPE2
 62
     6
100
AcDbCircle
 10
909.868122
 20
1373.041927
 30
0.0
 40
45.0
100
AcDbArc
 50
190.408677
 51
236.813401
  0
ARC
  5
1BD
100
AcDbEntity
  8
化粧台
  6
EXLTYPE2
 62
     6
100
AcDbCircle
 10
892.0
 20
1373.918262
 30
0.0
 40
45.0
100
AcDbArc
 50
301.088975
 51
0.0
  0
LINE
  5
1BE
100
AcDbEntity
  8
化粧台
  6
EXLTYPE2
 62
     6
100
AcDbLine
 10
873.9
 20
1364.911862
 30
0.0
 11
863.223169
 21
1364.911862
 31
0.0
  0
LINE
  5
1BF
100
AcDbEntity
  8
化粧台
  6
EXLTYPE2
 62
     6
100
AcDbLine
 10
904.0
 20
952.5
 30
0.0
 11
904.0
 21
1318.611865
 31
0.0
  0
LINE
  5
1C0
100
AcDbEntity
  8
化粧台
  6
EXLTYPE2
 62
     6
100
AcDbLine
 10
936.0
 20
952.5
 30
0.0
 11
936.0
 21
1364.484281
 31
0.0
  0
LINE
  5
1C1
100
AcDbEntity
  8
化粧台
  6
CONTINUOUS
 62
     2
100
AcDbLine
 10
941.5
 20
1547.0
 30
0.0
 11
1046.5
 21
1547.0
 31
0.0
  0
LINE
  5
1C2
100
AcDbEntity
  8
化粧台
  6
CONTINUOUS
 62
     2
100
AcDbLine
 10
941.5
 20
1560.0
 30
0.0
 11
1046.5
 21
1560.0
 31
0.0
  0
LINE
  5
1C3
100
AcDbEntity
  8
化粧台
  6
CONTINUOUS
 62
     2
100
AcDbLine
 10
941.5
 20
1547.0
 30
0.0
 11
941.5
 21
1560.0
 31
0.0
  0
LINE
  5
1C4
100
AcDbEntity
  8
化粧台
  6
CONTINUOUS
 62
     2
100
AcDbLine
 10
1046.5
 20
1547.0
 30
0.0
 11
1046.5
 21
1560.0
 31
0.0
  0
LINE
  5
1C5
100
AcDbEntity
  8
化粧台
  6
CONTINUOUS
 62
     2
100
AcDbLine
 10
945.0
 20
1547.0
 30
0.0
 11
945.0
 21
1560.0
 31
0.0
  0
LINE
  5
1C6
100
AcDbEntity
  8
化粧台
  6
CONTINUOUS
 62
     2
100
AcDbLine
 10
1043.0
 20
1547.0
 30
0.0
 11
1043.0
 21
1560.0
 31
0.0
  0
LINE
  5
1C7
100
AcDbEntity
  8
化粧台
  6
CONTINUOUS
 62
     2
100
AcDbLine
 10
898.5
 20
1547.0
 30
0.0
 11
793.5
 21
1547.0
 31
0.0
  0
LINE
  5
1C8
100
AcDbEntity
  8
化粧台
  6
CONTINUOUS
 62
     2
100
AcDbLine
 10
898.5
 20
1560.0
 30
0.0
 11
793.5
 21
1560.0
 31
0.0
  0
LINE
  5
1C9
100
AcDbEntity
  8
化粧台
  6
CONTINUOUS
 62
     2
100
AcDbLine
 10
898.5
 20
1547.0
 30
0.0
 11
898.5
 21
1560.0
 31
0.0
  0
LINE
  5
1CA
100
AcDbEntity
  8
化粧台
  6
CONTINUOUS
 62
     2
100
AcDbLine
 10
793.5
 20
1547.0
 30
0.0
 11
793.5
 21
1560.0
 31
0.0
  0
LINE
  5
1CB
100
AcDbEntity
  8
化粧台
  6
CONTINUOUS
 62
     2
100
AcDbLine
 10
895.0
 20
1547.0
 30
0.0
 11
895.0
 21
1560.0
 31
0.0
  0
LINE
  5
1CC
100
AcDbEntity
  8
化粧台
  6
CONTINUOUS
 62
     2
100
AcDbLine
 10
797.0
 20
1547.0
 30
0.0
 11
797.0
 21
1560.0
 31
0.0
  0
LINE
  5
1CD
100
AcDbEntity
  8
化粧台
  6
CONTINUOUS
 62
     6
100
AcDbLine
 10
904.0
 20
918.5
 30
0.0
 11
936.0
 21
918.5
 31
0.0
  0
LINE
  5
1CE
100
AcDbEntity
  8
化粧台
  6
CONTINUOUS
 62
     6
100
AcDbLine
 10
904.0
 20
918.5
 30
0.0
 11
904.0
 21
952.5
 31
0.0
  0
LINE
  5
1CF
100
AcDbEntity
  8
化粧台
  6
CONTINUOUS
 62
     6
100
AcDbLine
 10
936.0
 20
918.5
 30
0.0
 11
936.0
 21
952.5
 31
0.0
  0
LINE
  5
1D0
100
AcDbEntity
  8
化粧台
  6
CONTINUOUS
 62
     6
100
AcDbLine
 10
992.5
 20
1298.5
 30
0.0
 11
1047.5
 21
1298.5
 31
0.0
  0
LINE
  5
1D1
100
AcDbEntity
  8
化粧台
  6
CONTINUOUS
 62
     6
100
AcDbLine
 10
1030.5
 20
940.5
 30
0.0
 11
1009.5
 21
940.5
 31
0.0
  0
ARC
  5
1D2
100
AcDbEntity
  8
化粧台
  6
EXLTYPE2
 62
     6
100
AcDbCircle
 10
969.5
 20
1318.343135
 30
0.0
 40
40.0
100
AcDbArc
 50
345.638488
 51
0.0
  0
ARC
  5
1D3
100
AcDbEntity
  8
化粧台
  6
EXLTYPE2
 62
     6
100
AcDbCircle
 10
1070.5
 20
1318.343135
 30
0.0
 40
40.0
100
AcDbArc
 50
180.0
 51
194.361512
  0
LINE
  5
1D4
100
AcDbEntity
  8
化粧台
  6
EXLTYPE2
 62
     6
100
AcDbLine
 10
1007.75
 20
1263.5
 30
0.0
 11
1032.25
 21
1263.5
 31
0.0
  0
LINE
  5
1D5
100
AcDbEntity
  8
化粧台
  6
EXLTYPE2
 62
     6
100
AcDbLine
 10
1007.25
 20
1263.788675
 30
0.0
 11
1007.25
 21
1275.672807
 31
0.0
  0
LINE
  5
1D6
100
AcDbEntity
  8
化粧台
  6
EXLTYPE2
 62
     6
100
AcDbLine
 10
1032.75
 20
1263.788675
 30
0.0
 11
1032.75
 21
1275.672807
 31
0.0
  0
ARC
  5
1D7
100
AcDbEntity
  8
化粧台
  6
EXLTYPE2
 62
     6
100
AcDbCircle
 10
1000.25
 20
1278.365389
 30
0.0
 40
7.5
100
AcDbArc
 50
338.96053
 51
0.0
  0
LINE
  5
1D8
100
AcDbEntity
  8
化粧台
  6
EXLTYPE2
 62
     6
100
AcDbLine
 10
1007.75
 20
1263.5
 30
0.0
 11
1007.25
 21
1263.788675
 31
0.0
  0
LINE
  5
1D9
100
AcDbEntity
  8
化粧台
  6
EXLTYPE2
 62
     6
100
AcDbLine
 10
1032.25
 20
1263.5
 30
0.0
 11
1032.75
 21
1263.788675
 31
0.0
  0
ARC
  5
1DA
100
AcDbEntity
  8
化粧台
  6
EXLTYPE2
 62
     6
100
AcDbCircle
 10
1039.75
 20
1278.365389
 30
0.0
 40
7.5
100
AcDbArc
 50
180.0
 51
201.03947
  0
LINE
  5
1DB
100
AcDbEntity
  8
化粧台
  6
EXLTYPE2
 62
     6
100
AcDbLine
 10
1033.0
 20
1292.663691
 30
0.0
 11
1033.0
 21
1304.336309
 31
0.0
  0
LINE
  5
1DC
100
AcDbEntity
  8
化粧台
  6
EXLTYPE2
 62
     6
100
AcDbLine
 10
1031.554392
 20
1306.840176
 30
0.0
 11
1021.445608
 21
1312.676485
 31
0.0
  0
LINE
  5
1DD
100
AcDbEntity
  8
化粧台
  6
EXLTYPE2
 62
     6
100
AcDbLine
 10
1018.554392
 20
1312.676485
 30
0.0
 11
1008.445608
 21
1306.840176
 31
0.0
  0
LINE
  5
1DE
100
AcDbEntity
  8
化粧台
  6
EXLTYPE2
 62
     6
100
AcDbLine
 10
1007.0
 20
1304.336309
 30
0.0
 11
1007.0
 21
1292.663691
 31
0.0
  0
LINE
  5
1DF
100
AcDbEntity
  8
化粧台
  6
EXLTYPE2
 62
     6
100
AcDbLine
 10
1008.445608
 20
1290.159824
 30
0.0
 11
1018.554392
 21
1284.323515
 31
0.0
  0
LINE
  5
1E0
100
AcDbEntity
  8
化粧台
  6
EXLTYPE2
 62
     6
100
AcDbLine
 10
1021.445608
 20
1284.323515
 30
0.0
 11
1031.554392
 21
1290.159824
 31
0.0
  0
ARC
  5
1E1
100
AcDbEntity
  8
化粧台
  6
EXLTYPE2
 62
     6
100
AcDbCircle
 10
1020.0
 20
1298.5
 30
0.0
 40
14.25
100
AcDbArc
 50
264.177545
 51
275.822455
  0
ARC
  5
1E2
100
AcDbEntity
  8
化粧台
  6
EXLTYPE2
 62
     6
100
AcDbCircle
 10
1020.0
 20
1298.5
 30
0.0
 40
14.25
100
AcDbArc
 50
324.177545
 51
335.822455
  0
ARC
  5
1E3
100
AcDbEntity
  8
化粧台
  6
EXLTYPE2
 62
     6
100
AcDbCircle
 10
1020.0
 20
1298.5
 30
0.0
 40
14.25
100
AcDbArc
 50
24.177545
 51
35.822455
  0
ARC
  5
1E4
100
AcDbEntity
  8
化粧台
  6
EXLTYPE2
 62
     6
100
AcDbCircle
 10
1020.0
 20
1298.5
 30
0.0
 40
14.25
100
AcDbArc
 50
84.177545
 51
95.822455
  0
ARC
  5
1E5
100
AcDbEntity
  8
化粧台
  6
EXLTYPE2
 62
     6
100
AcDbCircle
 10
1020.0
 20
1298.5
 30
0.0
 40
14.25
100
AcDbArc
 50
144.177545
 51
155.822455
  0
ARC
  5
1E6
100
AcDbEntity
  8
化粧台
  6
EXLTYPE2
 62
     6
100
AcDbCircle
 10
1020.0
 20
1298.5
 30
0.0
 40
14.25
100
AcDbArc
 50
204.177545
 51
215.822455
  0
CIRCLE
  5
1E7
100
AcDbEntity
  8
化粧台
  6
EXLTYPE2
 62
     6
100
AcDbCircle
 10
1020.0
 20
1298.5
 30
0.0
 40
4.75
  0
ARC
  5
1E8
100
AcDbEntity
  8
化粧台
  6
EXLTYPE2
 62
     6
100
AcDbCircle
 10
1047.0
 20
1298.5
 30
0.0
 40
40.0
100
AcDbArc
 50
165.638488
 51
169.811239
  0
ARC
  5
1E9
100
AcDbEntity
  8
化粧台
  6
EXLTYPE2
 62
     6
100
AcDbCircle
 10
993.0
 20
1298.5
 30
0.0
 40
40.0
100
AcDbArc
 50
10.188761
 51
14.361512
  0
LINE
  5
1EA
100
AcDbEntity
  8
化粧台
  6
EXLTYPE2
 62
     6
100
AcDbLine
 10
1007.75
 20
1291.21989
 30
0.0
 11
1007.75
 21
1278.365389
 31
0.0
  0
LINE
  5
1EB
100
AcDbEntity
  8
化粧台
  6
EXLTYPE2
 62
     6
100
AcDbLine
 10
1032.25
 20
1291.21989
 30
0.0
 11
1032.25
 21
1278.365389
 31
0.0
  0
LINE
  5
1EC
100
AcDbEntity
  8
化粧台
  6
EXLTYPE2
 62
     6
100
AcDbLine
 10
1009.030456
 20
1321.2
 30
0.0
 11
1030.969544
 21
1321.2
 31
0.0
  0
LINE
  5
1ED
100
AcDbEntity
  8
化粧台
  6
EXLTYPE2
 62
     6
100
AcDbLine
 10
1009.030456
 20
1333.2
 30
0.0
 11
1030.969544
 21
1333.2
 31
0.0
  0
LINE
  5
1EE
100
AcDbEntity
  8
化粧台
  6
EXLTYPE2
 62
     6
100
AcDbLine
 10
1008.5
 20
1332.292887
 30
0.0
 11
1008.5
 21
1322.107113
 31
0.0
  0
LINE
  5
1EF
100
AcDbEntity
  8
化粧台
  6
EXLTYPE2
 62
     6
100
AcDbLine
 10
1031.5
 20
1332.292887
 30
0.0
 11
1031.5
 21
1322.107113
 31
0.0
  0
ARC
  5
1F0
100
AcDbEntity
  8
化粧台
  6
EXLTYPE2
 62
     6
100
AcDbCircle
 10
1018.25
 20
1327.2
 30
0.0
 40
11.0
100
AcDbArc
 50
146.944269
 51
152.419801
  0
ARC
  5
1F1
100
AcDbEntity
  8
化粧台
  6
EXLTYPE2
 62
     6
100
AcDbCircle
 10
1018.25
 20
1327.2
 30
0.0
 40
11.0
100
AcDbArc
 50
207.580199
 51
213.055731
  0
ARC
  5
1F2
100
AcDbEntity
  8
化粧台
  6
EXLTYPE2
 62
     6
100
AcDbCircle
 10
1021.75
 20
1327.2
 30
0.0
 40
11.0
100
AcDbArc
 50
326.944269
 51
332.419801
  0
ARC
  5
1F3
100
AcDbEntity
  8
化粧台
  6
EXLTYPE2
 62
     6
100
AcDbCircle
 10
1021.75
 20
1327.2
 30
0.0
 40
11.0
100
AcDbArc
 50
27.580199
 51
33.055731
  0
LINE
  5
1F4
100
AcDbEntity
  8
化粧台
  6
EXLTYPE2
 62
     6
100
AcDbLine
 10
1009.5
 20
1321.2
 30
0.0
 11
1009.5
 21
1318.343135
 31
0.0
  0
LINE
  5
1F5
100
AcDbEntity
  8
化粧台
  6
EXLTYPE2
 62
     6
100
AcDbLine
 10
1030.5
 20
1321.2
 30
0.0
 11
1030.5
 21
1318.343135
 31
0.0
  0
LINE
  5
1F6
100
AcDbEntity
  8
化粧台
  6
EXLTYPE3
 62
     6
100
AcDbLine
 10
1020.0
 20
1348.2
 30
0.0
 11
1020.0
 21
925.5
 31
0.0
  0
LINE
  5
1F7
100
AcDbEntity
  8
化粧台
  6
CONTINUOUS
 62
     6
100
AcDbLine
 10
792.5
 20
1298.5
 30
0.0
 11
847.5
 21
1298.5
 31
0.0
  0
LINE
  5
1F8
100
AcDbEntity
  8
化粧台
  6
CONTINUOUS
 62
     6
100
AcDbLine
 10
830.5
 20
940.5
 30
0.0
 11
809.5
 21
940.5
 31
0.0
  0
ARC
  5
1F9
100
AcDbEntity
  8
化粧台
  6
EXLTYPE2
 62
     6
100
AcDbCircle
 10
769.5
 20
1318.343135
 30
0.0
 40
40.0
100
AcDbArc
 50
345.638488
 51
0.0
  0
ARC
  5
1FA
100
AcDbEntity
  8
化粧台
  6
EXLTYPE2
 62
     6
100
AcDbCircle
 10
870.5
 20
1318.343135
 30
0.0
 40
40.0
100
AcDbArc
 50
180.0
 51
194.361512
  0
LINE
  5
1FB
100
AcDbEntity
  8
化粧台
  6
EXLTYPE2
 62
     6
100
AcDbLine
 10
807.75
 20
1263.5
 30
0.0
 11
832.25
 21
1263.5
 31
0.0
  0
LINE
  5
1FC
100
AcDbEntity
  8
化粧台
  6
EXLTYPE2
 62
     6
100
AcDbLine
 10
807.25
 20
1263.788675
 30
0.0
 11
807.25
 21
1275.672807
 31
0.0
  0
LINE
  5
1FD
100
AcDbEntity
  8
化粧台
  6
EXLTYPE2
 62
     6
100
AcDbLine
 10
832.75
 20
1263.788675
 30
0.0
 11
832.75
 21
1275.672807
 31
0.0
  0
ARC
  5
1FE
100
AcDbEntity
  8
化粧台
  6
EXLTYPE2
 62
     6
100
AcDbCircle
 10
800.25
 20
1278.365389
 30
0.0
 40
7.5
100
AcDbArc
 50
338.96053
 51
0.0
  0
LINE
  5
1FF
100
AcDbEntity
  8
化粧台
  6
EXLTYPE2
 62
     6
100
AcDbLine
 10
807.75
 20
1263.5
 30
0.0
 11
807.25
 21
1263.788675
 31
0.0
  0
LINE
  5
200
100
AcDbEntity
  8
化粧台
  6
EXLTYPE2
 62
     6
100
AcDbLine
 10
832.25
 20
1263.5
 30
0.0
 11
832.75
 21
1263.788675
 31
0.0
  0
ARC
  5
201
100
AcDbEntity
  8
化粧台
  6
EXLTYPE2
 62
     6
100
AcDbCircle
 10
839.75
 20
1278.365389
 30
0.0
 40
7.5
100
AcDbArc
 50
180.0
 51
201.03947
  0
LINE
  5
202
100
AcDbEntity
  8
化粧台
  6
EXLTYPE2
 62
     6
100
AcDbLine
 10
833.0
 20
1292.663691
 30
0.0
 11
833.0
 21
1304.336309
 31
0.0
  0
LINE
  5
203
100
AcDbEntity
  8
化粧台
  6
EXLTYPE2
 62
     6
100
AcDbLine
 10
831.554392
 20
1306.840176
 30
0.0
 11
821.445608
 21
1312.676485
 31
0.0
  0
LINE
  5
204
100
AcDbEntity
  8
化粧台
  6
EXLTYPE2
 62
     6
100
AcDbLine
 10
818.554392
 20
1312.676485
 30
0.0
 11
808.445608
 21
1306.840176
 31
0.0
  0
LINE
  5
205
100
AcDbEntity
  8
化粧台
  6
EXLTYPE2
 62
     6
100
AcDbLine
 10
807.0
 20
1304.336309
 30
0.0
 11
807.0
 21
1292.663691
 31
0.0
  0
LINE
  5
206
100
AcDbEntity
  8
化粧台
  6
EXLTYPE2
 62
     6
100
AcDbLine
 10
808.445608
 20
1290.159824
 30
0.0
 11
818.554392
 21
1284.323515
 31
0.0
  0
LINE
  5
207
100
AcDbEntity
  8
化粧台
  6
EXLTYPE2
 62
     6
100
AcDbLine
 10
821.445608
 20
1284.323515
 30
0.0
 11
831.554392
 21
1290.159824
 31
0.0
  0
ARC
  5
208
100
AcDbEntity
  8
化粧台
  6
EXLTYPE2
 62
     6
100
AcDbCircle
 10
820.0
 20
1298.5
 30
0.0
 40
14.25
100
AcDbArc
 50
264.177545
 51
275.822455
  0
ARC
  5
209
100
AcDbEntity
  8
化粧台
  6
EXLTYPE2
 62
     6
100
AcDbCircle
 10
820.0
 20
1298.5
 30
0.0
 40
14.25
100
AcDbArc
 50
324.177545
 51
335.822455
  0
ARC
  5
20A
100
AcDbEntity
  8
化粧台
  6
EXLTYPE2
 62
     6
100
AcDbCircle
 10
820.0
 20
1298.5
 30
0.0
 40
14.25
100
AcDbArc
 50
24.177545
 51
35.822455
  0
ARC
  5
20B
100
AcDbEntity
  8
化粧台
  6
EXLTYPE2
 62
     6
100
AcDbCircle
 10
820.0
 20
1298.5
 30
0.0
 40
14.25
100
AcDbArc
 50
84.177545
 51
95.822455
  0
ARC
  5
20C
100
AcDbEntity
  8
化粧台
  6
EXLTYPE2
 62
     6
100
AcDbCircle
 10
820.0
 20
1298.5
 30
0.0
 40
14.25
100
AcDbArc
 50
144.177545
 51
155.822455
  0
ARC
  5
20D
100
AcDbEntity
  8
化粧台
  6
EXLTYPE2
 62
     6
100
AcDbCircle
 10
820.0
 20
1298.5
 30
0.0
 40
14.25
100
AcDbArc
 50
204.177545
 51
215.822455
  0
CIRCLE
  5
20E
100
AcDbEntity
  8
化粧台
  6
EXLTYPE2
 62
     6
100
AcDbCircle
 10
820.0
 20
1298.5
 30
0.0
 40
4.75
  0
ARC
  5
20F
100
AcDbEntity
  8
化粧台
  6
EXLTYPE2
 62
     6
100
AcDbCircle
 10
847.0
 20
1298.5
 30
0.0
 40
40.0
100
AcDbArc
 50
165.638488
 51
169.811239
  0
ARC
  5
210
100
AcDbEntity
  8
化粧台
  6
EXLTYPE2
 62
     6
100
AcDbCircle
 10
793.0
 20
1298.5
 30
0.0
 40
40.0
100
AcDbArc
 50
10.188761
 51
14.361512
  0
LINE
  5
211
100
AcDbEntity
  8
化粧台
  6
EXLTYPE2
 62
     6
100
AcDbLine
 10
807.75
 20
1291.21989
 30
0.0
 11
807.75
 21
1278.365389
 31
0.0
  0
LINE
  5
212
100
AcDbEntity
  8
化粧台
  6
EXLTYPE2
 62
     6
100
AcDbLine
 10
832.25
 20
1291.21989
 30
0.0
 11
832.25
 21
1278.365389
 31
0.0
  0
LINE
  5
213
100
AcDbEntity
  8
化粧台
  6
EXLTYPE2
 62
     6
100
AcDbLine
 10
809.030456
 20
1321.2
 30
0.0
 11
830.969544
 21
1321.2
 31
0.0
  0
LINE
  5
214
100
AcDbEntity
  8
化粧台
  6
EXLTYPE2
 62
     6
100
AcDbLine
 10
809.030456
 20
1333.2
 30
0.0
 11
830.969544
 21
1333.2
 31
0.0
  0
LINE
  5
215
100
AcDbEntity
  8
化粧台
  6
EXLTYPE2
 62
     6
100
AcDbLine
 10
808.5
 20
1332.292887
 30
0.0
 11
808.5
 21
1322.107113
 31
0.0
  0
LINE
  5
216
100
AcDbEntity
  8
化粧台
  6
EXLTYPE2
 62
     6
100
AcDbLine
 10
831.5
 20
1332.292887
 30
0.0
 11
831.5
 21
1322.107113
 31
0.0
  0
ARC
  5
217
100
AcDbEntity
  8
化粧台
  6
EXLTYPE2
 62
     6
100
AcDbCircle
 10
818.25
 20
1327.2
 30
0.0
 40
11.0
100
AcDbArc
 50
146.944269
 51
152.419801
  0
ARC
  5
218
100
AcDbEntity
  8
化粧台
  6
EXLTYPE2
 62
     6
100
AcDbCircle
 10
818.25
 20
1327.2
 30
0.0
 40
11.0
100
AcDbArc
 50
207.580199
 51
213.055731
  0
ARC
  5
219
100
AcDbEntity
  8
化粧台
  6
EXLTYPE2
 62
     6
100
AcDbCircle
 10
821.75
 20
1327.2
 30
0.0
 40
11.0
100
AcDbArc
 50
326.944269
 51
332.419801
  0
ARC
  5
21A
100
AcDbEntity
  8
化粧台
  6
EXLTYPE2
 62
     6
100
AcDbCircle
 10
821.75
 20
1327.2
 30
0.0
 40
11.0
100
AcDbArc
 50
27.580199
 51
33.055731
  0
LINE
  5
21B
100
AcDbEntity
  8
化粧台
  6
EXLTYPE2
 62
     6
100
AcDbLine
 10
809.5
 20
1321.2
 30
0.0
 11
809.5
 21
1318.343135
 31
0.0
  0
LINE
  5
21C
100
AcDbEntity
  8
化粧台
  6
EXLTYPE2
 62
     6
100
AcDbLine
 10
830.5
 20
1321.2
 30
0.0
 11
830.5
 21
1318.343135
 31
0.0
  0
LINE
  5
21D
100
AcDbEntity
  8
化粧台
  6
EXLTYPE3
 62
     6
100
AcDbLine
 10
820.0
 20
1348.2
 30
0.0
 11
820.0
 21
925.5
 31
0.0
  0
LINE
  5
21E
100
AcDbEntity
  8
化粧台
  6
CONTINUOUS
 62
     6
100
AcDbLine
 10
809.5
 20
952.5
 30
0.0
 11
809.5
 21
940.5
 31
0.0
  0
LINE
  5
21F
100
AcDbEntity
  8
化粧台
  6
CONTINUOUS
 62
     6
100
AcDbLine
 10
830.5
 20
952.5
 30
0.0
 11
830.5
 21
940.5
 31
0.0
  0
LINE
  5
220
100
AcDbEntity
  8
化粧台
  6
EXLTYPE2
 62
     6
100
AcDbLine
 10
830.5
 20
1263.5
 30
0.0
 11
830.5
 21
952.5
 31
0.0
  0
LINE
  5
221
100
AcDbEntity
  8
化粧台
  6
EXLTYPE2
 62
     6
100
AcDbLine
 10
809.5
 20
1263.5
 30
0.0
 11
809.5
 21
952.5
 31
0.0
  0
LINE
  5
222
100
AcDbEntity
  8
化粧台
  6
CONTINUOUS
 62
     6
100
AcDbLine
 10
1009.5
 20
952.5
 30
0.0
 11
1009.5
 21
940.5
 31
0.0
  0
LINE
  5
223
100
AcDbEntity
  8
化粧台
  6
CONTINUOUS
 62
     6
100
AcDbLine
 10
1030.5
 20
952.5
 30
0.0
 11
1030.5
 21
940.5
 31
0.0
  0
LINE
  5
224
100
AcDbEntity
  8
化粧台
  6
EXLTYPE2
 62
     6
100
AcDbLine
 10
1030.5
 20
1263.5
 30
0.0
 11
1030.5
 21
952.5
 31
0.0
  0
LINE
  5
225
100
AcDbEntity
  8
化粧台
  6
EXLTYPE2
 62
     6
100
AcDbLine
 10
1009.5
 20
1263.5
 30
0.0
 11
1009.5
 21
952.5
 31
0.0
  0
LINE
  5
226
100
AcDbEntity
  8
化粧台
  6
EXLTYPE2
 62
     6
100
AcDbLine
 10
1263.5
 20
1568.5
 30
0.0
 11
576.5
 21
1568.5
 31
0.0
  0
ARC
  5
227
100
AcDbEntity
  8
化粧台
  6
EXLTYPE2
 62
     6
100
AcDbCircle
 10
1027.0
 20
1454.355042
 30
0.0
 40
214.0
100
AcDbArc
 50
144.21447
 51
180.0
  0
LINE
  5
228
100
AcDbEntity
  8
化粧台
  6
EXLTYPE2
 62
     6
100
AcDbLine
 10
813.0
 20
1333.2
 30
0.0
 11
813.0
 21
1454.355042
 31
0.0
  0
ARC
  5
229
100
AcDbEntity
  8
化粧台
  6
EXLTYPE2
 62
     6
100
AcDbCircle
 10
1027.0
 20
1454.355042
 30
0.0
 40
200.0
100
AcDbArc
 50
142.260394
 51
180.0
  0
LINE
  5
22A
100
AcDbEntity
  8
化粧台
  6
EXLTYPE2
 62
     6
100
AcDbLine
 10
827.0
 20
1333.2
 30
0.0
 11
827.0
 21
1454.355042
 31
0.0
  0
ARC
  5
22B
100
AcDbEntity
  8
化粧台
  6
EXLTYPE2
 62
     6
100
AcDbCircle
 10
813.0
 20
1454.355042
 30
0.0
 40
200.0
100
AcDbArc
 50
0.0
 51
37.739606
  0
ARC
  5
22C
100
AcDbEntity
  8
化粧台
  6
EXLTYPE2
 62
     6
100
AcDbCircle
 10
813.0
 20
1454.355042
 30
0.0
 40
214.0
100
AcDbArc
 50
0.0
 51
35.78553
  0
LINE
  5
22D
100
AcDbEntity
  8
化粧台
  6
EXLTYPE2
 62
     6
100
AcDbLine
 10
1013.0
 20
1333.2
 30
0.0
 11
1013.0
 21
1454.355042
 31
0.0
  0
LINE
  5
22E
100
AcDbEntity
  8
化粧台
  6
EXLTYPE2
 62
     6
100
AcDbLine
 10
1027.0
 20
1333.2
 30
0.0
 11
1027.0
 21
1454.355042
 31
0.0
  0
LINE
  5
22F
100
AcDbEntity
  8
化粧台
  6
CONTINUOUS
 62
     2
100
AcDbLine
 10
2058.0
 20
1598.5
 30
0.0
 11
2058.0
 21
1043.5
 31
0.0
  0
LINE
  5
230
100
AcDbEntity
  8
化粧台
  6
CONTINUOUS
 62
     2
100
AcDbLine
 10
2073.0
 20
1598.5
 30
0.0
 11
2073.0
 21
1043.5
 31
0.0
  0
LINE
  5
231
100
AcDbEntity
  8
化粧台
  6
CONTINUOUS
 62
     2
100
AcDbLine
 10
2073.0
 20
1598.5
 30
0.0
 11
2058.0
 21
1598.5
 31
0.0
  0
LINE
  5
232
100
AcDbEntity
  8
化粧台
  6
EXLTYPE3
 62
     6
100
AcDbLine
 10
2255.0
 20
1588.5
 30
0.0
 11
2255.0
 21
1423.5
 31
0.0
  0
LINE
  5
233
100
AcDbEntity
  8
化粧台
  6
CONTINUOUS
 62
     2
100
AcDbLine
 10
2465.0
 20
1533.5
 30
0.0
 11
2465.0
 21
1493.5
 31
0.0
  0
LINE
  5
234
100
AcDbEntity
  8
化粧台
  6
CONTINUOUS
 62
     2
100
AcDbLine
 10
2073.0
 20
1043.5
 30
0.0
 11
2058.0
 21
1043.5
 31
0.0
  0
LINE
  5
235
100
AcDbEntity
  8
化粧台
  6
CONTINUOUS
 62
     2
100
AcDbLine
 10
2403.25
 20
948.5
 30
0.0
 11
2416.75
 21
948.5
 31
0.0
  0
LINE
  5
236
100
AcDbEntity
  8
化粧台
  6
CONTINUOUS
 62
     2
100
AcDbLine
 10
2416.75
 20
948.5
 30
0.0
 11
2416.75
 21
952.0
 31
0.0
  0
LINE
  5
237
100
AcDbEntity
  8
化粧台
  6
CONTINUOUS
 62
     2
100
AcDbLine
 10
2403.25
 20
948.5
 30
0.0
 11
2403.25
 21
952.0
 31
0.0
  0
LINE
  5
238
100
AcDbEntity
  8
化粧台
  6
CONTINUOUS
 62
     2
100
AcDbLine
 10
2123.25
 20
948.5
 30
0.0
 11
2136.75
 21
948.5
 31
0.0
  0
LINE
  5
239
100
AcDbEntity
  8
化粧台
  6
CONTINUOUS
 62
     2
100
AcDbLine
 10
2136.75
 20
948.5
 30
0.0
 11
2136.75
 21
952.0
 31
0.0
  0
LINE
  5
23A
100
AcDbEntity
  8
化粧台
  6
CONTINUOUS
 62
     2
100
AcDbLine
 10
2123.25
 20
948.5
 30
0.0
 11
2123.25
 21
952.0
 31
0.0
  0
LINE
  5
23B
100
AcDbEntity
  8
化粧台
  6
CONTINUOUS
 62
     2
100
AcDbLine
 10
2033.0
 20
1560.0
 30
0.0
 11
2058.0
 21
1560.0
 31
0.0
  0
LINE
  5
23C
100
AcDbEntity
  8
化粧台
  6
CONTINUOUS
 62
     2
100
AcDbLine
 10
2033.0
 20
1547.0
 30
0.0
 11
2033.0
 21
1560.0
 31
0.0
  0
LINE
  5
23D
100
AcDbEntity
  8
化粧台
  6
CONTINUOUS
 62
     2
100
AcDbLine
 10
2033.0
 20
1547.0
 30
0.0
 11
2058.0
 21
1547.0
 31
0.0
  0
LINE
  5
23E
100
AcDbEntity
  8
化粧台
  6
CONTINUOUS
 62
     2
100
AcDbLine
 10
2040.0
 20
1547.0
 30
0.0
 11
2040.0
 21
1560.0
 31
0.0
  0
LINE
  5
23F
100
AcDbEntity
  8
化粧台
  6
CONTINUOUS
 62
     2
100
AcDbLine
 10
2075.0
 20
952.0
 30
0.0
 11
2465.0
 21
952.0
 31
0.0
  0
LINE
  5
240
100
AcDbEntity
  8
化粧台
  6
EXLTYPE2
 62
     6
100
AcDbLine
 10
2078.0
 20
1038.75
 30
0.0
 11
2078.0
 21
952.0
 31
0.0
  0
LINE
  5
241
100
AcDbEntity
  8
化粧台
  6
EXLTYPE2
 62
     6
100
AcDbLine
 10
2093.0
 20
1038.75
 30
0.0
 11
2093.0
 21
952.0
 31
0.0
  0
LINE
  5
242
100
AcDbEntity
  8
化粧台
  6
EXLTYPE2
 62
     6
100
AcDbLine
 10
2450.0
 20
1038.75
 30
0.0
 11
2075.0
 21
1038.75
 31
0.0
  0
LINE
  5
243
100
AcDbEntity
  8
化粧台
  6
EXLTYPE2
 62
     6
100
AcDbLine
 10
2447.5
 20
1053.75
 30
0.0
 11
2075.0
 21
1053.75
 31
0.0
  0
LINE
  5
244
100
AcDbEntity
  8
化粧台
  6
EXLTYPE2
 62
     6
100
AcDbLine
 10
2447.5
 20
1056.25
 30
0.0
 11
2075.0
 21
1056.25
 31
0.0
  0
LINE
  5
245
100
AcDbEntity
  8
化粧台
  6
EXLTYPE2
 62
     6
100
AcDbLine
 10
2447.5
 20
1533.5
 30
0.0
 11
2447.5
 21
1038.75
 31
0.0
  0
LINE
  5
246
100
AcDbEntity
  8
化粧台
  6
EXLTYPE2
 62
     6
100
AcDbLine
 10
2450.0
 20
1533.5
 30
0.0
 11
2450.0
 21
1038.75
 31
0.0
  0
LINE
  5
247
100
AcDbEntity
  8
化粧台
  6
CONTINUOUS
 62
     6
100
AcDbLine
 10
2195.0
 20
1053.75
 30
0.0
 11
2195.0
 21
1038.75
 31
0.0
  0
LINE
  5
248
100
AcDbEntity
  8
化粧台
  6
CONTINUOUS
 62
     6
100
AcDbLine
 10
2160.0
 20
1053.75
 30
0.0
 11
2160.0
 21
1038.75
 31
0.0
  0
LINE
  5
249
100
AcDbEntity
  8
化粧台
  6
CONTINUOUS
 62
     6
100
AcDbLine
 10
2108.0
 20
1053.75
 30
0.0
 11
2108.0
 21
1038.75
 31
0.0
  0
LINE
  5
24A
100
AcDbEntity
  8
化粧台
  6
CONTINUOUS
 62
     6
100
AcDbLine
 10
2415.0
 20
1053.75
 30
0.0
 11
2415.0
 21
1038.75
 31
0.0
  0
LINE
  5
24B
100
AcDbEntity
  8
化粧台
  6
EXLTYPE2
 62
     6
100
AcDbLine
 10
2093.25
 20
1618.5
 30
0.0
 11
2093.25
 21
1568.5
 31
0.0
  0
LINE
  5
24C
100
AcDbEntity
  8
化粧台
  6
EXLTYPE2
 62
     6
100
AcDbLine
 10
2075.0
 20
1618.5
 30
0.0
 11
2093.25
 21
1618.5
 31
0.0
  0
LINE
  5
24D
100
AcDbEntity
  8
化粧台
  6
EXLTYPE2
 62
     6
100
AcDbLine
 10
2075.0
 20
1568.5
 30
0.0
 11
2093.25
 21
1568.5
 31
0.0
  0
LINE
  5
24E
100
AcDbEntity
  8
化粧台
  6
EXLTYPE2
 62
     6
100
AcDbLine
 10
2450.0
 20
1493.5
 30
0.0
 11
2465.0
 21
1493.5
 31
0.0
  0
LINE
  5
24F
100
AcDbEntity
  8
化粧台
  6
EXLTYPE2
 62
     6
100
AcDbLine
 10
2447.5
 20
1533.5
 30
0.0
 11
2465.0
 21
1533.5
 31
0.0
  0
LINE
  5
250
100
AcDbEntity
  8
化粧台
  6
CONTINUOUS
 62
     6
100
AcDbLine
 10
2465.0
 20
1505.5
 30
0.0
 11
2497.5
 21
1503.5
 31
0.0
  0
LINE
  5
251
100
AcDbEntity
  8
化粧台
  6
CONTINUOUS
 62
     6
100
AcDbLine
 10
2497.5
 20
1503.5
 30
0.0
 11
2465.0
 21
1501.5
 31
0.0
  0
LINE
  5
252
100
AcDbEntity
  8
化粧台
  6
CONTINUOUS
 62
     6
100
AcDbLine
 10
2447.0
 20
1511.0
 30
0.0
 11
2446.0
 21
1511.0
 31
0.0
  0
LINE
  5
253
100
AcDbEntity
  8
化粧台
  6
CONTINUOUS
 62
     6
100
AcDbLine
 10
2447.0
 20
1496.0
 30
0.0
 11
2446.0
 21
1496.0
 31
0.0
  0
ARC
  5
254
100
AcDbEntity
  8
化粧台
  6
CONTINUOUS
 62
     6
100
AcDbCircle
 10
2447.039655
 20
1503.5
 30
0.0
 40
3.939655
100
AcDbArc
 50
105.301302
 51
254.698698
  0
LINE
  5
255
100
AcDbEntity
  8
化粧台
  6
CONTINUOUS
 62
     6
100
AcDbLine
 10
2446.0
 20
1511.0
 30
0.0
 11
2446.0
 21
1496.0
 31
0.0
  0
LINE
  5
256
100
AcDbEntity
  8
化粧台
  6
CONTINUOUS
 62
     6
100
AcDbLine
 10
2433.1
 20
1503.5
 30
0.0
 11
2507.5
 21
1503.5
 31
0.0
  0
LINE
  5
257
100
AcDbEntity
  8
化粧台
  6
EXLTYPE3
 62
     6
100
AcDbLine
 10
2345.0
 20
1119.0
 30
0.0
 11
2345.0
 21
903.5
 31
0.0
  0
LINE
  5
258
100
AcDbEntity
  8
化粧台
  6
EXLTYPE2
 62
     6
100
AcDbLine
 10
2220.0
 20
1535.5
 30
0.0
 11
2224.186047
 21
1538.5
 31
0.0
  0
LINE
  5
259
100
AcDbEntity
  8
化粧台
  6
EXLTYPE2
 62
     6
100
AcDbLine
 10
2220.0
 20
1535.5
 30
0.0
 11
2220.0
 21
1528.0
 31
0.0
  0
LINE
  5
25A
100
AcDbEntity
  8
化粧台
  6
EXLTYPE2
 62
     6
100
AcDbLine
 10
2281.25
 20
1483.5
 30
0.0
 11
2270.75
 21
1474.5
 31
0.0
  0
LINE
  5
25B
100
AcDbEntity
  8
化粧台
  6
EXLTYPE2
 62
     6
100
AcDbLine
 10
2283.412795
 20
1511.0
 30
0.0
 11
2281.25
 21
1508.0
 31
0.0
  0
LINE
  5
25C
100
AcDbEntity
  8
化粧台
  6
EXLTYPE2
 62
     6
100
AcDbLine
 10
2283.412795
 20
1528.0
 30
0.0
 11
2283.412795
 21
1511.0
 31
0.0
  0
LINE
  5
25D
100
AcDbEntity
  8
化粧台
  6
EXLTYPE2
 62
     6
100
AcDbLine
 10
2281.25
 20
1508.0
 30
0.0
 11
2281.25
 21
1483.5
 31
0.0
  0
LINE
  5
25E
100
AcDbEntity
  8
化粧台
  6
EXLTYPE2
 62
     6
100
AcDbLine
 10
2228.75
 20
1483.5
 30
0.0
 11
2239.25
 21
1474.5
 31
0.0
  0
LINE
  5
25F
100
AcDbEntity
  8
化粧台
  6
EXLTYPE2
 62
     6
100
AcDbLine
 10
2226.587205
 20
1511.0
 30
0.0
 11
2228.75
 21
1508.0
 31
0.0
  0
LINE
  5
260
100
AcDbEntity
  8
化粧台
  6
EXLTYPE2
 62
     6
100
AcDbLine
 10
2226.587205
 20
1528.0
 30
0.0
 11
2226.587205
 21
1511.0
 31
0.0
  0
LINE
  5
261
100
AcDbEntity
  8
化粧台
  6
EXLTYPE2
 62
     6
100
AcDbLine
 10
2228.75
 20
1508.0
 30
0.0
 11
2228.75
 21
1483.5
 31
0.0
  0
LINE
  5
262
100
AcDbEntity
  8
化粧台
  6
EXLTYPE2
 62
     6
100
AcDbLine
 10
2220.0
 20
1528.0
 30
0.0
 11
2290.0
 21
1528.0
 31
0.0
  0
LINE
  5
263
100
AcDbEntity
  8
化粧台
  6
EXLTYPE2
 62
     6
100
AcDbLine
 10
2228.75
 20
1508.0
 30
0.0
 11
2281.25
 21
1508.0
 31
0.0
  0
LINE
  5
264
100
AcDbEntity
  8
化粧台
  6
EXLTYPE2
 62
     6
100
AcDbLine
 10
2228.75
 20
1483.5
 30
0.0
 11
2281.25
 21
1483.5
 31
0.0
  0
LINE
  5
265
100
AcDbEntity
  8
化粧台
  6
EXLTYPE2
 62
     6
100
AcDbLine
 10
2239.25
 20
1474.5
 30
0.0
 11
2270.75
 21
1474.5
 31
0.0
  0
LINE
  5
266
100
AcDbEntity
  8
化粧台
  6
EXLTYPE2
 62
     6
100
AcDbLine
 10
2372.0
 20
1003.500004
 30
0.0
 11
2372.0
 21
992.500002
 31
0.0
  0
LINE
  5
267
100
AcDbEntity
  8
化粧台
  6
EXLTYPE2
 62
     6
100
AcDbLine
 10
2378.500004
 20
988.500002
 30
0.0
 11
2378.500004
 21
969.0
 31
0.0
  0
ARC
  5
268
100
AcDbEntity
  8
化粧台
  6
EXLTYPE2
 62
     6
100
AcDbCircle
 10
2369.0
 20
1003.500004
 30
0.0
 40
3.0
100
AcDbArc
 50
359.999995
 51
89.999997
  0
ARC
  5
269
100
AcDbEntity
  8
化粧台
  6
EXLTYPE2
 62
     6
100
AcDbCircle
 10
2373.0
 20
992.500002
 30
0.0
 40
1.0
100
AcDbArc
 50
180.0
 51
270.0
  0
ARC
  5
26A
100
AcDbEntity
  8
化粧台
  6
EXLTYPE2
 62
     6
100
AcDbCircle
 10
2375.500004
 20
988.500002
 30
0.0
 40
3.0
100
AcDbArc
 50
359.999995
 51
89.999997
  0
ARC
  5
26B
100
AcDbEntity
  8
化粧台
  6
EXLTYPE2
 62
     6
100
AcDbCircle
 10
2378.000004
 20
969.0
 30
0.0
 40
0.5
100
AcDbArc
 50
270.0
 51
0.0
  0
LINE
  5
26C
100
AcDbEntity
  8
化粧台
  6
EXLTYPE2
 62
     6
100
AcDbLine
 10
2367.999996
 20
1024.346519
 30
0.0
 11
2367.999996
 21
1008.54652
 31
0.0
  0
ARC
  5
26D
100
AcDbEntity
  8
化粧台
  6
EXLTYPE2
 62
     6
100
AcDbCircle
 10
2365.999996
 20
1024.346519
 30
0.0
 40
2.0
100
AcDbArc
 50
0.000009
 51
90.000004
  0
LINE
  5
26E
100
AcDbEntity
  8
化粧台
  6
EXLTYPE2
 62
     6
100
AcDbLine
 10
2318.0
 20
1003.500004
 30
0.0
 11
2318.0
 21
992.500002
 31
0.0
  0
LINE
  5
26F
100
AcDbEntity
  8
化粧台
  6
EXLTYPE2
 62
     6
100
AcDbLine
 10
2311.499996
 20
988.500002
 30
0.0
 11
2311.499996
 21
969.0
 31
0.0
  0
ARC
  5
270
100
AcDbEntity
  8
化粧台
  6
EXLTYPE2
 62
     6
100
AcDbCircle
 10
2321.0
 20
1003.500004
 30
0.0
 40
3.0
100
AcDbArc
 50
90.000003
 51
180.000005
  0
ARC
  5
271
100
AcDbEntity
  8
化粧台
  6
EXLTYPE2
 62
     6
100
AcDbCircle
 10
2317.0
 20
992.500002
 30
0.0
 40
1.0
100
AcDbArc
 50
270.0
 51
0.0
  0
ARC
  5
272
100
AcDbEntity
  8
化粧台
  6
EXLTYPE2
 62
     6
100
AcDbCircle
 10
2314.499996
 20
988.500002
 30
0.0
 40
3.0
100
AcDbArc
 50
90.000003
 51
180.000005
  0
ARC
  5
273
100
AcDbEntity
  8
化粧台
  6
EXLTYPE2
 62
     6
100
AcDbCircle
 10
2311.999996
 20
969.0
 30
0.0
 40
0.5
100
AcDbArc
 50
180.0
 51
270.0
  0
LINE
  5
274
100
AcDbEntity
  8
化粧台
  6
EXLTYPE2
 62
     6
100
AcDbLine
 10
2322.000004
 20
1024.346519
 30
0.0
 11
2322.000004
 21
1008.54652
 31
0.0
  0
ARC
  5
275
100
AcDbEntity
  8
化粧台
  6
EXLTYPE2
 62
     6
100
AcDbCircle
 10
2324.000004
 20
1024.346519
 30
0.0
 40
2.0
100
AcDbArc
 50
89.999996
 51
179.999991
  0
LINE
  5
276
100
AcDbEntity
  8
化粧台
  6
EXLTYPE2
 62
     6
100
AcDbLine
 10
2365.999996
 20
1026.346519
 30
0.0
 11
2324.000004
 21
1026.346519
 31
0.0
  0
LINE
  5
277
100
AcDbEntity
  8
化粧台
  6
EXLTYPE2
 62
     6
100
AcDbLine
 10
2367.999996
 20
1008.54652
 30
0.0
 11
2322.000004
 21
1008.54652
 31
0.0
  0
LINE
  5
278
100
AcDbEntity
  8
化粧台
  6
EXLTYPE2
 62
     6
100
AcDbLine
 10
2369.0
 20
1006.500004
 30
0.0
 11
2321.0
 21
1006.500004
 31
0.0
  0
LINE
  5
279
100
AcDbEntity
  8
化粧台
  6
EXLTYPE2
 62
     6
100
AcDbLine
 10
2375.500004
 20
991.500002
 30
0.0
 11
2314.499996
 21
991.500002
 31
0.0
  0
LINE
  5
27A
100
AcDbEntity
  8
化粧台
  6
EXLTYPE2
 62
     6
100
AcDbLine
 10
2378.000004
 20
968.5
 30
0.0
 11
2311.999996
 21
968.5
 31
0.0
  0
LINE
  5
27B
100
AcDbEntity
  8
化粧台
  6
EXLTYPE2
 62
     6
100
AcDbLine
 10
2236.75
 20
1446.7
 30
0.0
 11
2236.75
 21
1406.611864
 31
0.0
  0
LINE
  5
27C
100
AcDbEntity
  8
化粧台
  6
EXLTYPE2
 62
     6
100
AcDbLine
 10
2273.25
 20
1446.7
 30
0.0
 11
2273.25
 21
1406.611864
 31
0.0
  0
LINE
  5
27D
100
AcDbEntity
  8
化粧台
  6
EXLTYPE2
 62
     6
100
AcDbLine
 10
2236.75
 20
1406.611864
 30
0.0
 11
2238.0
 21
1405.611864
 31
0.0
  0
LINE
  5
27E
100
AcDbEntity
  8
化粧台
  6
EXLTYPE2
 62
     6
100
AcDbLine
 10
2272.0
 20
1405.611864
 30
0.0
 11
2273.25
 21
1406.611864
 31
0.0
  0
LINE
  5
27F
100
AcDbEntity
  8
化粧台
  6
EXLTYPE2
 62
     6
100
AcDbLine
 10
2238.0
 20
1405.611864
 30
0.0
 11
2272.0
 21
1405.611864
 31
0.0
  0
LINE
  5
280
100
AcDbEntity
  8
化粧台
  6
EXLTYPE2
 62
     6
100
AcDbLine
 10
2230.75
 20
1446.7
 30
0.0
 11
2279.25
 21
1446.7
 31
0.0
  0
LINE
  5
281
100
AcDbEntity
  8
化粧台
  6
EXLTYPE2
 62
     6
100
AcDbLine
 10
2230.75
 20
1461.5
 30
0.0
 11
2230.75
 21
1446.7
 31
0.0
  0
LINE
  5
282
100
AcDbEntity
  8
化粧台
  6
EXLTYPE2
 62
     6
100
AcDbLine
 10
2233.75
 20
1464.5
 30
0.0
 11
2276.25
 21
1464.5
 31
0.0
  0
LINE
  5
283
100
AcDbEntity
  8
化粧台
  6
EXLTYPE2
 62
     6
100
AcDbLine
 10
2279.25
 20
1461.5
 30
0.0
 11
2279.25
 21
1446.7
 31
0.0
  0
ARC
  5
284
100
AcDbEntity
  8
化粧台
  6
EXLTYPE2
 62
     6
100
AcDbCircle
 10
2233.75
 20
1461.5
 30
0.0
 40
3.0
100
AcDbArc
 50
90.0
 51
180.0
  0
ARC
  5
285
100
AcDbEntity
  8
化粧台
  6
EXLTYPE2
 62
     6
100
AcDbCircle
 10
2276.25
 20
1461.5
 30
0.0
 40
3.0
100
AcDbArc
 50
0.0
 51
90.0
  0
LINE
  5
286
100
AcDbEntity
  8
化粧台
  6
EXLTYPE2
 62
     6
100
AcDbLine
 10
2256.113889
 20
1332.611861
 30
0.0
 11
2286.113889
 21
1332.611861
 31
0.0
  0
LINE
  5
287
100
AcDbEntity
  8
化粧台
  6
EXLTYPE2
 62
     6
100
AcDbLine
 10
2256.113889
 20
1335.381771
 30
0.0
 11
2286.113889
 21
1335.381771
 31
0.0
  0
LINE
  5
288
100
AcDbEntity
  8
化粧台
  6
EXLTYPE2
 62
     6
100
AcDbLine
 10
2256.113889
 20
1335.381771
 30
0.0
 11
2256.113889
 21
1320.111865
 31
0.0
  0
LINE
  5
289
100
AcDbEntity
  8
化粧台
  6
EXLTYPE2
 62
     6
100
AcDbLine
 10
2257.613889
 20
1318.611865
 30
0.0
 11
2284.613889
 21
1318.611865
 31
0.0
  0
LINE
  5
28A
100
AcDbEntity
  8
化粧台
  6
EXLTYPE2
 62
     6
100
AcDbLine
 10
2286.113889
 20
1335.381771
 30
0.0
 11
2286.113889
 21
1320.111865
 31
0.0
  0
ARC
  5
28B
100
AcDbEntity
  8
化粧台
  6
EXLTYPE2
 62
     6
100
AcDbCircle
 10
2257.613889
 20
1320.111865
 30
0.0
 40
1.5
100
AcDbArc
 50
180.0
 51
270.0
  0
ARC
  5
28C
100
AcDbEntity
  8
化粧台
  6
EXLTYPE2
 62
     6
100
AcDbCircle
 10
2284.613889
 20
1320.111865
 30
0.0
 40
1.5
100
AcDbArc
 50
270.0
 51
0.0
  0
LINE
  5
28D
100
AcDbEntity
  8
化粧台
  6
EXLTYPE2
 62
     6
100
AcDbLine
 10
2311.477778
 20
1408.811312
 30
0.0
 11
2311.477778
 21
1394.011312
 31
0.0
  0
ARC
  5
28E
100
AcDbEntity
  8
化粧台
  6
EXLTYPE2
 62
     6
100
AcDbCircle
 10
2308.477778
 20
1408.811312
 30
0.0
 40
3.0
100
AcDbArc
 50
0.0
 51
90.0
  0
LINE
  5
28F
100
AcDbEntity
  8
化粧台
  6
EXLTYPE2
 62
     6
100
AcDbLine
 10
2305.477778
 20
1394.011312
 30
0.0
 11
2305.477778
 21
1365.911862
 31
0.0
  0
ARC
  5
290
100
AcDbEntity
  8
化粧台
  6
EXLTYPE2
 62
     6
100
AcDbCircle
 10
2304.477778
 20
1365.911862
 30
0.0
 40
1.0
100
AcDbArc
 50
270.0
 51
0.0
  0
LINE
  5
291
100
AcDbEntity
  8
化粧台
  6
EXLTYPE2
 62
     6
100
AcDbLine
 10
2238.0
 20
1405.611864
 30
0.0
 11
2238.0
 21
1373.895092
 31
0.0
  0
LINE
  5
292
100
AcDbEntity
  8
化粧台
  6
EXLTYPE2
 62
     6
100
AcDbLine
 10
2272.0
 20
1405.611864
 30
0.0
 11
2272.0
 21
1365.959507
 31
0.0
  0
LINE
  5
293
100
AcDbEntity
  8
化粧台
  6
EXLTYPE2
 62
     6
100
AcDbLine
 10
2298.4
 20
1364.911862
 30
0.0
 11
2304.477778
 21
1364.911862
 31
0.0
  0
LINE
  5
294
100
AcDbEntity
  8
化粧台
  6
EXLTYPE2
 62
     6
100
AcDbLine
 10
2273.25
 20
1411.811312
 30
0.0
 11
2308.477778
 21
1411.811312
 31
0.0
  0
LINE
  5
295
100
AcDbEntity
  8
化粧台
  6
EXLTYPE2
 62
     6
100
AcDbLine
 10
2272.0
 20
1394.011312
 30
0.0
 11
2311.477778
 21
1394.011312
 31
0.0
  0
ARC
  5
296
100
AcDbEntity
  8
化粧台
  6
EXLTYPE2
 62
     6
100
AcDbCircle
 10
2273.847644
 20
1365.959507
 30
0.0
 40
1.847644
100
AcDbArc
 50
180.0
 51
0.0
  0
ARC
  5
297
100
AcDbEntity
  8
化粧台
  6
EXLTYPE2
 62
     6
100
AcDbCircle
 10
2288.0
 20
1373.895092
 30
0.0
 40
50.0
100
AcDbArc
 50
180.0
 51
230.37782
  0
ARC
  5
298
100
AcDbEntity
  8
化粧台
  6
EXLTYPE2
 62
     6
100
AcDbCircle
 10
2264.705101
 20
1369.170287
 30
0.0
 40
40.0
100
AcDbArc
 50
302.358812
 51
353.888675
  0
LINE
  5
299
100
AcDbEntity
  8
化粧台
  6
EXLTYPE2
 62
     6
100
AcDbLine
 10
2303.227778
 20
1433.025752
 30
0.0
 11
2303.227778
 21
1411.811312
 31
0.0
  0
ARC
  5
29A
100
AcDbEntity
  8
化粧台
  6
EXLTYPE2
 62
     6
100
AcDbCircle
 10
2316.113889
 20
1433.025752
 30
0.0
 40
12.886111
100
AcDbArc
 50
0.0
 51
180.0
  0
ARC
  5
29B
100
AcDbEntity
  8
化粧台
  6
EXLTYPE2
 62
     6
100
AcDbCircle
 10
2316.113889
 20
1433.025752
 30
0.0
 40
44.886111
100
AcDbArc
 50
0.0
 51
145.212738
  0
LINE
  5
29C
100
AcDbEntity
  8
化粧台
  6
EXLTYPE2
 62
     6
100
AcDbLine
 10
2239.25
 20
1474.5
 30
0.0
 11
2239.25
 21
1464.5
 31
0.0
  0
LINE
  5
29D
100
AcDbEntity
  8
化粧台
  6
EXLTYPE2
 62
     6
100
AcDbLine
 10
2270.75
 20
1474.5
 30
0.0
 11
2270.75
 21
1464.5
 31
0.0
  0
LINE
  5
29E
100
AcDbEntity
  8
化粧台
  6
EXLTYPE2
 62
     6
100
AcDbLine
 10
2290.0
 20
1535.5
 30
0.0
 11
2290.0
 21
1528.0
 31
0.0
  0
LINE
  5
29F
100
AcDbEntity
  8
化粧台
  6
EXLTYPE2
 62
     6
100
AcDbLine
 10
2290.0
 20
1535.5
 30
0.0
 11
2285.813953
 21
1538.5
 31
0.0
  0
LINE
  5
2A0
100
AcDbEntity
  8
化粧台
  6
EXLTYPE2
 62
     6
100
AcDbLine
 10
2329.0
 20
952.0
 30
0.0
 11
2329.0
 21
1433.025752
 31
0.0
  0
LINE
  5
2A1
100
AcDbEntity
  8
化粧台
  6
EXLTYPE2
 62
     6
100
AcDbLine
 10
2361.0
 20
952.0
 30
0.0
 11
2361.0
 21
1433.025752
 31
0.0
  0
LINE
  5
2A2
100
AcDbEntity
  8
化粧台
  6
EXLTYPE3
 62
     6
100
AcDbLine
 10
2375.75
 20
1448.5
 30
0.0
 11
2501.0
 21
1448.5
 31
0.0
  0
LINE
  5
2A3
100
AcDbEntity
  8
化粧台
  6
EXLTYPE4
 62
     6
100
AcDbLine
 10
2486.0
 20
1432.5
 30
0.0
 11
2390.75
 21
1432.5
 31
0.0
  0
LINE
  5
2A4
100
AcDbEntity
  8
化粧台
  6
EXLTYPE4
 62
     6
100
AcDbLine
 10
2486.0
 20
1464.5
 30
0.0
 11
2390.75
 21
1464.5
 31
0.0
  0
LINE
  5
2A5
100
AcDbEntity
  8
化粧台
  6
CONTINUOUS
 62
     6
100
AcDbLine
 10
2486.0
 20
1464.5
 30
0.0
 11
2486.0
 21
1432.5
 31
0.0
  0
LINE
  5
2A6
100
AcDbEntity
  8
化粧台
  6
CONTINUOUS
 62
     6
100
AcDbLine
 10
2390.5
 20
940.5
 30
0.0
 11
2369.5
 21
940.5
 31
0.0
  0
ARC
  5
2A7
100
AcDbEntity
  8
化粧台
  6
EXLTYPE2
 62
     6
100
AcDbCircle
 10
2430.5
 20
1318.343135
 30
0.0
 40
40.0
100
AcDbArc
 50
180.0
 51
194.361512
  0
ARC
  5
2A8
100
AcDbEntity
  8
化粧台
  6
EXLTYPE2
 62
     6
100
AcDbCircle
 10
2353.0
 20
1298.5
 30
0.0
 40
40.0
100
AcDbArc
 50
352.14831
 51
14.361512
  0
ARC
  5
2A9
100
AcDbEntity
  8
化粧台
  6
EXLTYPE2
 62
     6
100
AcDbCircle
 10
2432.25
 20
1287.571254
 30
0.0
 40
40.0
100
AcDbArc
 50
172.14831
 51
180.0
  0
LINE
  5
2AA
100
AcDbEntity
  8
化粧台
  6
EXLTYPE2
 62
     6
100
AcDbLine
 10
2392.25
 20
1263.5
 30
0.0
 11
2394.722432
 21
1264.927459
 31
0.0
  0
ARC
  5
2AB
100
AcDbEntity
  8
化粧台
  6
EXLTYPE2
 62
     6
100
AcDbCircle
 10
2399.75
 20
1278.365389
 30
0.0
 40
7.5
100
AcDbArc
 50
180.0
 51
227.906502
  0
LINE
  5
2AC
100
AcDbEntity
  8
化粧台
  6
EXLTYPE2
 62
     6
100
AcDbLine
 10
2392.25
 20
1287.571254
 30
0.0
 11
2392.25
 21
1278.365389
 31
0.0
  0
LINE
  5
2AD
100
AcDbEntity
  8
化粧台
  6
EXLTYPE2
 62
     6
100
AcDbLine
 10
2394.722432
 20
1264.927459
 30
0.0
 11
2394.722432
 21
1272.8
 31
0.0
  0
LINE
  5
2AE
100
AcDbEntity
  8
化粧台
  6
EXLTYPE2
 62
     6
100
AcDbLine
 10
2367.75
 20
1263.5
 30
0.0
 11
2365.277568
 21
1264.927459
 31
0.0
  0
ARC
  5
2AF
100
AcDbEntity
  8
化粧台
  6
EXLTYPE2
 62
     6
100
AcDbCircle
 10
2360.25
 20
1278.365389
 30
0.0
 40
7.5
100
AcDbArc
 50
312.093498
 51
0.0
  0
LINE
  5
2B0
100
AcDbEntity
  8
化粧台
  6
EXLTYPE2
 62
     6
100
AcDbLine
 10
2365.277568
 20
1264.927459
 30
0.0
 11
2365.277568
 21
1272.8
 31
0.0
  0
LINE
  5
2B1
100
AcDbEntity
  8
化粧台
  6
EXLTYPE2
 62
     6
100
AcDbLine
 10
2392.25
 20
1263.5
 30
0.0
 11
2367.75
 21
1263.5
 31
0.0
  0
ARC
  5
2B2
100
AcDbEntity
  8
化粧台
  6
EXLTYPE2
 62
     6
100
AcDbCircle
 10
2362.0
 20
1318.0
 30
0.0
 40
7.5
100
AcDbArc
 50
270.0
 51
0.0
  0
ARC
  5
2B3
100
AcDbEntity
  8
化粧台
  6
EXLTYPE2
 62
     6
100
AcDbCircle
 10
2360.25
 20
1279.0
 30
0.0
 40
7.5
100
AcDbArc
 50
0.0
 51
90.0
  0
LINE
  5
2B4
100
AcDbEntity
  8
化粧台
  6
EXLTYPE2
 62
     6
100
AcDbLine
 10
2367.75
 20
1279.0
 30
0.0
 11
2367.75
 21
1278.365389
 31
0.0
  0
LINE
  5
2B5
100
AcDbEntity
  8
化粧台
  6
EXLTYPE2
 62
     6
100
AcDbLine
 10
2356.5
 20
1310.5
 30
0.0
 11
2362.0
 21
1310.5
 31
0.0
  0
LINE
  5
2B6
100
AcDbEntity
  8
化粧台
  6
EXLTYPE2
 62
     6
100
AcDbLine
 10
2356.5
 20
1286.5
 30
0.0
 11
2360.25
 21
1286.5
 31
0.0
  0
LINE
  5
2B7
100
AcDbEntity
  8
化粧台
  6
EXLTYPE2
 62
     6
100
AcDbLine
 10
2343.6
 20
1303.8
 30
0.0
 11
2343.6
 21
1293.2
 31
0.0
  0
LINE
  5
2B8
100
AcDbEntity
  8
化粧台
  6
EXLTYPE2
 62
     6
100
AcDbLine
 10
2356.5
 20
1311.25
 30
0.0
 11
2356.5
 21
1285.75
 31
0.0
  0
ARC
  5
2B9
100
AcDbEntity
  8
化粧台
  6
EXLTYPE2
 62
     6
100
AcDbCircle
 10
2352.725083
 20
1307.25
 30
0.0
 40
5.5
100
AcDbArc
 50
46.658242
 51
142.812374
  0
LINE
  5
2BA
100
AcDbEntity
  8
化粧台
  6
EXLTYPE2
 62
     6
100
AcDbLine
 10
2343.6
 20
1303.8
 30
0.0
 11
2348.34345
 21
1310.574349
 31
0.0
  0
ARC
  5
2BB
100
AcDbEntity
  8
化粧台
  6
EXLTYPE2
 62
     6
100
AcDbCircle
 10
2352.725083
 20
1289.75
 30
0.0
 40
5.5
100
AcDbArc
 50
217.187626
 51
313.341758
  0
LINE
  5
2BC
100
AcDbEntity
  8
化粧台
  6
EXLTYPE2
 62
     6
100
AcDbLine
 10
2343.6
 20
1293.2
 30
0.0
 11
2348.34345
 21
1286.425651
 31
0.0
  0
LINE
  5
2BD
100
AcDbEntity
  8
化粧台
  6
EXLTYPE2
 62
     6
100
AcDbLine
 10
2348.34345
 20
1310.574349
 30
0.0
 11
2348.34345
 21
1286.425651
 31
0.0
  0
ARC
  5
2BE
100
AcDbEntity
  8
化粧台
  6
EXLTYPE2
 62
     6
100
AcDbCircle
 10
2381.75
 20
1327.2
 30
0.0
 40
11.0
100
AcDbArc
 50
326.944269
 51
33.055731
  0
LINE
  5
2BF
100
AcDbEntity
  8
化粧台
  6
EXLTYPE2
 62
     6
100
AcDbLine
 10
2390.969544
 20
1321.2
 30
0.0
 11
2369.030456
 21
1321.2
 31
0.0
  0
LINE
  5
2C0
100
AcDbEntity
  8
化粧台
  6
EXLTYPE2
 62
     6
100
AcDbLine
 10
2390.969544
 20
1333.2
 30
0.0
 11
2369.030456
 21
1333.2
 31
0.0
  0
ARC
  5
2C1
100
AcDbEntity
  8
化粧台
  6
EXLTYPE2
 62
     6
100
AcDbCircle
 10
2378.25
 20
1327.2
 30
0.0
 40
11.0
100
AcDbArc
 50
146.944269
 51
213.055731
  0
LINE
  5
2C2
100
AcDbEntity
  8
化粧台
  6
EXLTYPE2
 62
     6
100
AcDbLine
 10
2369.5
 20
1321.2
 30
0.0
 11
2369.5
 21
1318.0
 31
0.0
  0
LINE
  5
2C3
100
AcDbEntity
  8
化粧台
  6
EXLTYPE2
 62
     6
100
AcDbLine
 10
2390.5
 20
1321.2
 30
0.0
 11
2390.5
 21
1318.343135
 31
0.0
  0
LINE
  5
2C4
100
AcDbEntity
  8
化粧台
  6
EXLTYPE2
 62
     6
100
AcDbLine
 10
2338.0
 20
1293.75
 30
0.0
 11
2343.6
 21
1293.75
 31
0.0
  0
LINE
  5
2C5
100
AcDbEntity
  8
化粧台
  6
EXLTYPE2
 62
     6
100
AcDbLine
 10
2338.0
 20
1303.25
 30
0.0
 11
2343.6
 21
1303.25
 31
0.0
  0
LINE
  5
2C6
100
AcDbEntity
  8
化粧台
  6
EXLTYPE2
 62
     6
100
AcDbLine
 10
2338.0
 20
1303.25
 30
0.0
 11
2338.0
 21
1293.75
 31
0.0
  0
LINE
  5
2C7
100
AcDbEntity
  8
化粧台
  6
EXLTYPE3
 62
     6
100
AcDbLine
 10
2380.0
 20
1348.2
 30
0.0
 11
2380.0
 21
925.5
 31
0.0
  0
LINE
  5
2C8
100
AcDbEntity
  8
化粧台
  6
CONTINUOUS
 62
     6
100
AcDbLine
 10
2369.5
 20
952.0
 30
0.0
 11
2369.5
 21
940.5
 31
0.0
  0
LINE
  5
2C9
100
AcDbEntity
  8
化粧台
  6
CONTINUOUS
 62
     6
100
AcDbLine
 10
2390.5
 20
952.0
 30
0.0
 11
2390.5
 21
940.5
 31
0.0
  0
LINE
  5
2CA
100
AcDbEntity
  8
化粧台
  6
EXLTYPE2
 62
     6
100
AcDbLine
 10
2390.5
 20
1263.5
 30
0.0
 11
2390.5
 21
952.0
 31
0.0
  0
LINE
  5
2CB
100
AcDbEntity
  8
化粧台
  6
EXLTYPE2
 62
     6
100
AcDbLine
 10
2369.5
 20
1263.5
 30
0.0
 11
2369.5
 21
952.0
 31
0.0
  0
LINE
  5
2CC
100
AcDbEntity
  8
化粧台
  6
EXLTYPE2
 62
     6
100
AcDbLine
 10
2411.5
 20
1288.0
 30
0.0
 11
2473.0
 21
1288.0
 31
0.0
  0
LINE
  5
2CD
100
AcDbEntity
  8
化粧台
  6
EXLTYPE2
 62
     6
100
AcDbLine
 10
2411.5
 20
1309.0
 30
0.0
 11
2473.0
 21
1309.0
 31
0.0
  0
LINE
  5
2CE
100
AcDbEntity
  8
化粧台
  6
CONTINUOUS
 62
     6
100
AcDbLine
 10
2473.0
 20
1309.0
 30
0.0
 11
2473.0
 21
1288.0
 31
0.0
  0
LINE
  5
2CF
100
AcDbEntity
  8
化粧台
  6
EXLTYPE3
 62
     6
100
AcDbLine
 10
2328.0
 20
1298.5
 30
0.0
 11
2488.0
 21
1298.5
 31
0.0
  0
LINE
  5
2D0
100
AcDbEntity
  8
化粧台
  6
CONTINUOUS
 62
     2
100
AcDbLine
 10
2465.0
 20
1743.5
 30
0.0
 11
2465.0
 21
952.0
 31
0.0
  0
ARC
  5
2D1
100
AcDbEntity
  8
化粧台
  6
CONTINUOUS
 62
     2
100
AcDbCircle
 10
2065.0
 20
1618.5
 30
0.0
 40
5.0
100
AcDbArc
 50
270.0
 51
0.0
  0
LINE
  5
2D2
100
AcDbEntity
  8
化粧台
  6
CONTINUOUS
 62
     2
100
AcDbLine
 10
2465.0
 20
1743.5
 30
0.0
 11
2445.385165
 21
1743.5
 31
0.0
  0
ARC
  5
2D3
100
AcDbEntity
  8
化粧台
  6
CONTINUOUS
 62
     2
100
AcDbCircle
 10
2445.385165
 20
1738.5
 30
0.0
 40
5.0
100
AcDbArc
 50
90.0
 51
158.198591
  0
LINE
  5
2D4
100
AcDbEntity
  8
化粧台
  6
CONTINUOUS
 62
     2
100
AcDbLine
 10
2440.742781
 20
1740.356953
 30
0.0
 11
2439.257219
 21
1736.643047
 31
0.0
  0
ARC
  5
2D5
100
AcDbEntity
  8
化粧台
  6
CONTINUOUS
 62
     2
100
AcDbCircle
 10
2434.614835
 20
1738.5
 30
0.0
 40
5.0
100
AcDbArc
 50
270.0
 51
338.198591
  0
LINE
  5
2D6
100
AcDbEntity
  8
化粧台
  6
CONTINUOUS
 62
     2
100
AcDbLine
 10
2070.0
 20
1668.5
 30
0.0
 11
2070.0
 21
1618.5
 31
0.0
  0
ARC
  5
2D7
100
AcDbEntity
  8
化粧台
  6
CONTINUOUS
 62
     2
100
AcDbCircle
 10
2080.0
 20
1668.5
 30
0.0
 40
10.0
100
AcDbArc
 50
90.0
 51
180.0
  0
LINE
  5
2D8
100
AcDbEntity
  8
化粧台
  6
CONTINUOUS
 62
     2
100
AcDbLine
 10
2465.0
 20
1678.5
 30
0.0
 11
2080.0
 21
1678.5
 31
0.0
  0
LINE
  5
2D9
100
AcDbEntity
  8
化粧台
  6
CONTINUOUS
 62
     2
100
AcDbLine
 10
2434.614835
 20
1733.5
 30
0.0
 11
2016.318171
 21
1733.5
 31
0.0
  0
LINE
  5
2DA
100
AcDbEntity
  8
化粧台
  6
CONTINUOUS
 62
     2
100
AcDbLine
 10
1985.456008
 20
1721.413822
 30
0.0
 11
2033.662244
 21
1616.413822
 31
0.0
  0
LINE
  5
2DB
100
AcDbEntity
  8
化粧台
  6
CONTINUOUS
 62
     2
100
AcDbLine
 10
2065.0
 20
1613.5
 30
0.0
 11
2038.206236
 21
1613.5
 31
0.0
  0
ARC
  5
2DC
100
AcDbEntity
  8
化粧台
  6
CONTINUOUS
 62
     2
100
AcDbCircle
 10
2038.206236
 20
1618.5
 30
0.0
 40
5.0
100
AcDbArc
 50
186.285124
 51
270.0
  0
ARC
  5
2DD
100
AcDbEntity
  8
化粧台
  6
CONTINUOUS
 62
     2
100
AcDbCircle
 10
1990.0
 20
1723.5
 30
0.0
 40
5.0
100
AcDbArc
 50
103.505761
 51
204.660187
  0
ARC
  5
2DE
100
AcDbEntity
  8
化粧台
  6
CONTINUOUS
 62
     2
100
AcDbCircle
 10
2016.318171
 20
1682.043204
 30
0.0
 40
51.456796
100
AcDbArc
 50
90.0
 51
103.505761
  0
LINE
  5
2DF
100
AcDbEntity
  8
化粧台
  6
CONTINUOUS
 62
     2
100
AcDbLine
 10
2004.30079
 20
1732.077037
 30
0.0
 11
1988.832284
 21
1728.361732
 31
0.0
  0
LINE
  5
2E0
100
AcDbEntity
  8
化粧台
  6
CONTINUOUS
 62
     2
100
AcDbLine
 10
2011.41431
 20
1727.524218
 30
0.0
 11
2033.302375
 21
1617.524218
 31
0.0
  0
ARC
  5
2E1
100
AcDbEntity
  8
化粧台
  6
CONTINUOUS
 62
     2
100
AcDbCircle
 10
2016.318171
 20
1728.5
 30
0.0
 40
5.0
100
AcDbArc
 50
90.0
 51
191.25386
  0
ARC
  5
2E2
100
AcDbEntity
  8
化粧台
  6
EXLTYPE2
 62
     6
100
AcDbCircle
 10
2205.468301
 20
1567.372534
 30
0.0
 40
9.0
100
AcDbArc
 50
7.786183
 51
79.167881
  0
LINE
  5
2E3
100
AcDbEntity
  8
化粧台
  6
EXLTYPE2
 62
     6
100
AcDbLine
 10
2214.385325
 20
1568.591823
 30
0.0
 11
2217.908937
 21
1542.822617
 31
0.0
  0
ARC
  5
2E4
100
AcDbEntity
  8
化粧台
  6
EXLTYPE2
 62
     6
100
AcDbCircle
 10
2222.86284
 20
1543.5
 30
0.0
 40
5.0
100
AcDbArc
 50
187.786183
 51
270.0
  0
LINE
  5
2E5
100
AcDbEntity
  8
化粧台
  6
EXLTYPE2
 62
     6
100
AcDbLine
 10
2287.13716
 20
1538.5
 30
0.0
 11
2222.86284
 21
1538.5
 31
0.0
  0
ARC
  5
2E6
100
AcDbEntity
  8
化粧台
  6
EXLTYPE2
 62
     6
100
AcDbCircle
 10
2295.802606
 20
1538.509003
 30
0.0
 40
5.0
100
AcDbArc
 50
91.036711
 51
150.059546
  0
ARC
  5
2E7
100
AcDbEntity
  8
化粧台
  6
EXLTYPE2
 62
     6
100
AcDbCircle
 10
2287.13716
 20
1543.5
 30
0.0
 40
5.0
100
AcDbArc
 50
270.0
 51
330.059546
  0
ARC
  5
2E8
100
AcDbEntity
  8
化粧台
  6
EXLTYPE2
 62
     6
100
AcDbCircle
 10
2294.807489
 20
1593.5
 30
0.0
 40
50.0
100
AcDbArc
 50
271.036711
 51
309.391198
  0
ARC
  5
2E9
100
AcDbEntity
  8
化粧台
  6
EXLTYPE2
 62
     6
100
AcDbCircle
 10
2338.113883
 20
1603.5
 30
0.0
 40
50.0
100
AcDbArc
 50
251.565051
 51
270.0
  0
LINE
  5
2EA
100
AcDbEntity
  8
化粧台
  6
EXLTYPE2
 62
     6
100
AcDbLine
 10
2125.711846
 20
1621.596051
 30
0.0
 11
2322.302495
 21
1556.065835
 31
0.0
  0
ARC
  5
2EB
100
AcDbEntity
  8
化粧台
  6
EXLTYPE2
 62
     6
100
AcDbCircle
 10
2128.874123
 20
1631.082884
 30
0.0
 40
10.0
100
AcDbArc
 50
189.462322
 51
251.565051
  0
LINE
  5
2EC
100
AcDbEntity
  8
化粧台
  6
EXLTYPE2
 62
     6
100
AcDbLine
 10
2110.833333
 20
1678.5
 30
0.0
 11
2119.010184
 21
1629.438894
 31
0.0
  0
LINE
  5
2ED
100
AcDbEntity
  8
化粧台
  6
EXLTYPE2
 62
     6
100
AcDbLine
 10
2455.0
 20
1553.5
 30
0.0
 11
2338.113883
 21
1553.5
 31
0.0
  0
ARC
  5
2EE
100
AcDbEntity
  8
化粧台
  6
EXLTYPE2
 62
     6
100
AcDbCircle
 10
2455.0
 20
1563.5
 30
0.0
 40
10.0
100
AcDbArc
 50
270.0
 51
0.0
  0
ARC
  5
2EF
100
AcDbEntity
  8
化粧台
  6
EXLTYPE2
 62
     6
100
AcDbCircle
 10
2255.834059
 20
1830.597324
 30
0.0
 40
259.0
100
AcDbArc
 50
228.237442
 51
259.167881
  0
ARC
  5
2F0
100
AcDbEntity
  8
化粧台
  6
CONTINUOUS
 62
     6
100
AcDbCircle
 10
2078.0
 20
1631.438977
 30
0.0
 40
8.0
100
AcDbArc
 50
48.237442
 51
180.0
  0
LINE
  5
2F1
100
AcDbEntity
  8
化粧台
  6
CONTINUOUS
 62
     2
100
AcDbLine
 10
2075.0
 20
1677.160254
 30
0.0
 11
2075.0
 21
952.0
 31
0.0
  0
LINE
  5
2F2
100
AcDbEntity
  8
化粧台
  6
CONTINUOUS
 62
     6
100
AcDbLine
 10
2385.0
 20
1750.722388
 30
0.0
 11
2385.0
 21
1710.722388
 31
0.0
  0
LINE
  5
2F3
100
AcDbEntity
  8
化粧台
  6
CONTINUOUS
 62
     6
100
AcDbLine
 10
2329.0
 20
918.5
 30
0.0
 11
2361.0
 21
918.5
 31
0.0
  0
LINE
  5
2F4
100
AcDbEntity
  8
化粧台
  6
CONTINUOUS
 62
     6
100
AcDbLine
 10
2329.0
 20
918.5
 30
0.0
 11
2329.0
 21
952.0
 31
0.0
  0
LINE
  5
2F5
100
AcDbEntity
  8
化粧台
  6
CONTINUOUS
 62
     6
100
AcDbLine
 10
2361.0
 20
918.5
 30
0.0
 11
2361.0
 21
952.0
 31
0.0
  0
LINE
  5
2F6
100
AcDbEntity
  8
化粧台
  6
CONTINUOUS
 62
     6
100
AcDbLine
 10
869.0
 20
1763.5
 30
0.0
 11
869.0
 21
1710.722388
 31
0.0
  0
LINE
  5
2F7
100
AcDbEntity
  8
化粧台
  6
CONTINUOUS
 62
     6
100
AcDbLine
 10
971.0
 20
1763.5
 30
0.0
 11
971.0
 21
1710.722388
 31
0.0
  0
ARC
  5
2F8
100
AcDbEntity
  8
化粧台
  6
CONTINUOUS
 62
     2
100
AcDbCircle
 10
920.0
 20
15398.237234
 30
0.0
 40
13669.737234
100
AcDbArc
 50
268.450554
 51
271.549446
  0
LINE
  5
2F9
100
AcDbEntity
  8
化粧台
  6
CONTINUOUS
 62
     6
100
AcDbLine
 10
1166.48321
 20
1730.722388
 30
0.0
 11
673.51679
 21
1730.722388
 31
0.0
  0
ARC
  5
2FA
100
AcDbEntity
  8
化粧台
  6
CONTINUOUS
 62
     6
100
AcDbCircle
 10
869.0
 20
3893.0
 30
0.0
 40
20.0
100
AcDbArc
 50
92.981359
 51
257.188799
  0
ARC
  5
2FB
100
AcDbEntity
  8
化粧台
  6
CONTINUOUS
 62
     6
100
AcDbCircle
 10
971.0
 20
3893.0
 30
0.0
 40
20.0
100
AcDbArc
 50
282.811201
 51
87.018641
  0
ARC
  5
2FC
100
AcDbEntity
  8
化粧台
  6
CONTINUOUS
 62
     6
100
AcDbCircle
 10
920.0
 20
2913.766366
 30
0.0
 40
1000.560814
100
AcDbArc
 50
87.018641
 51
92.981359
  0
ARC
  5
2FD
100
AcDbEntity
  8
化粧台
  6
CONTINUOUS
 62
     6
100
AcDbCircle
 10
920.0
 20
4117.247438
 30
0.0
 40
249.973724
100
AcDbArc
 50
257.18731
 51
262.203178
  0
ARC
  5
2FE
100
AcDbEntity
  8
化粧台
  6
CONTINUOUS
 62
     6
100
AcDbCircle
 10
920.0
 20
4117.247438
 30
0.0
 40
249.973724
100
AcDbArc
 50
277.796822
 51
282.81269
  0
ARC
  5
2FF
100
AcDbEntity
  8
化粧台
  6
CONTINUOUS
 62
     6
100
AcDbCircle
 10
920.0
 20
3776.10278
 30
0.0
 40
16.0
100
AcDbArc
 50
186.414462
 51
353.585538
  0
ARC
  5
300
100
AcDbEntity
  8
化粧台
  6
CONTINUOUS
 62
     6
100
AcDbCircle
 10
-1051.579667
 20
3997.7548
 30
0.0
 40
2000.0
100
AcDbArc
 50
353.585538
 51
356.008301
  0
ARC
  5
301
100
AcDbEntity
  8
化粧台
  6
CONTINUOUS
 62
     6
100
AcDbCircle
 10
955.539515
 20
3857.695566
 30
0.0
 40
12.0
100
AcDbArc
 50
97.796822
 51
176.008301
  0
ARC
  5
302
100
AcDbEntity
  8
化粧台
  6
CONTINUOUS
 62
     6
100
AcDbCircle
 10
2891.579666
 20
3997.7548
 30
0.0
 40
2000.0
100
AcDbArc
 50
183.991699
 51
186.414462
  0
ARC
  5
303
100
AcDbEntity
  8
化粧台
  6
CONTINUOUS
 62
     6
100
AcDbCircle
 10
884.460484
 20
3857.695566
 30
0.0
 40
12.0
100
AcDbArc
 50
3.991699
 51
82.203178
  0
LINE
  5
304
100
AcDbEntity
  8
化粧台
  6
CONTINUOUS
 62
     6
100
AcDbLine
 10
912.088179
 20
3772.292828
 30
0.0
 11
902.546162
 21
3836.027245
 31
0.0
  0
LINE
  5
305
100
AcDbEntity
  8
化粧台
  6
CONTINUOUS
 62
     6
100
AcDbLine
 10
927.911821
 20
3772.292828
 30
0.0
 11
937.596179
 21
3836.977998
 31
0.0
  0
ARC
  5
306
100
AcDbEntity
  8
化粧台
  6
CONTINUOUS
 62
     6
100
AcDbCircle
 10
920.0
 20
3773.477349
 30
0.0
 40
8.0
100
AcDbArc
 50
188.514811
 51
351.485189
  0
ARC
  5
307
100
AcDbEntity
  8
化粧台
  6
CONTINUOUS
 62
     6
100
AcDbCircle
 10
865.123118
 20
3830.424443
 30
0.0
 40
37.840132
100
AcDbArc
 50
8.514811
 51
31.171388
  0
ARC
  5
308
100
AcDbEntity
  8
化粧台
  6
CONTINUOUS
 62
     6
100
AcDbCircle
 10
974.876881
 20
3830.424443
 30
0.0
 40
37.840132
100
AcDbArc
 50
148.828612
 51
171.485189
  0
ELLIPSE
  5
309
100
AcDbEntity
  8
化粧台
  6
CONTINUOUS
 62
     6
100
AcDbEllipse
 10
920.0
 20
3850.010488
 30
0.0
 11
-22.5
 21
0.0000000000000028
 31
0.0
210
0.0
220
0.0
230
1.0
 40
0.9848
 41
2.4586609999999993
 42
0.6829310000000005
  0
ELLIPSE
  5
30A
100
AcDbEntity
  8
化粧台
  6
CONTINUOUS
 62
     6
100
AcDbEllipse
 10
920.0
 20
3860.677298
 30
0.0
 11
23.446000000000002
 21
0.0
 31
0.0
210
0.0
220
0.0
230
1.0
 40
0.984816
 41
0.45368
 42
2.763067000000003
  0
ARC
  5
30B
100
AcDbEntity
  8
化粧台
  6
CONTINUOUS
 62
     6
100
AcDbCircle
 10
942.009683
 20
1720.724388
 30
0.0
 40
50.0
100
AcDbArc
 50
11.534621
 51
22.021223
  0
ARC
  5
30C
100
AcDbEntity
  8
化粧台
  6
CONTINUOUS
 62
     6
100
AcDbCircle
 10
979.091484
 20
1735.722388
 30
0.0
 40
10.0
100
AcDbArc
 50
22.021223
 51
84.101526
  0
LINE
  5
30D
100
AcDbEntity
  8
化粧台
  6
CONTINUOUS
 62
     6
100
AcDbLine
 10
941.499886
 20
1816.722388
 30
0.0
 11
943.252938
 21
1766.521545
 31
0.0
  0
LINE
  5
30E
100
AcDbEntity
  8
化粧台
  6
CONTINUOUS
 62
     6
100
AcDbLine
 10
935.992564
 20
1779.548672
 30
0.0
 11
943.348096
 21
1737.348685
 31
0.0
  0
ARC
  5
30F
100
AcDbEntity
  8
化粧台
  6
CONTINUOUS
 62
     6
100
AcDbCircle
 10
951.229273
 20
1738.722388
 30
0.0
 40
8.0
100
AcDbArc
 50
189.887424
 51
270.0
  0
ELLIPSE
  5
310
100
AcDbEntity
  8
化粧台
  6
CONTINUOUS
 62
     6
100
AcDbEllipse
 10
919.999886
 20
1816.722388
 30
0.0
 11
21.499999999999986
 21
0.0
 31
0.0
210
0.0
220
0.0
230
1.0
 40
0.173651
 41
4.7123889999999999
 42
0.2192690000000014
  0
ELLIPSE
  5
311
100
AcDbEntity
  8
化粧台
  6
CONTINUOUS
 62
     6
100
AcDbEllipse
 10
919.999886
 20
1779.46464
 30
0.0
 11
16.0
 21
0.0
 31
0.0
210
0.0
220
0.0
230
1.0
 40
0.173625
 41
0.0302539999999974
 42
1.5707960000000001
  0
ELLIPSE
  5
312
100
AcDbEntity
  8
化粧台
  6
CONTINUOUS
 62
     6
100
AcDbEllipse
 10
919.999886
 20
1779.46464
 30
0.0
 11
12.250000000000002
 21
0.0
 31
0.0
210
0.0
220
0.0
230
1.0
 40
0.173633
 41
6.0808099999999978
 42
1.5707959999999996
  0
ELLIPSE
  5
313
100
AcDbEntity
  8
化粧台
  6
CONTINUOUS
 62
     6
100
AcDbEllipse
 10
919.999886
 20
1816.722388
 30
0.0
 11
-21.499999999999986
 21
0.0000000000000026
 31
0.0
210
0.0
220
0.0
230
1.0
 40
0.173651
 41
6.0639170000000053
 42
1.5707959999999996
  0
ELLIPSE
  5
314
100
AcDbEntity
  8
化粧台
  6
CONTINUOUS
 62
     6
100
AcDbEllipse
 10
919.999886
 20
1779.46464
 30
0.0
 11
-16.0
 21
0.000000000000002
 31
0.0
210
0.0
220
0.0
230
1.0
 40
0.173625
 41
4.7123889999999999
 42
6.2529310000000002
  0
ELLIPSE
  5
315
100
AcDbEntity
  8
化粧台
  6
CONTINUOUS
 62
     6
100
AcDbEllipse
 10
919.999886
 20
1779.46464
 30
0.0
 11
-12.250000000000002
 21
0.0000000000000015
 31
0.0
210
0.0
220
0.0
230
1.0
 40
0.173633
 41
4.7123889999999999
 42
0.2023759999999976
  0
LINE
  5
316
100
AcDbEntity
  8
化粧台
  6
CONTINUOUS
 62
     6
100
AcDbLine
 10
904.007207
 20
1779.548672
 30
0.0
 11
896.651675
 21
1737.348685
 31
0.0
  0
ARC
  5
317
100
AcDbEntity
  8
化粧台
  6
CONTINUOUS
 62
     6
100
AcDbCircle
 10
888.770498
 20
1738.722388
 30
0.0
 40
8.0
100
AcDbArc
 50
270.0
 51
350.112576
  0
ARC
  5
318
100
AcDbEntity
  8
化粧台
  6
CONTINUOUS
 62
     6
100
AcDbCircle
 10
876.759017
 20
1767.219535
 30
0.0
 40
20.0
100
AcDbArc
 50
274.098493
 51
358.0
  0
LINE
  5
319
100
AcDbEntity
  8
化粧台
  6
CONTINUOUS
 62
     6
100
AcDbLine
 10
898.499886
 20
1816.722388
 30
0.0
 11
896.746833
 21
1766.521545
 31
0.0
  0
ARC
  5
31A
100
AcDbEntity
  8
化粧台
  6
CONTINUOUS
 62
     6
100
AcDbCircle
 10
919.999886
 20
1163.755806
 30
0.0
 40
585.010946
100
AcDbArc
 50
94.098493
 51
95.898474
  0
ARC
  5
31B
100
AcDbEntity
  8
化粧台
  6
CONTINUOUS
 62
     6
100
AcDbCircle
 10
860.908287
 20
1735.722388
 30
0.0
 40
10.0
100
AcDbArc
 50
95.898474
 51
157.978777
  0
ARC
  5
31C
100
AcDbEntity
  8
化粧台
  6
CONTINUOUS
 62
     6
100
AcDbCircle
 10
897.990088
 20
1720.724388
 30
0.0
 40
50.0
100
AcDbArc
 50
157.978777
 51
168.465379
  0
ARC
  5
31D
100
AcDbEntity
  8
化粧台
  6
CONTINUOUS
 62
     6
100
AcDbCircle
 10
918.999886
 20
1816.721863
 30
0.0
 40
20.0
100
AcDbArc
 50
168.353656
 51
180.0
  0
ARC
  5
31E
100
AcDbEntity
  8
化粧台
  6
CONTINUOUS
 62
     6
100
AcDbCircle
 10
920.999886
 20
1816.721863
 30
0.0
 40
20.0
100
AcDbArc
 50
0.0
 51
11.646344
  0
ARC
  5
31F
100
AcDbEntity
  8
化粧台
  6
CONTINUOUS
 62
     6
100
AcDbCircle
 10
997.499886
 20
1822.335267
 30
0.0
 40
100.0
100
AcDbArc
 50
170.546476
 51
180.0
  0
ARC
  5
320
100
AcDbEntity
  8
化粧台
  6
CONTINUOUS
 62
     6
100
AcDbCircle
 10
842.499886
 20
1822.335267
 30
0.0
 40
100.0
100
AcDbArc
 50
0.0
 51
9.453524
  0
LINE
  5
321
100
AcDbEntity
  8
化粧台
  6
CONTINUOUS
 62
     6
100
AcDbLine
 10
928.506879
 20
1852.373034
 30
0.0
 11
937.644324
 21
1844.828896
 31
0.0
  0
ARC
  5
322
100
AcDbEntity
  8
化粧台
  6
CONTINUOUS
 62
     6
100
AcDbCircle
 10
931.27761
 20
1837.117544
 30
0.0
 40
10.0
100
AcDbArc
 50
9.453524
 51
50.455936
  0
ARC
  5
323
100
AcDbEntity
  8
化粧台
  6
CONTINUOUS
 62
     6
100
AcDbCircle
 10
919.999886
 20
1823.877958
 30
0.0
 40
30.0
100
AcDbArc
 50
75.857606
 51
90.0
  0
ARC
  5
324
100
AcDbEntity
  8
化粧台
  6
CONTINUOUS
 62
     6
100
AcDbCircle
 10
926.596865
 20
1850.059628
 30
0.0
 40
3.0
100
AcDbArc
 50
50.455936
 51
75.857606
  0
ARC
  5
325
100
AcDbEntity
  8
化粧台
  6
CONTINUOUS
 62
     6
100
AcDbCircle
 10
919.999886
 20
1823.877958
 30
0.0
 40
30.0
100
AcDbArc
 50
90.0
 51
104.142394
  0
ARC
  5
326
100
AcDbEntity
  8
化粧台
  6
CONTINUOUS
 62
     6
100
AcDbCircle
 10
913.402906
 20
1850.059628
 30
0.0
 40
3.0
100
AcDbArc
 50
104.142394
 51
129.544064
  0
LINE
  5
327
100
AcDbEntity
  8
化粧台
  6
CONTINUOUS
 62
     6
100
AcDbLine
 10
911.492892
 20
1852.373034
 30
0.0
 11
902.355447
 21
1844.828896
 31
0.0
  0
ARC
  5
328
100
AcDbEntity
  8
化粧台
  6
CONTINUOUS
 62
     6
100
AcDbCircle
 10
908.722162
 20
1837.117544
 30
0.0
 40
10.0
100
AcDbArc
 50
129.544064
 51
170.546476
  0
ELLIPSE
  5
329
100
AcDbEntity
  8
化粧台
  6
CONTINUOUS
 62
     6
100
AcDbEllipse
 10
919.999886
 20
1822.335267
 30
0.0
 11
22.499999999999961
 21
0.0
 31
0.0
210
0.0
220
0.0
230
1.0
 40
0.173644
 41
3.1415927137418471
 42
0.0
  0
ELLIPSE
  5
32A
100
AcDbEntity
  8
化粧台
  6
CONTINUOUS
 62
     6
100
AcDbEllipse
 10
919.999886
 20
1770.600845
 30
0.0
 11
12.000000000000002
 21
0.0
 31
0.0
210
0.0
220
0.0
230
1.0
 40
0.173667
 41
3.5527309999999983
 42
5.8720470000000189
  0
ARC
  5
32B
100
AcDbEntity
  8
化粧台
  6
CONTINUOUS
 62
     6
100
AcDbCircle
 10
963.240754
 20
1767.219535
 30
0.0
 40
20.0
100
AcDbArc
 50
182.0
 51
265.901507
  0
ARC
  5
32C
100
AcDbEntity
  8
化粧台
  6
CONTINUOUS
 62
     6
100
AcDbCircle
 10
919.999886
 20
1163.755806
 30
0.0
 40
585.010946
100
AcDbArc
 50
84.101526
 51
85.901507
  0
ELLIPSE
  5
32D
100
AcDbEntity
  8
化粧台
  6
CONTINUOUS
 62
     6
100
AcDbEllipse
 10
919.999886
 20
1761.586142
 30
0.0
 11
3.0000000000000022
 21
0.0
 31
0.0
210
0.0
220
0.0
230
1.0
 40
0.422667
 41
0.0
 42
6.2831850000000049
  0
LINE
  5
32E
100
AcDbEntity
  8
化粧台
  6
CONTINUOUS
 62
     6
100
AcDbLine
 10
922.999886
 20
1767.023862
 30
0.0
 11
922.999886
 21
1761.586142
 31
0.0
  0
LINE
  5
32F
100
AcDbEntity
  8
化粧台
  6
CONTINUOUS
 62
     6
100
AcDbLine
 10
916.999886
 20
1767.023862
 30
0.0
 11
916.999886
 21
1761.586142
 31
0.0
  0
ELLIPSE
  5
330
100
AcDbEntity
  8
化粧台
  6
CONTINUOUS
 62
     6
100
AcDbEllipse
 10
919.999886
 20
1767.023862
 30
0.0
 11
3.0000000000000022
 21
0.0
 31
0.0
210
0.0
220
0.0
230
1.0
 40
0.422667
 41
0.0
 42
3.1415930000000025
  0
ARC
  5
331
100
AcDbEntity
  8
化粧台
  6
CONTINUOUS
 62
     6
100
AcDbCircle
 10
926.532812
 20
1822.335267
 30
0.0
 40
29.032926
100
AcDbArc
 50
129.544064
 51
158.021405
  0
LINE
  5
332
100
AcDbEntity
  8
化粧台
  6
CONTINUOUS
 62
     6
100
AcDbLine
 10
927.530398
 20
1847.986058
 30
0.0
 11
911.999886
 21
1847.986058
 31
0.0
  0
LINE
  5
333
100
AcDbEntity
  8
化粧台
  6
CONTINUOUS
 62
     6
100
AcDbLine
 10
911.66474
 20
1847.709351
 30
0.0
 11
908.048376
 21
1844.723578
 31
0.0
  0
LINE
  5
334
100
AcDbEntity
  8
化粧台
  6
CONTINUOUS
 62
     6
100
AcDbLine
 10
928.335032
 20
1847.709351
 30
0.0
 11
931.951395
 21
1844.723578
 31
0.0
  0
ARC
  5
335
100
AcDbEntity
  8
化粧台
  6
CONTINUOUS
 62
     6
100
AcDbCircle
 10
913.466959
 20
1822.335267
 30
0.0
 40
29.032926
100
AcDbArc
 50
22.880485
 51
50.455936
  0
LINE
  5
336
100
AcDbEntity
  8
化粧台
  6
CONTINUOUS
 62
     6
100
AcDbLine
 10
927.999886
 20
1851.883929
 30
0.0
 11
927.999886
 21
1848.6006
 31
0.0
  0
LINE
  5
337
100
AcDbEntity
  8
化粧台
  6
CONTINUOUS
 62
     6
100
AcDbLine
 10
911.999886
 20
1851.883929
 30
0.0
 11
911.999886
 21
1848.6006
 31
0.0
  0
ELLIPSE
  5
338
100
AcDbEntity
  8
化粧台
  6
CONTINUOUS
 62
     6
100
AcDbEllipse
 10
919.999886
 20
1828.768664
 30
0.0
 11
5.25
 21
0.0
 31
0.0
210
0.0
220
0.0
230
1.0
 40
0.984762
 41
0.0
 42
6.283185000000004
  0
LINE
  5
339
100
AcDbEntity
  8
化粧台
  6
CONTINUOUS
 62
     6
100
AcDbLine
 10
919.999886
 20
1833.938664
 30
0.0
 11
919.999886
 21
1823.598664
 31
0.0
  0
LINE
  5
33A
100
AcDbEntity
  8
化粧台
  6
CONTINUOUS
 62
     6
100
AcDbLine
 10
935.985646
 20
1784.915918
 30
0.0
 11
935.985646
 21
1787.582493
 31
0.0
  0
ARC
  5
33B
100
AcDbEntity
  8
化粧台
  6
CONTINUOUS
 62
     6
100
AcDbCircle
 10
919.999886
 20
1767.970241
 30
0.0
 40
30.0
100
AcDbArc
 50
72.542397
 51
90.0
  0
ARC
  5
33C
100
AcDbEntity
  8
化粧台
  6
CONTINUOUS
 62
     6
100
AcDbCircle
 10
925.999886
 20
1787.049025
 30
0.0
 40
10.0
100
AcDbArc
 50
3.057995
 51
16.608543
  0
ARC
  5
33D
100
AcDbEntity
  8
化粧台
  6
CONTINUOUS
 62
     6
100
AcDbCircle
 10
925.999886
 20
1787.049025
 30
0.0
 40
10.0
100
AcDbArc
 50
33.493313
 51
72.542397
  0
LINE
  5
33E
100
AcDbEntity
  8
化粧台
  6
CONTINUOUS
 62
     6
100
AcDbLine
 10
934.339388
 20
1792.567422
 30
0.0
 11
939.694135
 21
1784.47523
 31
0.0
  0
ARC
  5
33F
100
AcDbEntity
  8
化粧台
  6
CONTINUOUS
 62
     6
100
AcDbCircle
 10
913.999886
 20
1787.049025
 30
0.0
 40
10.0
100
AcDbArc
 50
107.457603
 51
146.506687
  0
LINE
  5
340
100
AcDbEntity
  8
化粧台
  6
CONTINUOUS
 62
     6
100
AcDbLine
 10
904.014125
 20
1784.915918
 30
0.0
 11
904.014125
 21
1787.582493
 31
0.0
  0
LINE
  5
341
100
AcDbEntity
  8
化粧台
  6
CONTINUOUS
 62
     6
100
AcDbLine
 10
905.660383
 20
1792.567422
 30
0.0
 11
900.305636
 21
1784.47523
 31
0.0
  0
ARC
  5
342
100
AcDbEntity
  8
化粧台
  6
CONTINUOUS
 62
     6
100
AcDbCircle
 10
919.999886
 20
1767.970241
 30
0.0
 40
30.0
100
AcDbArc
 50
90.0
 51
107.457603
  0
ARC
  5
343
100
AcDbEntity
  8
化粧台
  6
CONTINUOUS
 62
     6
100
AcDbCircle
 10
913.999886
 20
1787.049025
 30
0.0
 40
10.0
100
AcDbArc
 50
163.391457
 51
176.942005
  0
ELLIPSE
  5
344
100
AcDbEntity
  8
化粧台
  6
CONTINUOUS
 62
     6
100
AcDbEllipse
 10
919.999886
 20
1770.600845
 30
0.0
 11
12.000000000000002
 21
0.0
 31
0.0
210
0.0
220
0.0
230
1.0
 40
0.173667
 41
5.8720474448542701
 42
3.5527305159151226
  0
LINE
  5
345
100
AcDbEntity
  8
化粧台
  6
CONTINUOUS
 62
     6
100
AcDbLine
 10
931.999886
 20
1770.600845
 30
0.0
 11
931.999886
 21
1779.892161
 31
0.0
  0
LINE
  5
346
100
AcDbEntity
  8
化粧台
  6
CONTINUOUS
 62
     6
100
AcDbLine
 10
907.999886
 20
1770.600845
 30
0.0
 11
907.999886
 21
1779.892161
 31
0.0
  0
ARC
  5
347
100
AcDbEntity
  8
化粧台
  6
CONTINUOUS
 62
     6
100
AcDbCircle
 10
2391.754545
 20
1740.591575
 30
0.0
 40
10.0
100
AcDbArc
 50
32.177514
 51
87.128942
  0
LINE
  5
348
100
AcDbEntity
  8
化粧台
  6
CONTINUOUS
 62
     6
100
AcDbLine
 10
2376.002279
 20
1746.188154
 30
0.0
 11
2393.189947
 21
1747.088921
 31
0.0
  0
ARC
  5
349
100
AcDbEntity
  8
化粧台
  6
CONTINUOUS
 62
     6
100
AcDbCircle
 10
2393.713306
 20
1737.102626
 30
0.0
 40
10.0
100
AcDbArc
 50
26.443841
 51
93.0
  0
ARC
  5
34A
100
AcDbEntity
  8
化粧台
  6
CONTINUOUS
 62
     6
100
AcDbCircle
 10
2376.525639
 20
1736.201858
 30
0.0
 40
10.0
100
AcDbArc
 50
93.0
 51
159.556159
  0
LINE
  5
34B
100
AcDbEntity
  8
化粧台
  6
CONTINUOUS
 62
     6
100
AcDbLine
 10
2317.607738
 20
1809.569445
 30
0.0
 11
2359.505651
 21
1819.24234
 31
0.0
  0
LINE
  5
34C
100
AcDbEntity
  8
化粧台
  6
CONTINUOUS
 62
     6
100
AcDbLine
 10
2359.505651
 20
1819.24234
 30
0.0
 11
2373.938681
 21
1765.377537
 31
0.0
  0
ARC
  5
34D
100
AcDbEntity
  8
化粧台
  6
CONTINUOUS
 62
     6
100
AcDbCircle
 10
2393.257198
 20
1770.553918
 30
0.0
 40
20.0
100
AcDbArc
 50
195.0
 51
267.128942
  0
LINE
  5
34E
100
AcDbEntity
  8
化粧台
  6
CONTINUOUS
 62
     6
100
AcDbLine
 10
2250.840514
 20
1775.017323
 30
0.0
 11
2280.228055
 21
1771.408987
 31
0.0
  0
ARC
  5
34F
100
AcDbEntity
  8
化粧台
  6
CONTINUOUS
 62
     6
100
AcDbCircle
 10
2298.955974
 20
1769.109488
 30
0.0
 40
50.0
100
AcDbArc
 50
161.885004
 51
171.227683
  0
ARC
  5
350
100
AcDbEntity
  8
化粧台
  6
CONTINUOUS
 62
     6
100
AcDbCircle
 10
2251.023318
 20
1776.506143
 30
0.0
 40
1.5
100
AcDbArc
 50
171.227683
 51
263.0
  0
LINE
  5
351
100
AcDbEntity
  8
化粧台
  6
CONTINUOUS
 62
     6
100
AcDbLine
 10
2261.636163
 20
1791.522136
 30
0.0
 11
2308.934883
 21
1788.214688
 31
0.0
  0
ARC
  5
352
100
AcDbEntity
  8
化粧台
  6
CONTINUOUS
 62
     6
100
AcDbCircle
 10
2260.938599
 20
1781.546496
 30
0.0
 40
10.0
100
AcDbArc
 50
86.0
 51
161.885004
  0
LINE
  5
353
100
AcDbEntity
  8
化粧台
  6
CONTINUOUS
 62
     6
100
AcDbLine
 10
2317.607738
 20
1809.569445
 30
0.0
 11
2319.448719
 21
1800.098418
 31
0.0
  0
ARC
  5
354
100
AcDbEntity
  8
化粧台
  6
CONTINUOUS
 62
     6
100
AcDbCircle
 10
2309.632447
 20
1798.190328
 30
0.0
 40
10.0
100
AcDbArc
 50
266.0
 51
11.0
  0
LINE
  5
355
100
AcDbEntity
  8
化粧台
  6
CONTINUOUS
 62
     6
100
AcDbLine
 10
2337.274473
 20
1819.959802
 30
0.0
 11
2315.351147
 21
1814.898404
 31
0.0
  0
LINE
  5
356
100
AcDbEntity
  8
化粧台
  6
CONTINUOUS
 62
     6
100
AcDbLine
 10
2315.351147
 20
1814.898404
 30
0.0
 11
2311.302028
 21
1832.437064
 31
0.0
  0
LINE
  5
357
100
AcDbEntity
  8
化粧台
  6
CONTINUOUS
 62
     6
100
AcDbLine
 10
2252.197811
 20
1841.725218
 30
0.0
 11
2251.275217
 21
1845.721411
 31
0.0
  0
ARC
  5
358
100
AcDbEntity
  8
化粧台
  6
CONTINUOUS
 62
     6
100
AcDbCircle
 10
2286.051357
 20
1573.483896
 30
0.0
 40
275.0
100
AcDbArc
 50
78.198631
 51
97.175802
  0
LINE
  5
359
100
AcDbEntity
  8
化粧台
  6
CONTINUOUS
 62
     6
100
AcDbLine
 10
2252.839504
 20
1841.362165
 30
0.0
 11
2260.912761
 21
1843.985325
 31
0.0
  0
ARC
  5
35A
100
AcDbEntity
  8
化粧台
  6
CONTINUOUS
 62
     6
100
AcDbCircle
 10
2300.64248
 20
1829.721547
 30
0.0
 40
11.0
100
AcDbArc
 50
14.292088
 51
81.691952
  0
ARC
  5
35B
100
AcDbEntity
  8
化粧台
  6
CONTINUOUS
 62
     6
100
AcDbCircle
 10
2272.434975
 20
1730.569106
 30
0.0
 40
114.0
100
AcDbArc
 50
74.848229
 51
95.800907
  0
ARC
  5
35C
100
AcDbEntity
  8
化粧台
  6
CONTINUOUS
 62
     6
100
AcDbCircle
 10
2251.762402
 20
1845.833887
 30
0.0
 40
0.5
100
AcDbArc
 50
97.175802
 51
193.0
  0
ARC
  5
35D
100
AcDbEntity
  8
化粧台
  6
CONTINUOUS
 62
     6
100
AcDbCircle
 10
2252.684996
 20
1841.837693
 30
0.0
 40
0.5
100
AcDbArc
 50
193.0
 51
288.0
  0
LINE
  5
35E
100
AcDbEntity
  8
化粧台
  6
CONTINUOUS
 62
     6
100
AcDbLine
 10
2311.040421
 20
1824.679387
 30
0.0
 11
2310.478043
 21
1827.115312
 31
0.0
  0
ARC
  5
35F
100
AcDbEntity
  8
化粧台
  6
CONTINUOUS
 62
     6
100
AcDbCircle
 10
2315.470497
 20
1826.840712
 30
0.0
 40
5.0
100
AcDbArc
 50
137.093513
 51
176.85174
  0
LINE
  5
360
100
AcDbEntity
  8
化粧台
  6
CONTINUOUS
 62
     6
100
AcDbLine
 10
2311.040421
 20
1824.679387
 30
0.0
 11
2311.602799
 21
1822.243461
 31
0.0
  0
ARC
  5
361
100
AcDbEntity
  8
化粧台
  6
CONTINUOUS
 62
     6
100
AcDbCircle
 10
2315.96961
 20
1824.678818
 30
0.0
 40
5.0
100
AcDbArc
 50
209.14826
 51
248.906487
  0
ARC
  5
362
100
AcDbEntity
  8
化粧台
  6
CONTINUOUS
 62
     6
100
AcDbCircle
 10
2337.467096
 20
1814.653734
 30
0.0
 40
20.0
100
AcDbArc
 50
177.890164
 51
194.39413
  0
ARC
  5
363
100
AcDbEntity
  8
化粧台
  6
CONTINUOUS
 62
     6
100
AcDbCircle
 10
2339.427373
 20
1815.106299
 30
0.0
 40
20.0
100
AcDbArc
 50
11.60587
 51
36.374872
  0
LINE
  5
364
100
AcDbEntity
  8
化粧台
  6
CONTINUOUS
 62
     6
100
AcDbLine
 10
2337.274473
 20
1819.959802
 30
0.0
 11
2358.427654
 21
1828.079747
 31
0.0
  0
ARC
  5
365
100
AcDbEntity
  8
化粧台
  6
CONTINUOUS
 62
     6
100
AcDbCircle
 10
2337.533546
 20
1821.192346
 30
0.0
 40
22.0
100
AcDbArc
 50
18.243958
 51
77.50271
  0
CIRCLE
  5
366
100
AcDbEntity
  8
化粧台
  6
CONTINUOUS
 62
     6
100
AcDbCircle
 10
2310.696904
 20
1760.457091
 30
0.0
 40
1.5
  0
LINE
  5
367
100
AcDbEntity
  8
化粧台
  6
CONTINUOUS
 62
     6
100
AcDbLine
 10
2253.298851
 20
1774.715478
 30
0.0
 11
2252.202027
 21
1765.782563
 31
0.0
  0
LINE
  5
368
100
AcDbEntity
  8
化粧台
  6
CONTINUOUS
 62
     6
100
AcDbLine
 10
2277.119958
 20
1771.790614
 30
0.0
 11
2276.023134
 21
1762.857699
 31
0.0
  0
LINE
  5
369
100
AcDbEntity
  8
化粧台
  6
CONTINUOUS
 62
     6
100
AcDbLine
 10
2309.025637
 20
1764.328961
 30
0.0
 11
2306.791533
 21
1758.799359
 31
0.0
  0
LINE
  5
36A
100
AcDbEntity
  8
化粧台
  6
CONTINUOUS
 62
     6
100
AcDbLine
 10
2312.354636
 20
1756.55172
 30
0.0
 11
2314.588731
 21
1762.0813
 31
0.0
  0
LINE
  5
36B
100
AcDbEntity
  8
化粧台
  6
CONTINUOUS
 62
     6
100
AcDbLine
 10
2312.354636
 20
1756.55172
 30
0.0
 11
2306.791533
 21
1758.799359
 31
0.0
  0
LINE
  5
36C
100
AcDbEntity
  8
化粧台
  6
CONTINUOUS
 62
     6
100
AcDbLine
 10
2252.202027
 20
1765.782563
 30
0.0
 11
2276.023134
 21
1762.857699
 31
0.0
  0
ARC
  5
36D
100
AcDbEntity
  8
化粧台
  6
CONTINUOUS
 62
     6
100
AcDbCircle
 10
920.0
 20
5319.931461
 30
0.0
 40
1497.931461
100
AcDbArc
 50
257.664956
 51
269.208372
  0
ARC
  5
36E
100
AcDbEntity
  8
化粧台
  6
CONTINUOUS
 62
     6
100
AcDbCircle
 10
920.0
 20
5319.931461
 30
0.0
 40
1497.931461
100
AcDbArc
 50
270.791628
 51
282.335044
  0
ARC
  5
36F
100
AcDbEntity
  8
化粧台
  6
CONTINUOUS
 62
     2
100
AcDbCircle
 10
920.0
 20
6603.0
 30
0.0
 40
2755.0
100
AcDbArc
 50
270.474446
 51
276.645869
  0
ARC
  5
370
100
AcDbEntity
  8
化粧台
  6
CONTINUOUS
 62
     2
100
AcDbCircle
 10
920.0
 20
6603.0
 30
0.0
 40
2755.0
100
AcDbArc
 50
263.354131
 51
269.525554
  0
ARC
  5
371
100
AcDbEntity
  8
化粧台
  6
CONTINUOUS
 62
     2
100
AcDbCircle
 10
920.0
 20
3763.0
 30
0.0
 40
22.6
100
AcDbArc
 50
136.42957
 51
43.570434
  0
ARC
  5
372
100
AcDbEntity
  8
化粧台
  6
CONTINUOUS
 62
     2
100
AcDbCircle
 10
920.0
 20
3763.0
 30
0.0
 40
32.3
100
AcDbArc
 50
123.035683
 51
56.964319
  0
LINE
  5
373
100
AcDbEntity
  8
化粧台
  6
CONTINUOUS
 62
     2
100
AcDbLine
 10
550.0
 20
1743.5
 30
0.0
 11
854.622689
 21
1743.5
 31
0.0
  0
LINE
  5
374
100
AcDbEntity
  8
化粧台
  6
CONTINUOUS
 62
     2
100
AcDbLine
 10
985.377082
 20
1743.5
 30
0.0
 11
1290.0
 21
1743.5
 31
0.0
  0
LINE
  5
375
100
AcDbEntity
  8
化粧台
  6
CONTINUOUS
 62
     2
100
AcDbLine
 10
849.649797
 20
1733.5
 30
0.0
 11
550.240115
 21
1733.5
 31
0.0
  0
LINE
  5
376
100
AcDbEntity
  8
化粧台
  6
CONTINUOUS
 62
     2
100
AcDbLine
 10
1289.759885
 20
1733.5
 30
0.0
 11
990.349974
 21
1733.5
 31
0.0
  0
ARC
  5
377
100
AcDbEntity
  8
化粧台
  6
CONTINUOUS
 62
     6
100
AcDbCircle
 10
2264.994387
 20
1647.340719
 30
0.0
 40
125.0
100
AcDbArc
 50
43.572687
 51
83.000001
  0
ARC
  5
378
100
AcDbEntity
  8
化粧台
  6
CONTINUOUS
 62
     6
100
AcDbCircle
 10
2414.006239
 20
1722.230293
 30
0.0
 40
50.0
100
AcDbArc
 50
159.556159
 51
166.973944
  0
ARC
  5
379
100
AcDbEntity
  8
化粧台
  6
CONTINUOUS
 62
     6
100
AcDbCircle
 10
2357.898455
 20
1719.289808
 30
0.0
 40
50.0
100
AcDbArc
 50
16.511264
 51
32.177514
  0
LINE
  5
37A
100
AcDbEntity
  8
化粧台
  6
EXLTYPE3
 62
     6
100
AcDbLine
 10
920.0
 20
1868.877958
 30
0.0
 11
920.0
 21
903.5
 31
0.0
  0
LINE
  5
37B
100
AcDbEntity
  8
鏡台
  6
CONTINUOUS
 62
     6
100
AcDbLine
 10
1265.0
 20
1873.5
 30
0.0
 11
1338.076697
 21
1873.5
 31
0.0
  0
LINE
  5
37C
100
AcDbEntity
  8
鏡台
  6
CONTINUOUS
 62
     6
100
AcDbLine
 10
655.0
 20
1808.5
 30
0.0
 11
595.0
 21
1808.5
 31
0.0
  0
LINE
  5
37D
100
AcDbEntity
  8
鏡台
  6
CONTINUOUS
 62
     6
100
AcDbLine
 10
625.0
 20
1838.5
 30
0.0
 11
625.0
 21
1778.5
 31
0.0
  0
LINE
  5
37E
100
AcDbEntity
  8
鏡台
  6
CONTINUOUS
 62
     6
100
AcDbLine
 10
1245.0
 20
1808.5
 30
0.0
 11
1185.0
 21
1808.5
 31
0.0
  0
LINE
  5
37F
100
AcDbEntity
  8
鏡台
  6
CONTINUOUS
 62
     6
100
AcDbLine
 10
1215.0
 20
1838.5
 30
0.0
 11
1215.0
 21
1778.5
 31
0.0
  0
LINE
  5
380
100
AcDbEntity
  8
鏡台
  6
CONTINUOUS
 62
     6
100
AcDbLine
 10
846.833009
 20
2585.333009
 30
0.0
 11
793.8
 21
2532.3
 31
0.0
  0
LINE
  5
381
100
AcDbEntity
  8
鏡台
  6
CONTINUOUS
 62
     6
100
AcDbLine
 10
824.193146
 20
2574.006854
 30
0.0
 11
805.243146
 21
2555.056854
 31
0.0
  0
LINE
  5
382
100
AcDbEntity
  8
鏡台
  6
CONTINUOUS
 62
     6
100
AcDbLine
 10
840.706854
 20
2567.893146
 30
0.0
 11
811.006854
 21
2538.193146
 31
0.0
  0
LINE
  5
383
100
AcDbEntity
  8
鏡台
  6
CONTINUOUS
 62
     6
100
AcDbLine
 10
881.833009
 20
2245.333009
 30
0.0
 11
828.8
 21
2192.3
 31
0.0
  0
LINE
  5
384
100
AcDbEntity
  8
鏡台
  6
CONTINUOUS
 62
     6
100
AcDbLine
 10
859.193146
 20
2234.006854
 30
0.0
 11
840.243146
 21
2215.056854
 31
0.0
  0
LINE
  5
385
100
AcDbEntity
  8
鏡台
  6
CONTINUOUS
 62
     6
100
AcDbLine
 10
875.706854
 20
2227.893146
 30
0.0
 11
846.006854
 21
2198.193146
 31
0.0
  0
LINE
  5
386
100
AcDbEntity
  8
鏡台
  6
CONTINUOUS
 62
     6
100
AcDbLine
 10
1037.833009
 20
2434.333009
 30
0.0
 11
984.8
 21
2381.3
 31
0.0
  0
LINE
  5
387
100
AcDbEntity
  8
鏡台
  6
CONTINUOUS
 62
     6
100
AcDbLine
 10
1015.193146
 20
2423.006854
 30
0.0
 11
996.243146
 21
2404.056854
 31
0.0
  0
LINE
  5
388
100
AcDbEntity
  8
鏡台
  6
CONTINUOUS
 62
     6
100
AcDbLine
 10
1031.706854
 20
2416.893146
 30
0.0
 11
1002.006854
 21
2387.193146
 31
0.0
  0
ARC
  5
389
100
AcDbEntity
  8
鏡台
  6
CONTINUOUS
 62
     6
100
AcDbCircle
 10
1124.05
 20
2318.5
 30
0.0
 40
5.0
100
AcDbArc
 50
90.0
 51
180.0
  0
LINE
  5
38A
100
AcDbEntity
  8
鏡台
  6
CONTINUOUS
 62
     6
100
AcDbLine
 10
1119.05
 20
2318.5
 30
0.0
 11
1119.05
 21
2283.5
 31
0.0
  0
ARC
  5
38B
100
AcDbEntity
  8
鏡台
  6
CONTINUOUS
 62
     6
100
AcDbCircle
 10
1124.05
 20
2283.5
 30
0.0
 40
5.0
100
AcDbArc
 50
180.0
 51
270.0
  0
ARC
  5
38C
100
AcDbEntity
  8
鏡台
  6
CONTINUOUS
 62
     6
100
AcDbCircle
 10
1259.95
 20
2283.5
 30
0.0
 40
5.0
100
AcDbArc
 50
270.0
 51
0.0
  0
LINE
  5
38D
100
AcDbEntity
  8
鏡台
  6
CONTINUOUS
 62
     6
100
AcDbLine
 10
1264.95
 20
2283.5
 30
0.0
 11
1264.95
 21
2318.5
 31
0.0
  0
ARC
  5
38E
100
AcDbEntity
  8
鏡台
  6
CONTINUOUS
 62
     6
100
AcDbCircle
 10
1259.95
 20
2318.5
 30
0.0
 40
5.0
100
AcDbArc
 50
0.0
 51
90.0
  0
LINE
  5
38F
100
AcDbEntity
  8
鏡台
  6
CONTINUOUS
 62
     6
100
AcDbLine
 10
1229.249783
 20
2307.359087
 30
0.0
 11
1229.249783
 21
2284.359087
 31
0.0
  0
LINE
  5
390
100
AcDbEntity
  8
鏡台
  6
CONTINUOUS
 62
     6
100
AcDbLine
 10
1229.249783
 20
2284.359087
 30
0.0
 11
1201.249783
 21
2284.359087
 31
0.0
  0
LINE
  5
391
100
AcDbEntity
  8
鏡台
  6
CONTINUOUS
 62
     6
100
AcDbLine
 10
1201.249783
 20
2307.359087
 30
0.0
 11
1201.249783
 21
2284.359087
 31
0.0
  0
LINE
  5
392
100
AcDbEntity
  8
鏡台
  6
CONTINUOUS
 62
     6
100
AcDbLine
 10
1229.249783
 20
2307.359087
 30
0.0
 11
1201.249783
 21
2307.359087
 31
0.0
  0
LINE
  5
393
100
AcDbEntity
  8
鏡台
  6
CONTINUOUS
 62
     6
100
AcDbLine
 10
1183.249783
 20
2307.359087
 30
0.0
 11
1155.249783
 21
2307.359087
 31
0.0
  0
LINE
  5
394
100
AcDbEntity
  8
鏡台
  6
CONTINUOUS
 62
     6
100
AcDbLine
 10
1155.249783
 20
2307.359087
 30
0.0
 11
1155.249783
 21
2284.359087
 31
0.0
  0
LINE
  5
395
100
AcDbEntity
  8
鏡台
  6
CONTINUOUS
 62
     6
100
AcDbLine
 10
1183.249783
 20
2284.359087
 30
0.0
 11
1155.249783
 21
2284.359087
 31
0.0
  0
LINE
  5
396
100
AcDbEntity
  8
鏡台
  6
CONTINUOUS
 62
     6
100
AcDbLine
 10
1183.249783
 20
2307.359087
 30
0.0
 11
1183.249783
 21
2284.359087
 31
0.0
  0
LINE
  5
397
100
AcDbEntity
  8
鏡台
  6
CONTINUOUS
 62
     6
100
AcDbLine
 10
1208.249783
 20
2299.859087
 30
0.0
 11
1208.249783
 21
2291.859087
 31
0.0
  0
LINE
  5
398
100
AcDbEntity
  8
鏡台
  6
CONTINUOUS
 62
     6
100
AcDbLine
 10
1222.249783
 20
2300.359087
 30
0.0
 11
1222.249783
 21
2291.359087
 31
0.0
  0
LINE
  5
399
100
AcDbEntity
  8
鏡台
  6
CONTINUOUS
 62
     6
100
AcDbLine
 10
1177.749783
 20
2300.359087
 30
0.0
 11
1177.749783
 21
2291.359087
 31
0.0
  0
LINE
  5
39A
100
AcDbEntity
  8
鏡台
  6
CONTINUOUS
 62
     6
100
AcDbLine
 10
620.0
 20
2688.5
 30
0.0
 11
560.0
 21
2688.5
 31
0.0
  0
LINE
  5
39B
100
AcDbEntity
  8
鏡台
  6
CONTINUOUS
 62
     6
100
AcDbLine
 10
590.0
 20
2718.5
 30
0.0
 11
590.0
 21
2658.5
 31
0.0
  0
LINE
  5
39C
100
AcDbEntity
  8
鏡台
  6
CONTINUOUS
 62
     6
100
AcDbLine
 10
1280.0
 20
2688.5
 30
0.0
 11
1220.0
 21
2688.5
 31
0.0
  0
LINE
  5
39D
100
AcDbEntity
  8
鏡台
  6
CONTINUOUS
 62
     6
100
AcDbLine
 10
1250.0
 20
2718.5
 30
0.0
 11
1250.0
 21
2658.5
 31
0.0
  0
CIRCLE
  5
39E
100
AcDbEntity
  8
鏡台
  6
CONTINUOUS
 62
     6
100
AcDbCircle
 10
590.0
 20
2688.5
 30
0.0
 40
8.5
  0
CIRCLE
  5
39F
100
AcDbEntity
  8
鏡台
  6
CONTINUOUS
 62
     6
100
AcDbCircle
 10
1250.0
 20
2688.5
 30
0.0
 40
8.5
  0
LINE
  5
3A0
100
AcDbEntity
  8
鏡台
  6
CONTINUOUS
 62
     6
100
AcDbLine
 10
1127.249783
 20
2313.359087
 30
0.0
 11
1127.249783
 21
2278.672015
 31
0.0
  0
LINE
  5
3A1
100
AcDbEntity
  8
鏡台
  6
CONTINUOUS
 62
     6
100
AcDbLine
 10
1257.249783
 20
2313.359087
 30
0.0
 11
1257.249783
 21
2278.835155
 31
0.0
  0
LINE
  5
3A2
100
AcDbEntity
  8
鏡台
  6
CONTINUOUS
 62
     6
100
AcDbLine
 10
1127.249783
 20
2313.359087
 30
0.0
 11
1257.249783
 21
2313.359087
 31
0.0
  0
ARC
  5
3A3
100
AcDbEntity
  8
鏡台
  6
CONTINUOUS
 62
     6
100
AcDbCircle
 10
920.000217
 20
66895.677461
 30
0.0
 40
64166.701417
100
AcDbArc
 50
269.689686
 51
270.310313
  0
ARC
  5
3A4
100
AcDbEntity
  8
鏡台
  6
CONTINUOUS
 62
     6
100
AcDbCircle
 10
572.421037
 20
2719.91729
 30
0.0
 40
10.0
100
AcDbArc
 50
89.689686
 51
182.048105
  0
ARC
  5
3A5
100
AcDbEntity
  8
鏡台
  6
CONTINUOUS
 62
     6
100
AcDbCircle
 10
-256.101101
 20
2690.288178
 30
0.0
 40
819.051758
100
AcDbArc
 50
357.962228
 51
2.048105
  0
ARC
  5
3A6
100
AcDbEntity
  8
鏡台
  6
CONTINUOUS
 62
     6
100
AcDbCircle
 10
572.426367
 20
2660.808484
 30
0.0
 40
10.0
100
AcDbArc
 50
177.962228
 51
270.310237
  0
ARC
  5
3A7
100
AcDbEntity
  8
鏡台
  6
CONTINUOUS
 62
     6
100
AcDbCircle
 10
920.000217
 20
-61529.929678
 30
0.0
 40
64181.67916
100
AcDbArc
 50
89.689764
 51
90.310237
  0
ARC
  5
3A8
100
AcDbEntity
  8
鏡台
  6
CONTINUOUS
 62
     6
100
AcDbCircle
 10
1267.573633
 20
2660.808486
 30
0.0
 40
10.0
100
AcDbArc
 50
269.689764
 51
2.037772
  0
ARC
  5
3A9
100
AcDbEntity
  8
鏡台
  6
CONTINUOUS
 62
     6
100
AcDbCircle
 10
2096.101101
 20
2690.288178
 30
0.0
 40
819.051758
100
AcDbArc
 50
177.951896
 51
182.037772
  0
ARC
  5
3AA
100
AcDbEntity
  8
鏡台
  6
CONTINUOUS
 62
     6
100
AcDbCircle
 10
1267.578963
 20
2719.917287
 30
0.0
 40
10.0
100
AcDbArc
 50
357.951896
 51
90.310313
  0
LINE
  5
3AB
100
AcDbEntity
  8
鏡台
  6
CONTINUOUS
 62
     6
100
AcDbLine
 10
1350.607802
 20
1758.912733
 30
0.0
 11
1339.982689
 21
1756.065732
 31
0.0
  0
LINE
  5
3AC
100
AcDbEntity
  8
鏡台
  6
CONTINUOUS
 62
     6
100
AcDbLine
 10
1346.854862
 20
1772.918608
 30
0.0
 11
1333.004666
 21
1768.585072
 31
0.0
  0
LINE
  5
3AD
100
AcDbEntity
  8
鏡台
  6
CONTINUOUS
 62
     6
100
AcDbLine
 10
1341.052539
 20
1776.022674
 30
0.0
 11
1331.99753
 21
1773.596338
 31
0.0
  0
LINE
  5
3AE
100
AcDbEntity
  8
鏡台
  6
CONTINUOUS
 62
     6
100
AcDbLine
 10
1333.004666
 20
1768.585072
 30
0.0
 11
1328.529978
 21
1790.850197
 31
0.0
  0
LINE
  5
3AF
100
AcDbEntity
  8
鏡台
  6
CONTINUOUS
 62
     6
100
AcDbLine
 10
1335.407174
 20
1792.694229
 30
0.0
 11
1341.614596
 21
1774.362756
 31
0.0
  0
LINE
  5
3B0
100
AcDbEntity
  8
鏡台
  6
CONTINUOUS
 62
     6
100
AcDbLine
 10
1365.674427
 20
1764.502698
 30
0.0
 11
1350.219542
 21
1760.361631
 31
0.0
  0
LINE
  5
3B1
100
AcDbEntity
  8
鏡台
  6
CONTINUOUS
 62
     6
100
AcDbLine
 10
1363.344994
 20
1773.196077
 30
0.0
 11
1347.89023
 21
1769.055
 31
0.0
  0
LINE
  5
3B2
100
AcDbEntity
  8
鏡台
  6
CONTINUOUS
 62
     6
100
AcDbLine
 10
1339.982568
 20
1756.065743
 30
0.0
 11
1336.876849
 21
1767.656776
 31
0.0
  0
LINE
  5
3B3
100
AcDbEntity
  8
鏡台
  6
CONTINUOUS
 62
     6
100
AcDbLine
 10
1347.501972
 20
1770.503899
 30
0.0
 11
1336.876849
 21
1767.656776
 31
0.0
  0
LINE
  5
3B4
100
AcDbEntity
  8
鏡台
  6
CONTINUOUS
 62
     6
100
AcDbLine
 10
1346.854862
 20
1772.918608
 30
0.0
 11
1345.328637
 21
1772.454647
 31
0.0
  0
LINE
  5
3B5
100
AcDbEntity
  8
鏡台
  6
CONTINUOUS
 62
     6
100
AcDbLine
 10
1351.384198
 20
1756.014947
 30
0.0
 11
1337.554394
 21
1753.280077
 31
0.0
  0
LINE
  5
3B6
100
AcDbEntity
  8
鏡台
  6
CONTINUOUS
 62
     6
100
AcDbLine
 10
1346.854862
 20
1772.918608
 30
0.0
 11
1351.384198
 21
1756.014947
 31
0.0
  0
LINE
  5
3B7
100
AcDbEntity
  8
鏡台
  6
CONTINUOUS
 62
     6
100
AcDbLine
 10
1332.745785
 20
1767.619096
 30
0.0
 11
1336.394412
 21
1754.00221
 31
0.0
  0
LINE
  5
3B8
100
AcDbEntity
  8
鏡台
  6
CONTINUOUS
 62
     6
100
AcDbLine
 10
1334.201124
 20
1793.339395
 30
0.0
 11
1329.251516
 21
1792.013172
 31
0.0
  0
ARC
  5
3B9
100
AcDbEntity
  8
鏡台
  6
CONTINUOUS
 62
     6
100
AcDbCircle
 10
1476.656677
 20
1818.665039
 30
0.0
 40
150.0
100
AcDbArc
 50
184.010986
 51
190.263581
  0
ARC
  5
3BA
100
AcDbEntity
  8
鏡台
  6
CONTINUOUS
 62
     6
100
AcDbCircle
 10
1482.149475
 20
1818.383301
 30
0.0
 40
150.0
100
AcDbArc
 50
184.385864
 51
189.606282
  0
ARC
  5
3BB
100
AcDbEntity
  8
鏡台
  6
CONTINUOUS
 62
     6
100
AcDbCircle
 10
1344.456095
 20
1775.324941
 30
0.0
 40
3.0
100
AcDbArc
 50
198.707275
 51
286.909241
  0
ARC
  5
3BC
100
AcDbEntity
  8
鏡台
  6
CONTINUOUS
 62
     6
100
AcDbCircle
 10
1329.510355
 20
1791.047239
 30
0.0
 40
1.0
100
AcDbArc
 50
105.000061
 51
191.363464
  0
ARC
  5
3BD
100
AcDbEntity
  8
鏡台
  6
CONTINUOUS
 62
     6
100
AcDbCircle
 10
1334.459963
 20
1792.373463
 30
0.0
 40
1.0
100
AcDbArc
 50
18.707275
 51
105.0
  0
ARC
  5
3BE
100
AcDbEntity
  8
鏡台
  6
CONTINUOUS
 62
     6
100
AcDbCircle
 10
1355.883657
 20
1766.538081
 30
0.0
 40
10.0
100
AcDbArc
 50
348.256348
 51
41.743622
  0
ARC
  5
3BF
100
AcDbEntity
  8
鏡台
  6
CONTINUOUS
 62
     6
100
AcDbCircle
 10
1337.360344
 20
1754.261049
 30
0.0
 40
1.0
100
AcDbArc
 50
195.0
 51
281.186218
  0
ARC
  5
3C0
100
AcDbEntity
  8
鏡台
  6
CONTINUOUS
 62
     6
100
AcDbCircle
 10
1333.711717
 20
1767.877935
 30
0.0
 40
1.0
100
AcDbArc
 50
106.909119
 51
195.0
  0
ARC
  5
3C1
100
AcDbEntity
  8
鏡台
  6
CONTINUOUS
 62
     6
100
AcDbCircle
 10
1206.748657
 20
1806.689941
 30
0.0
 40
120.0
100
AcDbArc
 50
4.590393
 51
27.576874
  0
ARC
  5
3C2
100
AcDbEntity
  8
鏡台
  6
CONTINUOUS
 62
     6
100
AcDbCircle
 10
1212.644653
 20
1807.916992
 30
0.0
 40
120.0
100
AcDbArc
 50
3.349121
 51
29.221863
  0
ARC
  5
3C3
100
AcDbEntity
  8
鏡台
  6
CONTINUOUS
 62
     6
100
AcDbCircle
 10
1295.0
 20
1846.5
 30
0.0
 40
30.0
100
AcDbArc
 50
41.793671
 51
90.0
  0
ARC
  5
3C4
100
AcDbEntity
  8
鏡台
  6
CONTINUOUS
 62
     6
100
AcDbCircle
 10
1344.456095
 20
1775.324941
 30
0.0
 40
3.0
100
AcDbArc
 50
198.707275
 51
286.909241
  0
ARC
  5
3C5
100
AcDbEntity
  8
鏡台
  6
CONTINUOUS
 62
     6
100
AcDbCircle
 10
1329.510355
 20
1791.047239
 30
0.0
 40
1.0
100
AcDbArc
 50
105.000061
 51
191.363464
  0
ARC
  5
3C6
100
AcDbEntity
  8
鏡台
  6
CONTINUOUS
 62
     6
100
AcDbCircle
 10
1334.459963
 20
1792.373463
 30
0.0
 40
1.0
100
AcDbArc
 50
18.707275
 51
105.0
  0
ARC
  5
3C7
100
AcDbEntity
  8
鏡台
  6
CONTINUOUS
 62
     6
100
AcDbCircle
 10
1355.883657
 20
1766.538081
 30
0.0
 40
10.0
100
AcDbArc
 50
348.256348
 51
41.743622
  0
ARC
  5
3C8
100
AcDbEntity
  8
鏡台
  6
CONTINUOUS
 62
     6
100
AcDbCircle
 10
1337.360344
 20
1754.261049
 30
0.0
 40
1.0
100
AcDbArc
 50
195.0
 51
281.186218
  0
ARC
  5
3C9
100
AcDbEntity
  8
鏡台
  6
CONTINUOUS
 62
     6
100
AcDbCircle
 10
1333.711717
 20
1767.877935
 30
0.0
 40
1.0
100
AcDbArc
 50
106.909119
 51
195.0
  0
ARC
  5
3CA
100
AcDbEntity
  8
鏡台
  6
CONTINUOUS
 62
     6
100
AcDbCircle
 10
1295.0
 20
1846.5
 30
0.0
 40
24.0
100
AcDbArc
 50
40.990967
 51
90.0
  0
ARC
  5
3CB
100
AcDbEntity
  8
鏡台
  6
CONTINUOUS
 62
     6
100
AcDbCircle
 10
1323.627808
 20
1799.515259
 30
0.0
 40
17.00025
100
AcDbArc
 50
71.928894
 51
128.072876
  0
ARC
  5
3CC
100
AcDbEntity
  8
鏡台
  6
CONTINUOUS
 62
     6
100
AcDbCircle
 10
1334.174561
 20
1831.838562
 30
0.0
 40
17.000208
100
AcDbArc
 50
251.928955
 51
280.001038
  0
ARC
  5
3CD
100
AcDbEntity
  8
鏡台
  6
CONTINUOUS
 62
     6
100
AcDbCircle
 10
1334.174683
 20
1831.838379
 30
0.0
 40
17.000029
100
AcDbArc
 50
280.001038
 51
308.073608
  0
ARC
  5
3CE
100
AcDbEntity
  8
鏡台
  6
CONTINUOUS
 62
     6
100
AcDbCircle
 10
1323.627808
 20
1791.515259
 30
0.0
 40
17.00025
100
AcDbArc
 50
71.928894
 51
128.072876
  0
ARC
  5
3CF
100
AcDbEntity
  8
鏡台
  6
CONTINUOUS
 62
     6
100
AcDbCircle
 10
1334.174561
 20
1823.838562
 30
0.0
 40
17.000208
100
AcDbArc
 50
251.928955
 51
280.001038
  0
ARC
  5
3D0
100
AcDbEntity
  8
鏡台
  6
CONTINUOUS
 62
     6
100
AcDbCircle
 10
1334.174683
 20
1823.838379
 30
0.0
 40
17.000029
100
AcDbArc
 50
280.001038
 51
308.073608
  0
LINE
  5
3D1
100
AcDbEntity
  8
鏡台
  6
CONTINUOUS
 62
     2
100
AcDbLine
 10
1090.5
 20
2278.5
 30
0.0
 11
1295.0
 21
2278.5
 31
0.0
  0
LINE
  5
3D2
100
AcDbEntity
  8
鏡台
  6
CONTINUOUS
 62
     2
100
AcDbLine
 10
740.0
 20
2593.5
 30
0.0
 11
556.222266
 21
2593.5
 31
0.0
  0
LINE
  5
3D3
100
AcDbEntity
  8
鏡台
  6
CONTINUOUS
 62
     2
100
AcDbLine
 10
740.0
 20
2373.359087
 30
0.0
 11
740.0
 21
2634.0
 31
0.0
  0
LINE
  5
3D4
100
AcDbEntity
  8
鏡台
  6
CONTINUOUS
 62
     2
100
AcDbLine
 10
556.222266
 20
2373.359087
 30
0.0
 11
556.222266
 21
2634.0
 31
0.0
  0
LINE
  5
3D5
100
AcDbEntity
  8
鏡台
  6
CONTINUOUS
 62
     2
100
AcDbLine
 10
747.249783
 20
2373.359087
 30
0.0
 11
547.249783
 21
2373.359087
 31
0.0
  0
LINE
  5
3D6
100
AcDbEntity
  8
鏡台
  6
CONTINUOUS
 62
     2
100
AcDbLine
 10
747.249783
 20
2373.359087
 30
0.0
 11
747.249783
 21
2323.5
 31
0.0
  0
LINE
  5
3D7
100
AcDbEntity
  8
鏡台
  6
CONTINUOUS
 62
     2
100
AcDbLine
 10
547.249783
 20
2373.359087
 30
0.0
 11
547.249783
 21
2323.5
 31
0.0
  0
LINE
  5
3D8
100
AcDbEntity
  8
鏡台
  6
CONTINUOUS
 62
     2
100
AcDbLine
 10
747.249783
 20
2323.5
 30
0.0
 11
547.249783
 21
2323.5
 31
0.0
  0
LINE
  5
3D9
100
AcDbEntity
  8
鏡台
  6
CONTINUOUS
 62
     2
100
AcDbLine
 10
556.222266
 20
2077.859087
 30
0.0
 11
556.222266
 21
2323.5
 31
0.0
  0
LINE
  5
3DA
100
AcDbEntity
  8
鏡台
  6
CONTINUOUS
 62
     2
100
AcDbLine
 10
747.249783
 20
2077.859087
 30
0.0
 11
547.249783
 21
2077.859087
 31
0.0
  0
LINE
  5
3DB
100
AcDbEntity
  8
鏡台
  6
CONTINUOUS
 62
     2
100
AcDbLine
 10
747.249783
 20
2077.859087
 30
0.0
 11
747.249783
 21
2027.859087
 31
0.0
  0
LINE
  5
3DC
100
AcDbEntity
  8
鏡台
  6
CONTINUOUS
 62
     2
100
AcDbLine
 10
740.0
 20
1858.5
 30
0.0
 11
740.0
 21
2027.859087
 31
0.0
  0
LINE
  5
3DD
100
AcDbEntity
  8
鏡台
  6
CONTINUOUS
 62
     2
100
AcDbLine
 10
547.249783
 20
2027.859087
 30
0.0
 11
747.249783
 21
2027.859087
 31
0.0
  0
LINE
  5
3DE
100
AcDbEntity
  8
鏡台
  6
CONTINUOUS
 62
     2
100
AcDbLine
 10
547.249783
 20
2077.859087
 30
0.0
 11
547.249783
 21
2027.859087
 31
0.0
  0
LINE
  5
3DF
100
AcDbEntity
  8
鏡台
  6
CONTINUOUS
 62
     2
100
AcDbLine
 10
545.0
 20
1843.5
 30
0.0
 11
748.972235
 21
1843.5
 31
0.0
  0
LINE
  5
3E0
100
AcDbEntity
  8
鏡台
  6
CONTINUOUS
 62
     2
100
AcDbLine
 10
1295.0
 20
1843.5
 30
0.0
 11
1091.8
 21
1843.5
 31
0.0
  0
LINE
  5
3E1
100
AcDbEntity
  8
鏡台
  6
CONTINUOUS
 62
     2
100
AcDbLine
 10
545.0
 20
1858.5
 30
0.0
 11
1295.0
 21
1858.5
 31
0.0
  0
LINE
  5
3E2
100
AcDbEntity
  8
鏡台
  6
CONTINUOUS
 62
     2
100
AcDbLine
 10
1100.0
 20
2027.859087
 30
0.0
 11
1100.0
 21
1858.5
 31
0.0
  0
LINE
  5
3E3
100
AcDbEntity
  8
鏡台
  6
CONTINUOUS
 62
     2
100
AcDbLine
 10
1092.750218
 20
2077.859087
 30
0.0
 11
1092.750218
 21
2027.859087
 31
0.0
  0
LINE
  5
3E4
100
AcDbEntity
  8
鏡台
  6
CONTINUOUS
 62
     2
100
AcDbLine
 10
1092.750218
 20
2077.859087
 30
0.0
 11
1292.750218
 21
2077.859087
 31
0.0
  0
LINE
  5
3E5
100
AcDbEntity
  8
鏡台
  6
CONTINUOUS
 62
     2
100
AcDbLine
 10
1292.750218
 20
2077.859087
 30
0.0
 11
1292.750218
 21
2027.859087
 31
0.0
  0
LINE
  5
3E6
100
AcDbEntity
  8
鏡台
  6
CONTINUOUS
 62
     2
100
AcDbLine
 10
1092.750218
 20
2027.859087
 30
0.0
 11
1292.750218
 21
2027.859087
 31
0.0
  0
LINE
  5
3E7
100
AcDbEntity
  8
鏡台
  6
CONTINUOUS
 62
     2
100
AcDbLine
 10
1100.0
 20
2278.5
 30
0.0
 11
1100.0
 21
2077.859087
 31
0.0
  0
LINE
  5
3E8
100
AcDbEntity
  8
鏡台
  6
CONTINUOUS
 62
     2
100
AcDbLine
 10
1283.777735
 20
2278.5
 30
0.0
 11
1283.777735
 21
2077.859087
 31
0.0
  0
LINE
  5
3E9
100
AcDbEntity
  8
鏡台
  6
CONTINUOUS
 62
     2
100
AcDbLine
 10
1292.750218
 20
2323.5
 30
0.0
 11
1092.750218
 21
2323.5
 31
0.0
  0
LINE
  5
3EA
100
AcDbEntity
  8
鏡台
  6
CONTINUOUS
 62
     2
100
AcDbLine
 10
1092.750218
 20
2373.359087
 30
0.0
 11
1092.750218
 21
2323.5
 31
0.0
  0
LINE
  5
3EB
100
AcDbEntity
  8
鏡台
  6
CONTINUOUS
 62
     2
100
AcDbLine
 10
1092.750218
 20
2373.359087
 30
0.0
 11
1292.750218
 21
2373.359087
 31
0.0
  0
LINE
  5
3EC
100
AcDbEntity
  8
鏡台
  6
CONTINUOUS
 62
     2
100
AcDbLine
 10
1292.750218
 20
2373.359087
 30
0.0
 11
1292.750218
 21
2323.5
 31
0.0
  0
LINE
  5
3ED
100
AcDbEntity
  8
鏡台
  6
CONTINUOUS
 62
     2
100
AcDbLine
 10
1100.0
 20
2634.0
 30
0.0
 11
1100.0
 21
2373.359087
 31
0.0
  0
LINE
  5
3EE
100
AcDbEntity
  8
鏡台
  6
CONTINUOUS
 62
     2
100
AcDbLine
 10
1283.777735
 20
2634.0
 30
0.0
 11
1283.777735
 21
2373.359087
 31
0.0
  0
LINE
  5
3EF
100
AcDbEntity
  8
鏡台
  6
CONTINUOUS
 62
     2
100
AcDbLine
 10
1283.777735
 20
2593.5
 30
0.0
 11
1100.0
 21
2593.5
 31
0.0
  0
LINE
  5
3F0
100
AcDbEntity
  8
鏡台
  6
CONTINUOUS
 62
     2
100
AcDbLine
 10
748.972235
 20
1858.5
 30
0.0
 11
748.972235
 21
1841.770543
 31
0.0
  0
LINE
  5
3F1
100
AcDbEntity
  8
鏡台
  6
CONTINUOUS
 62
     2
100
AcDbLine
 10
1091.8
 20
1858.5
 30
0.0
 11
1091.8
 21
1841.770543
 31
0.0
  0
LINE
  5
3F2
100
AcDbEntity
  8
鏡台
  6
CONTINUOUS
 62
     2
100
AcDbLine
 10
749.5
 20
2053.0
 30
0.0
 11
1090.5
 21
2053.0
 31
0.0
  0
LINE
  5
3F3
100
AcDbEntity
  8
鏡台
  6
CONTINUOUS
 62
     2
100
AcDbLine
 10
749.5
 20
2068.359087
 30
0.0
 11
769.499783
 21
2068.359087
 31
0.0
  0
LINE
  5
3F4
100
AcDbEntity
  8
鏡台
  6
CONTINUOUS
 62
     2
100
AcDbLine
 10
789.499783
 20
2068.359087
 30
0.0
 11
1050.499783
 21
2068.359087
 31
0.0
  0
LINE
  5
3F5
100
AcDbEntity
  8
鏡台
  6
CONTINUOUS
 62
     2
100
AcDbLine
 10
1070.499783
 20
2068.359087
 30
0.0
 11
1090.5
 21
2068.359087
 31
0.0
  0
LINE
  5
3F6
100
AcDbEntity
  8
鏡台
  6
CONTINUOUS
 62
     2
100
AcDbLine
 10
769.499783
 20
2075.359087
 30
0.0
 11
769.499783
 21
2065.359087
 31
0.0
  0
LINE
  5
3F7
100
AcDbEntity
  8
鏡台
  6
CONTINUOUS
 62
     2
100
AcDbLine
 10
789.499783
 20
2065.359087
 30
0.0
 11
769.499783
 21
2065.359087
 31
0.0
  0
LINE
  5
3F8
100
AcDbEntity
  8
鏡台
  6
CONTINUOUS
 62
     2
100
AcDbLine
 10
789.499783
 20
2075.359087
 30
0.0
 11
789.499783
 21
2065.359087
 31
0.0
  0
LINE
  5
3F9
100
AcDbEntity
  8
鏡台
  6
CONTINUOUS
 62
     2
100
AcDbLine
 10
789.499783
 20
2075.359087
 30
0.0
 11
769.499783
 21
2075.359087
 31
0.0
  0
LINE
  5
3FA
100
AcDbEntity
  8
鏡台
  6
CONTINUOUS
 62
     2
100
AcDbLine
 10
1050.499783
 20
2075.359087
 30
0.0
 11
1050.499783
 21
2065.359087
 31
0.0
  0
LINE
  5
3FB
100
AcDbEntity
  8
鏡台
  6
CONTINUOUS
 62
     2
100
AcDbLine
 10
1070.499783
 20
2065.359087
 30
0.0
 11
1050.499783
 21
2065.359087
 31
0.0
  0
LINE
  5
3FC
100
AcDbEntity
  8
鏡台
  6
CONTINUOUS
 62
     2
100
AcDbLine
 10
1070.499783
 20
2075.359087
 30
0.0
 11
1070.499783
 21
2065.359087
 31
0.0
  0
LINE
  5
3FD
100
AcDbEntity
  8
鏡台
  6
CONTINUOUS
 62
     2
100
AcDbLine
 10
1070.499783
 20
2075.359087
 30
0.0
 11
1050.499783
 21
2075.359087
 31
0.0
  0
LINE
  5
3FE
100
AcDbEntity
  8
鏡台
  6
CONTINUOUS
 62
     2
100
AcDbLine
 10
740.0
 20
2022.318897
 30
0.0
 11
1100.0
 21
2022.318897
 31
0.0
  0
ARC
  5
3FF
100
AcDbEntity
  8
鏡台
  6
CONTINUOUS
 62
     2
100
AcDbCircle
 10
858.770839
 20
-79871.720078
 30
0.0
 40
81904.687691
100
AcDbArc
 50
89.837895
 51
90.07644
  0
CIRCLE
  5
400
100
AcDbEntity
  8
鏡台
  6
CONTINUOUS
 62
     2
100
AcDbCircle
 10
625.0
 20
1808.5
 30
0.0
 40
8.5
  0
CIRCLE
  5
401
100
AcDbEntity
  8
鏡台
  6
CONTINUOUS
 62
     2
100
AcDbCircle
 10
1215.0
 20
1808.5
 30
0.0
 40
8.5
  0
ARC
  5
402
100
AcDbEntity
  8
鏡台
  6
CONTINUOUS
 62
     2
100
AcDbCircle
 10
550.0
 20
2738.5
 30
0.0
 40
5.0
100
AcDbArc
 50
90.0
 51
180.0
  0
LINE
  5
403
100
AcDbEntity
  8
鏡台
  6
CONTINUOUS
 62
     2
100
AcDbLine
 10
1290.0
 20
2743.5
 30
0.0
 11
550.0
 21
2743.5
 31
0.0
  0
ARC
  5
404
100
AcDbEntity
  8
鏡台
  6
CONTINUOUS
 62
     2
100
AcDbCircle
 10
1290.0
 20
2738.5
 30
0.0
 40
5.0
100
AcDbArc
 50
0.0
 51
90.0
  0
LINE
  5
405
100
AcDbEntity
  8
鏡台
  6
CONTINUOUS
 62
     2
100
AcDbLine
 10
1295.0
 20
2738.5
 30
0.0
 11
1295.0
 21
1748.5
 31
0.0
  0
ARC
  5
406
100
AcDbEntity
  8
鏡台
  6
CONTINUOUS
 62
     2
100
AcDbCircle
 10
1290.0
 20
1748.5
 30
0.0
 40
5.0
100
AcDbArc
 50
270.0
 51
0.0
  0
LINE
  5
407
100
AcDbEntity
  8
鏡台
  6
CONTINUOUS
 62
     2
100
AcDbLine
 10
545.0
 20
2738.5
 30
0.0
 11
545.0
 21
1748.5
 31
0.0
  0
ARC
  5
408
100
AcDbEntity
  8
鏡台
  6
CONTINUOUS
 62
     2
100
AcDbCircle
 10
550.0
 20
1748.5
 30
0.0
 40
5.0
100
AcDbArc
 50
180.0
 51
270.0
  0
LINE
  5
409
100
AcDbEntity
  8
鏡台
  6
CONTINUOUS
 62
     2
100
AcDbLine
 10
556.222266
 20
1858.5
 30
0.0
 11
556.222266
 21
2027.859087
 31
0.0
  0
LINE
  5
40A
100
AcDbEntity
  8
鏡台
  6
CONTINUOUS
 62
     2
100
AcDbLine
 10
1283.777735
 20
2027.859087
 30
0.0
 11
1283.777735
 21
1858.5
 31
0.0
  0
LINE
  5
40B
100
AcDbEntity
  8
鏡台
  6
CONTINUOUS
 62
     2
100
AcDbLine
 10
740.0
 20
2634.0
 30
0.0
 11
556.222266
 21
2634.0
 31
0.0
  0
LINE
  5
40C
100
AcDbEntity
  8
鏡台
  6
CONTINUOUS
 62
     2
100
AcDbLine
 10
1283.777735
 20
2634.0
 30
0.0
 11
1100.0
 21
2634.0
 31
0.0
  0
LINE
  5
40D
100
AcDbEntity
  8
鏡台
  6
CONTINUOUS
 62
     2
100
AcDbLine
 10
1090.5
 20
2634.0
 30
0.0
 11
1090.5
 21
2022.318897
 31
0.0
  0
LINE
  5
40E
100
AcDbEntity
  8
鏡台
  6
CONTINUOUS
 62
     2
100
AcDbLine
 10
749.5
 20
2634.0
 30
0.0
 11
1090.5
 21
2634.0
 31
0.0
  0
LINE
  5
40F
100
AcDbEntity
  8
鏡台
  6
CONTINUOUS
 62
     2
100
AcDbLine
 10
1295.0
 20
2637.0
 30
0.0
 11
545.0
 21
2637.0
 31
0.0
  0
ARC
  5
410
100
AcDbEntity
  8
鏡台
  6
CONTINUOUS
 62
     2
100
AcDbCircle
 10
1273.018432
 20
2723.692871
 30
0.0
 40
10.0
100
AcDbArc
 50
0.0
 51
90.0
  0
LINE
  5
411
100
AcDbEntity
  8
鏡台
  6
CONTINUOUS
 62
     2
100
AcDbLine
 10
566.981568
 20
2733.692871
 30
0.0
 11
1273.018432
 21
2733.692871
 31
0.0
  0
ARC
  5
412
100
AcDbEntity
  8
鏡台
  6
CONTINUOUS
 62
     2
100
AcDbCircle
 10
566.981568
 20
2723.692871
 30
0.0
 40
10.0
100
AcDbArc
 50
90.0
 51
180.0
  0
LINE
  5
413
100
AcDbEntity
  8
鏡台
  6
CONTINUOUS
 62
     2
100
AcDbLine
 10
556.981568
 20
2723.692871
 30
0.0
 11
556.981568
 21
2657.0
 31
0.0
  0
ARC
  5
414
100
AcDbEntity
  8
鏡台
  6
CONTINUOUS
 62
     2
100
AcDbCircle
 10
566.981568
 20
2657.0
 30
0.0
 40
10.0
100
AcDbArc
 50
180.0
 51
270.0
  0
LINE
  5
415
100
AcDbEntity
  8
鏡台
  6
CONTINUOUS
 62
     2
100
AcDbLine
 10
1283.018432
 20
2723.692871
 30
0.0
 11
1283.018432
 21
2657.0
 31
0.0
  0
ARC
  5
416
100
AcDbEntity
  8
鏡台
  6
CONTINUOUS
 62
     2
100
AcDbCircle
 10
1273.018432
 20
2657.0
 30
0.0
 40
10.0
100
AcDbArc
 50
270.0
 51
0.0
  0
LINE
  5
417
100
AcDbEntity
  8
鏡台
  6
CONTINUOUS
 62
     2
100
AcDbLine
 10
1295.0
 20
2647.0
 30
0.0
 11
545.0
 21
2647.0
 31
0.0
  0
LINE
  5
418
100
AcDbEntity
  8
鏡台
  6
CONTINUOUS
 62
     6
100
AcDbLine
 10
2450.0
 20
1808.5
 30
0.0
 11
2512.5
 21
1808.5
 31
0.0
  0
LINE
  5
419
100
AcDbEntity
  8
鏡台
  6
CONTINUOUS
 62
     6
100
AcDbLine
 10
2390.0
 20
2307.718172
 30
0.0
 11
2390.0
 21
2284.718172
 31
0.0
  0
LINE
  5
41A
100
AcDbEntity
  8
鏡台
  6
CONTINUOUS
 62
     6
100
AcDbLine
 10
2392.0
 20
2307.718172
 30
0.0
 11
2390.0
 21
2307.718172
 31
0.0
  0
LINE
  5
41B
100
AcDbEntity
  8
鏡台
  6
CONTINUOUS
 62
     6
100
AcDbLine
 10
2392.0
 20
2284.718172
 30
0.0
 11
2390.0
 21
2284.718172
 31
0.0
  0
LINE
  5
41C
100
AcDbEntity
  8
鏡台
  6
CONTINUOUS
 62
     6
100
AcDbLine
 10
2390.0
 20
2287.718172
 30
0.0
 11
2387.0
 21
2287.718172
 31
0.0
  0
LINE
  5
41D
100
AcDbEntity
  8
鏡台
  6
CONTINUOUS
 62
     6
100
AcDbLine
 10
2387.0
 20
2304.718172
 30
0.0
 11
2387.0
 21
2287.718172
 31
0.0
  0
LINE
  5
41E
100
AcDbEntity
  8
鏡台
  6
CONTINUOUS
 62
     6
100
AcDbLine
 10
2390.0
 20
2304.718172
 30
0.0
 11
2387.0
 21
2304.718172
 31
0.0
  0
LINE
  5
41F
100
AcDbEntity
  8
鏡台
  6
CONTINUOUS
 62
     6
100
AcDbLine
 10
2450.0
 20
2688.5
 30
0.0
 11
2512.5
 21
2688.5
 31
0.0
  0
ARC
  5
420
100
AcDbEntity
  8
鏡台
  6
CONTINUOUS
 62
     6
100
AcDbCircle
 10
2352.007777
 20
2717.178943
 30
0.0
 40
10.0
100
AcDbArc
 50
94.000061
 51
187.019409
  0
ARC
  5
421
100
AcDbEntity
  8
鏡台
  6
CONTINUOUS
 62
     6
100
AcDbCircle
 10
2610.058895
 20
2748.952687
 30
0.0
 40
270.0
100
AcDbArc
 50
187.01947
 51
199.909058
  0
ARC
  5
422
100
AcDbEntity
  8
鏡台
  6
CONTINUOUS
 62
     6
100
AcDbCircle
 10
2370.299159
 20
2662.118052
 30
0.0
 40
15.0
100
AcDbArc
 50
199.909058
 51
270.0
  0
LINE
  5
423
100
AcDbEntity
  8
鏡台
  6
CONTINUOUS
 62
     6
100
AcDbLine
 10
2465.0
 20
1810.5
 30
0.0
 11
2497.5
 21
1808.5
 31
0.0
  0
LINE
  5
424
100
AcDbEntity
  8
鏡台
  6
CONTINUOUS
 62
     6
100
AcDbLine
 10
2497.5
 20
1808.5
 30
0.0
 11
2465.0
 21
1806.5
 31
0.0
  0
LINE
  5
425
100
AcDbEntity
  8
鏡台
  6
CONTINUOUS
 62
     6
100
AcDbLine
 10
2465.0
 20
2690.5
 30
0.0
 11
2497.5
 21
2688.5
 31
0.0
  0
LINE
  5
426
100
AcDbEntity
  8
鏡台
  6
CONTINUOUS
 62
     6
100
AcDbLine
 10
2497.5
 20
2688.5
 30
0.0
 11
2465.0
 21
2686.5
 31
0.0
  0
ARC
  5
427
100
AcDbEntity
  8
鏡台
  6
CONTINUOUS
 62
     2
100
AcDbCircle
 10
2416.856041
 20
2013.203295
 30
0.0
 40
15.0
100
AcDbArc
 50
28.805081
 51
82.0
  0
LINE
  5
428
100
AcDbEntity
  8
鏡台
  6
CONTINUOUS
 62
     2
100
AcDbLine
 10
2398.982853
 20
2278.718471
 30
0.0
 11
2392.0
 21
2278.718471
 31
0.0
  0
LINE
  5
429
100
AcDbEntity
  8
鏡台
  6
CONTINUOUS
 62
     2
100
AcDbLine
 10
2392.0
 20
2313.718172
 30
0.0
 11
2392.0
 21
2278.718471
 31
0.0
  0
LINE
  5
42A
100
AcDbEntity
  8
鏡台
  6
CONTINUOUS
 62
     2
100
AcDbLine
 10
2399.0
 20
2313.718172
 30
0.0
 11
2392.0
 21
2313.718172
 31
0.0
  0
LINE
  5
42B
100
AcDbEntity
  8
鏡台
  6
CONTINUOUS
 62
     2
100
AcDbLine
 10
2465.0
 20
2743.5
 30
0.0
 11
2465.0
 21
1743.5
 31
0.0
  0
LINE
  5
42C
100
AcDbEntity
  8
鏡台
  6
CONTINUOUS
 62
     2
100
AcDbLine
 10
2377.0
 20
1843.5
 30
0.0
 11
2377.0
 21
1858.5
 31
0.0
  0
LINE
  5
42D
100
AcDbEntity
  8
鏡台
  6
CONTINUOUS
 62
     2
100
AcDbLine
 10
2350.0
 20
2027.859087
 30
0.0
 11
2430.0
 21
2027.859087
 31
0.0
  0
LINE
  5
42E
100
AcDbEntity
  8
鏡台
  6
CONTINUOUS
 62
     2
100
AcDbLine
 10
2350.0
 20
2077.859087
 30
0.0
 11
2350.0
 21
2027.859087
 31
0.0
  0
LINE
  5
42F
100
AcDbEntity
  8
鏡台
  6
CONTINUOUS
 62
     2
100
AcDbLine
 10
2350.0
 20
2077.859087
 30
0.0
 11
2430.0
 21
2077.859087
 31
0.0
  0
LINE
  5
430
100
AcDbEntity
  8
鏡台
  6
CONTINUOUS
 62
     2
100
AcDbLine
 10
2350.0
 20
2373.5
 30
0.0
 11
2350.0
 21
2323.5
 31
0.0
  0
LINE
  5
431
100
AcDbEntity
  8
鏡台
  6
CONTINUOUS
 62
     2
100
AcDbLine
 10
2350.0
 20
2373.5
 30
0.0
 11
2430.0
 21
2373.5
 31
0.0
  0
LINE
  5
432
100
AcDbEntity
  8
鏡台
  6
CONTINUOUS
 62
     2
100
AcDbLine
 10
2350.0
 20
2323.5
 30
0.0
 11
2430.0
 21
2323.5
 31
0.0
  0
LINE
  5
433
100
AcDbEntity
  8
鏡台
  6
CONTINUOUS
 62
     2
100
AcDbLine
 10
2399.0
 20
2323.5
 30
0.0
 11
2399.0
 21
2278.718471
 31
0.0
  0
LINE
  5
434
100
AcDbEntity
  8
鏡台
  6
CONTINUOUS
 62
     2
100
AcDbLine
 10
2377.0
 20
1843.5
 30
0.0
 11
2430.26168
 21
1840.708674
 31
0.0
  0
ARC
  5
435
100
AcDbEntity
  8
鏡台
  6
CONTINUOUS
 62
     2
100
AcDbCircle
 10
2430.0
 20
1835.715526
 30
0.0
 40
5.0
100
AcDbArc
 50
0.0
 51
87.0
  0
LINE
  5
436
100
AcDbEntity
  8
鏡台
  6
CONTINUOUS
 62
     2
100
AcDbLine
 10
2377.0
 20
1858.5
 30
0.0
 11
2425.0
 21
1858.5
 31
0.0
  0
ARC
  5
437
100
AcDbEntity
  8
鏡台
  6
CONTINUOUS
 62
     2
100
AcDbCircle
 10
2425.0
 20
1863.5
 30
0.0
 40
5.0
100
AcDbArc
 50
270.0
 51
0.0
  0
LINE
  5
438
100
AcDbEntity
  8
鏡台
  6
CONTINUOUS
 62
     2
100
AcDbLine
 10
2399.0
 20
2278.718171
 30
0.0
 11
2425.087262
 21
2278.262817
 31
0.0
  0
ARC
  5
439
100
AcDbEntity
  8
鏡台
  6
CONTINUOUS
 62
     2
100
AcDbCircle
 10
2425.0
 20
2273.263579
 30
0.0
 40
5.0
100
AcDbArc
 50
0.0
 51
89.000001
  0
LINE
  5
43A
100
AcDbEntity
  8
鏡台
  6
CONTINUOUS
 62
     2
100
AcDbLine
 10
2435.0
 20
1746.5
 30
0.0
 11
2435.0
 21
1835.715526
 31
0.0
  0
ARC
  5
43B
100
AcDbEntity
  8
鏡台
  6
CONTINUOUS
 62
     2
100
AcDbCircle
 10
2438.0
 20
1746.5
 30
0.0
 40
3.0
100
AcDbArc
 50
180.0
 51
270.0
  0
ARC
  5
43C
100
AcDbEntity
  8
鏡台
  6
CONTINUOUS
 62
     2
100
AcDbCircle
 10
2348.86942
 20
2667.118023
 30
0.0
 40
20.0
100
AcDbArc
 50
203.031494
 51
270.0
  0
ARC
  5
43D
100
AcDbEntity
  8
鏡台
  6
CONTINUOUS
 62
     2
100
AcDbCircle
 10
2578.941904
 20
2764.927355
 30
0.0
 40
270.0
100
AcDbArc
 50
191.025757
 51
203.031494
  0
ARC
  5
43E
100
AcDbEntity
  8
鏡台
  6
CONTINUOUS
 62
     2
100
AcDbCircle
 10
2323.74118
 20
2715.202357
 30
0.0
 40
10.0
100
AcDbArc
 50
94.000031
 51
191.025757
  0
LINE
  5
43F
100
AcDbEntity
  8
鏡台
  6
CONTINUOUS
 62
     2
100
AcDbLine
 10
2465.0
 20
2743.5
 30
0.0
 11
2430.0
 21
2742.312682
 31
0.0
  0
LINE
  5
440
100
AcDbEntity
  8
鏡台
  6
CONTINUOUS
 62
     2
100
AcDbLine
 10
2430.0
 20
2661.578095
 30
0.0
 11
2430.0
 21
2742.312682
 31
0.0
  0
LINE
  5
441
100
AcDbEntity
  8
鏡台
  6
CONTINUOUS
 62
     2
100
AcDbLine
 10
2410.0
 20
2636.999939
 30
0.0
 11
2430.0
 21
2633.999939
 31
0.0
  0
LINE
  5
442
100
AcDbEntity
  8
鏡台
  6
CONTINUOUS
 62
     2
100
AcDbLine
 10
2323.043613
 20
2725.177985
 30
0.0
 11
2430.0
 21
2732.65711
 31
0.0
  0
LINE
  5
443
100
AcDbEntity
  8
鏡台
  6
CONTINUOUS
 62
     2
100
AcDbLine
 10
2415.0
 20
2646.999939
 30
0.0
 11
2410.0
 21
2646.999939
 31
0.0
  0
LINE
  5
444
100
AcDbEntity
  8
鏡台
  6
CONTINUOUS
 62
     2
100
AcDbLine
 10
2410.0
 20
2636.999939
 30
0.0
 11
2410.0
 21
2646.999939
 31
0.0
  0
ARC
  5
445
100
AcDbEntity
  8
鏡台
  6
CONTINUOUS
 62
     2
100
AcDbCircle
 10
2415.0
 20
2661.999939
 30
0.0
 40
15.0
100
AcDbArc
 50
270.0
 51
0.0
  0
LINE
  5
446
100
AcDbEntity
  8
鏡台
  6
CONTINUOUS
 62
     2
100
AcDbLine
 10
2416.878458
 20
2647.118024
 30
0.0
 11
2348.869412
 21
2647.118045
 31
0.0
  0
LINE
  5
447
100
AcDbEntity
  8
鏡台
  6
CONTINUOUS
 62
     2
100
AcDbLine
 10
2430.0
 20
2633.999939
 30
0.0
 11
2430.0
 21
1863.5
 31
0.0
  0
LINE
  5
448
100
AcDbEntity
  8
鏡台
  6
CONTINUOUS
 62
     2
100
AcDbLine
 10
740.0
 20
2188.5
 30
0.0
 11
740.0
 21
2323.5
 31
0.0
  0
LINE
  5
449
100
AcDbEntity
  8
鏡台
  6
CONTINUOUS
 62
     2
100
AcDbLine
 10
749.5
 20
2634.0
 30
0.0
 11
749.5
 21
2188.5
 31
0.0
  0
LINE
  5
44A
100
AcDbEntity
  8
鏡台
  6
CONTINUOUS
 62
     2
100
AcDbLine
 10
740.0
 20
2077.859087
 30
0.0
 11
740.0
 21
2100.75
 31
0.0
  0
LINE
  5
44B
100
AcDbEntity
  8
鏡台
  6
CONTINUOUS
 62
     2
100
AcDbLine
 10
749.5
 20
2100.75
 30
0.0
 11
749.5
 21
2022.318897
 31
0.0
  0
LINE
  5
44C
100
AcDbEntity
  8
鏡台
  6
CONTINUOUS
 62
     2
100
AcDbLine
 10
748.972235
 20
1841.770543
 30
0.0
 11
899.870631
 21
1841.770543
 31
0.0
  0
LINE
  5
44D
100
AcDbEntity
  8
鏡台
  6
CONTINUOUS
 62
     2
100
AcDbLine
 10
940.129141
 20
1841.770543
 30
0.0
 11
1091.8
 21
1841.770543
 31
0.0
  0
DIMENSION
  5
459
100
AcDbEntity
  8
寸法
  6
CONTINUOUS
 62
     3
100
AcDbDimension
  2
*D14
 10
1190.0
 20
4168.0
 30
0.0
 11
920.0
 21
4203.25
 31
0.0
 70
   160
  1
540（壁固定）
  3
STANDARD
100
AcDbAlignedDimension
 13
650.0
 23
4005.5
 33
0.0
 14
1190.0
 24
4005.5
 34
0.0
100
AcDbRotatedDimension
1001
ACAD
1000
DSTYLE
1002
{
1070
     6
1000
_EX_NORM
1070
     7
1000
_EX_NORM
1070
    41
1040
45.0
1070
    42
1040
146.499996
1070
    44
1040
15.0
1070
    73
1070
     0
1070
    74
1070
     0
1070
    75
1070
     0
1070
    76
1070
     1
1070
    77
1070
     1
1070
    78
1070
     0
1070
   140
1040
60.0
1070
   147
1040
5.25
1070
   173
1070
     1
1070
   176
1070
     3
1070
   177
1070
     3
1070
   178
1070
     2
1070
   271
1070
     0
1070
   279
1070
     2
1070
   280
1070
     0
1070
   287
1070
     5
1070
   340
1005
458
1002
}
  0
DIMENSION
  5
465
100
AcDbEntity
  8
寸法
  6
CONTINUOUS
 62
     3
100
AcDbDimension
  2
*D15
 10
1295.0
 20
3388.0
 30
0.0
 11
920.0
 21
3423.25
 31
0.0
 70
   160
  3
STANDARD
100
AcDbAlignedDimension
 13
545.0
 23
3522.598405
 33
0.0
 14
1295.0
 24
3522.598405
 34
0.0
100
AcDbRotatedDimension
1001
ACAD
1000
DSTYLE
1002
{
1070
     6
1000
_EX_NORM
1070
     7
1000
_EX_NORM
1070
    41
1040
45.0
1070
    42
1040
10.5
1070
    44
1040
15.0
1070
    73
1070
     0
1070
    74
1070
     0
1070
    75
1070
     0
1070
    76
1070
     0
1070
    77
1070
     1
1070
    78
1070
     0
1070
   140
1040
60.0
1070
   147
1040
5.25
1070
   173
1070
     1
1070
   176
1070
     3
1070
   177
1070
     3
1070
   178
1070
     2
1070
   271
1070
     0
1070
   279
1070
     2
1070
   280
1070
     0
1070
   287
1070
     5
1070
   340
1005
458
1002
}
  0
DIMENSION
  5
470
100
AcDbEntity
  8
寸法
  6
CONTINUOUS
 62
     3
100
AcDbDimension
  2
*D16
 10
1400.0
 20
3973.0
 30
0.0
 11
1364.75
 21
3733.0
 31
0.0
 70
   160
  3
STANDARD
100
AcDbAlignedDimension
 13
920.0
 23
3493.0
 33
0.0
 14
1295.0
 24
3973.0
 34
0.0
 50
90.0
100
AcDbRotatedDimension
1001
ACAD
1000
DSTYLE
1002
{
1070
     6
1000
_EX_NORM
1070
     7
1000
_EX_NORM
1070
    41
1040
45.0
1070
    42
1040
10.5
1070
    44
1040
15.0
1070
    73
1070
     0
1070
    74
1070
     0
1070
    75
1070
     0
1070
    76
1070
     1
1070
    77
1070
     1
1070
    78
1070
     0
1070
   140
1040
60.0
1070
   147
1040
5.25
1070
   173
1070
     1
1070
   176
1070
     3
1070
   177
1070
     3
1070
   178
1070
     2
1070
   271
1070
     0
1070
   279
1070
     2
1070
   280
1070
     0
1070
   287
1070
     5
1070
   340
1005
458
1002
}
  0
DIMENSION
  5
47C
100
AcDbEntity
  8
寸法
  6
CONTINUOUS
 62
     3
100
AcDbDimension
  2
*D17
 10
1295.0
 20
2923.5
 30
0.0
 11
920.0
 21
2958.75
 31
0.0
 70
   160
  3
STANDARD
100
AcDbAlignedDimension
 13
545.0
 23
2738.5
 33
0.0
 14
1295.0
 24
2738.5
 34
0.0
100
AcDbRotatedDimension
1001
ACAD
1000
DSTYLE
1002
{
1070
     6
1000
_EX_NORM
1070
     7
1000
_EX_NORM
1070
    41
1040
45.0
1070
    42
1040
10.5
1070
    44
1040
15.0
1070
    73
1070
     0
1070
    74
1070
     0
1070
    75
1070
     0
1070
    76
1070
     0
1070
    77
1070
     1
1070
    78
1070
     0
1070
   140
1040
60.0
1070
   147
1040
5.25
1070
   173
1070
     1
1070
   176
1070
     3
1070
   177
1070
     3
1070
   178
1070
     2
1070
   271
1070
     0
1070
   279
1070
     2
1070
   280
1070
     0
1070
   287
1070
     5
1070
   340
1005
458
1002
}
  0
DIMENSION
  5
487
100
AcDbEntity
  8
寸法
  6
CONTINUOUS
 62
     3
100
AcDbDimension
  2
*D18
 10
1447.5
 20
1728.5
 30
0.0
 11
1412.25
 21
1338.5
 31
0.0
 70
   160
  3
STANDARD
100
AcDbAlignedDimension
 13
1278.5
 23
948.5
 33
0.0
 14
920.0
 24
1728.5
 34
0.0
 50
90.0
100
AcDbRotatedDimension
1001
ACAD
1000
DSTYLE
1002
{
1070
     6
1000
_EX_NORM
1070
     7
1000
_EX_NORM
1070
    41
1040
45.0
1070
    42
1040
10.5
1070
    44
1040
15.0
1070
    73
1070
     0
1070
    74
1070
     0
1070
    75
1070
     1
1070
    76
1070
     0
1070
    77
1070
     1
1070
    78
1070
     0
1070
   140
1040
60.0
1070
   147
1040
5.25
1070
   173
1070
     1
1070
   176
1070
     3
1070
   177
1070
     3
1070
   178
1070
     2
1070
   271
1070
     0
1070
   279
1070
     2
1070
   280
1070
     0
1070
   287
1070
     5
1070
   340
1005
458
1002
}
  0
DIMENSION
  5
492
100
AcDbEntity
  8
寸法
  6
CONTINUOUS
 62
     3
100
AcDbDimension
  2
*D19
 10
1537.5
 20
1743.5
 30
0.0
 11
1502.25
 21
1346.0
 31
0.0
 70
   160
  3
STANDARD
100
AcDbAlignedDimension
 13
1278.5
 23
948.5
 33
0.0
 14
1290.0
 24
1743.5
 34
0.0
 50
90.0
100
AcDbRotatedDimension
1001
ACAD
1000
DSTYLE
1002
{
1070
     6
1000
_EX_NORM
1070
     7
1000
_EX_NORM
1070
    41
1040
45.0
1070
    42
1040
10.5
1070
    44
1040
15.0
1070
    73
1070
     0
1070
    74
1070
     0
1070
    75
1070
     1
1070
    76
1070
     0
1070
    77
1070
     1
1070
    78
1070
     0
1070
   140
1040
60.0
1070
   147
1040
5.25
1070
   173
1070
     1
1070
   176
1070
     3
1070
   177
1070
     3
1070
   178
1070
     2
1070
   271
1070
     0
1070
   279
1070
     2
1070
   280
1070
     0
1070
   287
1070
     5
1070
   340
1005
458
1002
}
  0
DIMENSION
  5
49D
100
AcDbEntity
  8
寸法
  6
CONTINUOUS
 62
     3
100
AcDbDimension
  2
*D20
 10
1537.5
 20
2743.499996
 30
0.0
 11
1502.25
 21
2243.499998
 31
0.0
 70
   160
  3
STANDARD
100
AcDbAlignedDimension
 13
1290.0
 23
1743.5
 33
0.0
 14
1289.999805
 24
2743.499996
 34
0.0
 50
90.0
100
AcDbRotatedDimension
1001
ACAD
1000
DSTYLE
1002
{
1070
     6
1000
_EX_NORM
1070
     7
1000
_EX_NORM
1070
    41
1040
45.0
1070
    42
1040
10.5
1070
    44
1040
15.0
1070
    73
1070
     0
1070
    74
1070
     0
1070
    75
1070
     1
1070
    76
1070
     0
1070
    77
1070
     1
1070
    78
1070
     0
1070
   140
1040
60.0
1070
   147
1040
5.25
1070
   173
1070
     1
1070
   176
1070
     3
1070
   177
1070
     3
1070
   178
1070
     2
1070
   271
1070
     0
1070
   279
1070
     2
1070
   280
1070
     0
1070
   287
1070
     5
1070
   340
1005
458
1002
}
  0
DIMENSION
  5
4A8
100
AcDbEntity
  8
寸法
  6
CONTINUOUS
 62
     3
100
AcDbDimension
  2
*D21
 10
1627.5
 20
2743.499996
 30
0.0
 11
1592.25
 21
1845.999998
 31
0.0
 70
   160
  3
STANDARD
100
AcDbAlignedDimension
 13
1278.5
 23
948.5
 33
0.0
 14
1289.999805
 24
2743.499996
 34
0.0
 50
90.0
100
AcDbRotatedDimension
1001
ACAD
1000
DSTYLE
1002
{
1070
     6
1000
_EX_NORM
1070
     7
1000
_EX_NORM
1070
    41
1040
45.0
1070
    42
1040
10.5
1070
    44
1040
15.0
1070
    73
1070
     0
1070
    74
1070
     0
1070
    75
1070
     1
1070
    76
1070
     0
1070
    77
1070
     1
1070
    78
1070
     0
1070
   140
1040
60.0
1070
   147
1040
5.25
1070
   173
1070
     1
1070
   176
1070
     3
1070
   177
1070
     3
1070
   178
1070
     2
1070
   271
1070
     0
1070
   279
1070
     2
1070
   280
1070
     0
1070
   287
1070
     5
1070
   340
1005
458
1002
}
  0
DIMENSION
  5
4B3
100
AcDbEntity
  8
寸法
  6
CONTINUOUS
 62
     3
100
AcDbDimension
  2
*D22
 10
1447.5
 20
1873.5
 30
0.0
 11
1412.25
 21
1808.5
 31
0.0
 70
   160
  3
STANDARD
100
AcDbAlignedDimension
 13
1290.0
 23
1743.5
 33
0.0
 14
1308.076697
 24
1873.5
 34
0.0
 50
90.0
100
AcDbRotatedDimension
1001
ACAD
1000
DSTYLE
1002
{
1070
     6
1000
_EX_NORM
1070
     7
1000
_EX_NORM
1070
    41
1040
45.0
1070
    42
1040
10.5
1070
    44
1040
15.0
1070
    73
1070
     0
1070
    74
1070
     0
1070
    75
1070
     1
1070
    76
1070
     0
1070
    77
1070
     1
1070
    78
1070
     0
1070
   140
1040
60.0
1070
   147
1040
5.25
1070
   173
1070
     1
1070
   176
1070
     3
1070
   177
1070
     3
1070
   178
1070
     2
1070
   271
1070
     0
1070
   279
1070
     2
1070
   280
1070
     0
1070
   287
1070
     5
1070
   340
1005
458
1002
}
  0
TEXT
  5
4B4
100
AcDbEntity
  8
寸法
  6
CONTINUOUS
 62
     2
100
AcDbText
 10
1406.25
 20
1957.5
 30
0.0
 40
60.0
  1
コード長さ；１ｍ
 50
90.0
 41
0.693
  7
EXCADSTD
 72
     5
 11
1406.25
 21
2353.499999
 31
0.0
100
AcDbText
  0
LEADER
  5
4B5
100
AcDbEntity
  8
寸法
  6
CONTINUOUS
 62
     3
100
AcDbLeader
  3
STANDARD
 73
     3
 74
     1
 75
     0
 40
0.0
 76
     3
 10
1317.372956
 20
1866.500118
 30
0.0
 10
1411.5
 20
1950.0
 30
0.0
 10
1411.5
 20
2344.5
 30
0.0
 77
     3
1001
ACAD
1000
DSTYLE
1002
{
1070
    41
1040
45.0
1070
     5
1000
_EX_NORM
1070
     6
1000
_EX_NORM
1070
     7
1000
_EX_NORM
1070
   341
1005
2A
1002
}
  0
DIMENSION
  5
4C1
100
AcDbEntity
  8
寸法
  6
CONTINUOUS
 62
     3
100
AcDbDimension
  2
*D23
 10
2465.0
 20
828.5
 30
0.0
 11
2675.0
 21
863.75
 31
0.0
 70
   160
  1
85（床給水）
  3
STANDARD
100
AcDbAlignedDimension
 13
2380.0
 23
940.5
 33
0.0
 14
2465.0
 24
948.5
 34
0.0
100
AcDbRotatedDimension
1001
ACAD
1000
DSTYLE
1002
{
1070
     6
1000
_EX_NORM
1070
     7
1000
_EX_NORM
1070
    41
1040
45.0
1070
    42
1040
10.5
1070
    44
1040
15.0
1070
    73
1070
     0
1070
    74
1070
     0
1070
    75
1070
     0
1070
    76
1070
     0
1070
    77
1070
     1
1070
    78
1070
     0
1070
   140
1040
60.0
1070
   147
1040
5.25
1070
   173
1070
     1
1070
   176
1070
     3
1070
   177
1070
     3
1070
   178
1070
     2
1070
   271
1070
     0
1070
   279
1070
     2
1070
   280
1070
     2
1070
   287
1070
     5
1070
   340
1005
458
1002
}
  0
DIMENSION
  5
4CD
100
AcDbEntity
  8
寸法
  6
CONTINUOUS
 62
     3
100
AcDbDimension
  2
*D24
 10
2570.0
 20
1298.5
 30
0.0
 11
2534.75
 21
1123.5
 31
0.0
 70
   160
  1
350（壁給水）
  3
STANDARD
100
AcDbAlignedDimension
 13
2465.0
 23
948.5
 33
0.0
 14
2473.0
 24
1298.5
 34
0.0
 50
90.0
100
AcDbRotatedDimension
1001
ACAD
1000
DSTYLE
1002
{
1070
     6
1000
_EX_NORM
1070
     7
1000
_EX_NORM
1070
    41
1040
45.0
1070
    42
1040
10.5
1070
    44
1040
15.0
1070
    73
1070
     0
1070
    74
1070
     0
1070
    75
1070
     0
1070
    76
1070
     0
1070
    77
1070
     1
1070
    78
1070
     0
1070
   140
1040
60.0
1070
   147
1040
5.25
1070
   173
1070
     1
1070
   176
1070
     3
1070
   177
1070
     3
1070
   178
1070
     2
1070
   271
1070
     0
1070
   279
1070
     2
1070
   280
1070
     0
1070
   287
1070
     5
1070
   340
1005
458
1002
}
  0
DIMENSION
  5
4D9
100
AcDbEntity
  8
寸法
  6
CONTINUOUS
 62
     3
100
AcDbDimension
  2
*D25
 10
2660.0
 20
1448.5
 30
0.0
 11
2624.75
 21
1198.5
 31
0.0
 70
   160
  1
500（壁排水）
  3
STANDARD
100
AcDbAlignedDimension
 13
2465.0
 23
948.5
 33
0.0
 14
2486.0
 24
1448.5
 34
0.0
 50
90.0
100
AcDbRotatedDimension
1001
ACAD
1000
DSTYLE
1002
{
1070
     6
1000
_EX_NORM
1070
     7
1000
_EX_NORM
1070
    41
1040
45.0
1070
    42
1040
10.5
1070
    44
1040
15.0
1070
    73
1070
     0
1070
    74
1070
     0
1070
    75
1070
     0
1070
    76
1070
     0
1070
    77
1070
     1
1070
    78
1070
     0
1070
   140
1040
60.0
1070
   147
1040
5.25
1070
   173
1070
     1
1070
   176
1070
     3
1070
   177
1070
     3
1070
   178
1070
     2
1070
   271
1070
     0
1070
   279
1070
     2
1070
   280
1070
     0
1070
   287
1070
     5
1070
   340
1005
458
1002
}
  0
DIMENSION
  5
4E5
100
AcDbEntity
  8
寸法
  6
CONTINUOUS
 62
     3
100
AcDbDimension
  2
*D26
 10
2750.0
 20
1503.5
 30
0.0
 11
2714.75
 21
1226.0
 31
0.0
 70
   160
  1
555（壁固定）
  3
STANDARD
100
AcDbAlignedDimension
 13
2465.0
 23
948.5
 33
0.0
 14
2497.5
 24
1503.5
 34
0.0
 50
90.0
100
AcDbRotatedDimension
1001
ACAD
1000
DSTYLE
1002
{
1070
     6
1000
_EX_NORM
1070
     7
1000
_EX_NORM
1070
    41
1040
45.0
1070
    42
1040
10.5
1070
    44
1040
15.0
1070
    73
1070
     0
1070
    74
1070
     0
1070
    75
1070
     0
1070
    76
1070
     0
1070
    77
1070
     1
1070
    78
1070
     0
1070
   140
1040
60.0
1070
   147
1040
5.25
1070
   173
1070
     1
1070
   176
1070
     3
1070
   177
1070
     3
1070
   178
1070
     2
1070
   271
1070
     0
1070
   279
1070
     2
1070
   280
1070
     0
1070
   287
1070
     5
1070
   340
1005
458
1002
}
  0
DIMENSION
  5
4F1
100
AcDbEntity
  8
寸法
  6
CONTINUOUS
 62
     3
100
AcDbDimension
  2
*D27
 10
2840.0
 20
1808.5
 30
0.0
 11
2804.75
 21
1378.5
 31
0.0
 70
   160
  3
STANDARD
100
AcDbAlignedDimension
 13
2465.0
 23
948.5
 33
0.0
 14
2497.5
 24
1808.5
 34
0.0
 50
90.0
100
AcDbRotatedDimension
1001
ACAD
1000
DSTYLE
1002
{
1070
     6
1000
_EX_NORM
1070
     7
1000
_EX_NORM
1070
    41
1040
45.0
1070
    42
1040
10.5
1070
    44
1040
15.0
1070
    73
1070
     0
1070
    74
1070
     0
1070
    75
1070
     0
1070
    76
1070
     0
1070
    77
1070
     1
1070
    78
1070
     0
1070
   140
1040
60.0
1070
   147
1040
5.25
1070
   173
1070
     1
1070
   176
1070
     3
1070
   177
1070
     3
1070
   178
1070
     2
1070
   271
1070
     0
1070
   279
1070
     2
1070
   280
1070
     0
1070
   287
1070
     5
1070
   340
1005
458
1002
}
  0
DIMENSION
  5
4FD
100
AcDbEntity
  8
寸法
  6
CONTINUOUS
 62
     3
100
AcDbDimension
  2
*D28
 10
2465.0
 20
648.5
 30
0.0
 11
2270.0
 21
683.75
 31
0.0
 70
   160
  3
STANDARD
100
AcDbAlignedDimension
 13
2075.0
 23
952.0
 33
0.0
 14
2465.0
 24
948.5
 34
0.0
100
AcDbRotatedDimension
1001
ACAD
1000
DSTYLE
1002
{
1070
     6
1000
_EX_NORM
1070
     7
1000
_EX_NORM
1070
    41
1040
45.0
1070
    42
1040
10.5
1070
    44
1040
15.0
1070
    73
1070
     0
1070
    74
1070
     0
1070
    75
1070
     0
1070
    76
1070
     0
1070
    77
1070
     1
1070
    78
1070
     0
1070
   140
1040
60.0
1070
   147
1040
5.25
1070
   173
1070
     1
1070
   176
1070
     3
1070
   177
1070
     3
1070
   178
1070
     2
1070
   271
1070
     0
1070
   279
1070
     2
1070
   280
1070
     0
1070
   287
1070
     5
1070
   340
1005
458
1002
}
  0
TEXT
  5
4FE
100
AcDbEntity
  8
寸法
  6
CONTINUOUS
 62
     2
100
AcDbText
 10
618.0
 20
4055.25
 30
0.0
 40
60.0
  1
壁排水
 41
0.728
  7
EXCADSTD
 72
     5
 11
774.0
 21
4055.25
 31
0.0
100
AcDbText
  0
LEADER
  5
4FF
100
AcDbEntity
  8
寸法
  6
CONTINUOUS
 62
     3
100
AcDbLeader
  3
STANDARD
 73
     3
 74
     1
 75
     0
 40
0.0
 76
     3
 10
904.0
 20
3993.0
 30
0.0
 10
781.5
 20
4050.0
 30
0.0
 10
610.5
 20
4050.0
 30
0.0
 77
     3
1001
ACAD
1000
DSTYLE
1002
{
1070
    41
1040
45.0
1070
     5
1000
_EX_NORM
1070
     6
1000
_EX_NORM
1070
     7
1000
_EX_NORM
1070
   341
1005
2A
1002
}
  0
DIMENSION
  5
50B
100
AcDbEntity
  8
寸法
  6
CONTINUOUS
 62
     3
100
AcDbDimension
  2
*D29
 10
1278.5
 20
648.5
 30
0.0
 11
920.0
 21
683.75
 31
0.0
 70
   160
  3
STANDARD
100
AcDbAlignedDimension
 13
561.5
 23
948.5
 33
0.0
 14
1278.5
 24
948.5
 34
0.0
100
AcDbRotatedDimension
1001
ACAD
1000
DSTYLE
1002
{
1070
     6
1000
_EX_NORM
1070
     7
1000
_EX_NORM
1070
    41
1040
45.0
1070
    42
1040
228.500004
1070
    44
1040
15.0
1070
    73
1070
     0
1070
    74
1070
     0
1070
    75
1070
     0
1070
    76
1070
     0
1070
    77
1070
     1
1070
    78
1070
     0
1070
   140
1040
60.0
1070
   147
1040
5.25
1070
   173
1070
     1
1070
   176
1070
     3
1070
   177
1070
     3
1070
   178
1070
     2
1070
   271
1070
     0
1070
   279
1070
     2
1070
   280
1070
     0
1070
   287
1070
     5
1070
   340
1005
458
1002
}
  0
DIMENSION
  5
517
100
AcDbEntity
  8
寸法
  6
CONTINUOUS
 62
     3
100
AcDbDimension
  2
*D30
 10
971.0
 20
1935.0
 30
0.0
 11
920.0
 21
1970.25
 31
0.0
 70
   160
  3
STANDARD
100
AcDbAlignedDimension
 13
869.0
 23
1730.722388
 33
0.0
 14
971.0
 24
1740.222388
 34
0.0
100
AcDbRotatedDimension
1001
ACAD
1000
DSTYLE
1002
{
1070
     6
1000
_EX_NORM
1070
     7
1000
_EX_NORM
1070
    41
1040
45.0
1070
    42
1040
10.5
1070
    44
1040
15.0
1070
    73
1070
     0
1070
    74
1070
     0
1070
    75
1070
     0
1070
    76
1070
     0
1070
    77
1070
     1
1070
    78
1070
     0
1070
   140
1040
60.0
1070
   147
1040
5.25
1070
   173
1070
     1
1070
   176
1070
     3
1070
   177
1070
     3
1070
   178
1070
     2
1070
   271
1070
     0
1070
   279
1070
     2
1070
   280
1070
     0
1070
   287
1070
     5
1070
   340
1005
458
1002
}
  0
DIMENSION
  5
522
100
AcDbEntity
  8
寸法
  6
CONTINUOUS
 62
     3
100
AcDbDimension
  2
*D31
 10
2465.0
 20
1935.0
 30
0.0
 11
2287.5
 21
1970.25
 31
0.0
 70
   160
  3
STANDARD
100
AcDbAlignedDimension
 13
2385.0
 23
1733.5
 33
0.0
 14
2465.0
 24
1743.5
 34
0.0
100
AcDbRotatedDimension
1001
ACAD
1000
DSTYLE
1002
{
1070
     6
1000
_EX_NORM
1070
     7
1000
_EX_NORM
1070
    41
1040
45.0
1070
    42
1040
10.5
1070
    44
1040
15.0
1070
    73
1070
     0
1070
    74
1070
     0
1070
    75
1070
     0
1070
    76
1070
     1
1070
    77
1070
     1
1070
    78
1070
     0
1070
   140
1040
60.0
1070
   147
1040
5.25
1070
   173
1070
     1
1070
   176
1070
     3
1070
   177
1070
     3
1070
   178
1070
     2
1070
   271
1070
     0
1070
   279
1070
     2
1070
   280
1070
     1
1070
   287
1070
     5
1070
   340
1005
458
1002
}
  0
TEXT
  5
523
100
AcDbEntity
  8
寸法
  6
CONTINUOUS
 62
     2
100
AcDbText
 10
1587.000001
 20
804.75
 30
0.0
 40
60.0
  1
ＶＰ･ＶＵ４０･５０
 41
0.62784
  7
EXCADSTD
 72
     5
 11
2019.0
 21
804.75
 31
0.0
100
AcDbText
  0
TEXT
  5
524
100
AcDbEntity
  8
寸法
  6
CONTINUOUS
 62
     2
100
AcDbText
 10
1587.000001
 20
744.75
 30
0.0
 40
60.0
  1
４０～５０㎜立上げ
 41
0.690667
  7
EXCADSTD
 72
     5
 11
2031.0
 21
744.75
 31
0.0
100
AcDbText
  0
LEADER
  5
525
100
AcDbEntity
  8
寸法
  6
CONTINUOUS
 62
     3
100
AcDbLeader
  3
STANDARD
 73
     3
 74
     1
 75
     0
 40
0.0
 76
     3
 10
2329.0
 20
948.5
 30
0.0
 10
2038.5
 20
739.5
 30
0.0
 10
1591.5
 20
739.5
 30
0.0
 77
     3
1001
ACAD
1000
DSTYLE
1002
{
1070
    41
1040
45.0
1070
     5
1000
_EX_NORM
1070
     6
1000
_EX_NORM
1070
     7
1000
_EX_NORM
1070
   341
1005
2A
1002
}
  0
TEXT
  5
526
100
AcDbEntity
  8
寸法
  6
CONTINUOUS
 62
     2
100
AcDbText
 10
2572.5
 20
1550.25
 30
0.0
 40
60.0
  1
Ｒ１/２
 41
0.638
  7
EXCADSTD
 72
     5
 11
2746.499999
 21
1550.25
 31
0.0
100
AcDbText
  0
LEADER
  5
527
100
AcDbEntity
  8
寸法
  6
CONTINUOUS
 62
     3
100
AcDbLeader
  3
STANDARD
 73
     3
 74
     1
 75
     0
 40
0.0
 76
     3
 10
2473.0
 20
1309.0
 30
0.0
 10
2565.0
 20
1545.0
 30
0.0
 10
2731.5
 20
1545.0
 30
0.0
 77
     3
1001
ACAD
1000
DSTYLE
1002
{
1070
    41
1040
45.0
1070
     5
1000
_EX_NORM
1070
     6
1000
_EX_NORM
1070
     7
1000
_EX_NORM
1070
   341
1005
2A
1002
}
  0
DIMENSION
  5
533
100
AcDbEntity
  8
寸法
  6
CONTINUOUS
 62
     3
100
AcDbDimension
  2
*D32
 10
2465.0
 20
738.5
 30
0.0
 11
2697.5
 21
773.75
 31
0.0
 70
   160
  1
120（床排水）
  3
STANDARD
100
AcDbAlignedDimension
 13
2345.0
 23
918.5
 33
0.0
 14
2465.0
 24
948.5
 34
0.0
100
AcDbRotatedDimension
1001
ACAD
1000
DSTYLE
1002
{
1070
     6
1000
_EX_NORM
1070
     7
1000
_EX_NORM
1070
    41
1040
45.0
1070
    42
1040
10.5
1070
    44
1040
15.0
1070
    73
1070
     0
1070
    74
1070
     0
1070
    75
1070
     0
1070
    76
1070
     0
1070
    77
1070
     1
1070
    78
1070
     0
1070
   140
1040
60.0
1070
   147
1040
5.25
1070
   173
1070
     1
1070
   176
1070
     3
1070
   177
1070
     3
1070
   178
1070
     2
1070
   271
1070
     0
1070
   279
1070
     2
1070
   280
1070
     2
1070
   287
1070
     5
1070
   340
1005
458
1002
}
  0
DIMENSION
  5
53F
100
AcDbEntity
  8
寸法
  6
CONTINUOUS
 62
     3
100
AcDbDimension
  2
*D33
 10
1020.0
 20
738.5
 30
0.0
 11
1252.5
 21
773.75
 31
0.0
 70
   160
  1
200（床給水）
  3
STANDARD
100
AcDbAlignedDimension
 13
820.0
 23
940.5
 33
0.0
 14
1020.0
 24
940.5
 34
0.0
100
AcDbRotatedDimension
1001
ACAD
1000
DSTYLE
1002
{
1070
     6
1000
_EX_NORM
1070
     7
1000
_EX_NORM
1070
    41
1040
45.0
1070
    42
1040
10.5
1070
    44
1040
15.0
1070
    73
1070
     0
1070
    74
1070
     0
1070
    75
1070
     0
1070
    76
1070
     0
1070
    77
1070
     1
1070
    78
1070
     0
1070
   140
1040
60.0
1070
   147
1040
5.25
1070
   173
1070
     1
1070
   176
1070
     3
1070
   177
1070
     3
1070
   178
1070
     2
1070
   271
1070
     0
1070
   279
1070
     2
1070
   280
1070
     2
1070
   287
1070
     5
1070
   340
1005
458
1002
}
  0
TEXT
  5
540
100
AcDbEntity
  8
寸法
  6
CONTINUOUS
 62
     2
100
AcDbText
 10
618.0
 20
810.75
 30
0.0
 40
60.0
  1
床排水
 41
0.728
  7
EXCADSTD
 72
     5
 11
774.0
 21
810.75
 31
0.0
100
AcDbText
  0
LEADER
  5
541
100
AcDbEntity
  8
寸法
  6
CONTINUOUS
 62
     3
100
AcDbLeader
  3
STANDARD
 73
     3
 74
     1
 75
     0
 40
0.0
 76
     3
 10
904.0
 20
918.5
 30
0.0
 10
781.5
 20
805.5
 30
0.0
 10
606.0
 20
805.5
 30
0.0
 77
     3
1001
ACAD
1000
DSTYLE
1002
{
1070
    41
1040
45.0
1070
     5
1000
_EX_NORM
1070
     6
1000
_EX_NORM
1070
     7
1000
_EX_NORM
1070
   341
1005
2A
1002
}
  0
DIMENSION
  5
54D
100
AcDbEntity
  8
寸法
  6
CONTINUOUS
 62
     3
100
AcDbDimension
  2
*D34
 10
1020.0
 20
4078.0
 30
0.0
 11
1252.5
 21
4113.25
 31
0.0
 70
   160
  1
200（壁給水）
  3
STANDARD
100
AcDbAlignedDimension
 13
820.0
 23
3981.0
 33
0.0
 14
1020.0
 24
3981.0
 34
0.0
100
AcDbRotatedDimension
1001
ACAD
1000
DSTYLE
1002
{
1070
     6
1000
_EX_NORM
1070
     7
1000
_EX_NORM
1070
    41
1040
45.0
1070
    42
1040
10.5
1070
    44
1040
15.0
1070
    73
1070
     0
1070
    74
1070
     0
1070
    75
1070
     0
1070
    76
1070
     0
1070
    77
1070
     1
1070
    78
1070
     0
1070
   140
1040
60.0
1070
   147
1040
5.25
1070
   173
1070
     1
1070
   176
1070
     3
1070
   177
1070
     3
1070
   178
1070
     2
1070
   271
1070
     0
1070
   279
1070
     2
1070
   280
1070
     2
1070
   287
1070
     5
1070
   340
1005
458
1002
}
  0
DIMENSION
  5
559
100
AcDbEntity
  8
寸法
  6
CONTINUOUS
 62
     3
100
AcDbDimension
  2
*D35
 10
1250.0
 20
2833.5
 30
0.0
 11
920.0
 21
2868.75
 31
0.0
 70
   160
  1
660（壁固定）
  3
STANDARD
100
AcDbAlignedDimension
 13
590.0
 23
2697.0
 33
0.0
 14
1250.0
 24
2697.0
 34
0.0
100
AcDbRotatedDimension
1001
ACAD
1000
DSTYLE
1002
{
1070
     6
1000
_EX_NORM
1070
     7
1000
_EX_NORM
1070
    41
1040
45.0
1070
    42
1040
10.5
1070
    44
1040
15.0
1070
    73
1070
     0
1070
    74
1070
     0
1070
    75
1070
     0
1070
    76
1070
     0
1070
    77
1070
     1
1070
    78
1070
     0
1070
   140
1040
60.0
1070
   147
1040
5.25
1070
   173
1070
     1
1070
   176
1070
     3
1070
   177
1070
     3
1070
   178
1070
     2
1070
   271
1070
     0
1070
   279
1070
     2
1070
   280
1070
     0
1070
   287
1070
     5
1070
   340
1005
458
1002
}
  0
DIMENSION
  5
565
100
AcDbEntity
  8
寸法
  6
CONTINUOUS
 62
     3
100
AcDbDimension
  2
*D36
 10
1215.0
 20
2112.0
 30
0.0
 11
920.0
 21
2147.25
 31
0.0
 70
   160
  1
590（壁固定）
  3
STANDARD
100
AcDbAlignedDimension
 13
625.0
 23
1817.0
 33
0.0
 14
1215.0
 24
1817.0
 34
0.0
100
AcDbRotatedDimension
1001
ACAD
1000
DSTYLE
1002
{
1070
     6
1000
_EX_NORM
1070
     7
1000
_EX_NORM
1070
    41
1040
45.0
1070
    42
1040
10.5
1070
    44
1040
15.0
1070
    73
1070
     0
1070
    74
1070
     0
1070
    75
1070
     0
1070
    76
1070
     0
1070
    77
1070
     1
1070
    78
1070
     0
1070
   140
1040
60.0
1070
   147
1040
5.25
1070
   173
1070
     1
1070
   176
1070
     3
1070
   177
1070
     3
1070
   178
1070
     2
1070
   271
1070
     0
1070
   279
1070
     2
1070
   280
1070
     0
1070
   287
1070
     5
1070
   340
1005
458
1002
}
  0
DIMENSION
  5
571
100
AcDbEntity
  8
寸法
  6
CONTINUOUS
 62
     3
100
AcDbDimension
  2
*D37
 10
2840.0
 20
2688.5
 30
0.0
 11
2804.75
 21
2248.5
 31
0.0
 70
   160
  3
STANDARD
100
AcDbAlignedDimension
 13
2497.5
 23
1808.5
 33
0.0
 14
2497.5
 24
2688.5
 34
0.0
 50
90.0
100
AcDbRotatedDimension
1001
ACAD
1000
DSTYLE
1002
{
1070
     6
1000
_EX_NORM
1070
     7
1000
_EX_NORM
1070
    41
1040
45.0
1070
    42
1040
10.5
1070
    44
1040
15.0
1070
    73
1070
     0
1070
    74
1070
     0
1070
    75
1070
     0
1070
    76
1070
     0
1070
    77
1070
     1
1070
    78
1070
     0
1070
   140
1040
60.0
1070
   147
1040
5.25
1070
   173
1070
     1
1070
   176
1070
     3
1070
   177
1070
     3
1070
   178
1070
     2
1070
   271
1070
     0
1070
   279
1070
     2
1070
   280
1070
     0
1070
   287
1070
     5
1070
   340
1005
458
1002
}
  0
DIMENSION
  5
57C
100
AcDbEntity
  8
寸法
  6
CONTINUOUS
 62
     3
100
AcDbDimension
  2
*D38
 10
2465.0
 20
2833.5
 30
0.0
 11
2389.37059
 21
2868.75
 31
0.0
 70
   160
  3
STANDARD
100
AcDbAlignedDimension
 13
2313.74118
 23
2715.202357
 33
0.0
 14
2465.0
 24
2743.5
 34
0.0
100
AcDbRotatedDimension
1001
ACAD
1000
DSTYLE
1002
{
1070
     6
1000
_EX_NORM
1070
     7
1000
_EX_NORM
1070
    41
1040
45.0
1070
    42
1040
10.5
1070
    44
1040
15.0
1070
    73
1070
     0
1070
    74
1070
     0
1070
    75
1070
     0
1070
    76
1070
     1
1070
    77
1070
     1
1070
    78
1070
     0
1070
   140
1040
60.0
1070
   147
1040
5.25
1070
   173
1070
     1
1070
   176
1070
     3
1070
   177
1070
     3
1070
   178
1070
     2
1070
   271
1070
     0
1070
   279
1070
     2
1070
   280
1070
     0
1070
   287
1070
     5
1070
   340
1005
458
1002
}
  0
LINE
  5
57D
100
AcDbEntity
  8
寸法
  6
CONTINUOUS
 62
     3
100
AcDbLine
 10
1190.0
 20
4152.0
 30
0.0
 11
1190.0
 21
4183.0
 31
0.0
  0
ENDSEC
  0
SECTION
  2
OBJECTS
  0
DICTIONARY
  5
19
100
AcDbDictionary
  3
ACAD_GROUP
350
1A
  3
ACAD_MLINESTYLE
350
1B
  0
DICTIONARY
  5
1A
102
{ACAD_REACTORS
330
19
102
}
100
AcDbDictionary
  0
DICTIONARY
  5
1B
102
{ACAD_REACTORS
330
19
102
}
100
AcDbDictionary
  3
STANDARD
350
1C
  0
MLINESTYLE
  5
1C
102
{ACAD_REACTORS
330
1B
102
}
100
AcDbMlineStyle
  2
Standard
 70
     0
  3

 62
     0
 51
90.0
 52
90.0
 71
     2
 49
0.5
 62
   256
  6
ByLayer
 49
-0.5
 62
   256
  6
ByLayer
  0
ENDSEC
  0
EOF
