  0
SECTION
  2
HEADER
  9
$ACADVER
  1
AC1014
  9
$ACADMAINTVER
 70
     0
  9
$DWGCODEPAGE
  3
ANSI_932
  9
$INSBASE
 10
0.0
 20
0.0
 30
0.0
  9
$EXTMIN
 10
-0.3
 20
9.5
 30
0.0
  9
$EXTMAX
 10
199.0
 20
284.5
 30
0.0
  9
$LIMMIN
 10
0.0
 20
0.0
  9
$LIMMAX
 10
210.0
 20
297.0
  9
$ORTHOMODE
 70
     0
  9
$REGENMODE
 70
     1
  9
$FILLMODE
 70
     1
  9
$QTEXTMODE
 70
     0
  9
$MIRRTEXT
 70
     1
  9
$DRAGMODE
 70
     2
  9
$LTSCALE
 40
1.0
  9
$OSMODE
 70
     0
  9
$ATTMODE
 70
     1
  9
$TEXTSIZE
 40
0.2
  9
$TRACEWID
 40
0.05
  9
$TEXTSTYLE
  7
STANDARD
  9
$CLAYER
  8
化粧台
  9
$CELTYPE
  6
CONTINUOUS
  9
$CECOLOR
 62
   256
  9
$CELTSCALE
 40
1.0
  9
$DELOBJ
 70
     1
  9
$DISPSILH
 70
     0
  9
$DIMSCALE
 40
1.0
  9
$DIMASZ
 40
0.18
  9
$DIMEXO
 40
0.0625
  9
$DIMDLI
 40
0.38
  9
$DIMRND
 40
0.0
  9
$DIMDLE
 40
0.0
  9
$DIMEXE
 40
0.18
  9
$DIMTP
 40
0.0
  9
$DIMTM
 40
0.0
  9
$DIMTXT
 40
0.18
  9
$DIMCEN
 40
0.09
  9
$DIMTSZ
 40
0.0
  9
$DIMTOL
 70
     0
  9
$DIMLIM
 70
     0
  9
$DIMTIH
 70
     1
  9
$DIMTOH
 70
     1
  9
$DIMSE1
 70
     0
  9
$DIMSE2
 70
     0
  9
$DIMTAD
 70
     0
  9
$DIMZIN
 70
     0
  9
$DIMBLK
  1

  9
$DIMASO
 70
     1
  9
$DIMSHO
 70
     1
  9
$DIMPOST
  1

  9
$DIMAPOST
  1

  9
$DIMALT
 70
     0
  9
$DIMALTD
 70
     2
  9
$DIMALTF
 40
25.4
  9
$DIMLFAC
 40
1.0
  9
$DIMTOFL
 70
     0
  9
$DIMTVP
 40
0.0
  9
$DIMTIX
 70
     0
  9
$DIMSOXD
 70
     0
  9
$DIMSAH
 70
     0
  9
$DIMBLK1
  1

  9
$DIMBLK2
  1

  9
$DIMSTYLE
  2
STANDARD
  9
$DIMCLRD
 70
     0
  9
$DIMCLRE
 70
     0
  9
$DIMCLRT
 70
     0
  9
$DIMTFAC
 40
1.0
  9
$DIMGAP
 40
0.09
  9
$DIMJUST
 70
     0
  9
$DIMSD1
 70
     0
  9
$DIMSD2
 70
     0
  9
$DIMTOLJ
 70
     1
  9
$DIMTZIN
 70
     0
  9
$DIMALTZ
 70
     0
  9
$DIMALTTZ
 70
     0
  9
$DIMFIT
 70
     3
  9
$DIMUPT
 70
     0
  9
$DIMUNIT
 70
     2
  9
$DIMDEC
 70
     4
  9
$DIMTDEC
 70
     4
  9
$DIMALTU
 70
     2
  9
$DIMALTTD
 70
     2
  9
$DIMTXSTY
  7
STANDARD
  9
$DIMAUNIT
 70
     0
  9
$LUNITS
 70
     2
  9
$LUPREC
 70
     4
  9
$SKETCHINC
 40
0.1
  9
$FILLETRAD
 40
0.0
  9
$AUNITS
 70
     0
  9
$AUPREC
 70
     0
  9
$MENU
  1
acad
  9
$ELEVATION
 40
0.0
  9
$PELEVATION
 40
0.0
  9
$THICKNESS
 40
0.0
  9
$LIMCHECK
 70
     0
  9
$BLIPMODE
 70
     1
  9
$CHAMFERA
 40
0.0
  9
$CHAMFERB
 40
0.0
  9
$CHAMFERC
 40
0.0
  9
$CHAMFERD
 40
0.0
  9
$SKPOLY
 70
     0
  9
$TDCREATE
 40
2455609.728763646
  9
$TDUPDATE
 40
2455609.728763646
  9
$TDINDWG
 40
0.0000000000
  9
$TDUSRTIMER
 40
0.0000000000
  9
$USRTIMER
 70
     1
  9
$ANGBASE
 50
0.0
  9
$ANGDIR
 70
     0
  9
$PDMODE
 70
     0
  9
$PDSIZE
 40
0.0
  9
$PLINEWID
 40
0.0
  9
$COORDS
 70
     1
  9
$SPLFRAME
 70
     0
  9
$SPLINETYPE
 70
     6
  9
$SPLINESEGS
 70
     8
  9
$ATTDIA
 70
     0
  9
$ATTREQ
 70
     1
  9
$HANDLING
 70
     1
  9
$HANDSEED
  5
570
  9
$SURFTAB1
 70
     6
  9
$SURFTAB2
 70
     6
  9
$SURFTYPE
 70
     6
  9
$SURFU
 70
     6
  9
$SURFV
 70
     6
  9
$UCSNAME
  2

  9
$UCSORG
 10
0.0
 20
0.0
 30
0.0
  9
$UCSXDIR
 10
1.0
 20
0.0
 30
0.0
  9
$UCSYDIR
 10
0.0
 20
1.0
 30
0.0
  9
$PUCSNAME
  2

  9
$PUCSORG
 10
0.0
 20
0.0
 30
0.0
  9
$PUCSXDIR
 10
1.0
 20
0.0
 30
0.0
  9
$PUCSYDIR
 10
0.0
 20
1.0
 30
0.0
  9
$USERI1
 70
     0
  9
$USERI2
 70
     0
  9
$USERI3
 70
     0
  9
$USERI4
 70
     0
  9
$USERI5
 70
     0
  9
$USERR1
 40
0.0
  9
$USERR2
 40
0.0
  9
$USERR3
 40
0.0
  9
$USERR4
 40
0.0
  9
$USERR5
 40
0.0
  9
$WORLDVIEW
 70
     1
  9
$SHADEDGE
 70
     3
  9
$SHADEDIF
 70
    70
  9
$TILEMODE
 70
     1
  9
$MAXACTVP
 70
    16
  9
$PINSBASE
 10
0.0
 20
0.0
 30
0.0
  9
$PLIMCHECK
 70
     0
  9
$PEXTMIN
 10
1.000000E+20
 20
1.000000E+20
 30
1.000000E+20
  9
$PEXTMAX
 10
-1.000000E+20
 20
-1.000000E+20
 30
-1.000000E+20
  9
$PLIMMIN
 10
0.0
 20
0.0
  9
$PLIMMAX
 10
12.0
 20
9.0
  9
$UNITMODE
 70
     0
  9
$VISRETAIN
 70
     0
  9
$PLINEGEN
 70
     1
  9
$PSLTSCALE
 70
     0
  9
$TREEDEPTH
 70
  3020
  9
$PICKSTYLE
 70
     1
  9
$CMLSTYLE
  2
Standard
  9
$CMLJUST
 70
     0
  9
$CMLSCALE
 40
1.0
  9
$PROXYGRAPHICS
 70
     0
  9
$MEASUREMENT
 70
     0
  0
ENDSEC
  0
SECTION
  2
CLASSES
  0
CLASS
  1
LWPOLYLINE
  2
AcDbPolyline
  3
"AutoCAD"
 90
        0
280
     0
281
     1
  0
CLASS
  1
IMAGE
  2
AcDbRasterImage
  3
ISM
 90
      127
280
     0
281
     1
  0
CLASS
  1
OLE2FRAME
  2
AcDbOle2Frame
  3
""
 90
        0
280
     0
281
     1
  0
CLASS
  1
HATCH
  2
AcDbHatch
  3
"ACAD_SEDONA"
 90
        0
280
     0
281
     1
  0
CLASS
  1
DICTIONARYVAR
  2
AcDbDictionaryVar
  3
"AutoCAD"
 90
        0
280
     0
281
     0
  0
CLASS
  1
RASTERVARIABLES
  2
AcDbRasterVariables
  3
ISM
 90
        0
280
     0
281
     0
  0
CLASS
  1
IMAGEDEF
  2
AcDbRasterImageDef
  3
ISM
 90
        0
280
     0
281
     0
  0
CLASS
  1
IMAGEDEF_REACTOR
  2
AcDbRasterImageDefReactor
  3
ISM
 90
        1
280
     0
281
     0
  0
CLASS
  1
IDBUFFER
  2
AcDbIdBuffer
  3
"Acad"
 90
        0
280
     0
281
     0
  0
CLASS
  1
SPATIAL_FILTER
  2
AcDbSpatialFilter
  3
"Acad"
 90
        0
280
     0
281
     0
  0
CLASS
  1
XRECORD
  2
AcDbXrecord
  3
"<Built In>"
 90
        0
280
     0
281
     0
  0
CLASS
  1
SORTENTSTABLE
  2
AcDbSortentsTable
  3
"AutoCAD"
 90
        0
280
     0
281
     0
  0
CLASS
  1
LAYER_INDEX
  2
AcDbLayerIndex
  3
"Acad"
 90
        0
280
     0
281
     0
  0
CLASS
  1
SPATIAL_INDEX
  2
AcDbSpatialIndex
  3
"Acad"
 90
        0
280
     0
281
     0
  0
CLASS
  1
OBJECT_PTR
  2
CAseDLPNTableRecord
  3
"ASE-LPNTableRecord"
 90
        1
280
     0
281
     0
  0
CLASS
  1
LAYOUT
  2
AcDbLayout
  3
"AutoCAD 2000"
 90
        1
280
     0
281
     0
  0
CLASS
  1
PLOTSETTINGS
  2
AcDbPlotSettings
  3
"AutoCAD 2000"
 90
        1
280
     0
281
     0
  0
CLASS
  1
ACDBDICTIONARYWDFLT
  2
AcDbDictionaryWithDefault
  3
"AutoCAD 2000"
 90
        1
280
     0
281
     0
  0
CLASS
  1
ACDBPLACEHOLDER
  2
AcDbPlaceHolder
  3
"AutoCAD 2000"
 90
        1
280
     0
281
     0
  0
CLASS
  1
VBA_PROJECT
  2
AcDbVbaProject
  3
"acadvba"
 90
        1
280
     0
281
     0
  0
CLASS
  1
WIPEOUT
  2
AcDbWipeout
  3
WipeOut|AutoCAD Express Tool|expresstools@autodesk.com
 90
      127
280
     0
281
     1
  0
CLASS
  1
WIPEOUTVARIABLES
  2
AcDbWipeoutVariables
  3
WipeOut|AutoCAD Express Tool|expresstools@autodesk.com
 90
        0
280
     0
281
     0
  0
CLASS
  1
RTEXT
  2
RText
  3
RText|AutoCAD Express Tool|expresstools@autodesk.com
 90
        0
280
     0
281
     1
  0
CLASS
  1
ARCALIGNEDTEXT
  2
AcDbArcAlignedText
  3
ATEXT|AutoCAD Express Tool|expresstools@autodesk.com
 90
        0
280
     0
281
     1
  0
ENDSEC
  0
SECTION
  2
TABLES
  0
TABLE
  2
VPORT
  5
7
100
AcDbSymbolTable
 70
     1
  0
VPORT
  5
15
100
AcDbSymbolTableRecord
100
AcDbViewportTableRecord
  2
*ACTIVE
 70
     0
 10
0.0
 20
0.0
 11
1.0
 21
1.0
 12
1490.25
 22
2205.0
 13
0.0
 23
0.0
 14
1.0
 24
1.0
 15
0.0
 25
0.0
 16
0.0
 26
0.0
 36
1.0
 17
0.0
 27
0.0
 37
0.0
 40
4125.0
 41
1.722533
 42
50.0
 43
0.0
 44
0.0
 50
0.0
 51
0.0
 71
     0
 72
   100
 73
     1
 74
     1
 75
     0
 76
     0
 77
     0
 78
     0
  0
ENDTAB
  0
TABLE
  2
LTYPE
  5
4
100
AcDbSymbolTable
 70
     9
  0
LTYPE
  5
11
100
AcDbSymbolTableRecord
100
AcDbLinetypeTableRecord
  2
BYBLOCK
 70
    64
  3

 72
    65
 73
     0
 40
0.0
  0
LTYPE
  5
12
100
AcDbSymbolTableRecord
100
AcDbLinetypeTableRecord
  2
BYLAYER
 70
    64
  3

 72
    65
 73
     0
 40
0.0
  0
LTYPE
  5
13
100
AcDbSymbolTableRecord
100
AcDbLinetypeTableRecord
  2
CONTINUOUS
 70
    64
  3
実線
 72
    65
 73
     0
 40
0.0
  0
LTYPE
  5
1D
100
AcDbSymbolTableRecord
100
AcDbLinetypeTableRecord
  2
EXLTYPE1
 70
    64
  3
破線
 72
    65
 73
     2
 40
3.0
 49
2.0
 74
     0
 49
-1.0
 74
     0
  0
LTYPE
  5
1E
100
AcDbSymbolTableRecord
100
AcDbLinetypeTableRecord
  2
EXLTYPE2
 70
    64
  3
点線
 72
    65
 73
     2
 40
2.0
 49
1.0
 74
     0
 49
-1.0
 74
     0
  0
LTYPE
  5
1F
100
AcDbSymbolTableRecord
100
AcDbLinetypeTableRecord
  2
EXLTYPE3
 70
    64
  3
一点鎖線
 72
    65
 73
     4
 40
10.0
 49
7.0
 74
     0
 49
-1.0
 74
     0
 49
1.0
 74
     0
 49
-1.0
 74
     0
  0
LTYPE
  5
20
100
AcDbSymbolTableRecord
100
AcDbLinetypeTableRecord
  2
EXLTYPE4
 70
    64
  3
二点鎖線
 72
    65
 73
     6
 40
12.0
 49
7.0
 74
     0
 49
-1.0
 74
     0
 49
1.0
 74
     0
 49
-1.0
 74
     0
 49
1.0
 74
     0
 49
-1.0
 74
     0
  0
LTYPE
  5
21
100
AcDbSymbolTableRecord
100
AcDbLinetypeTableRecord
  2
EXLTYPE5
 70
    64
  3
三点鎖線
 72
    65
 73
     8
 40
37.0
 49
30.0
 74
     0
 49
-1.0
 74
     0
 49
1.0
 74
     0
 49
-1.0
 74
     0
 49
1.0
 74
     0
 49
-1.0
 74
     0
 49
1.0
 74
     0
 49
-1.0
 74
     0
  0
LTYPE
  5
22
100
AcDbSymbolTableRecord
100
AcDbLinetypeTableRecord
  2
EXLTYPE6
 70
    64
  3
四点鎖線
 72
    65
 73
    10
 40
39.0
 49
30.0
 74
     0
 49
-1.0
 74
     0
 49
1.0
 74
     0
 49
-1.0
 74
     0
 49
1.0
 74
     0
 49
-1.0
 74
     0
 49
1.0
 74
     0
 49
-1.0
 74
     0
 49
1.0
 74
     0
 49
-1.0
 74
     0
  0
ENDTAB
  0
TABLE
  2
LAYER
  5
2
100
AcDbSymbolTable
 70
     6
  0
LAYER
  5
14
100
AcDbSymbolTableRecord
100
AcDbLayerTableRecord
  2
0
 70
     0
 62
     7
  6
CONTINUOUS
  0
LAYER
  5
25
100
AcDbSymbolTableRecord
100
AcDbLayerTableRecord
  2
枠・表
 70
    64
 62
     7
  6
CONTINUOUS
  0
LAYER
  5
26
100
AcDbSymbolTableRecord
100
AcDbLayerTableRecord
  2
化粧台
 70
    64
 62
     7
  6
CONTINUOUS
  0
LAYER
  5
27
100
AcDbSymbolTableRecord
100
AcDbLayerTableRecord
  2
鏡台
 70
    64
 62
     7
  6
CONTINUOUS
  0
LAYER
  5
28
100
AcDbSymbolTableRecord
100
AcDbLayerTableRecord
  2
付属金具
 70
    64
 62
     7
  6
CONTINUOUS
  0
LAYER
  5
29
100
AcDbSymbolTableRecord
100
AcDbLayerTableRecord
  2
寸法
 70
    64
 62
     7
  6
CONTINUOUS
  0
ENDTAB
  0
TABLE
  2
STYLE
  5
3
100
AcDbSymbolTable
 70
     5
  0
STYLE
  5
17
100
AcDbSymbolTableRecord
100
AcDbTextStyleTableRecord
  2
STANDARD
 70
     0
 40
0.0
 41
1.0
 50
0.0
 71
     0
 42
0.0
  3
monotxt
  4
extfont
  0
STYLE
  5
23
100
AcDbSymbolTableRecord
100
AcDbTextStyleTableRecord
  2
EXCADSTD
 70
    64
 40
0.0
 41
1.0
 50
0.0
 71
     0
 42
0.2
  3
monotxt
  4
extfont
  0
STYLE
  5
24
100
AcDbSymbolTableRecord
100
AcDbTextStyleTableRecord
  2
EXCADVERT
 70
    68
 40
0.0
 41
1.0
 50
0.0
 71
     0
 42
0.286885
  3
monotxt
  4
extfont
  0
STYLE
  5
AF
100
AcDbSymbolTableRecord
100
AcDbTextStyleTableRecord
  2
EXCADTTF1
 70
    64
 40
0.0
 41
1.0
 50
0.0
 71
     0
 42
0.2
  3
MS Gothic.ttf
  4

1001
ACAD
1000
MS Gothic
1071
    32817
  0
STYLE
  5
10A
100
AcDbSymbolTableRecord
100
AcDbTextStyleTableRecord
  2
EXCADDIM1
 70
    64
 40
0.0
 41
0.84
 50
0.0
 71
     0
 42
0.2
  3
monotxt
  4
extfont
  0
ENDTAB
  0
TABLE
  2
VIEW
  5
5
100
AcDbSymbolTable
 70
     0
  0
ENDTAB
  0
TABLE
  2
UCS
  5
6
100
AcDbSymbolTable
 70
     0
  0
ENDTAB
  0
TABLE
  2
APPID
  5
8
100
AcDbSymbolTable
 70
     1
  0
APPID
  5
16
100
AcDbSymbolTableRecord
100
AcDbRegAppTableRecord
  2
ACAD
 70
     0
  0
ENDTAB
  0
TABLE
  2
DIMSTYLE
  5
9
100
AcDbSymbolTable
 70
     1
  0
DIMSTYLE
105
18
100
AcDbSymbolTableRecord
100
AcDbDimStyleTableRecord
  2
STANDARD
 70
     0
  3

  4

  5

  6

  7

 40
1.0
 41
0.18
 42
0.0625
 43
0.38
 44
0.18
 45
0.0
 46
0.0
 47
0.0
 48
0.0
 71
     0
 72
     0
 73
     1
 74
     1
 75
     0
 76
     0
 77
     0
 78
     0
140
0.18
141
0.09
142
0.0
143
25.4
144
1.0
145
0.0
146
1.0
147
0.09
170
     0
171
     2
172
     1
173
     0
174
     0
175
     0
176
     0
177
     0
178
     0
270
     2
271
     4
272
     4
273
     2
274
     2
275
     0
280
     0
281
     0
282
     0
283
     1
284
     0
285
     0
286
     0
287
     0
288
     0
340
17
  0
ENDTAB
  0
TABLE
  2
BLOCK_RECORD
  5
1
100
AcDbSymbolTable
 70
    30
  0
BLOCK_RECORD
  5
A
100
AcDbSymbolTableRecord
100
AcDbBlockTableRecord
  2
*MODEL_SPACE
  0
BLOCK_RECORD
  5
B
100
AcDbSymbolTableRecord
100
AcDbBlockTableRecord
  2
*PAPER_SPACE
  0
BLOCK_RECORD
  5
2A
100
AcDbSymbolTableRecord
100
AcDbBlockTableRecord
  2
_EX_NORM
  0
BLOCK_RECORD
  5
2B
100
AcDbSymbolTableRecord
100
AcDbBlockTableRecord
  2
_EX_BNORM
  0
BLOCK_RECORD
  5
2C
100
AcDbSymbolTableRecord
100
AcDbBlockTableRecord
  2
_EX_BCIR
  0
BLOCK_RECORD
  5
2D
100
AcDbSymbolTableRecord
100
AcDbBlockTableRecord
  2
_EX_RCIVIL
  0
BLOCK_RECORD
  5
2E
100
AcDbSymbolTableRecord
100
AcDbBlockTableRecord
  2
_EX_SLANT
  0
BLOCK_RECORD
  5
2F
100
AcDbSymbolTableRecord
100
AcDbBlockTableRecord
  2
_EX_NONE
  0
BLOCK_RECORD
  5
30
100
AcDbSymbolTableRecord
100
AcDbBlockTableRecord
  2
_EX_CIVIL
  0
BLOCK_RECORD
  5
31
100
AcDbSymbolTableRecord
100
AcDbBlockTableRecord
  2
_EX_WCIR
  0
BLOCK_RECORD
  5
32
100
AcDbSymbolTableRecord
100
AcDbBlockTableRecord
  2
_EX_WCIR2
  0
BLOCK_RECORD
  5
33
100
AcDbSymbolTableRecord
100
AcDbBlockTableRecord
  2
_EX_WNORM
  0
BLOCK_RECORD
  5
34
100
AcDbSymbolTableRecord
100
AcDbBlockTableRecord
  2
_EX_NNORM
  0
BLOCK_RECORD
  5
35
100
AcDbSymbolTableRecord
100
AcDbBlockTableRecord
  2
_EX_BBOX
  0
BLOCK_RECORD
  5
36
100
AcDbSymbolTableRecord
100
AcDbBlockTableRecord
  2
_EX_WBOX
  0
BLOCK_RECORD
  5
37
100
AcDbSymbolTableRecord
100
AcDbBlockTableRecord
  2
_EX_INTEGRAL
  0
BLOCK_RECORD
  5
100
100
AcDbSymbolTableRecord
100
AcDbBlockTableRecord
  2
*D14
  0
BLOCK_RECORD
  5
4A8
100
AcDbSymbolTableRecord
100
AcDbBlockTableRecord
  2
*D15
  0
BLOCK_RECORD
  5
4C6
100
AcDbSymbolTableRecord
100
AcDbBlockTableRecord
  2
*D16
  0
BLOCK_RECORD
  5
4D1
100
AcDbSymbolTableRecord
100
AcDbBlockTableRecord
  2
*D17
  0
BLOCK_RECORD
  5
4DD
100
AcDbSymbolTableRecord
100
AcDbBlockTableRecord
  2
*D18
  0
BLOCK_RECORD
  5
4E8
100
AcDbSymbolTableRecord
100
AcDbBlockTableRecord
  2
*D19
  0
BLOCK_RECORD
  5
4F4
100
AcDbSymbolTableRecord
100
AcDbBlockTableRecord
  2
*D20
  0
BLOCK_RECORD
  5
4FF
100
AcDbSymbolTableRecord
100
AcDbBlockTableRecord
  2
*D21
  0
BLOCK_RECORD
  5
509
100
AcDbSymbolTableRecord
100
AcDbBlockTableRecord
  2
*D22
  0
BLOCK_RECORD
  5
515
100
AcDbSymbolTableRecord
100
AcDbBlockTableRecord
  2
*D23
  0
BLOCK_RECORD
  5
521
100
AcDbSymbolTableRecord
100
AcDbBlockTableRecord
  2
*D24
  0
BLOCK_RECORD
  5
52D
100
AcDbSymbolTableRecord
100
AcDbBlockTableRecord
  2
*D25
  0
BLOCK_RECORD
  5
539
100
AcDbSymbolTableRecord
100
AcDbBlockTableRecord
  2
*D26
  0
BLOCK_RECORD
  5
544
100
AcDbSymbolTableRecord
100
AcDbBlockTableRecord
  2
*D27
  0
BLOCK_RECORD
  5
550
100
AcDbSymbolTableRecord
100
AcDbBlockTableRecord
  2
*D28
  0
BLOCK_RECORD
  5
564
100
AcDbSymbolTableRecord
100
AcDbBlockTableRecord
  2
*D29
  0
ENDTAB
  0
ENDSEC
  0
SECTION
  2
BLOCKS
  0
BLOCK
  5
D
100
AcDbEntity
  8
0
100
AcDbBlockBegin
  2
*MODEL_SPACE
 70
     0
 10
0.0
 20
0.0
 30
0.0
  3
*MODEL_SPACE
  1

  0
ENDBLK
  5
E
100
AcDbEntity
  8
0
100
AcDbBlockEnd
  0
BLOCK
  5
F
100
AcDbEntity
 67
     1
  8
0
100
AcDbBlockBegin
  2
*PAPER_SPACE
 70
     0
 10
0.0
 20
0.0
 30
0.0
  3
*PAPER_SPACE
  1

  0
ENDBLK
  5
10
100
AcDbEntity
 67
     1
  8
0
100
AcDbBlockEnd
  0
BLOCK
  5
38
100
AcDbEntity
  8
0
100
AcDbBlockBegin
  2
_EX_NORM
 70
     0
 10
0.0
 20
0.0
 30
0.0
  3
_EX_NORM
  1

  0
LINE
  5
39
100
AcDbEntity
  8
0
  6
CONTINUOUS
 62
     0
100
AcDbLine
 10
0.0
 20
0.0
 30
0.0
 11
-1.0
 21
0.0
 31
0.0
  0
LINE
  5
3A
100
AcDbEntity
  8
0
  6
CONTINUOUS
 62
     0
100
AcDbLine
 10
0.0
 20
0.0
 30
0.0
 11
-1.0
 21
0.166667
 31
0.0
  0
LINE
  5
3B
100
AcDbEntity
  8
0
  6
CONTINUOUS
 62
     0
100
AcDbLine
 10
0.0
 20
0.0
 30
0.0
 11
-1.0
 21
-0.166667
 31
0.0
  0
ENDBLK
  5
3C
100
AcDbEntity
  8
0
100
AcDbBlockEnd
  0
BLOCK
  5
3D
100
AcDbEntity
  8
0
100
AcDbBlockBegin
  2
_EX_BNORM
 70
     0
 10
0.0
 20
0.0
 30
0.0
  3
_EX_BNORM
  1

  0
LINE
  5
3E
100
AcDbEntity
  8
0
  6
CONTINUOUS
 62
     0
100
AcDbLine
 10
0.0
 20
0.0
 30
0.0
 11
-1.0
 21
0.0
 31
0.0
  0
LINE
  5
3F
100
AcDbEntity
  8
0
  6
CONTINUOUS
 62
     0
100
AcDbLine
 10
0.0
 20
0.0
 30
0.0
 11
-1.0
 21
0.166667
 31
0.0
  0
LINE
  5
40
100
AcDbEntity
  8
0
  6
CONTINUOUS
 62
     0
100
AcDbLine
 10
0.0
 20
0.0
 30
0.0
 11
-1.0
 21
-0.166667
 31
0.0
  0
LINE
  5
41
100
AcDbEntity
  8
0
  6
CONTINUOUS
 62
     0
100
AcDbLine
 10
0.0
 20
0.0
 30
0.0
 11
-1.0
 21
0.083333
 31
0.0
  0
LINE
  5
42
100
AcDbEntity
  8
0
  6
CONTINUOUS
 62
     0
100
AcDbLine
 10
0.0
 20
0.0
 30
0.0
 11
-1.0
 21
-0.083333
 31
0.0
  0
LINE
  5
43
100
AcDbEntity
  8
0
  6
CONTINUOUS
 62
     0
100
AcDbLine
 10
-1.0
 20
0.166667
 30
0.0
 11
-1.0
 21
-0.166667
 31
0.0
  0
ENDBLK
  5
44
100
AcDbEntity
  8
0
100
AcDbBlockEnd
  0
BLOCK
  5
45
100
AcDbEntity
  8
0
100
AcDbBlockBegin
  2
_EX_BCIR
 70
     0
 10
0.0
 20
0.0
 30
0.0
  3
_EX_BCIR
  1

  0
LINE
  5
46
100
AcDbEntity
  8
0
  6
CONTINUOUS
 62
     0
100
AcDbLine
 10
0.0
 20
0.0
 30
0.0
 11
-1.0
 21
0.0
 31
0.0
  0
CIRCLE
  5
47
100
AcDbEntity
  8
0
  6
CONTINUOUS
 62
     0
100
AcDbCircle
 10
0.0
 20
0.0
 30
0.0
 40
0.5
  0
CIRCLE
  5
48
100
AcDbEntity
  8
0
  6
CONTINUOUS
 62
     0
100
AcDbCircle
 10
0.0
 20
0.0
 30
0.0
 40
0.25
  0
ENDBLK
  5
49
100
AcDbEntity
  8
0
100
AcDbBlockEnd
  0
BLOCK
  5
4A
100
AcDbEntity
  8
0
100
AcDbBlockBegin
  2
_EX_RCIVIL
 70
     0
 10
0.0
 20
0.0
 30
0.0
  3
_EX_RCIVIL
  1

  0
LINE
  5
4B
100
AcDbEntity
  8
0
  6
CONTINUOUS
 62
     0
100
AcDbLine
 10
0.0
 20
0.0
 30
0.0
 11
-1.0
 21
0.0
 31
0.0
  0
LINE
  5
4C
100
AcDbEntity
  8
0
  6
CONTINUOUS
 62
     0
100
AcDbLine
 10
-1.0
 20
-0.25
 30
0.0
 11
0.0
 21
-0.25
 31
0.0
  0
LINE
  5
4D
100
AcDbEntity
  8
0
  6
CONTINUOUS
 62
     0
100
AcDbLine
 10
-1.0
 20
-0.125
 30
0.0
 11
0.0
 21
-0.125
 31
0.0
  0
ENDBLK
  5
4E
100
AcDbEntity
  8
0
100
AcDbBlockEnd
  0
BLOCK
  5
4F
100
AcDbEntity
  8
0
100
AcDbBlockBegin
  2
_EX_SLANT
 70
     0
 10
0.0
 20
0.0
 30
0.0
  3
_EX_SLANT
  1

  0
LINE
  5
50
100
AcDbEntity
  8
0
  6
CONTINUOUS
 62
     0
100
AcDbLine
 10
0.0
 20
0.0
 30
0.0
 11
-1.0
 21
0.0
 31
0.0
  0
LINE
  5
51
100
AcDbEntity
  8
0
  6
CONTINUOUS
 62
     0
100
AcDbLine
 10
0.707107
 20
0.707107
 30
0.0
 11
-0.707107
 21
-0.707107
 31
0.0
  0
ENDBLK
  5
52
100
AcDbEntity
  8
0
100
AcDbBlockEnd
  0
BLOCK
  5
53
100
AcDbEntity
  8
0
100
AcDbBlockBegin
  2
_EX_NONE
 70
     0
 10
0.0
 20
0.0
 30
0.0
  3
_EX_NONE
  1

  0
LINE
  5
54
100
AcDbEntity
  8
0
  6
CONTINUOUS
 62
     0
100
AcDbLine
 10
0.0
 20
0.0
 30
0.0
 11
-1.0
 21
0.0
 31
0.0
  0
ENDBLK
  5
55
100
AcDbEntity
  8
0
100
AcDbBlockEnd
  0
BLOCK
  5
56
100
AcDbEntity
  8
0
100
AcDbBlockBegin
  2
_EX_CIVIL
 70
     0
 10
0.0
 20
0.0
 30
0.0
  3
_EX_CIVIL
  1

  0
LINE
  5
57
100
AcDbEntity
  8
0
  6
CONTINUOUS
 62
     0
100
AcDbLine
 10
0.0
 20
0.0
 30
0.0
 11
-1.0
 21
0.0
 31
0.0
  0
LINE
  5
58
100
AcDbEntity
  8
0
  6
CONTINUOUS
 62
     0
100
AcDbLine
 10
-1.0
 20
0.25
 30
0.0
 11
0.0
 21
0.25
 31
0.0
  0
LINE
  5
59
100
AcDbEntity
  8
0
  6
CONTINUOUS
 62
     0
100
AcDbLine
 10
-1.0
 20
0.125
 30
0.0
 11
0.0
 21
0.125
 31
0.0
  0
ENDBLK
  5
5A
100
AcDbEntity
  8
0
100
AcDbBlockEnd
  0
BLOCK
  5
5B
100
AcDbEntity
  8
0
100
AcDbBlockBegin
  2
_EX_WCIR
 70
     0
 10
0.0
 20
0.0
 30
0.0
  3
_EX_WCIR
  1

  0
LINE
  5
5C
100
AcDbEntity
  8
0
  6
CONTINUOUS
 62
     0
100
AcDbLine
 10
0.0
 20
0.0
 30
0.0
 11
-1.0
 21
0.0
 31
0.0
  0
CIRCLE
  5
5D
100
AcDbEntity
  8
0
  6
CONTINUOUS
 62
     0
100
AcDbCircle
 10
0.0
 20
0.0
 30
0.0
 40
0.5
  0
ENDBLK
  5
5E
100
AcDbEntity
  8
0
100
AcDbBlockEnd
  0
BLOCK
  5
5F
100
AcDbEntity
  8
0
100
AcDbBlockBegin
  2
_EX_WCIR2
 70
     0
 10
0.0
 20
0.0
 30
0.0
  3
_EX_WCIR2
  1

  0
LINE
  5
60
100
AcDbEntity
  8
0
  6
CONTINUOUS
 62
     0
100
AcDbLine
 10
-0.5
 20
0.0
 30
0.0
 11
-1.0
 21
0.0
 31
0.0
  0
CIRCLE
  5
61
100
AcDbEntity
  8
0
  6
CONTINUOUS
 62
     0
100
AcDbCircle
 10
0.0
 20
0.0
 30
0.0
 40
0.5
  0
ENDBLK
  5
62
100
AcDbEntity
  8
0
100
AcDbBlockEnd
  0
BLOCK
  5
63
100
AcDbEntity
  8
0
100
AcDbBlockBegin
  2
_EX_WNORM
 70
     0
 10
0.0
 20
0.0
 30
0.0
  3
_EX_WNORM
  1

  0
LINE
  5
64
100
AcDbEntity
  8
0
  6
CONTINUOUS
 62
     0
100
AcDbLine
 10
-1.0
 20
0.0
 30
0.0
 11
-1.0
 21
0.0
 31
0.0
  0
LINE
  5
65
100
AcDbEntity
  8
0
  6
CONTINUOUS
 62
     0
100
AcDbLine
 10
0.0
 20
0.0
 30
0.0
 11
-1.0
 21
0.166667
 31
0.0
  0
LINE
  5
66
100
AcDbEntity
  8
0
  6
CONTINUOUS
 62
     0
100
AcDbLine
 10
0.0
 20
0.0
 30
0.0
 11
-1.0
 21
-0.166667
 31
0.0
  0
LINE
  5
67
100
AcDbEntity
  8
0
  6
CONTINUOUS
 62
     0
100
AcDbLine
 10
-1.0
 20
0.166667
 30
0.0
 11
-1.0
 21
-0.166667
 31
0.0
  0
ENDBLK
  5
68
100
AcDbEntity
  8
0
100
AcDbBlockEnd
  0
BLOCK
  5
69
100
AcDbEntity
  8
0
100
AcDbBlockBegin
  2
_EX_NNORM
 70
     0
 10
0.0
 20
0.0
 30
0.0
  3
_EX_NNORM
  1

  0
LINE
  5
6A
100
AcDbEntity
  8
0
  6
CONTINUOUS
 62
     0
100
AcDbLine
 10
0.0
 20
0.0
 30
0.0
 11
-1.0
 21
0.0
 31
0.0
  0
LINE
  5
6B
100
AcDbEntity
  8
0
  6
CONTINUOUS
 62
     0
100
AcDbLine
 10
0.0
 20
0.0
 30
0.0
 11
-1.0
 21
0.166667
 31
0.0
  0
LINE
  5
6C
100
AcDbEntity
  8
0
  6
CONTINUOUS
 62
     0
100
AcDbLine
 10
0.0
 20
0.0
 30
0.0
 11
-1.0
 21
-0.166667
 31
0.0
  0
LINE
  5
6D
100
AcDbEntity
  8
0
  6
CONTINUOUS
 62
     0
100
AcDbLine
 10
-1.0
 20
0.166667
 30
0.0
 11
-1.0
 21
-0.166667
 31
0.0
  0
ENDBLK
  5
6E
100
AcDbEntity
  8
0
100
AcDbBlockEnd
  0
BLOCK
  5
6F
100
AcDbEntity
  8
0
100
AcDbBlockBegin
  2
_EX_BBOX
 70
     0
 10
0.0
 20
0.0
 30
0.0
  3
_EX_BBOX
  1

  0
LINE
  5
70
100
AcDbEntity
  8
0
  6
CONTINUOUS
 62
     0
100
AcDbLine
 10
0.0
 20
0.0
 30
0.0
 11
-1.0
 21
0.0
 31
0.0
  0
LINE
  5
71
100
AcDbEntity
  8
0
  6
CONTINUOUS
 62
     0
100
AcDbLine
 10
-0.5
 20
0.5
 30
0.0
 11
0.5
 21
0.5
 31
0.0
  0
LINE
  5
72
100
AcDbEntity
  8
0
  6
CONTINUOUS
 62
     0
100
AcDbLine
 10
0.5
 20
0.5
 30
0.0
 11
0.5
 21
-0.5
 31
0.0
  0
LINE
  5
73
100
AcDbEntity
  8
0
  6
CONTINUOUS
 62
     0
100
AcDbLine
 10
0.5
 20
-0.5
 30
0.0
 11
-0.5
 21
-0.5
 31
0.0
  0
LINE
  5
74
100
AcDbEntity
  8
0
  6
CONTINUOUS
 62
     0
100
AcDbLine
 10
-0.5
 20
-0.5
 30
0.0
 11
-0.5
 21
0.5
 31
0.0
  0
LINE
  5
75
100
AcDbEntity
  8
0
  6
CONTINUOUS
 62
     0
100
AcDbLine
 10
-0.25
 20
0.25
 30
0.0
 11
0.25
 21
0.25
 31
0.0
  0
LINE
  5
76
100
AcDbEntity
  8
0
  6
CONTINUOUS
 62
     0
100
AcDbLine
 10
0.25
 20
0.25
 30
0.0
 11
0.25
 21
-0.25
 31
0.0
  0
LINE
  5
77
100
AcDbEntity
  8
0
  6
CONTINUOUS
 62
     0
100
AcDbLine
 10
0.25
 20
-0.25
 30
0.0
 11
-0.25
 21
-0.25
 31
0.0
  0
LINE
  5
78
100
AcDbEntity
  8
0
  6
CONTINUOUS
 62
     0
100
AcDbLine
 10
-0.25
 20
-0.25
 30
0.0
 11
-0.25
 21
0.25
 31
0.0
  0
ENDBLK
  5
79
100
AcDbEntity
  8
0
100
AcDbBlockEnd
  0
BLOCK
  5
7A
100
AcDbEntity
  8
0
100
AcDbBlockBegin
  2
_EX_WBOX
 70
     0
 10
0.0
 20
0.0
 30
0.0
  3
_EX_WBOX
  1

  0
LINE
  5
7B
100
AcDbEntity
  8
0
  6
CONTINUOUS
 62
     0
100
AcDbLine
 10
-0.5
 20
0.0
 30
0.0
 11
-1.0
 21
0.0
 31
0.0
  0
LINE
  5
7C
100
AcDbEntity
  8
0
  6
CONTINUOUS
 62
     0
100
AcDbLine
 10
-0.5
 20
0.5
 30
0.0
 11
0.5
 21
0.5
 31
0.0
  0
LINE
  5
7D
100
AcDbEntity
  8
0
  6
CONTINUOUS
 62
     0
100
AcDbLine
 10
0.5
 20
0.5
 30
0.0
 11
0.5
 21
-0.5
 31
0.0
  0
LINE
  5
7E
100
AcDbEntity
  8
0
  6
CONTINUOUS
 62
     0
100
AcDbLine
 10
0.5
 20
-0.5
 30
0.0
 11
-0.5
 21
-0.5
 31
0.0
  0
LINE
  5
7F
100
AcDbEntity
  8
0
  6
CONTINUOUS
 62
     0
100
AcDbLine
 10
-0.5
 20
-0.5
 30
0.0
 11
-0.5
 21
0.5
 31
0.0
  0
ENDBLK
  5
80
100
AcDbEntity
  8
0
100
AcDbBlockEnd
  0
BLOCK
  5
81
100
AcDbEntity
  8
0
100
AcDbBlockBegin
  2
_EX_INTEGRAL
 70
     0
 10
0.0
 20
0.0
 30
0.0
  3
_EX_INTEGRAL
  1

  0
LINE
  5
82
100
AcDbEntity
  8
0
  6
CONTINUOUS
 62
     0
100
AcDbLine
 10
0.0
 20
0.0
 30
0.0
 11
-1.0
 21
0.0
 31
0.0
  0
ARC
  5
83
100
AcDbEntity
  8
0
  6
CONTINUOUS
 62
     0
100
AcDbCircle
 10
0.542115
 20
0.164992
 30
0.0
 40
0.56667
100
AcDbArc
 50
73.07249
 51
196.927513
  0
ARC
  5
84
100
AcDbEntity
  8
0
  6
CONTINUOUS
 62
     0
100
AcDbCircle
 10
-0.542115
 20
-0.164992
 30
0.0
 40
0.56667
100
AcDbArc
 50
253.072487
 51
16.927513
  0
ENDBLK
  5
85
100
AcDbEntity
  8
0
100
AcDbBlockEnd
  0
BLOCK
  5
101
100
AcDbEntity
  8
0
100
AcDbBlockBegin
  2
*D14
 70
    65
 10
0.0
 20
0.0
 30
0.0
  3
*D14
  1

  0
LINE
  5
102
100
AcDbEntity
  8
化粧台
  6
CONTINUOUS
 62
     3
100
AcDbLine
 10
2501.55
 20
1411.0
 30
0.0
 11
2728.5
 21
1411.0
 31
0.0
  0
TEXT
  5
103
100
AcDbEntity
  8
化粧台
  6
CONTINUOUS
 62
     2
100
AcDbText
 10
2708.25
 20
1018.5
 30
0.0
 40
60.0
  1
470（壁排水）
 50
90.0
 41
0.84
  7
EXCADSTD
 72
     1
 11
2708.25
 21
1176.0
 31
0.0
100
AcDbText
  0
LINE
  5
104
100
AcDbEntity
  8
化粧台
  6
CONTINUOUS
 62
     3
100
AcDbLine
 10
2713.5
 20
1411.0
 30
0.0
 11
2713.5
 21
941.0
 31
0.0
  0
LINE
  5
105
100
AcDbEntity
  8
化粧台
  6
CONTINUOUS
 62
     3
100
AcDbLine
 10
2721.0
 20
1366.0
 30
0.0
 11
2713.5
 21
1411.0
 31
0.0
  0
LINE
  5
106
100
AcDbEntity
  8
化粧台
  6
CONTINUOUS
 62
     3
100
AcDbLine
 10
2713.5
 20
1411.0
 30
0.0
 11
2706.0
 21
1366.0
 31
0.0
  0
LINE
  5
107
100
AcDbEntity
  8
化粧台
  6
CONTINUOUS
 62
     3
100
AcDbLine
 10
2706.0
 20
986.0
 30
0.0
 11
2713.5
 21
941.0
 31
0.0
  0
LINE
  5
108
100
AcDbEntity
  8
化粧台
  6
CONTINUOUS
 62
     3
100
AcDbLine
 10
2713.5
 20
941.0
 30
0.0
 11
2721.0
 21
986.0
 31
0.0
  0
ENDBLK
  5
109
100
AcDbEntity
  8
0
100
AcDbBlockEnd
  0
BLOCK
  5
4A9
100
AcDbEntity
  8
0
100
AcDbBlockBegin
  2
*D15
 70
    65
 10
0.0
 20
0.0
 30
0.0
  3
*D15
  1

  0
LINE
  5
4AA
100
AcDbEntity
  8
寸法
  6
CONTINUOUS
 62
     3
100
AcDbLine
 10
2032.0
 20
930.5
 30
0.0
 11
2032.0
 21
597.0
 31
0.0
  0
LINE
  5
4AB
100
AcDbEntity
  8
寸法
  6
CONTINUOUS
 62
     3
100
AcDbLine
 10
2457.0
 20
930.5
 30
0.0
 11
2457.0
 21
597.0
 31
0.0
  0
TEXT
  5
4AC
100
AcDbEntity
  8
寸法
  6
CONTINUOUS
 62
     2
100
AcDbText
 10
2181.5
 20
617.25
 30
0.0
 40
60.0
  1
425
 41
0.84
  7
EXCADSTD
 72
     1
 11
2244.5
 21
617.25
 31
0.0
100
AcDbText
  0
LINE
  5
4AD
100
AcDbEntity
  8
寸法
  6
CONTINUOUS
 62
     3
100
AcDbLine
 10
2032.0
 20
612.0
 30
0.0
 11
2457.0
 21
612.0
 31
0.0
  0
LINE
  5
4AE
100
AcDbEntity
  8
寸法
  6
CONTINUOUS
 62
     3
100
AcDbLine
 10
2077.0
 20
619.5
 30
0.0
 11
2032.0
 21
612.0
 31
0.0
  0
LINE
  5
4AF
100
AcDbEntity
  8
寸法
  6
CONTINUOUS
 62
     3
100
AcDbLine
 10
2032.0
 20
612.0
 30
0.0
 11
2077.0
 21
604.5
 31
0.0
  0
LINE
  5
4B0
100
AcDbEntity
  8
寸法
  6
CONTINUOUS
 62
     3
100
AcDbLine
 10
2412.0
 20
604.5
 30
0.0
 11
2457.0
 21
612.0
 31
0.0
  0
LINE
  5
4B1
100
AcDbEntity
  8
寸法
  6
CONTINUOUS
 62
     3
100
AcDbLine
 10
2457.0
 20
612.0
 30
0.0
 11
2412.0
 21
619.5
 31
0.0
  0
ENDBLK
  5
4B2
100
AcDbEntity
  8
0
100
AcDbBlockEnd
  0
BLOCK
  5
4C7
100
AcDbEntity
  8
0
100
AcDbBlockBegin
  2
*D16
 70
    65
 10
0.0
 20
0.0
 30
0.0
  3
*D16
  1

  0
LINE
  5
4C8
100
AcDbEntity
  8
寸法
  6
CONTINUOUS
 62
     3
100
AcDbLine
 10
1290.5
 20
3430.0
 30
0.0
 11
1401.0
 21
3430.0
 31
0.0
  0
TEXT
  5
4C9
100
AcDbEntity
  8
寸法
  6
CONTINUOUS
 62
     2
100
AcDbText
 10
1380.75
 20
3592.0
 30
0.0
 40
60.0
  1
450
 50
90.0
 41
0.84
  7
EXCADSTD
 72
     1
 11
1380.75
 21
3655.0
 31
0.0
100
AcDbText
  0
LINE
  5
4CA
100
AcDbEntity
  8
寸法
  6
CONTINUOUS
 62
     3
100
AcDbLine
 10
1386.0
 20
3880.0
 30
0.0
 11
1386.0
 21
3430.0
 31
0.0
  0
LINE
  5
4CB
100
AcDbEntity
  8
寸法
  6
CONTINUOUS
 62
     3
100
AcDbLine
 10
1393.5
 20
3835.0
 30
0.0
 11
1386.0
 21
3880.0
 31
0.0
  0
LINE
  5
4CC
100
AcDbEntity
  8
寸法
  6
CONTINUOUS
 62
     3
100
AcDbLine
 10
1386.0
 20
3880.0
 30
0.0
 11
1378.5
 21
3835.0
 31
0.0
  0
LINE
  5
4CD
100
AcDbEntity
  8
寸法
  6
CONTINUOUS
 62
     3
100
AcDbLine
 10
1378.5
 20
3475.0
 30
0.0
 11
1386.0
 21
3430.0
 31
0.0
  0
LINE
  5
4CE
100
AcDbEntity
  8
寸法
  6
CONTINUOUS
 62
     3
100
AcDbLine
 10
1386.0
 20
3430.0
 30
0.0
 11
1393.5
 21
3475.0
 31
0.0
  0
ENDBLK
  5
4CF
100
AcDbEntity
  8
0
100
AcDbBlockEnd
  0
BLOCK
  5
4D2
100
AcDbEntity
  8
0
100
AcDbBlockBegin
  2
*D17
 70
    65
 10
0.0
 20
0.0
 30
0.0
  3
*D17
  1

  0
LINE
  5
4D3
100
AcDbEntity
  8
寸法
  6
CONTINUOUS
 62
     3
100
AcDbLine
 10
530.0
 20
3419.5
 30
0.0
 11
530.0
 21
3163.5
 31
0.0
  0
LINE
  5
4D4
100
AcDbEntity
  8
寸法
  6
CONTINUOUS
 62
     3
100
AcDbLine
 10
1280.0
 20
3419.5
 30
0.0
 11
1280.0
 21
3163.5
 31
0.0
  0
TEXT
  5
4D5
100
AcDbEntity
  8
寸法
  6
CONTINUOUS
 62
     2
100
AcDbText
 10
842.0
 20
3183.75
 30
0.0
 40
60.0
  1
750
 41
0.84
  7
EXCADSTD
 72
     1
 11
905.0
 21
3183.75
 31
0.0
100
AcDbText
  0
LINE
  5
4D6
100
AcDbEntity
  8
寸法
  6
CONTINUOUS
 62
     3
100
AcDbLine
 10
530.0
 20
3178.5
 30
0.0
 11
1280.0
 21
3178.5
 31
0.0
  0
LINE
  5
4D7
100
AcDbEntity
  8
寸法
  6
CONTINUOUS
 62
     3
100
AcDbLine
 10
575.0
 20
3186.0
 30
0.0
 11
530.0
 21
3178.5
 31
0.0
  0
LINE
  5
4D8
100
AcDbEntity
  8
寸法
  6
CONTINUOUS
 62
     3
100
AcDbLine
 10
530.0
 20
3178.5
 30
0.0
 11
575.0
 21
3171.0
 31
0.0
  0
LINE
  5
4D9
100
AcDbEntity
  8
寸法
  6
CONTINUOUS
 62
     3
100
AcDbLine
 10
1235.0
 20
3171.0
 30
0.0
 11
1280.0
 21
3178.5
 31
0.0
  0
LINE
  5
4DA
100
AcDbEntity
  8
寸法
  6
CONTINUOUS
 62
     3
100
AcDbLine
 10
1280.0
 20
3178.5
 30
0.0
 11
1235.0
 21
3186.0
 31
0.0
  0
ENDBLK
  5
4DB
100
AcDbEntity
  8
0
100
AcDbBlockEnd
  0
BLOCK
  5
4DE
100
AcDbEntity
  8
0
100
AcDbBlockBegin
  2
*D18
 70
    65
 10
0.0
 20
0.0
 30
0.0
  3
*D18
  1

  0
LINE
  5
4DF
100
AcDbEntity
  8
寸法
  6
CONTINUOUS
 62
     3
100
AcDbLine
 10
915.5
 20
3400.0
 30
0.0
 11
1491.0
 21
3400.0
 31
0.0
  0
TEXT
  5
4E0
100
AcDbEntity
  8
寸法
  6
CONTINUOUS
 62
     2
100
AcDbText
 10
1470.75
 20
3577.0
 30
0.0
 40
60.0
  1
480
 50
90.0
 41
0.84
  7
EXCADSTD
 72
     1
 11
1470.75
 21
3640.0
 31
0.0
100
AcDbText
  0
LINE
  5
4E1
100
AcDbEntity
  8
寸法
  6
CONTINUOUS
 62
     3
100
AcDbLine
 10
1476.0
 20
3400.0
 30
0.0
 11
1476.0
 21
3880.0
 31
0.0
  0
LINE
  5
4E2
100
AcDbEntity
  8
寸法
  6
CONTINUOUS
 62
     3
100
AcDbLine
 10
1468.5
 20
3445.0
 30
0.0
 11
1476.0
 21
3400.0
 31
0.0
  0
LINE
  5
4E3
100
AcDbEntity
  8
寸法
  6
CONTINUOUS
 62
     3
100
AcDbLine
 10
1476.0
 20
3400.0
 30
0.0
 11
1483.5
 21
3445.0
 31
0.0
  0
LINE
  5
4E4
100
AcDbEntity
  8
寸法
  6
CONTINUOUS
 62
     3
100
AcDbLine
 10
1483.5
 20
3835.0
 30
0.0
 11
1476.0
 21
3880.0
 31
0.0
  0
LINE
  5
4E5
100
AcDbEntity
  8
寸法
  6
CONTINUOUS
 62
     3
100
AcDbLine
 10
1476.0
 20
3880.0
 30
0.0
 11
1468.5
 21
3835.0
 31
0.0
  0
ENDBLK
  5
4E6
100
AcDbEntity
  8
0
100
AcDbBlockEnd
  0
BLOCK
  5
4E9
100
AcDbEntity
  8
0
100
AcDbBlockBegin
  2
*D19
 70
    65
 10
0.0
 20
0.0
 30
0.0
  3
*D19
  1

  0
LINE
  5
4EA
100
AcDbEntity
  8
寸法
  6
CONTINUOUS
 62
     3
100
AcDbLine
 10
680.0
 20
3614.5
 30
0.0
 11
680.0
 21
3253.5
 31
0.0
  0
LINE
  5
4EB
100
AcDbEntity
  8
寸法
  6
CONTINUOUS
 62
     3
100
AcDbLine
 10
1130.0
 20
3614.5
 30
0.0
 11
1130.0
 21
3253.5
 31
0.0
  0
TEXT
  5
4EC
100
AcDbEntity
  8
寸法
  6
CONTINUOUS
 62
     2
100
AcDbText
 10
823.1
 20
3273.75
 30
0.0
 40
60.0
  1
%%c450
 41
0.84
  7
EXCADSTD
 72
     1
 11
905.0
 21
3273.75
 31
0.0
100
AcDbText
  0
LINE
  5
4ED
100
AcDbEntity
  8
寸法
  6
CONTINUOUS
 62
     3
100
AcDbLine
 10
680.0
 20
3268.5
 30
0.0
 11
1130.0
 21
3268.5
 31
0.0
  0
LINE
  5
4EE
100
AcDbEntity
  8
寸法
  6
CONTINUOUS
 62
     3
100
AcDbLine
 10
725.0
 20
3276.0
 30
0.0
 11
680.0
 21
3268.5
 31
0.0
  0
LINE
  5
4EF
100
AcDbEntity
  8
寸法
  6
CONTINUOUS
 62
     3
100
AcDbLine
 10
680.0
 20
3268.5
 30
0.0
 11
725.0
 21
3261.0
 31
0.0
  0
LINE
  5
4F0
100
AcDbEntity
  8
寸法
  6
CONTINUOUS
 62
     3
100
AcDbLine
 10
1085.0
 20
3261.0
 30
0.0
 11
1130.0
 21
3268.5
 31
0.0
  0
LINE
  5
4F1
100
AcDbEntity
  8
寸法
  6
CONTINUOUS
 62
     3
100
AcDbLine
 10
1130.0
 20
3268.5
 30
0.0
 11
1085.0
 21
3276.0
 31
0.0
  0
ENDBLK
  5
4F2
100
AcDbEntity
  8
0
100
AcDbBlockEnd
  0
BLOCK
  5
4F5
100
AcDbEntity
  8
0
100
AcDbBlockBegin
  2
*D20
 70
    65
 10
0.0
 20
0.0
 30
0.0
  3
*D20
  1

  0
LINE
  5
4F6
100
AcDbEntity
  8
寸法
  6
CONTINUOUS
 62
     3
100
AcDbLine
 10
1290.5
 20
1640.0
 30
0.0
 11
1410.0
 21
1640.0
 31
0.0
  0
TEXT
  5
4F7
100
AcDbEntity
  8
寸法
  6
CONTINUOUS
 62
     2
100
AcDbText
 10
1389.75
 20
1227.5
 30
0.0
 40
60.0
  1
699
 50
90.0
 41
0.84
  7
EXCADSTD
 72
     1
 11
1389.75
 21
1290.5
 31
0.0
100
AcDbText
  0
LINE
  5
4F8
100
AcDbEntity
  8
寸法
  6
CONTINUOUS
 62
     3
100
AcDbLine
 10
1395.0
 20
941.0
 30
0.0
 11
1395.0
 21
1640.0
 31
0.0
  0
LINE
  5
4F9
100
AcDbEntity
  8
寸法
  6
CONTINUOUS
 62
     3
100
AcDbLine
 10
1387.5
 20
986.0
 30
0.0
 11
1395.0
 21
941.0
 31
0.0
  0
LINE
  5
4FA
100
AcDbEntity
  8
寸法
  6
CONTINUOUS
 62
     3
100
AcDbLine
 10
1395.0
 20
941.0
 30
0.0
 11
1402.5
 21
986.0
 31
0.0
  0
LINE
  5
4FB
100
AcDbEntity
  8
寸法
  6
CONTINUOUS
 62
     3
100
AcDbLine
 10
1402.5
 20
1595.0
 30
0.0
 11
1395.0
 21
1640.0
 31
0.0
  0
LINE
  5
4FC
100
AcDbEntity
  8
寸法
  6
CONTINUOUS
 62
     3
100
AcDbLine
 10
1395.0
 20
1640.0
 30
0.0
 11
1387.5
 21
1595.0
 31
0.0
  0
ENDBLK
  5
4FD
100
AcDbEntity
  8
0
100
AcDbBlockEnd
  0
BLOCK
  5
500
100
AcDbEntity
  8
0
100
AcDbBlockBegin
  2
*D21
 70
    65
 10
0.0
 20
0.0
 30
0.0
  3
*D21
  1

  0
TEXT
  5
501
100
AcDbEntity
  8
寸法
  6
CONTINUOUS
 62
     2
100
AcDbText
 10
1479.75
 20
1312.5
 30
0.0
 40
60.0
  1
869
 50
90.0
 41
0.84
  7
EXCADSTD
 72
     1
 11
1479.75
 21
1375.5
 31
0.0
100
AcDbText
  0
LINE
  5
502
100
AcDbEntity
  8
寸法
  6
CONTINUOUS
 62
     3
100
AcDbLine
 10
1485.0
 20
941.0
 30
0.0
 11
1485.0
 21
1810.0
 31
0.0
  0
LINE
  5
503
100
AcDbEntity
  8
寸法
  6
CONTINUOUS
 62
     3
100
AcDbLine
 10
1477.5
 20
986.0
 30
0.0
 11
1485.0
 21
941.0
 31
0.0
  0
LINE
  5
504
100
AcDbEntity
  8
寸法
  6
CONTINUOUS
 62
     3
100
AcDbLine
 10
1485.0
 20
941.0
 30
0.0
 11
1492.5
 21
986.0
 31
0.0
  0
LINE
  5
505
100
AcDbEntity
  8
寸法
  6
CONTINUOUS
 62
     3
100
AcDbLine
 10
1492.5
 20
1765.0
 30
0.0
 11
1485.0
 21
1810.0
 31
0.0
  0
LINE
  5
506
100
AcDbEntity
  8
寸法
  6
CONTINUOUS
 62
     3
100
AcDbLine
 10
1485.0
 20
1810.0
 30
0.0
 11
1477.5
 21
1765.0
 31
0.0
  0
ENDBLK
  5
507
100
AcDbEntity
  8
0
100
AcDbBlockEnd
  0
BLOCK
  5
50A
100
AcDbEntity
  8
0
100
AcDbBlockBegin
  2
*D22
 70
    65
 10
0.0
 20
0.0
 30
0.0
  3
*D22
  1

  0
LINE
  5
50B
100
AcDbEntity
  8
寸法
  6
CONTINUOUS
 62
     3
100
AcDbLine
 10
2487.5
 20
1381.0
 30
0.0
 11
2638.5
 21
1381.0
 31
0.0
  0
TEXT
  5
50C
100
AcDbEntity
  8
寸法
  6
CONTINUOUS
 62
     2
100
AcDbText
 10
2618.25
 20
1003.5
 30
0.0
 40
60.0
  1
440（壁給水）
 50
90.0
 41
0.84
  7
EXCADSTD
 72
     1
 11
2618.25
 21
1161.0
 31
0.0
100
AcDbText
  0
LINE
  5
50D
100
AcDbEntity
  8
寸法
  6
CONTINUOUS
 62
     3
100
AcDbLine
 10
2623.5
 20
1381.0
 30
0.0
 11
2623.5
 21
941.0
 31
0.0
  0
LINE
  5
50E
100
AcDbEntity
  8
寸法
  6
CONTINUOUS
 62
     3
100
AcDbLine
 10
2631.0
 20
1336.0
 30
0.0
 11
2623.5
 21
1381.0
 31
0.0
  0
LINE
  5
50F
100
AcDbEntity
  8
寸法
  6
CONTINUOUS
 62
     3
100
AcDbLine
 10
2623.5
 20
1381.0
 30
0.0
 11
2616.0
 21
1336.0
 31
0.0
  0
LINE
  5
510
100
AcDbEntity
  8
寸法
  6
CONTINUOUS
 62
     3
100
AcDbLine
 10
2616.0
 20
986.0
 30
0.0
 11
2623.5
 21
941.0
 31
0.0
  0
LINE
  5
511
100
AcDbEntity
  8
寸法
  6
CONTINUOUS
 62
     3
100
AcDbLine
 10
2623.5
 20
941.0
 30
0.0
 11
2631.0
 21
986.0
 31
0.0
  0
ENDBLK
  5
512
100
AcDbEntity
  8
0
100
AcDbBlockEnd
  0
BLOCK
  5
516
100
AcDbEntity
  8
0
100
AcDbBlockBegin
  2
*D23
 70
    65
 10
0.0
 20
0.0
 30
0.0
  3
*D23
  1

  0
LINE
  5
517
100
AcDbEntity
  8
寸法
  6
CONTINUOUS
 62
     3
100
AcDbLine
 10
1215.5
 20
2691.0
 30
0.0
 11
1333.5
 21
2691.0
 31
0.0
  0
LINE
  5
518
100
AcDbEntity
  8
寸法
  6
CONTINUOUS
 62
     3
100
AcDbLine
 10
1215.5
 20
2171.0
 30
0.0
 11
1333.5
 21
2171.0
 31
0.0
  0
TEXT
  5
519
100
AcDbEntity
  8
寸法
  6
CONTINUOUS
 62
     2
100
AcDbText
 10
1313.25
 20
2368.0
 30
0.0
 40
60.0
  1
520
 50
90.0
 41
0.84
  7
EXCADSTD
 72
     1
 11
1313.25
 21
2431.0
 31
0.0
100
AcDbText
  0
LINE
  5
51A
100
AcDbEntity
  8
寸法
  6
CONTINUOUS
 62
     3
100
AcDbLine
 10
1318.5
 20
2691.0
 30
0.0
 11
1318.5
 21
2171.0
 31
0.0
  0
LINE
  5
51B
100
AcDbEntity
  8
寸法
  6
CONTINUOUS
 62
     3
100
AcDbLine
 10
1326.0
 20
2646.0
 30
0.0
 11
1318.5
 21
2691.0
 31
0.0
  0
LINE
  5
51C
100
AcDbEntity
  8
寸法
  6
CONTINUOUS
 62
     3
100
AcDbLine
 10
1318.5
 20
2691.0
 30
0.0
 11
1311.0
 21
2646.0
 31
0.0
  0
LINE
  5
51D
100
AcDbEntity
  8
寸法
  6
CONTINUOUS
 62
     3
100
AcDbLine
 10
1311.0
 20
2216.0
 30
0.0
 11
1318.5
 21
2171.0
 31
0.0
  0
LINE
  5
51E
100
AcDbEntity
  8
寸法
  6
CONTINUOUS
 62
     3
100
AcDbLine
 10
1318.5
 20
2171.0
 30
0.0
 11
1326.0
 21
2216.0
 31
0.0
  0
ENDBLK
  5
51F
100
AcDbEntity
  8
0
100
AcDbBlockEnd
  0
BLOCK
  5
522
100
AcDbEntity
  8
0
100
AcDbBlockBegin
  2
*D24
 70
    65
 10
0.0
 20
0.0
 30
0.0
  3
*D24
  1

  0
LINE
  5
523
100
AcDbEntity
  8
寸法
  6
CONTINUOUS
 62
     3
100
AcDbLine
 10
755.0
 20
2641.480762
 30
0.0
 11
755.0
 21
2766.0
 31
0.0
  0
LINE
  5
524
100
AcDbEntity
  8
寸法
  6
CONTINUOUS
 62
     3
100
AcDbLine
 10
1055.0
 20
2641.480762
 30
0.0
 11
1055.0
 21
2766.0
 31
0.0
  0
TEXT
  5
525
100
AcDbEntity
  8
寸法
  6
CONTINUOUS
 62
     2
100
AcDbText
 10
747.5
 20
2756.25
 30
0.0
 40
60.0
  1
300（壁固定）
 41
0.84
  7
EXCADSTD
 72
     1
 11
905.0
 21
2756.25
 31
0.0
100
AcDbText
  0
LINE
  5
526
100
AcDbEntity
  8
寸法
  6
CONTINUOUS
 62
     3
100
AcDbLine
 10
710.0
 20
2751.0
 30
0.0
 11
1100.0
 21
2751.0
 31
0.0
  0
LINE
  5
527
100
AcDbEntity
  8
寸法
  6
CONTINUOUS
 62
     3
100
AcDbLine
 10
710.0
 20
2743.5
 30
0.0
 11
755.0
 21
2751.0
 31
0.0
  0
LINE
  5
528
100
AcDbEntity
  8
寸法
  6
CONTINUOUS
 62
     3
100
AcDbLine
 10
755.0
 20
2751.0
 30
0.0
 11
710.0
 21
2758.5
 31
0.0
  0
LINE
  5
529
100
AcDbEntity
  8
寸法
  6
CONTINUOUS
 62
     3
100
AcDbLine
 10
1100.0
 20
2758.5
 30
0.0
 11
1055.0
 21
2751.0
 31
0.0
  0
LINE
  5
52A
100
AcDbEntity
  8
寸法
  6
CONTINUOUS
 62
     3
100
AcDbLine
 10
1055.0
 20
2751.0
 30
0.0
 11
1100.0
 21
2743.5
 31
0.0
  0
ENDBLK
  5
52B
100
AcDbEntity
  8
0
100
AcDbBlockEnd
  0
BLOCK
  5
52E
100
AcDbEntity
  8
0
100
AcDbBlockBegin
  2
*D25
 70
    65
 10
0.0
 20
0.0
 30
0.0
  3
*D25
  1

  0
LINE
  5
52F
100
AcDbEntity
  8
寸法
  6
CONTINUOUS
 62
     3
100
AcDbLine
 10
605.0
 20
2701.5
 30
0.0
 11
605.0
 21
2853.0
 31
0.0
  0
LINE
  5
530
100
AcDbEntity
  8
寸法
  6
CONTINUOUS
 62
     3
100
AcDbLine
 10
1205.0
 20
2701.5
 30
0.0
 11
1205.0
 21
2853.0
 31
0.0
  0
TEXT
  5
531
100
AcDbEntity
  8
寸法
  6
CONTINUOUS
 62
     2
100
AcDbText
 10
842.0
 20
2843.25
 30
0.0
 40
60.0
  1
600
 41
0.84
  7
EXCADSTD
 72
     1
 11
905.0
 21
2843.25
 31
0.0
100
AcDbText
  0
LINE
  5
532
100
AcDbEntity
  8
寸法
  6
CONTINUOUS
 62
     3
100
AcDbLine
 10
605.0
 20
2838.0
 30
0.0
 11
1205.0
 21
2838.0
 31
0.0
  0
LINE
  5
533
100
AcDbEntity
  8
寸法
  6
CONTINUOUS
 62
     3
100
AcDbLine
 10
650.0
 20
2845.5
 30
0.0
 11
605.0
 21
2838.0
 31
0.0
  0
LINE
  5
534
100
AcDbEntity
  8
寸法
  6
CONTINUOUS
 62
     3
100
AcDbLine
 10
605.0
 20
2838.0
 30
0.0
 11
650.0
 21
2830.5
 31
0.0
  0
LINE
  5
535
100
AcDbEntity
  8
寸法
  6
CONTINUOUS
 62
     3
100
AcDbLine
 10
1160.0
 20
2830.5
 30
0.0
 11
1205.0
 21
2838.0
 31
0.0
  0
LINE
  5
536
100
AcDbEntity
  8
寸法
  6
CONTINUOUS
 62
     3
100
AcDbLine
 10
1205.0
 20
2838.0
 30
0.0
 11
1160.0
 21
2845.5
 31
0.0
  0
ENDBLK
  5
537
100
AcDbEntity
  8
0
100
AcDbBlockEnd
  0
BLOCK
  5
53A
100
AcDbEntity
  8
0
100
AcDbBlockBegin
  2
*D26
 70
    65
 10
0.0
 20
0.0
 30
0.0
  3
*D26
  1

  0
LINE
  5
53B
100
AcDbEntity
  8
寸法
  6
CONTINUOUS
 62
     3
100
AcDbLine
 10
1215.5
 20
2691.0
 30
0.0
 11
1590.0
 21
2691.0
 31
0.0
  0
TEXT
  5
53C
100
AcDbEntity
  8
寸法
  6
CONTINUOUS
 62
     2
100
AcDbText
 10
1569.75
 20
1696.3
 30
0.0
 40
60.0
  1
（1750）
 50
90.0
 41
0.84
  7
EXCADSTD
 72
     1
 11
1569.75
 21
1816.0
 31
0.0
100
AcDbText
  0
LINE
  5
53D
100
AcDbEntity
  8
寸法
  6
CONTINUOUS
 62
     3
100
AcDbLine
 10
1575.0
 20
941.0
 30
0.0
 11
1575.0
 21
2691.0
 31
0.0
  0
LINE
  5
53E
100
AcDbEntity
  8
寸法
  6
CONTINUOUS
 62
     3
100
AcDbLine
 10
1567.5
 20
986.0
 30
0.0
 11
1575.0
 21
941.0
 31
0.0
  0
LINE
  5
53F
100
AcDbEntity
  8
寸法
  6
CONTINUOUS
 62
     3
100
AcDbLine
 10
1575.0
 20
941.0
 30
0.0
 11
1582.5
 21
986.0
 31
0.0
  0
LINE
  5
540
100
AcDbEntity
  8
寸法
  6
CONTINUOUS
 62
     3
100
AcDbLine
 10
1582.5
 20
2646.0
 30
0.0
 11
1575.0
 21
2691.0
 31
0.0
  0
LINE
  5
541
100
AcDbEntity
  8
寸法
  6
CONTINUOUS
 62
     3
100
AcDbLine
 10
1575.0
 20
2691.0
 30
0.0
 11
1567.5
 21
2646.0
 31
0.0
  0
ENDBLK
  5
542
100
AcDbEntity
  8
0
100
AcDbBlockEnd
  0
BLOCK
  5
545
100
AcDbEntity
  8
0
100
AcDbBlockBegin
  2
*D27
 70
    65
 10
0.0
 20
0.0
 30
0.0
  3
*D27
  1

  0
LINE
  5
546
100
AcDbEntity
  8
寸法
  6
CONTINUOUS
 62
     3
100
AcDbLine
 10
2467.5
 20
941.0
 30
0.0
 11
2907.0
 21
941.0
 31
0.0
  0
LINE
  5
547
100
AcDbEntity
  8
寸法
  6
CONTINUOUS
 62
     3
100
AcDbLine
 10
2500.0
 20
2191.0
 30
0.0
 11
2907.0
 21
2191.0
 31
0.0
  0
TEXT
  5
548
100
AcDbEntity
  8
寸法
  6
CONTINUOUS
 62
     2
100
AcDbText
 10
2886.75
 20
1446.3
 30
0.0
 40
60.0
  1
（1250）
 50
90.0
 41
0.84
  7
EXCADSTD
 72
     1
 11
2886.75
 21
1566.0
 31
0.0
100
AcDbText
  0
LINE
  5
549
100
AcDbEntity
  8
寸法
  6
CONTINUOUS
 62
     3
100
AcDbLine
 10
2892.0
 20
941.0
 30
0.0
 11
2892.0
 21
2191.0
 31
0.0
  0
LINE
  5
54A
100
AcDbEntity
  8
寸法
  6
CONTINUOUS
 62
     3
100
AcDbLine
 10
2884.5
 20
986.0
 30
0.0
 11
2892.0
 21
941.0
 31
0.0
  0
LINE
  5
54B
100
AcDbEntity
  8
寸法
  6
CONTINUOUS
 62
     3
100
AcDbLine
 10
2892.0
 20
941.0
 30
0.0
 11
2899.5
 21
986.0
 31
0.0
  0
LINE
  5
54C
100
AcDbEntity
  8
寸法
  6
CONTINUOUS
 62
     3
100
AcDbLine
 10
2899.5
 20
2146.0
 30
0.0
 11
2892.0
 21
2191.0
 31
0.0
  0
LINE
  5
54D
100
AcDbEntity
  8
寸法
  6
CONTINUOUS
 62
     3
100
AcDbLine
 10
2892.0
 20
2191.0
 30
0.0
 11
2884.5
 21
2146.0
 31
0.0
  0
ENDBLK
  5
54E
100
AcDbEntity
  8
0
100
AcDbBlockEnd
  0
BLOCK
  5
551
100
AcDbEntity
  8
0
100
AcDbBlockBegin
  2
*D28
 70
    65
 10
0.0
 20
0.0
 30
0.0
  3
*D28
  1

  0
LINE
  5
552
100
AcDbEntity
  8
寸法
  6
CONTINUOUS
 62
     3
100
AcDbLine
 10
2419.8
 20
2702.7
 30
0.0
 11
2419.8
 21
2766.0
 31
0.0
  0
TEXT
  5
553
100
AcDbEntity
  8
寸法
  6
CONTINUOUS
 62
     2
100
AcDbText
 10
2278.2
 20
2756.25
 30
0.0
 40
60.0
  1
38
 41
0.84
  7
EXCADSTD
 72
     1
 11
2322.3
 21
2756.25
 31
0.0
100
AcDbText
  0
LINE
  5
554
100
AcDbEntity
  8
寸法
  6
CONTINUOUS
 62
     3
100
AcDbLine
 10
2264.549994
 20
2751.0
 30
0.0
 11
2502.0
 21
2751.0
 31
0.0
  0
LINE
  5
555
100
AcDbEntity
  8
寸法
  6
CONTINUOUS
 62
     3
100
AcDbLine
 10
2374.8
 20
2743.5
 30
0.0
 11
2419.8
 21
2751.0
 31
0.0
  0
LINE
  5
556
100
AcDbEntity
  8
寸法
  6
CONTINUOUS
 62
     3
100
AcDbLine
 10
2419.8
 20
2751.0
 30
0.0
 11
2374.8
 21
2758.5
 31
0.0
  0
LINE
  5
557
100
AcDbEntity
  8
寸法
  6
CONTINUOUS
 62
     3
100
AcDbLine
 10
2502.0
 20
2758.5
 30
0.0
 11
2457.0
 21
2751.0
 31
0.0
  0
LINE
  5
558
100
AcDbEntity
  8
寸法
  6
CONTINUOUS
 62
     3
100
AcDbLine
 10
2457.0
 20
2751.0
 30
0.0
 11
2502.0
 21
2743.5
 31
0.0
  0
ENDBLK
  5
559
100
AcDbEntity
  8
0
100
AcDbBlockEnd
  0
BLOCK
  5
565
100
AcDbEntity
  8
0
100
AcDbBlockBegin
  2
*D29
 70
    65
 10
0.0
 20
0.0
 30
0.0
  3
*D29
  1

  0
LINE
  5
566
100
AcDbEntity
  8
寸法
  6
CONTINUOUS
 62
     3
100
AcDbLine
 10
2455.0
 20
2691.0
 30
0.0
 11
2907.0
 21
2691.0
 31
0.0
  0
LINE
  5
567
100
AcDbEntity
  8
寸法
  6
CONTINUOUS
 62
     3
100
AcDbLine
 10
2500.0
 20
2630.980762
 30
0.0
 11
2907.0
 21
2630.980762
 31
0.0
  0
TEXT
  5
568
100
AcDbEntity
  8
寸法
  6
CONTINUOUS
 62
     2
100
AcDbText
 10
2886.75
 20
2744.4
 30
0.0
 40
60.0
  1
60
 50
90.0
 41
0.84
  7
EXCADSTD
 72
     1
 11
2886.75
 21
2788.5
 31
0.0
100
AcDbText
  0
LINE
  5
569
100
AcDbEntity
  8
寸法
  6
CONTINUOUS
 62
     3
100
AcDbLine
 10
2892.0
 20
2846.250006
 30
0.0
 11
2892.0
 21
2585.980762
 31
0.0
  0
LINE
  5
56A
100
AcDbEntity
  8
寸法
  6
CONTINUOUS
 62
     3
100
AcDbLine
 10
2884.5
 20
2736.0
 30
0.0
 11
2892.0
 21
2691.0
 31
0.0
  0
LINE
  5
56B
100
AcDbEntity
  8
寸法
  6
CONTINUOUS
 62
     3
100
AcDbLine
 10
2892.0
 20
2691.0
 30
0.0
 11
2899.5
 21
2736.0
 31
0.0
  0
LINE
  5
56C
100
AcDbEntity
  8
寸法
  6
CONTINUOUS
 62
     3
100
AcDbLine
 10
2899.5
 20
2585.980762
 30
0.0
 11
2892.0
 21
2630.980762
 31
0.0
  0
LINE
  5
56D
100
AcDbEntity
  8
寸法
  6
CONTINUOUS
 62
     3
100
AcDbLine
 10
2892.0
 20
2630.980762
 30
0.0
 11
2884.5
 21
2585.980762
 31
0.0
  0
ENDBLK
  5
56E
100
AcDbEntity
  8
0
100
AcDbBlockEnd
  0
ENDSEC
  0
SECTION
  2
ENTITIES
  0
LINE
  5
86
100
AcDbEntity
  8
枠・表
  6
CONTINUOUS
 62
     7
100
AcDbLine
 10
17.0
 20
9.5
 30
0.0
 11
199.0
 21
9.5
 31
0.0
  0
LINE
  5
87
100
AcDbEntity
  8
枠・表
  6
CONTINUOUS
 62
     7
100
AcDbLine
 10
199.0
 20
9.5
 30
0.0
 11
199.0
 21
284.5
 31
0.0
  0
LINE
  5
88
100
AcDbEntity
  8
枠・表
  6
CONTINUOUS
 62
     7
100
AcDbLine
 10
17.0
 20
9.5
 30
0.0
 11
17.0
 21
284.5
 31
0.0
  0
LINE
  5
89
100
AcDbEntity
  8
枠・表
  6
CONTINUOUS
 62
     7
100
AcDbLine
 10
17.0
 20
284.5
 30
0.0
 11
199.0
 21
284.5
 31
0.0
  0
LINE
  5
8A
100
AcDbEntity
  8
枠・表
  6
CONTINUOUS
 62
     7
100
AcDbLine
 10
17.0
 20
31.5
 30
0.0
 11
199.0
 21
31.5
 31
0.0
  0
LINE
  5
8B
100
AcDbEntity
  8
枠・表
  6
CONTINUOUS
 62
     6
100
AcDbLine
 10
199.0
 20
19.5
 30
0.0
 11
74.0
 21
19.5
 31
0.0
  0
LINE
  5
8C
100
AcDbEntity
  8
枠・表
  6
CONTINUOUS
 62
     6
100
AcDbLine
 10
185.0
 20
31.5
 30
0.0
 11
185.0
 21
19.5
 31
0.0
  0
LINE
  5
8D
100
AcDbEntity
  8
枠・表
  6
CONTINUOUS
 62
     6
100
AcDbLine
 10
180.0
 20
31.5
 30
0.0
 11
180.0
 21
19.5
 31
0.0
  0
LINE
  5
8E
100
AcDbEntity
  8
枠・表
  6
CONTINUOUS
 62
     6
100
AcDbLine
 10
143.0
 20
31.5
 30
0.0
 11
143.0
 21
9.5
 31
0.0
  0
LINE
  5
8F
100
AcDbEntity
  8
枠・表
  6
CONTINUOUS
 62
     6
100
AcDbLine
 10
138.0
 20
31.5
 30
0.0
 11
138.0
 21
9.5
 31
0.0
  0
LINE
  5
90
100
AcDbEntity
  8
枠・表
  6
CONTINUOUS
 62
     6
100
AcDbLine
 10
79.0
 20
31.5
 30
0.0
 11
79.0
 21
19.5
 31
0.0
  0
LINE
  5
91
100
AcDbEntity
  8
枠・表
  6
CONTINUOUS
 62
     6
100
AcDbLine
 10
74.0
 20
31.5
 30
0.0
 11
74.0
 21
9.5
 31
0.0
  0
LINE
  5
92
100
AcDbEntity
  8
枠・表
  6
CONTINUOUS
 62
     6
100
AcDbLine
 10
61.0
 20
31.5
 30
0.0
 11
61.0
 21
9.5
 31
0.0
  0
LINE
  5
93
100
AcDbEntity
  8
枠・表
  6
CONTINUOUS
 62
     6
100
AcDbLine
 10
48.0
 20
31.5
 30
0.0
 11
48.0
 21
9.5
 31
0.0
  0
LINE
  5
94
100
AcDbEntity
  8
枠・表
  6
CONTINUOUS
 62
     6
100
AcDbLine
 10
32.5
 20
31.5
 30
0.0
 11
32.5
 21
9.5
 31
0.0
  0
LINE
  5
95
100
AcDbEntity
  8
枠・表
  6
CONTINUOUS
 62
     6
100
AcDbLine
 10
17.0
 20
26.5
 30
0.0
 11
74.0
 21
26.5
 31
0.0
  0
LINE
  5
96
100
AcDbEntity
  8
枠・表
  6
CONTINUOUS
 62
     6
100
AcDbLine
 10
188.265381
 20
21.800293
 30
0.0
 11
195.99939
 21
29.669983
 31
0.0
  0
CIRCLE
  5
97
100
AcDbEntity
  8
枠・表
  6
CONTINUOUS
 62
     6
100
AcDbCircle
 10
22.0
 20
12.0
 30
0.0
 40
0.1
  0
CIRCLE
  5
98
100
AcDbEntity
  8
枠・表
  6
CONTINUOUS
 62
     6
100
AcDbCircle
 10
27.0
 20
12.0
 30
0.0
 40
0.1
  0
CIRCLE
  5
99
100
AcDbEntity
  8
枠・表
  6
CONTINUOUS
 62
     6
100
AcDbCircle
 10
37.5
 20
12.0
 30
0.0
 40
0.1
  0
CIRCLE
  5
9A
100
AcDbEntity
  8
枠・表
  6
CONTINUOUS
 62
     6
100
AcDbCircle
 10
42.5
 20
12.0
 30
0.0
 40
0.1
  0
LINE
  5
9B
100
AcDbEntity
  8
枠・表
  6
EXLTYPE2
 62
     6
100
AcDbLine
 10
17.0
 20
14.5
 30
0.0
 11
48.0
 21
14.5
 31
0.0
  0
TEXT
  5
9C
100
AcDbEntity
  8
枠・表
  6
CONTINUOUS
 62
     2
100
AcDbText
 10
188.053711
 20
26.272278
 30
0.0
 40
3.0
  1
１
 41
0.826
  7
EXCADSTD
 72
     5
 11
190.413711
 21
26.272278
 31
0.0
100
AcDbText
  0
TEXT
  5
9D
100
AcDbEntity
  8
枠・表
  6
CONTINUOUS
 62
     2
100
AcDbText
 10
192.12793
 20
21.834885
 30
0.0
 40
3.0
  1
１５
 41
0.791
  7
EXCADSTD
 72
     5
 11
197.30672
 21
21.834885
 31
0.0
100
AcDbText
  0
TEXT
  5
9E
100
AcDbEntity
  8
枠・表
  6
CONTINUOUS
 62
     2
100
AcDbText
 10
19.25
 20
26.875
 30
0.0
 40
4.25
  1
製図
 41
1.087059
  7
EXCADSTD
 72
     5
 11
29.3326
 21
26.875
 31
0.0
100
AcDbText
  0
TEXT
  5
9F
100
AcDbEntity
  8
枠・表
  6
CONTINUOUS
 62
     2
100
AcDbText
 10
34.75
 20
26.875
 30
0.0
 40
4.25
  1
写図
 41
1.087059
  7
EXCADSTD
 72
     5
 11
44.8326
 21
26.875
 31
0.0
100
AcDbText
  0
TEXT
  5
A0
100
AcDbEntity
  8
枠・表
  6
CONTINUOUS
 62
     2
100
AcDbText
 10
49.75
 20
26.875
 30
0.0
 40
4.25
  1
検図
 41
0.938824
  7
EXCADSTD
 72
     5
 11
58.4577
 21
26.875
 31
0.0
100
AcDbText
  0
TEXT
  5
A1
100
AcDbEntity
  8
枠・表
  6
CONTINUOUS
 62
     2
100
AcDbText
 10
62.75
 20
26.875
 30
0.0
 40
4.25
  1
承認
 41
0.938824
  7
EXCADSTD
 72
     5
 11
71.4577
 21
26.875
 31
0.0
100
AcDbText
  0
TEXT
  5
A2
100
AcDbEntity
  8
枠・表
  6
CONTINUOUS
 62
     2
100
AcDbText
 10
74.575
 20
25.875
 30
0.0
 40
4.25
  1
品
 41
0.84
  7
EXCADSTD
 72
     5
 11
77.975
 21
25.875
 31
0.0
100
AcDbText
  0
TEXT
  5
A3
100
AcDbEntity
  8
枠・表
  6
CONTINUOUS
 62
     2
100
AcDbText
 10
74.575
 20
20.875
 30
0.0
 40
4.25
  1
名
 41
0.84
  7
EXCADSTD
 72
     5
 11
77.975
 21
20.875
 31
0.0
100
AcDbText
  0
TEXT
  5
A4
100
AcDbEntity
  8
枠・表
  6
CONTINUOUS
 62
     2
100
AcDbText
 10
138.575
 20
25.875
 30
0.0
 40
4.25
  1
品
 41
0.84
  7
EXCADSTD
 72
     5
 11
141.975
 21
25.875
 31
0.0
100
AcDbText
  0
TEXT
  5
A5
100
AcDbEntity
  8
枠・表
  6
CONTINUOUS
 62
     2
100
AcDbText
 10
138.575
 20
20.875
 30
0.0
 40
4.25
  1
番
 41
0.84
  7
EXCADSTD
 72
     5
 11
141.975
 21
20.875
 31
0.0
100
AcDbText
  0
TEXT
  5
A6
100
AcDbEntity
  8
枠・表
  6
CONTINUOUS
 62
     2
100
AcDbText
 10
180.675
 20
25.875
 30
0.0
 40
4.25
  1
尺
 41
0.84
  7
EXCADSTD
 72
     5
 11
184.075
 21
25.875
 31
0.0
100
AcDbText
  0
TEXT
  5
A7
100
AcDbEntity
  8
枠・表
  6
CONTINUOUS
 62
     2
100
AcDbText
 10
180.675
 20
20.875
 30
0.0
 40
4.25
  1
度
 41
0.84
  7
EXCADSTD
 72
     5
 11
184.075
 21
20.875
 31
0.0
100
AcDbText
  0
TEXT
  5
A8
100
AcDbEntity
  8
枠・表
  6
CONTINUOUS
 62
     2
100
AcDbText
 10
138.575
 20
14.575
 30
0.0
 40
4.25
  1
図
 41
0.84
  7
EXCADSTD
 72
     5
 11
141.975
 21
14.575
 31
0.0
100
AcDbText
  0
TEXT
  5
A9
100
AcDbEntity
  8
枠・表
  6
CONTINUOUS
 62
     2
100
AcDbText
 10
138.575
 20
10.275
 30
0.0
 40
4.25
  1
番
 41
0.84
  7
EXCADSTD
 72
     5
 11
141.975
 21
10.275
 31
0.0
100
AcDbText
  0
LINE
  5
AA
100
AcDbEntity
  8
枠・表
  6
CONTINUOUS
 62
     6
100
AcDbLine
 10
124.0
 20
279.5
 30
0.0
 11
194.0
 21
279.5
 31
0.0
  0
LINE
  5
AB
100
AcDbEntity
  8
枠・表
  6
CONTINUOUS
 62
     6
100
AcDbLine
 10
124.0
 20
274.0
 30
0.0
 11
194.0
 21
274.0
 31
0.0
  0
TEXT
  5
AC
100
AcDbEntity
  8
枠・表
  6
CONTINUOUS
 62
     2
100
AcDbText
 10
132.0
 20
274.75
 30
0.0
 40
4.0
  1
品番
 41
1.47
  7
EXCADSTD
 72
     5
 11
144.8324
 21
274.75
 31
0.0
100
AcDbText
  0
TEXT
  5
AD
100
AcDbEntity
  8
枠・表
  6
CONTINUOUS
 62
     2
100
AcDbText
 10
167.0
 20
274.75
 30
0.0
 40
4.0
  1
品名
 41
1.47
  7
EXCADSTD
 72
     5
 11
179.8324
 21
274.75
 31
0.0
100
AcDbText
  0
TEXT
  5
AE
100
AcDbEntity
  8
枠・表
  6
CONTINUOUS
 62
     2
100
AcDbText
 10
155.0
 20
269.25
 30
0.0
 40
4.0
  1
洗面化粧台
 41
0.756
  7
EXCADSTD
 72
     5
 11
173.0
 21
269.25
 31
0.0
100
AcDbText
  0
TEXT
  5
B0
100
AcDbEntity
  8
枠・表
  6
CONTINUOUS
 62
     2
100
AcDbText
 10
76.0
 20
11.5
 30
0.0
 40
4.5
  1
ジャニス工業株式会社
  7
EXCADTTF1
 72
     5
 11
136.0
 21
11.5
 31
0.0
100
AcDbText
  0
LINE
  5
B1
100
AcDbEntity
  8
枠・表
  6
EXLTYPE2
 62
     1
100
AcDbLine
 10
17.0
 20
147.0
 30
0.0
 11
-0.3
 21
147.0
 31
0.0
  0
TEXT
  5
B2
100
AcDbEntity
  8
枠・表
  6
CONTINUOUS
 62
     2
100
AcDbText
 10
19.75
 20
18.0
 30
0.0
 40
5.0
  1
間瀬
 41
0.882
  7
EXCADSTD
 72
     5
 11
29.3743
 21
18.0
 31
0.0
100
AcDbText
  0
TEXT
  5
B3
100
AcDbEntity
  8
枠・表
  6
CONTINUOUS
 62
     2
100
AcDbText
 10
125.0
 20
269.25
 30
0.0
 40
4.0
  1
ＬＵ７５４ＣＳＤＲ
 41
0.585667
  7
EXCADSTD
 72
     5
 11
150.1
 21
269.25
 31
0.0
100
AcDbText
  0
TEXT
  5
B4
100
AcDbEntity
  8
枠・表
  6
CONTINUOUS
 62
     2
100
AcDbText
 10
49.5
 20
18.0
 30
0.0
 40
5.0
  1
中村
 41
0.882
  7
EXCADSTD
 72
     5
 11
59.1243
 21
18.0
 31
0.0
100
AcDbText
  0
TEXT
  5
B5
100
AcDbEntity
  8
枠・表
  6
CONTINUOUS
 62
     2
100
AcDbText
 10
62.5
 20
18.0
 30
0.0
 40
5.0
  1
古林
 41
0.882
  7
EXCADSTD
 72
     5
 11
72.1243
 21
18.0
 31
0.0
100
AcDbText
  0
TEXT
  5
B6
100
AcDbEntity
  8
枠・表
  6
CONTINUOUS
 62
     2
100
AcDbText
 10
17.45
 20
10.0
 30
0.0
 40
4.0
  1
21
 41
0.5
  7
EXCADSTD
 72
     5
 11
20.65
 21
10.0
 31
0.0
100
AcDbText
  0
TEXT
  5
B7
100
AcDbEntity
  8
枠・表
  6
CONTINUOUS
 62
     2
100
AcDbText
 10
22.5
 20
10.0
 30
0.0
 40
4.0
  1
11
 41
0.5
  7
EXCADSTD
 72
     5
 11
25.7
 21
10.0
 31
0.0
100
AcDbText
  0
TEXT
  5
B8
100
AcDbEntity
  8
枠・表
  6
CONTINUOUS
 62
     2
100
AcDbText
 10
28.675
 20
10.0
 30
0.0
 40
4.0
  1
5
 41
0.5625
  7
EXCADSTD
 72
     5
 11
30.1375
 21
10.0
 31
0.0
100
AcDbText
  0
TEXT
  5
B9
100
AcDbEntity
  8
枠・表
  6
CONTINUOUS
 62
     7
100
AcDbText
 10
144.2
 20
11.15
 30
0.0
 40
7.0
  1
ＬＵ３１６９００
 41
0.804
  7
EXCADSTD
 72
     5
 11
197.8
 21
11.15
 31
0.0
100
AcDbText
  0
TEXT
  5
BA
100
AcDbEntity
  8
枠・表
  6
CONTINUOUS
 62
     2
100
AcDbText
 10
144.0
 20
25.5
 30
0.0
 40
5.0
  1
ＬＵ７５４ＣＳＤＲ型 
 41
0.6048
  7
EXCADSTD
 72
     5
 11
180.0
 21
25.5
 31
0.0
100
AcDbText
  0
TEXT
  5
BB
100
AcDbEntity
  8
枠・表
  6
CONTINUOUS
 62
     2
100
AcDbText
 10
144.0
 20
20.5
 30
0.0
 40
5.0
  1
ＬＵＭ６０２ＣＳ
 41
0.609
  7
EXCADSTD
 72
     5
 11
173.0
 21
20.5
 31
0.0
100
AcDbText
  0
LINE
  5
BC
100
AcDbEntity
  8
枠・表
  6
CONTINUOUS
 62
     6
100
AcDbLine
 10
124.0
 20
252.0
 30
0.0
 11
194.0
 21
252.0
 31
0.0
  0
LINE
  5
BD
100
AcDbEntity
  8
枠・表
  6
CONTINUOUS
 62
     6
100
AcDbLine
 10
124.0
 20
246.5
 30
0.0
 11
194.0
 21
246.5
 31
0.0
  0
LINE
  5
BE
100
AcDbEntity
  8
枠・表
  6
CONTINUOUS
 62
     6
100
AcDbLine
 10
124.0
 20
235.5
 30
0.0
 11
194.0
 21
235.5
 31
0.0
  0
TEXT
  5
BF
100
AcDbEntity
  8
枠・表
  6
CONTINUOUS
 62
     2
100
AcDbText
 10
134.5
 20
247.25
 30
0.0
 40
4.0
  1
品番
 41
1.47
  7
EXCADSTD
 72
     5
 11
147.3324
 21
247.25
 31
0.0
100
AcDbText
  0
TEXT
  5
C0
100
AcDbEntity
  8
枠・表
  6
CONTINUOUS
 62
     2
100
AcDbText
 10
169.5
 20
247.25
 30
0.0
 40
4.0
  1
品名
 41
1.47
  7
EXCADSTD
 72
     5
 11
182.3324
 21
247.25
 31
0.0
100
AcDbText
  0
TEXT
  5
C1
100
AcDbEntity
  8
枠・表
  6
CONTINUOUS
 62
     2
100
AcDbText
 10
160.0
 20
241.75
 30
0.0
 40
4.0
  1
アングル形止水栓
 41
0.748125
  7
EXCADSTD
 72
     5
 11
188.5
 21
241.75
 31
0.0
100
AcDbText
  0
TEXT
  5
C2
100
AcDbEntity
  8
枠・表
  6
CONTINUOUS
 62
     2
100
AcDbText
 10
160.0
 20
236.25
 30
0.0
 40
4.0
  1
（壁給水用、数量：２）
 41
0.639545
  7
EXCADSTD
 72
     5
 11
193.5
 21
236.25
 31
0.0
100
AcDbText
  0
TEXT
  5
C3
100
AcDbEntity
  8
枠・表
  6
CONTINUOUS
 62
     2
100
AcDbText
 10
125.0
 20
241.75
 30
0.0
 40
4.0
  1
ＮＬ２２１－７５ＷＭＹ
 41
0.477273
  7
EXCADSTD
 72
     5
 11
149.999999
 21
241.75
 31
0.0
100
AcDbText
  0
TEXT
  5
C4
100
AcDbEntity
  8
枠・表
  6
CONTINUOUS
 62
     2
100
AcDbText
 10
124.4
 20
253.0
 30
0.0
 40
4.0
  1
※止水栓・Ｌ管（別途手配）
 41
0.684923
  7
EXCADSTD
 72
     5
 11
166.8
 21
253.0
 31
0.0
100
AcDbText
  0
TEXT
  5
C5
100
AcDbEntity
  8
枠・表
  6
CONTINUOUS
 62
     2
100
AcDbText
 10
160.0
 20
225.25
 30
0.0
 40
4.0
  1
（床給水用、数量：２）
 41
0.639545
  7
EXCADSTD
 72
     5
 11
193.5
 21
225.25
 31
0.0
100
AcDbText
  0
TEXT
  5
C6
100
AcDbEntity
  8
枠・表
  6
CONTINUOUS
 62
     2
100
AcDbText
 10
160.0
 20
230.75
 30
0.0
 40
4.0
  1
ストレート形止水栓
 41
0.746667
  7
EXCADSTD
 72
     5
 11
192.0
 21
230.75
 31
0.0
100
AcDbText
  0
LINE
  5
C7
100
AcDbEntity
  8
枠・表
  6
CONTINUOUS
 62
     6
100
AcDbLine
 10
124.0
 20
219.0
 30
0.0
 11
194.0
 21
219.0
 31
0.0
  0
TEXT
  5
C8
100
AcDbEntity
  8
枠・表
  6
CONTINUOUS
 62
     2
100
AcDbText
 10
125.0
 20
219.75
 30
0.0
 40
4.0
  1
４４１３１
 41
0.6006
  7
EXCADSTD
 72
     5
 11
139.3
 21
219.75
 31
0.0
100
AcDbText
  0
TEXT
  5
C9
100
AcDbEntity
  8
枠・表
  6
CONTINUOUS
 62
     2
100
AcDbText
 10
160.0
 20
219.75
 30
0.0
 40
4.0
  1
Ｌ管（壁排水用）
 41
0.748125
  7
EXCADSTD
 72
     5
 11
188.5
 21
219.75
 31
0.0
100
AcDbText
  0
TEXT
  5
CA
100
AcDbEntity
  8
枠・表
  6
CONTINUOUS
 62
     2
100
AcDbText
 10
125.0
 20
230.75
 30
0.0
 40
4.0
  1
ＮＬ２１１－４２０ＷＹ
 41
0.477273
  7
EXCADSTD
 72
     5
 11
149.999999
 21
230.75
 31
0.0
100
AcDbText
  0
LINE
  5
CB
100
AcDbEntity
  8
枠・表
  6
CONTINUOUS
 62
     6
100
AcDbLine
 10
159.0
 20
219.0
 30
0.0
 11
159.0
 21
252.0
 31
0.0
  0
LINE
  5
CC
100
AcDbEntity
  8
枠・表
  6
CONTINUOUS
 62
     6
100
AcDbLine
 10
194.0
 20
219.0
 30
0.0
 11
194.0
 21
252.0
 31
0.0
  0
LINE
  5
CD
100
AcDbEntity
  8
枠・表
  6
CONTINUOUS
 62
     6
100
AcDbLine
 10
124.0
 20
219.0
 30
0.0
 11
124.0
 21
252.0
 31
0.0
  0
LINE
  5
CE
100
AcDbEntity
  8
枠・表
  6
CONTINUOUS
 62
     6
100
AcDbLine
 10
124.0
 20
224.5
 30
0.0
 11
194.0
 21
224.5
 31
0.0
  0
LINE
  5
CF
100
AcDbEntity
  8
枠・表
  6
CONTINUOUS
 62
     6
100
AcDbLine
 10
124.0
 20
263.0
 30
0.0
 11
194.0
 21
263.0
 31
0.0
  0
TEXT
  5
D0
100
AcDbEntity
  8
枠・表
  6
CONTINUOUS
 62
     2
100
AcDbText
 10
125.0
 20
263.75
 30
0.0
 40
4.0
  1
ＬＵＭ６０２ＣＳ
 41
0.588
  7
EXCADSTD
 72
     5
 11
147.4
 21
263.75
 31
0.0
100
AcDbText
  0
TEXT
  5
D1
100
AcDbEntity
  8
枠・表
  6
CONTINUOUS
 62
     2
100
AcDbText
 10
155.0
 20
263.75
 30
0.0
 40
4.0
  1
化粧鏡
 41
0.77
  7
EXCADSTD
 72
     5
 11
166.0
 21
263.75
 31
0.0
100
AcDbText
  0
LINE
  5
D2
100
AcDbEntity
  8
枠・表
  6
CONTINUOUS
 62
     6
100
AcDbLine
 10
124.0
 20
268.5
 30
0.0
 11
194.0
 21
268.5
 31
0.0
  0
LINE
  5
D3
100
AcDbEntity
  8
枠・表
  6
CONTINUOUS
 62
     6
100
AcDbLine
 10
124.0
 20
263.0
 30
0.0
 11
124.0
 21
279.5
 31
0.0
  0
LINE
  5
D4
100
AcDbEntity
  8
枠・表
  6
CONTINUOUS
 62
     6
100
AcDbLine
 10
154.0
 20
263.0
 30
0.0
 11
154.0
 21
279.5
 31
0.0
  0
LINE
  5
D5
100
AcDbEntity
  8
枠・表
  6
CONTINUOUS
 62
     6
100
AcDbLine
 10
194.0
 20
263.0
 30
0.0
 11
194.0
 21
279.5
 31
0.0
  0
TEXT
  5
D6
100
AcDbEntity
  8
枠・表
  6
CONTINUOUS
 62
     2
100
AcDbText
 10
80.0
 20
25.5
 30
0.0
 40
5.0
  1
750㎜幅
 41
0.72072
  7
EXCADSTD
 72
     5
 11
99.25
 21
25.5
 31
0.0
100
AcDbText
  0
TEXT
  5
D7
100
AcDbEntity
  8
枠・表
  6
CONTINUOUS
 62
     2
100
AcDbText
 10
80.0
 20
20.5
 30
0.0
 40
5.0
  1
　洗面化粧ユニット
 41
0.924
  7
EXCADSTD
 72
     5
 11
129.5
 21
20.5
 31
0.0
100
AcDbText
  0
POLYLINE
  5
D8
100
AcDbEntity
  8
化粧台
  6
CONTINUOUS
 62
     3
100
AcDb2dPolyline
 66
     1
 10
0.0
 20
0.0
 30
0.0
 70
   128
  0
VERTEX
  5
D9
100
AcDbEntity
  8
化粧台
  6
CONTINUOUS
 62
     3
100
AcDbVertex
100
AcDb2dVertex
 10
1587.0
 20
3880.0
 30
0.0
  0
VERTEX
  5
DA
100
AcDbEntity
  8
化粧台
  6
CONTINUOUS
 62
     3
100
AcDbVertex
100
AcDb2dVertex
 10
1610.0
 20
3830.5
 30
0.0
  0
SEQEND
  5
DB
100
AcDbEntity
  8
化粧台
  6
CONTINUOUS
 62
     3
  0
LINE
  5
DC
100
AcDbEntity
  8
化粧台
  6
CONTINUOUS
 62
     3
100
AcDbLine
 10
1612.763749
 20
3842.350575
 30
0.0
 11
1587.0
 21
3880.0
 31
0.0
  0
LINE
  5
DD
100
AcDbEntity
  8
化粧台
  6
CONTINUOUS
 62
     3
100
AcDbLine
 10
1587.0
 20
3880.0
 30
0.0
 11
1599.16049
 21
3836.029868
 31
0.0
  0
POLYLINE
  5
DE
100
AcDbEntity
  8
化粧台
  6
CONTINUOUS
 62
     3
100
AcDb2dPolyline
 66
     1
 10
0.0
 20
0.0
 30
0.0
 70
   128
  0
VERTEX
  5
DF
100
AcDbEntity
  8
化粧台
  6
CONTINUOUS
 62
     3
100
AcDbVertex
100
AcDb2dVertex
 10
2457.0
 20
2935.2
 30
0.0
  0
VERTEX
  5
E0
100
AcDbEntity
  8
化粧台
  6
CONTINUOUS
 62
     3
100
AcDbVertex
100
AcDb2dVertex
 10
2411.0
 20
2955.2
 30
0.0
  0
SEQEND
  5
E1
100
AcDbEntity
  8
化粧台
  6
CONTINUOUS
 62
     3
  0
LINE
  5
E2
100
AcDbEntity
  8
化粧台
  6
CONTINUOUS
 62
     3
100
AcDbLine
 10
2412.741402
 20
2946.26465
 30
0.0
 11
2457.0
 21
2935.2
 31
0.0
  0
LINE
  5
E3
100
AcDbEntity
  8
化粧台
  6
CONTINUOUS
 62
     3
100
AcDbLine
 10
2457.0
 20
2935.2
 30
0.0
 11
2418.722293
 21
2960.0207
 31
0.0
  0
POLYLINE
  5
E4
100
AcDbEntity
  8
化粧台
  6
CONTINUOUS
 62
     3
100
AcDb2dPolyline
 66
     1
 10
0.0
 20
0.0
 30
0.0
 70
   128
  0
VERTEX
  5
E5
100
AcDbEntity
  8
化粧台
  6
CONTINUOUS
 62
     3
100
AcDbVertex
100
AcDb2dVertex
 10
1955.0
 20
941.0
 30
0.0
  0
VERTEX
  5
E6
100
AcDbEntity
  8
化粧台
  6
CONTINUOUS
 62
     3
100
AcDbVertex
100
AcDb2dVertex
 10
1936.0
 20
990.0
 30
0.0
  0
SEQEND
  5
E7
100
AcDbEntity
  8
化粧台
  6
CONTINUOUS
 62
     3
  0
LINE
  5
E8
100
AcDbEntity
  8
化粧台
  6
CONTINUOUS
 62
     3
100
AcDbLine
 10
1931.738537
 20
980.2448
 30
0.0
 11
1955.0
 21
941.0
 31
0.0
  0
LINE
  5
E9
100
AcDbEntity
  8
化粧台
  6
CONTINUOUS
 62
     3
100
AcDbLine
 10
1955.0
 20
941.0
 30
0.0
 11
1945.723956
 21
985.667718
 31
0.0
  0
LINE
  5
EA
100
AcDbEntity
  8
化粧台
  6
CONTINUOUS
 62
     3
100
AcDbLine
 10
830.0
 20
922.5
 30
0.0
 11
830.0
 21
777.0
 31
0.0
  0
LINE
  5
EB
100
AcDbEntity
  8
化粧台
  6
CONTINUOUS
 62
     3
100
AcDbLine
 10
980.0
 20
922.5
 30
0.0
 11
980.0
 21
777.0
 31
0.0
  0
TEXT
  5
EC
100
AcDbEntity
  8
化粧台
  6
CONTINUOUS
 62
     2
100
AcDbText
 10
458.0
 20
797.25
 30
0.0
 40
60.0
  1
１５０
 41
0.7
  7
EXCADSTD
 72
     5
 11
608.0
 21
797.25
 31
0.0
100
AcDbText
  0
TEXT
  5
ED
100
AcDbEntity
  8
化粧台
  6
CONTINUOUS
 62
     2
100
AcDbText
 10
600.5
 20
797.25
 30
0.0
 40
47.999996
  1
（床給水）
 41
0.672
  7
EXCADSTD
 72
     5
 11
792.499989
 21
797.25
 31
0.0
100
AcDbText
  0
LINE
  5
EE
100
AcDbEntity
  8
化粧台
  6
CONTINUOUS
 62
     3
100
AcDbLine
 10
452.750006
 20
792.0
 30
0.0
 11
1025.0
 21
792.0
 31
0.0
  0
LINE
  5
EF
100
AcDbEntity
  8
化粧台
  6
CONTINUOUS
 62
     3
100
AcDbLine
 10
785.0
 20
784.5
 30
0.0
 11
830.0
 21
792.0
 31
0.0
  0
LINE
  5
F0
100
AcDbEntity
  8
化粧台
  6
CONTINUOUS
 62
     3
100
AcDbLine
 10
830.0
 20
792.0
 30
0.0
 11
785.0
 21
799.5
 31
0.0
  0
LINE
  5
F1
100
AcDbEntity
  8
化粧台
  6
CONTINUOUS
 62
     3
100
AcDbLine
 10
1025.0
 20
799.5
 30
0.0
 11
980.0
 21
792.0
 31
0.0
  0
LINE
  5
F2
100
AcDbEntity
  8
化粧台
  6
CONTINUOUS
 62
     3
100
AcDbLine
 10
980.0
 20
792.0
 30
0.0
 11
1025.0
 21
784.5
 31
0.0
  0
LINE
  5
F3
100
AcDbEntity
  8
化粧台
  6
CONTINUOUS
 62
     3
100
AcDbLine
 10
2377.0
 20
922.5
 30
0.0
 11
2377.0
 21
777.0
 31
0.0
  0
LINE
  5
F4
100
AcDbEntity
  8
化粧台
  6
CONTINUOUS
 62
     3
100
AcDbLine
 10
2457.0
 20
930.5
 30
0.0
 11
2457.0
 21
777.0
 31
0.0
  0
TEXT
  5
F5
100
AcDbEntity
  8
化粧台
  6
CONTINUOUS
 62
     2
100
AcDbText
 10
2502.0
 20
797.25
 30
0.0
 40
60.0
  1
８０
 41
0.735
  7
EXCADSTD
 72
     5
 11
2598.243
 21
797.25
 31
0.0
100
AcDbText
  0
TEXT
  5
F6
100
AcDbEntity
  8
化粧台
  6
CONTINUOUS
 62
     2
100
AcDbText
 10
2599.5
 20
797.25
 30
0.0
 40
47.999996
  1
（床給水）
 41
0.672
  7
EXCADSTD
 72
     5
 11
2791.499989
 21
797.25
 31
0.0
100
AcDbText
  0
LINE
  5
F7
100
AcDbEntity
  8
化粧台
  6
CONTINUOUS
 62
     3
100
AcDbLine
 10
2332.0
 20
792.0
 30
0.0
 11
2789.249994
 21
792.0
 31
0.0
  0
LINE
  5
F8
100
AcDbEntity
  8
化粧台
  6
CONTINUOUS
 62
     3
100
AcDbLine
 10
2332.0
 20
784.5
 30
0.0
 11
2377.0
 21
792.0
 31
0.0
  0
LINE
  5
F9
100
AcDbEntity
  8
化粧台
  6
CONTINUOUS
 62
     3
100
AcDbLine
 10
2377.0
 20
792.0
 30
0.0
 11
2332.0
 21
799.5
 31
0.0
  0
LINE
  5
FA
100
AcDbEntity
  8
化粧台
  6
CONTINUOUS
 62
     3
100
AcDbLine
 10
2502.0
 20
799.5
 30
0.0
 11
2457.0
 21
792.0
 31
0.0
  0
LINE
  5
FB
100
AcDbEntity
  8
化粧台
  6
CONTINUOUS
 62
     3
100
AcDbLine
 10
2457.0
 20
792.0
 30
0.0
 11
2502.0
 21
784.5
 31
0.0
  0
TEXT
  5
FC
100
AcDbEntity
  8
化粧台
  6
CONTINUOUS
 62
     2
100
AcDbText
 10
2555.950204
 20
1565.25
 30
0.0
 40
60.0
  1
Ｒ１/２
 41
0.638
  7
EXCADSTD
 72
     5
 11
2729.950204
 21
1565.25
 31
0.0
100
AcDbText
  0
LEADER
  5
FD
100
AcDbEntity
  8
化粧台
  6
CONTINUOUS
 62
     3
100
AcDbLeader
  3
STANDARD
 73
     3
 74
     1
 75
     0
 40
0.0
 76
     3
 10
2465.0
 20
1391.5
 30
0.0
 10
2560.5
 20
1560.0
 30
0.0
 10
2716.5
 20
1560.0
 30
0.0
 77
     3
1001
ACAD
1000
DSTYLE
1002
{
1070
    41
1040
45.0
1070
     5
1000
_EX_NORM
1070
     6
1000
_EX_NORM
1070
     7
1000
_EX_NORM
1070
   341
1005
2A
1002
}
  0
TEXT
  5
FE
100
AcDbEntity
  8
化粧台
  6
CONTINUOUS
 62
     2
100
AcDbText
 10
2550.0
 20
1658.25
 30
0.0
 40
60.0
  1
φ３２
 41
0.728
  7
EXCADSTD
 72
     5
 11
2706.0
 21
1658.25
 31
0.0
100
AcDbText
  0
LEADER
  5
FF
100
AcDbEntity
  8
化粧台
  6
CONTINUOUS
 62
     3
100
AcDbLeader
  3
STANDARD
 73
     3
 74
     1
 75
     0
 40
0.0
 76
     3
 10
2471.4
 20
1427.0
 30
0.0
 10
2556.0
 20
1653.0
 30
0.0
 10
2697.0
 20
1653.0
 30
0.0
 77
     3
1001
ACAD
1000
DSTYLE
1002
{
1070
    41
1040
45.0
1070
     5
1000
_EX_NORM
1070
     6
1000
_EX_NORM
1070
     7
1000
_EX_NORM
1070
   341
1005
2A
1002
}
  0
DIMENSION
  5
10B
100
AcDbEntity
  8
化粧台
  6
CONTINUOUS
 62
     3
100
AcDbDimension
  2
*D14
 10
2713.5
 20
941.0
 30
0.0
 11
2678.25
 21
1176.0
 31
0.0
 70
   160
  1
470（壁排水）
  3
STANDARD
100
AcDbAlignedDimension
 13
2494.05
 23
1411.0
 33
0.0
 14
2623.5
 24
941.0
 34
0.0
 50
90.0
100
AcDbRotatedDimension
1001
ACAD
1000
DSTYLE
1002
{
1070
     6
1000
_EX_NORM
1070
     7
1000
_EX_NORM
1070
    41
1040
45.0
1070
    42
1040
7.5
1070
    44
1040
15.0
1070
    73
1070
     0
1070
    74
1070
     0
1070
    75
1070
     0
1070
    76
1070
     1
1070
    77
1070
     1
1070
    78
1070
     8
1070
   140
1040
60.0
1070
   147
1040
5.25
1070
   173
1070
     1
1070
   176
1070
     3
1070
   177
1070
     3
1070
   178
1070
     2
1070
   271
1070
     2
1070
   279
1070
     2
1070
   280
1070
     0
1070
   287
1070
     5
1070
   340
1005
10A
1002
}
  0
LINE
  5
10C
100
AcDbEntity
  8
化粧台
  6
EXLTYPE4
 62
     6
100
AcDbLine
 10
1714.0
 20
941.0
 30
0.0
 11
305.0
 21
941.0
 31
0.0
  0
LINE
  5
10D
100
AcDbEntity
  8
化粧台
  6
CONTINUOUS
 62
     2
100
AcDbLine
 10
547.0
 20
941.0
 30
0.0
 11
547.0
 21
1031.0
 31
0.0
  0
LINE
  5
10E
100
AcDbEntity
  8
化粧台
  6
CONTINUOUS
 62
     2
100
AcDbLine
 10
1263.0
 20
941.0
 30
0.0
 11
1263.0
 21
1031.0
 31
0.0
  0
LINE
  5
10F
100
AcDbEntity
  8
化粧台
  6
CONTINUOUS
 62
     2
100
AcDbLine
 10
1280.0
 20
1621.0
 30
0.0
 11
530.0
 21
1621.0
 31
0.0
  0
LINE
  5
110
100
AcDbEntity
  8
化粧台
  6
CONTINUOUS
 62
     2
100
AcDbLine
 10
530.0
 20
1640.0
 30
0.0
 11
530.0
 21
1621.0
 31
0.0
  0
LINE
  5
111
100
AcDbEntity
  8
化粧台
  6
CONTINUOUS
 62
     2
100
AcDbLine
 10
1280.0
 20
1640.0
 30
0.0
 11
1280.0
 21
1621.0
 31
0.0
  0
LINE
  5
112
100
AcDbEntity
  8
化粧台
  6
CONTINUOUS
 62
     6
100
AcDbLine
 10
650.0
 20
1534.0
 30
0.0
 11
650.0
 21
1508.0
 31
0.0
  0
LINE
  5
113
100
AcDbEntity
  8
化粧台
  6
CONTINUOUS
 62
     6
100
AcDbLine
 10
637.0
 20
1521.0
 30
0.0
 11
663.0
 21
1521.0
 31
0.0
  0
LINE
  5
114
100
AcDbEntity
  8
化粧台
  6
CONTINUOUS
 62
     6
100
AcDbLine
 10
1160.0
 20
1534.0
 30
0.0
 11
1160.0
 21
1508.0
 31
0.0
  0
LINE
  5
115
100
AcDbEntity
  8
化粧台
  6
CONTINUOUS
 62
     6
100
AcDbLine
 10
1173.0
 20
1521.0
 30
0.0
 11
1147.0
 21
1521.0
 31
0.0
  0
LINE
  5
116
100
AcDbEntity
  8
化粧台
  6
CONTINUOUS
 62
     2
100
AcDbLine
 10
1280.0
 20
1640.0
 30
0.0
 11
530.0
 21
1640.0
 31
0.0
  0
LINE
  5
117
100
AcDbEntity
  8
化粧台
  6
CONTINUOUS
 62
     2
100
AcDbLine
 10
532.0
 20
941.0
 30
0.0
 11
1278.0
 21
941.0
 31
0.0
  0
LINE
  5
118
100
AcDbEntity
  8
化粧台
  6
CONTINUOUS
 62
     2
100
AcDbLine
 10
1278.0
 20
941.0
 30
0.0
 11
1278.0
 21
1621.0
 31
0.0
  0
LINE
  5
119
100
AcDbEntity
  8
化粧台
  6
CONTINUOUS
 62
     2
100
AcDbLine
 10
532.0
 20
941.0
 30
0.0
 11
532.0
 21
1621.0
 31
0.0
  0
LINE
  5
11A
100
AcDbEntity
  8
化粧台
  6
CONTINUOUS
 62
     6
100
AcDbLine
 10
1275.0
 20
1606.0
 30
0.0
 11
535.0
 21
1606.0
 31
0.0
  0
LINE
  5
11B
100
AcDbEntity
  8
化粧台
  6
CONTINUOUS
 62
     6
100
AcDbLine
 10
1275.0
 20
1616.0
 30
0.0
 11
535.0
 21
1616.0
 31
0.0
  0
LINE
  5
11C
100
AcDbEntity
  8
化粧台
  6
CONTINUOUS
 62
     6
100
AcDbLine
 10
1275.0
 20
1427.0
 30
0.0
 11
535.0
 21
1427.0
 31
0.0
  0
LINE
  5
11D
100
AcDbEntity
  8
化粧台
  6
CONTINUOUS
 62
     6
100
AcDbLine
 10
1275.0
 20
1437.0
 30
0.0
 11
535.0
 21
1437.0
 31
0.0
  0
LINE
  5
11E
100
AcDbEntity
  8
化粧台
  6
CONTINUOUS
 62
     2
100
AcDbLine
 10
1275.0
 20
1441.0
 30
0.0
 11
535.0
 21
1441.0
 31
0.0
  0
LINE
  5
11F
100
AcDbEntity
  8
化粧台
  6
CONTINUOUS
 62
     2
100
AcDbLine
 10
1275.0
 20
1031.0
 30
0.0
 11
535.0
 21
1031.0
 31
0.0
  0
LINE
  5
120
100
AcDbEntity
  8
化粧台
  6
CONTINUOUS
 62
     6
100
AcDbLine
 10
1275.0
 20
1409.042314
 30
0.0
 11
535.0
 21
1409.042314
 31
0.0
  0
LINE
  5
121
100
AcDbEntity
  8
化粧台
  6
CONTINUOUS
 62
     6
100
AcDbLine
 10
1275.0
 20
1405.0
 30
0.0
 11
535.0
 21
1405.0
 31
0.0
  0
LINE
  5
122
100
AcDbEntity
  8
化粧台
  6
CONTINUOUS
 62
     6
100
AcDbLine
 10
1275.0
 20
1588.042314
 30
0.0
 11
535.0
 21
1588.042314
 31
0.0
  0
LINE
  5
123
100
AcDbEntity
  8
化粧台
  6
CONTINUOUS
 62
     6
100
AcDbLine
 10
1275.0
 20
1584.0
 30
0.0
 11
535.0
 21
1584.0
 31
0.0
  0
LINE
  5
124
100
AcDbEntity
  8
化粧台
  6
CONTINUOUS
 62
     6
100
AcDbLine
 10
1275.0
 20
1616.0
 30
0.0
 11
1275.0
 21
1584.0
 31
0.0
  0
LINE
  5
125
100
AcDbEntity
  8
化粧台
  6
CONTINUOUS
 62
     2
100
AcDbLine
 10
1275.0
 20
1584.0
 30
0.0
 11
1275.0
 21
1441.0
 31
0.0
  0
LINE
  5
126
100
AcDbEntity
  8
化粧台
  6
CONTINUOUS
 62
     6
100
AcDbLine
 10
1275.0
 20
1437.0
 30
0.0
 11
1275.0
 21
1405.0
 31
0.0
  0
LINE
  5
127
100
AcDbEntity
  8
化粧台
  6
CONTINUOUS
 62
     2
100
AcDbLine
 10
1275.0
 20
1405.0
 30
0.0
 11
1275.0
 21
1031.0
 31
0.0
  0
LINE
  5
128
100
AcDbEntity
  8
化粧台
  6
CONTINUOUS
 62
     6
100
AcDbLine
 10
535.0
 20
1616.0
 30
0.0
 11
535.0
 21
1584.0
 31
0.0
  0
LINE
  5
129
100
AcDbEntity
  8
化粧台
  6
CONTINUOUS
 62
     2
100
AcDbLine
 10
535.0
 20
1584.0
 30
0.0
 11
535.0
 21
1441.0
 31
0.0
  0
LINE
  5
12A
100
AcDbEntity
  8
化粧台
  6
CONTINUOUS
 62
     6
100
AcDbLine
 10
535.0
 20
1437.0
 30
0.0
 11
535.0
 21
1405.0
 31
0.0
  0
LINE
  5
12B
100
AcDbEntity
  8
化粧台
  6
CONTINUOUS
 62
     2
100
AcDbLine
 10
535.0
 20
1405.0
 30
0.0
 11
535.0
 21
1031.0
 31
0.0
  0
LINE
  5
12C
100
AcDbEntity
  8
化粧台
  6
CONTINUOUS
 62
     2
100
AcDbLine
 10
562.0
 20
941.0
 30
0.0
 11
562.0
 21
1031.0
 31
0.0
  0
LINE
  5
12D
100
AcDbEntity
  8
化粧台
  6
CONTINUOUS
 62
     2
100
AcDbLine
 10
1248.0
 20
941.0
 30
0.0
 11
1248.0
 21
1031.0
 31
0.0
  0
LINE
  5
12E
100
AcDbEntity
  8
化粧台
  6
CONTINUOUS
 62
     2
100
AcDbLine
 10
680.283477
 20
1798.340358
 30
0.0
 11
736.0
 21
1640.0
 31
0.0
  0
LINE
  5
12F
100
AcDbEntity
  8
化粧台
  6
CONTINUOUS
 62
     2
100
AcDbLine
 10
1074.0
 20
1640.0
 30
0.0
 11
1129.716523
 21
1798.340358
 31
0.0
  0
LINE
  5
130
100
AcDbEntity
  8
化粧台
  6
CONTINUOUS
 62
     2
100
AcDbLine
 10
736.0
 20
1640.0
 30
0.0
 11
1074.0
 21
1640.0
 31
0.0
  0
ARC
  5
131
100
AcDbEntity
  8
化粧台
  6
CONTINUOUS
 62
     2
100
AcDbCircle
 10
685.0
 20
1800.0
 30
0.0
 40
5.0
100
AcDbArc
 50
92.603905
 51
199.38586
  0
ARC
  5
132
100
AcDbEntity
  8
化粧台
  6
CONTINUOUS
 62
     2
100
AcDbCircle
 10
1125.0
 20
1800.0
 30
0.0
 40
5.0
100
AcDbArc
 50
340.61414
 51
87.396095
  0
ARC
  5
133
100
AcDbEntity
  8
化粧台
  6
CONTINUOUS
 62
     2
100
AcDbCircle
 10
905.0
 20
6637.5
 30
0.0
 40
4837.5
100
AcDbArc
 50
267.455315
 51
272.544685
  0
LINE
  5
134
100
AcDbEntity
  8
化粧台
  6
CONTINUOUS
 62
     6
100
AcDbLine
 10
806.643506
 20
1801.0
 30
0.0
 11
1003.356494
 21
1801.0
 31
0.0
  0
LINE
  5
135
100
AcDbEntity
  8
化粧台
  6
CONTINUOUS
 62
     2
100
AcDbLine
 10
1129.15
 20
916.5
 30
0.0
 11
1160.85
 21
916.5
 31
0.0
  0
LINE
  5
136
100
AcDbEntity
  8
化粧台
  6
CONTINUOUS
 62
     2
100
AcDbLine
 10
1129.15
 20
941.0
 30
0.0
 11
1129.15
 21
916.5
 31
0.0
  0
LINE
  5
137
100
AcDbEntity
  8
化粧台
  6
CONTINUOUS
 62
     2
100
AcDbLine
 10
1160.85
 20
916.5
 30
0.0
 11
1160.85
 21
941.0
 31
0.0
  0
ARC
  5
138
100
AcDbEntity
  8
化粧台
  6
EXLTYPE2
 62
     6
100
AcDbCircle
 10
750.188889
 20
1575.0
 30
0.0
 40
174.511111
100
AcDbArc
 50
351.763621
 51
8.236379
  0
LINE
  5
139
100
AcDbEntity
  8
化粧台
  6
EXLTYPE2
 62
     6
100
AcDbLine
 10
922.9
 20
1550.0
 30
0.0
 11
920.8
 21
1547.9
 31
0.0
  0
ARC
  5
13A
100
AcDbEntity
  8
化粧台
  6
EXLTYPE2
 62
     6
100
AcDbCircle
 10
1059.811111
 20
1575.0
 30
0.0
 40
174.511111
100
AcDbArc
 50
171.763621
 51
188.236379
  0
LINE
  5
13B
100
AcDbEntity
  8
化粧台
  6
EXLTYPE2
 62
     6
100
AcDbLine
 10
887.1
 20
1550.0
 30
0.0
 11
889.2
 21
1547.9
 31
0.0
  0
LINE
  5
13C
100
AcDbEntity
  8
化粧台
  6
EXLTYPE2
 62
     6
100
AcDbLine
 10
878.75
 20
1620.5
 30
0.0
 11
931.25
 21
1620.5
 31
0.0
  0
ARC
  5
13D
100
AcDbEntity
  8
化粧台
  6
EXLTYPE2
 62
     6
100
AcDbCircle
 10
881.75
 20
1604.5
 30
0.0
 40
3.0
100
AcDbArc
 50
180.0
 51
270.0
  0
ARC
  5
13E
100
AcDbEntity
  8
化粧台
  6
EXLTYPE2
 62
     6
100
AcDbCircle
 10
928.25
 20
1604.5
 30
0.0
 40
3.0
100
AcDbArc
 50
270.0
 51
0.0
  0
LINE
  5
13F
100
AcDbEntity
  8
化粧台
  6
EXLTYPE2
 62
     6
100
AcDbLine
 10
931.25
 20
1620.5
 30
0.0
 11
931.25
 21
1604.5
 31
0.0
  0
LINE
  5
140
100
AcDbEntity
  8
化粧台
  6
EXLTYPE2
 62
     6
100
AcDbLine
 10
881.75
 20
1601.5
 30
0.0
 11
928.25
 21
1601.5
 31
0.0
  0
LINE
  5
141
100
AcDbEntity
  8
化粧台
  6
EXLTYPE2
 62
     6
100
AcDbLine
 10
878.75
 20
1620.5
 30
0.0
 11
878.75
 21
1604.5
 31
0.0
  0
LINE
  5
142
100
AcDbEntity
  8
化粧台
  6
EXLTYPE2
 62
     6
100
AcDbLine
 10
887.1
 20
1600.0
 30
0.0
 11
887.1
 21
1601.5
 31
0.0
  0
LINE
  5
143
100
AcDbEntity
  8
化粧台
  6
EXLTYPE2
 62
     6
100
AcDbLine
 10
922.9
 20
1600.0
 30
0.0
 11
922.9
 21
1601.5
 31
0.0
  0
LINE
  5
144
100
AcDbEntity
  8
化粧台
  6
EXLTYPE2
 62
     6
100
AcDbLine
 10
876.7
 20
1635.7
 30
0.0
 11
933.3
 21
1635.7
 31
0.0
  0
LINE
  5
145
100
AcDbEntity
  8
化粧台
  6
EXLTYPE2
 62
     6
100
AcDbLine
 10
879.5
 20
1635.7
 30
0.0
 11
879.5
 21
1627.9
 31
0.0
  0
LINE
  5
146
100
AcDbEntity
  8
化粧台
  6
EXLTYPE2
 62
     6
100
AcDbLine
 10
930.5
 20
1635.7
 30
0.0
 11
930.5
 21
1627.9
 31
0.0
  0
LINE
  5
147
100
AcDbEntity
  8
化粧台
  6
EXLTYPE2
 62
     6
100
AcDbLine
 10
879.5
 20
1627.9
 30
0.0
 11
930.5
 21
1627.9
 31
0.0
  0
LINE
  5
148
100
AcDbEntity
  8
化粧台
  6
EXLTYPE2
 62
     6
100
AcDbLine
 10
881.5
 20
1627.9
 30
0.0
 11
881.5
 21
1620.5
 31
0.0
  0
LINE
  5
149
100
AcDbEntity
  8
化粧台
  6
EXLTYPE2
 62
     6
100
AcDbLine
 10
928.5
 20
1627.9
 30
0.0
 11
928.5
 21
1620.5
 31
0.0
  0
LINE
  5
14A
100
AcDbEntity
  8
化粧台
  6
EXLTYPE2
 62
     6
100
AcDbLine
 10
881.620795
 20
1635.7
 30
0.0
 11
881.620795
 21
1627.9
 31
0.0
  0
LINE
  5
14B
100
AcDbEntity
  8
化粧台
  6
EXLTYPE2
 62
     6
100
AcDbLine
 10
902.879205
 20
1635.7
 30
0.0
 11
902.879205
 21
1627.9
 31
0.0
  0
LINE
  5
14C
100
AcDbEntity
  8
化粧台
  6
EXLTYPE2
 62
     6
100
AcDbLine
 10
907.120795
 20
1635.7
 30
0.0
 11
907.120795
 21
1627.9
 31
0.0
  0
LINE
  5
14D
100
AcDbEntity
  8
化粧台
  6
EXLTYPE2
 62
     6
100
AcDbLine
 10
928.379205
 20
1635.7
 30
0.0
 11
928.379205
 21
1627.9
 31
0.0
  0
LINE
  5
14E
100
AcDbEntity
  8
化粧台
  6
EXLTYPE2
 62
     6
100
AcDbLine
 10
893.328204
 20
1620.5
 30
0.0
 11
893.328204
 21
1604.5
 31
0.0
  0
LINE
  5
14F
100
AcDbEntity
  8
化粧台
  6
EXLTYPE2
 62
     6
100
AcDbLine
 10
895.256412
 20
1620.5
 30
0.0
 11
895.256412
 21
1604.5
 31
0.0
  0
LINE
  5
150
100
AcDbEntity
  8
化粧台
  6
EXLTYPE2
 62
     6
100
AcDbLine
 10
914.743588
 20
1620.5
 30
0.0
 11
914.743588
 21
1604.5
 31
0.0
  0
LINE
  5
151
100
AcDbEntity
  8
化粧台
  6
EXLTYPE2
 62
     6
100
AcDbLine
 10
916.671796
 20
1620.5
 30
0.0
 11
916.671796
 21
1604.5
 31
0.0
  0
LINE
  5
152
100
AcDbEntity
  8
化粧台
  6
EXLTYPE2
 62
     6
100
AcDbLine
 10
887.1
 20
1600.0
 30
0.0
 11
922.9
 21
1600.0
 31
0.0
  0
LINE
  5
153
100
AcDbEntity
  8
化粧台
  6
EXLTYPE2
 62
     6
100
AcDbLine
 10
887.1
 20
1550.0
 30
0.0
 11
922.9
 21
1550.0
 31
0.0
  0
LINE
  5
154
100
AcDbEntity
  8
化粧台
  6
EXLTYPE2
 62
     6
100
AcDbLine
 10
889.2
 20
1547.9
 30
0.0
 11
920.8
 21
1547.9
 31
0.0
  0
LINE
  5
155
100
AcDbEntity
  8
化粧台
  6
EXLTYPE2
 62
     6
100
AcDbLine
 10
933.3
 20
1640.0
 30
0.0
 11
933.3
 21
1635.7
 31
0.0
  0
LINE
  5
156
100
AcDbEntity
  8
化粧台
  6
EXLTYPE2
 62
     6
100
AcDbLine
 10
876.7
 20
1640.0
 30
0.0
 11
876.7
 21
1635.7
 31
0.0
  0
LINE
  5
157
100
AcDbEntity
  8
化粧台
  6
EXLTYPE2
 62
     6
100
AcDbLine
 10
882.2
 20
1516.0
 30
0.0
 11
882.2
 21
1498.2
 31
0.0
  0
LINE
  5
158
100
AcDbEntity
  8
化粧台
  6
EXLTYPE2
 62
     6
100
AcDbLine
 10
927.8
 20
1516.0
 30
0.0
 11
927.8
 21
1498.2
 31
0.0
  0
LINE
  5
159
100
AcDbEntity
  8
化粧台
  6
EXLTYPE2
 62
     6
100
AcDbLine
 10
882.2
 20
1516.0
 30
0.0
 11
927.8
 21
1516.0
 31
0.0
  0
LINE
  5
15A
100
AcDbEntity
  8
化粧台
  6
EXLTYPE2
 62
     6
100
AcDbLine
 10
926.643357
 20
1514.0
 30
0.0
 11
926.643357
 21
1498.2
 31
0.0
  0
LINE
  5
15B
100
AcDbEntity
  8
化粧台
  6
EXLTYPE2
 62
     6
100
AcDbLine
 10
883.356643
 20
1514.0
 30
0.0
 11
883.356643
 21
1498.2
 31
0.0
  0
LINE
  5
15C
100
AcDbEntity
  8
化粧台
  6
EXLTYPE2
 62
     6
100
AcDbLine
 10
915.600712
 20
1514.0
 30
0.0
 11
915.600712
 21
1498.2
 31
0.0
  0
LINE
  5
15D
100
AcDbEntity
  8
化粧台
  6
EXLTYPE2
 62
     6
100
AcDbLine
 10
912.808329
 20
1514.0
 30
0.0
 11
912.808329
 21
1498.2
 31
0.0
  0
LINE
  5
15E
100
AcDbEntity
  8
化粧台
  6
EXLTYPE2
 62
     6
100
AcDbLine
 10
897.191671
 20
1514.0
 30
0.0
 11
897.191671
 21
1498.2
 31
0.0
  0
LINE
  5
15F
100
AcDbEntity
  8
化粧台
  6
EXLTYPE2
 62
     6
100
AcDbLine
 10
894.399288
 20
1514.0
 30
0.0
 11
894.399288
 21
1498.2
 31
0.0
  0
LINE
  5
160
100
AcDbEntity
  8
化粧台
  6
EXLTYPE2
 62
     6
100
AcDbLine
 10
889.2
 20
1547.9
 30
0.0
 11
889.2
 21
1516.0
 31
0.0
  0
LINE
  5
161
100
AcDbEntity
  8
化粧台
  6
EXLTYPE2
 62
     6
100
AcDbLine
 10
920.8
 20
1547.9
 30
0.0
 11
920.8
 21
1516.0
 31
0.0
  0
ARC
  5
162
100
AcDbEntity
  8
化粧台
  6
EXLTYPE2
 62
     6
100
AcDbCircle
 10
1061.5
 20
1520.469883
 30
0.0
 40
200.0
100
AcDbArc
 50
155.678467
 51
180.0
  0
ARC
  5
163
100
AcDbEntity
  8
化粧台
  6
EXLTYPE2
 62
     6
100
AcDbCircle
 10
1061.5
 20
1520.469883
 30
0.0
 40
213.0
100
AcDbArc
 50
148.700139
 51
180.0
  0
ARC
  5
164
100
AcDbEntity
  8
化粧台
  6
EXLTYPE2
 62
     6
100
AcDbCircle
 10
748.5
 20
1520.469883
 30
0.0
 40
200.0
100
AcDbArc
 50
0.0
 51
24.321533
  0
ARC
  5
165
100
AcDbEntity
  8
化粧台
  6
EXLTYPE2
 62
     6
100
AcDbCircle
 10
748.5
 20
1520.469883
 30
0.0
 40
213.0
100
AcDbArc
 50
0.0
 51
31.299861
  0
ARC
  5
166
100
AcDbEntity
  8
化粧台
  6
EXLTYPE2
 62
     6
100
AcDbCircle
 10
1039.0
 20
1445.5
 30
0.0
 40
32.0
100
AcDbArc
 50
0.0
 51
90.0
  0
LINE
  5
167
100
AcDbEntity
  8
化粧台
  6
EXLTYPE2
 62
     6
100
AcDbLine
 10
1039.0
 20
1477.5
 30
0.0
 11
959.5
 21
1477.5
 31
0.0
  0
LINE
  5
168
100
AcDbEntity
  8
化粧台
  6
EXLTYPE2
 62
     6
100
AcDbLine
 10
1039.0
 20
1445.5
 30
0.0
 11
959.5
 21
1445.5
 31
0.0
  0
LINE
  5
169
100
AcDbEntity
  8
化粧台
  6
EXLTYPE2
 62
     6
100
AcDbLine
 10
1036.5
 20
1396.5
 30
0.0
 11
1036.5
 21
1361.5
 31
0.0
  0
LINE
  5
16A
100
AcDbEntity
  8
化粧台
  6
EXLTYPE2
 62
     6
100
AcDbLine
 10
1073.5
 20
1396.5
 30
0.0
 11
1073.5
 21
1361.5
 31
0.0
  0
LINE
  5
16B
100
AcDbEntity
  8
化粧台
  6
EXLTYPE2
 62
     6
100
AcDbLine
 10
1039.15
 20
1358.85
 30
0.0
 11
1039.15
 21
1321.093255
 31
0.0
  0
LINE
  5
16C
100
AcDbEntity
  8
化粧台
  6
EXLTYPE2
 62
     6
100
AcDbLine
 10
1070.85
 20
1358.85
 30
0.0
 11
1070.85
 21
1318.5
 31
0.0
  0
LINE
  5
16D
100
AcDbEntity
  8
化粧台
  6
EXLTYPE2
 62
     6
100
AcDbLine
 10
1070.85
 20
1323.5
 30
0.0
 11
1086.178125
 21
1323.5
 31
0.0
  0
LINE
  5
16E
100
AcDbEntity
  8
化粧台
  6
EXLTYPE2
 62
     6
100
AcDbLine
 10
1100.85625
 20
1348.5
 30
0.0
 11
1100.85625
 21
1318.5
 31
0.0
  0
LINE
  5
16F
100
AcDbEntity
  8
化粧台
  6
EXLTYPE2
 62
     6
100
AcDbLine
 10
1051.178125
 20
1293.525322
 30
0.0
 11
1051.178125
 21
1289.0
 31
0.0
  0
LINE
  5
170
100
AcDbEntity
  8
化粧台
  6
EXLTYPE2
 62
     6
100
AcDbLine
 10
1086.178125
 20
1323.5
 30
0.0
 11
1086.178125
 21
1289.0
 31
0.0
  0
LINE
  5
171
100
AcDbEntity
  8
化粧台
  6
EXLTYPE2
 62
     6
100
AcDbLine
 10
1073.5
 20
1361.5
 30
0.0
 11
1070.85
 21
1358.85
 31
0.0
  0
LINE
  5
172
100
AcDbEntity
  8
化粧台
  6
EXLTYPE2
 62
     6
100
AcDbLine
 10
1036.5
 20
1361.5
 30
0.0
 11
1039.15
 21
1358.85
 31
0.0
  0
LINE
  5
173
100
AcDbEntity
  8
化粧台
  6
EXLTYPE2
 62
     6
100
AcDbLine
 10
1086.75625
 20
1318.5
 30
0.0
 11
1100.85625
 21
1318.5
 31
0.0
  0
LINE
  5
174
100
AcDbEntity
  8
化粧台
  6
EXLTYPE2
 62
     6
100
AcDbLine
 10
1031.6
 20
1396.5
 30
0.0
 11
1078.4
 21
1396.5
 31
0.0
  0
LINE
  5
175
100
AcDbEntity
  8
化粧台
  6
EXLTYPE2
 62
     6
100
AcDbLine
 10
1033.6
 20
1414.5
 30
0.0
 11
1076.4
 21
1414.5
 31
0.0
  0
LINE
  5
176
100
AcDbEntity
  8
化粧台
  6
EXLTYPE2
 62
     6
100
AcDbLine
 10
1031.6
 20
1412.5
 30
0.0
 11
1031.6
 21
1396.5
 31
0.0
  0
LINE
  5
177
100
AcDbEntity
  8
化粧台
  6
EXLTYPE2
 62
     6
100
AcDbLine
 10
1078.4
 20
1412.5
 30
0.0
 11
1078.4
 21
1396.5
 31
0.0
  0
ARC
  5
178
100
AcDbEntity
  8
化粧台
  6
EXLTYPE2
 62
     6
100
AcDbCircle
 10
1033.6
 20
1412.5
 30
0.0
 40
2.0
100
AcDbArc
 50
90.0
 51
180.0
  0
ARC
  5
179
100
AcDbEntity
  8
化粧台
  6
EXLTYPE2
 62
     6
100
AcDbCircle
 10
1076.4
 20
1412.5
 30
0.0
 40
2.0
100
AcDbArc
 50
0.0
 51
90.0
  0
LINE
  5
17A
100
AcDbEntity
  8
化粧台
  6
EXLTYPE2
 62
     6
100
AcDbLine
 10
1070.85
 20
1348.5
 30
0.0
 11
1105.75625
 21
1348.5
 31
0.0
  0
LINE
  5
17B
100
AcDbEntity
  8
化粧台
  6
EXLTYPE2
 62
     6
100
AcDbLine
 10
1073.5
 20
1366.5
 30
0.0
 11
1103.75625
 21
1366.5
 31
0.0
  0
LINE
  5
17C
100
AcDbEntity
  8
化粧台
  6
EXLTYPE2
 62
     6
100
AcDbLine
 10
1105.75625
 20
1364.5
 30
0.0
 11
1105.75625
 21
1348.5
 31
0.0
  0
ARC
  5
17D
100
AcDbEntity
  8
化粧台
  6
EXLTYPE2
 62
     6
100
AcDbCircle
 10
1103.75625
 20
1364.5
 30
0.0
 40
2.0
100
AcDbArc
 50
0.0
 51
90.0
  0
LINE
  5
17E
100
AcDbEntity
  8
化粧台
  6
EXLTYPE2
 62
     6
100
AcDbLine
 10
1045.678125
 20
1289.0
 30
0.0
 11
1091.678125
 21
1289.0
 31
0.0
  0
LINE
  5
17F
100
AcDbEntity
  8
化粧台
  6
EXLTYPE2
 62
     6
100
AcDbLine
 10
1047.178125
 20
1272.5
 30
0.0
 11
1090.178125
 21
1272.5
 31
0.0
  0
LINE
  5
180
100
AcDbEntity
  8
化粧台
  6
EXLTYPE2
 62
     6
100
AcDbLine
 10
1091.678125
 20
1274.0
 30
0.0
 11
1091.678125
 21
1289.0
 31
0.0
  0
LINE
  5
181
100
AcDbEntity
  8
化粧台
  6
EXLTYPE2
 62
     6
100
AcDbLine
 10
1045.678125
 20
1274.0
 30
0.0
 11
1045.678125
 21
1289.0
 31
0.0
  0
ARC
  5
182
100
AcDbEntity
  8
化粧台
  6
EXLTYPE2
 62
     6
100
AcDbCircle
 10
1047.178125
 20
1274.0
 30
0.0
 40
1.5
100
AcDbArc
 50
180.0
 51
270.0
  0
ARC
  5
183
100
AcDbEntity
  8
化粧台
  6
EXLTYPE2
 62
     6
100
AcDbCircle
 10
1090.178125
 20
1274.0
 30
0.0
 40
1.5
100
AcDbArc
 50
270.0
 51
0.0
  0
LINE
  5
184
100
AcDbEntity
  8
化粧台
  6
EXLTYPE2
 62
     6
100
AcDbLine
 10
1039.15
 20
1358.85
 30
0.0
 11
1070.85
 21
1358.85
 31
0.0
  0
ARC
  5
185
100
AcDbEntity
  8
化粧台
  6
EXLTYPE2
 62
     6
100
AcDbCircle
 10
1079.15
 20
1321.093255
 30
0.0
 40
40.0
100
AcDbArc
 50
180.0
 51
216.143789
  0
ARC
  5
186
100
AcDbEntity
  8
化粧台
  6
EXLTYPE2
 62
     6
100
AcDbCircle
 10
1058.961516
 20
1306.347912
 30
0.0
 40
15.0
100
AcDbArc
 50
216.143789
 51
310.373975
  0
ARC
  5
187
100
AcDbEntity
  8
化粧台
  6
EXLTYPE2
 62
     6
100
AcDbCircle
 10
1056.595911
 20
1319.423829
 30
0.0
 40
40.0
100
AcDbArc
 50
317.693553
 51
358.676594
  0
LINE
  5
188
100
AcDbEntity
  8
化粧台
  6
EXLTYPE2
 62
     6
100
AcDbLine
 10
1098.20625
 20
1368.328125
 30
0.0
 11
1098.20625
 21
1366.5
 31
0.0
  0
ARC
  5
189
100
AcDbEntity
  8
化粧台
  6
EXLTYPE2
 62
     6
100
AcDbCircle
 10
1113.678125
 20
1368.328125
 30
0.0
 40
15.471875
100
AcDbArc
 50
0.0
 51
180.0
  0
ARC
  5
18A
100
AcDbEntity
  8
化粧台
  6
EXLTYPE2
 62
     6
100
AcDbCircle
 10
1113.678125
 20
1368.328125
 30
0.0
 40
47.171875
100
AcDbArc
 50
0.0
 51
138.405648
  0
LINE
  5
18B
100
AcDbEntity
  8
化粧台
  6
EXLTYPE2
 62
     6
100
AcDbLine
 10
1037.870011
 20
1412.5
 30
0.0
 11
1037.870011
 21
1396.5
 31
0.0
  0
LINE
  5
18C
100
AcDbEntity
  8
化粧台
  6
EXLTYPE2
 62
     6
100
AcDbLine
 10
1048.729989
 20
1412.5
 30
0.0
 11
1048.729989
 21
1396.5
 31
0.0
  0
LINE
  5
18D
100
AcDbEntity
  8
化粧台
  6
EXLTYPE2
 62
     6
100
AcDbLine
 10
1061.270011
 20
1412.5
 30
0.0
 11
1061.270011
 21
1396.5
 31
0.0
  0
LINE
  5
18E
100
AcDbEntity
  8
化粧台
  6
EXLTYPE2
 62
     6
100
AcDbLine
 10
1072.129989
 20
1412.5
 30
0.0
 11
1072.129989
 21
1396.5
 31
0.0
  0
LINE
  5
18F
100
AcDbEntity
  8
化粧台
  6
EXLTYPE2
 62
     6
100
AcDbLine
 10
1076.086239
 20
1364.5
 30
0.0
 11
1076.086239
 21
1348.5
 31
0.0
  0
LINE
  5
190
100
AcDbEntity
  8
化粧台
  6
EXLTYPE2
 62
     6
100
AcDbLine
 10
1088.626261
 20
1364.5
 30
0.0
 11
1088.626261
 21
1348.5
 31
0.0
  0
LINE
  5
191
100
AcDbEntity
  8
化粧台
  6
EXLTYPE2
 62
     6
100
AcDbLine
 10
1099.486239
 20
1364.5
 30
0.0
 11
1099.486239
 21
1348.5
 31
0.0
  0
LINE
  5
192
100
AcDbEntity
  8
化粧台
  6
EXLTYPE2
 62
     6
100
AcDbLine
 10
1047.824466
 20
1272.5
 30
0.0
 11
1047.824466
 21
1289.0
 31
0.0
  0
LINE
  5
193
100
AcDbEntity
  8
化粧台
  6
EXLTYPE2
 62
     6
100
AcDbLine
 10
1089.531784
 20
1272.5
 30
0.0
 11
1089.531784
 21
1289.0
 31
0.0
  0
LINE
  5
194
100
AcDbEntity
  8
化粧台
  6
EXLTYPE2
 62
     6
100
AcDbLine
 10
1060.394586
 20
1274.0
 30
0.0
 11
1060.394586
 21
1289.0
 31
0.0
  0
LINE
  5
195
100
AcDbEntity
  8
化粧台
  6
EXLTYPE2
 62
     6
100
AcDbLine
 10
1076.961664
 20
1274.0
 30
0.0
 11
1076.961664
 21
1289.0
 31
0.0
  0
LINE
  5
196
100
AcDbEntity
  8
化粧台
  6
EXLTYPE2
 62
     6
100
AcDbLine
 10
1055.928125
 20
1289.0
 30
0.0
 11
1055.928125
 21
1274.0
 31
0.0
  0
LINE
  5
197
100
AcDbEntity
  8
化粧台
  6
EXLTYPE2
 62
     6
100
AcDbLine
 10
1081.428125
 20
1289.0
 30
0.0
 11
1081.428125
 21
1274.0
 31
0.0
  0
LINE
  5
198
100
AcDbEntity
  8
化粧台
  6
EXLTYPE2
 62
     6
100
AcDbLine
 10
1039.0
 20
1414.5
 30
0.0
 11
1039.0
 21
1445.5
 31
0.0
  0
LINE
  5
199
100
AcDbEntity
  8
化粧台
  6
EXLTYPE2
 62
     6
100
AcDbLine
 10
1071.0
 20
1414.5
 30
0.0
 11
1071.0
 21
1445.5
 31
0.0
  0
LINE
  5
19A
100
AcDbEntity
  8
化粧台
  6
EXLTYPE2
 62
     6
100
AcDbLine
 10
1122.2
 20
1003.2
 30
0.0
 11
1167.8
 21
1003.2
 31
0.0
  0
LINE
  5
19B
100
AcDbEntity
  8
化粧台
  6
EXLTYPE2
 62
     6
100
AcDbLine
 10
1122.2
 20
1021.0
 30
0.0
 11
1167.8
 21
1021.0
 31
0.0
  0
LINE
  5
19C
100
AcDbEntity
  8
化粧台
  6
EXLTYPE2
 62
     6
100
AcDbLine
 10
1167.8
 20
1021.0
 30
0.0
 11
1167.8
 21
1003.2
 31
0.0
  0
LINE
  5
19D
100
AcDbEntity
  8
化粧台
  6
EXLTYPE2
 62
     6
100
AcDbLine
 10
1122.2
 20
1021.0
 30
0.0
 11
1122.2
 21
1003.2
 31
0.0
  0
LINE
  5
19E
100
AcDbEntity
  8
化粧台
  6
EXLTYPE2
 62
     6
100
AcDbLine
 10
1111.5
 20
963.0
 30
0.0
 11
1178.5
 21
963.0
 31
0.0
  0
LINE
  5
19F
100
AcDbEntity
  8
化粧台
  6
EXLTYPE2
 62
     6
100
AcDbLine
 10
1124.3
 20
1003.2
 30
0.0
 11
1124.3
 21
1001.0
 31
0.0
  0
LINE
  5
1A0
100
AcDbEntity
  8
化粧台
  6
EXLTYPE2
 62
     6
100
AcDbLine
 10
1165.7
 20
1003.2
 30
0.0
 11
1165.7
 21
1001.0
 31
0.0
  0
LINE
  5
1A1
100
AcDbEntity
  8
化粧台
  6
EXLTYPE2
 62
     6
100
AcDbLine
 10
1178.5
 20
983.0
 30
0.0
 11
1178.5
 21
963.0
 31
0.0
  0
ARC
  5
1A2
100
AcDbEntity
  8
化粧台
  6
EXLTYPE2
 62
     6
100
AcDbCircle
 10
1175.5
 20
983.0
 30
0.0
 40
3.0
100
AcDbArc
 50
0.0
 51
90.0
  0
LINE
  5
1A3
100
AcDbEntity
  8
化粧台
  6
EXLTYPE2
 62
     6
100
AcDbLine
 10
1172.0
 20
998.0
 30
0.0
 11
1172.0
 21
986.0
 31
0.0
  0
ARC
  5
1A4
100
AcDbEntity
  8
化粧台
  6
EXLTYPE2
 62
     6
100
AcDbCircle
 10
1169.0
 20
998.0
 30
0.0
 40
3.0
100
AcDbArc
 50
0.0
 51
90.0
  0
LINE
  5
1A5
100
AcDbEntity
  8
化粧台
  6
EXLTYPE2
 62
     6
100
AcDbLine
 10
1118.0
 20
998.0
 30
0.0
 11
1118.0
 21
986.0
 31
0.0
  0
LINE
  5
1A6
100
AcDbEntity
  8
化粧台
  6
EXLTYPE2
 62
     6
100
AcDbLine
 10
1121.0
 20
1001.0
 30
0.0
 11
1169.0
 21
1001.0
 31
0.0
  0
ARC
  5
1A7
100
AcDbEntity
  8
化粧台
  6
EXLTYPE2
 62
     6
100
AcDbCircle
 10
1121.0
 20
998.0
 30
0.0
 40
3.0
100
AcDbArc
 50
90.0
 51
180.0
  0
LINE
  5
1A8
100
AcDbEntity
  8
化粧台
  6
EXLTYPE2
 62
     6
100
AcDbLine
 10
1111.5
 20
983.0
 30
0.0
 11
1111.5
 21
963.0
 31
0.0
  0
LINE
  5
1A9
100
AcDbEntity
  8
化粧台
  6
EXLTYPE2
 62
     6
100
AcDbLine
 10
1114.5
 20
986.0
 30
0.0
 11
1175.5
 21
986.0
 31
0.0
  0
ARC
  5
1AA
100
AcDbEntity
  8
化粧台
  6
EXLTYPE2
 62
     6
100
AcDbCircle
 10
1114.5
 20
983.0
 30
0.0
 40
3.0
100
AcDbArc
 50
90.0
 51
180.0
  0
LINE
  5
1AB
100
AcDbEntity
  8
化粧台
  6
EXLTYPE2
 62
     6
100
AcDbLine
 10
1134.399288
 20
1019.0
 30
0.0
 11
1134.399288
 21
1003.2
 31
0.0
  0
LINE
  5
1AC
100
AcDbEntity
  8
化粧台
  6
EXLTYPE2
 62
     6
100
AcDbLine
 10
1137.191671
 20
1019.0
 30
0.0
 11
1137.191671
 21
1003.2
 31
0.0
  0
LINE
  5
1AD
100
AcDbEntity
  8
化粧台
  6
EXLTYPE2
 62
     6
100
AcDbLine
 10
1152.808329
 20
1019.0
 30
0.0
 11
1152.808329
 21
1003.2
 31
0.0
  0
LINE
  5
1AE
100
AcDbEntity
  8
化粧台
  6
EXLTYPE2
 62
     6
100
AcDbLine
 10
1155.600712
 20
1019.0
 30
0.0
 11
1155.600712
 21
1003.2
 31
0.0
  0
LINE
  5
1AF
100
AcDbEntity
  8
化粧台
  6
EXLTYPE2
 62
     6
100
AcDbLine
 10
1123.356643
 20
1019.0
 30
0.0
 11
1123.356643
 21
1003.2
 31
0.0
  0
LINE
  5
1B0
100
AcDbEntity
  8
化粧台
  6
EXLTYPE2
 62
     6
100
AcDbLine
 10
1166.643357
 20
1019.0
 30
0.0
 11
1166.643357
 21
1003.2
 31
0.0
  0
LINE
  5
1B1
100
AcDbEntity
  8
化粧台
  6
EXLTYPE2
 62
     6
100
AcDbLine
 10
1129.15
 20
1368.328125
 30
0.0
 11
1129.15
 21
941.0
 31
0.0
  0
LINE
  5
1B2
100
AcDbEntity
  8
化粧台
  6
EXLTYPE2
 62
     6
100
AcDbLine
 10
1160.85
 20
941.0
 30
0.0
 11
1160.85
 21
1368.328125
 31
0.0
  0
ARC
  5
1B3
100
AcDbEntity
  8
化粧台
  6
EXLTYPE2
 62
     6
100
AcDbCircle
 10
939.0
 20
1495.5
 30
0.0
 40
15.0
100
AcDbArc
 50
180.0
 51
270.0
  0
LINE
  5
1B4
100
AcDbEntity
  8
化粧台
  6
EXLTYPE2
 62
     6
100
AcDbLine
 10
941.7
 20
1442.5
 30
0.0
 11
923.0
 21
1442.5
 31
0.0
  0
LINE
  5
1B5
100
AcDbEntity
  8
化粧台
  6
EXLTYPE2
 62
     6
100
AcDbLine
 10
886.0
 20
1479.5
 30
0.0
 11
886.0
 21
1498.2
 31
0.0
  0
LINE
  5
1B6
100
AcDbEntity
  8
化粧台
  6
EXLTYPE2
 62
     6
100
AcDbLine
 10
888.75
 20
1461.5
 30
0.0
 11
888.75
 21
1476.5
 31
0.0
  0
LINE
  5
1B7
100
AcDbEntity
  8
化粧台
  6
EXLTYPE2
 62
     6
100
AcDbLine
 10
905.0
 20
1445.25
 30
0.0
 11
920.0
 21
1445.25
 31
0.0
  0
ARC
  5
1B8
100
AcDbEntity
  8
化粧台
  6
EXLTYPE2
 62
     6
100
AcDbCircle
 10
905.0
 20
1461.5
 30
0.0
 40
16.25
100
AcDbArc
 50
180.0
 51
270.0
  0
LINE
  5
1B9
100
AcDbEntity
  8
化粧台
  6
EXLTYPE2
 62
     6
100
AcDbLine
 10
923.0
 20
1442.5
 30
0.0
 11
920.0
 21
1445.25
 31
0.0
  0
LINE
  5
1BA
100
AcDbEntity
  8
化粧台
  6
EXLTYPE2
 62
     6
100
AcDbLine
 10
886.0
 20
1479.5
 30
0.0
 11
888.75
 21
1476.5
 31
0.0
  0
LINE
  5
1BB
100
AcDbEntity
  8
化粧台
  6
EXLTYPE2
 62
     6
100
AcDbLine
 10
941.7
 20
1480.5
 30
0.0
 11
924.0
 21
1480.5
 31
0.0
  0
LINE
  5
1BC
100
AcDbEntity
  8
化粧台
  6
EXLTYPE2
 62
     6
100
AcDbLine
 10
924.0
 20
1480.5
 30
0.0
 11
924.0
 21
1498.2
 31
0.0
  0
LINE
  5
1BD
100
AcDbEntity
  8
化粧台
  6
EXLTYPE2
 62
     6
100
AcDbLine
 10
959.5
 20
1484.3
 30
0.0
 11
941.7
 21
1484.3
 31
0.0
  0
LINE
  5
1BE
100
AcDbEntity
  8
化粧台
  6
EXLTYPE2
 62
     6
100
AcDbLine
 10
959.5
 20
1438.7
 30
0.0
 11
941.7
 21
1438.7
 31
0.0
  0
LINE
  5
1BF
100
AcDbEntity
  8
化粧台
  6
EXLTYPE2
 62
     6
100
AcDbLine
 10
959.5
 20
1484.3
 30
0.0
 11
959.5
 21
1438.7
 31
0.0
  0
LINE
  5
1C0
100
AcDbEntity
  8
化粧台
  6
EXLTYPE2
 62
     6
100
AcDbLine
 10
941.7
 20
1484.3
 30
0.0
 11
941.7
 21
1438.7
 31
0.0
  0
LINE
  5
1C1
100
AcDbEntity
  8
化粧台
  6
EXLTYPE2
 62
     6
100
AcDbLine
 10
882.2
 20
1498.2
 30
0.0
 11
927.8
 21
1498.2
 31
0.0
  0
LINE
  5
1C2
100
AcDbEntity
  8
化粧台
  6
EXLTYPE2
 62
     6
100
AcDbLine
 10
957.5
 20
1439.856643
 30
0.0
 11
941.7
 21
1439.856643
 31
0.0
  0
LINE
  5
1C3
100
AcDbEntity
  8
化粧台
  6
EXLTYPE2
 62
     6
100
AcDbLine
 10
957.5
 20
1483.143357
 30
0.0
 11
941.7
 21
1483.143357
 31
0.0
  0
LINE
  5
1C4
100
AcDbEntity
  8
化粧台
  6
EXLTYPE2
 62
     6
100
AcDbLine
 10
957.5
 20
1450.899288
 30
0.0
 11
941.7
 21
1450.899288
 31
0.0
  0
LINE
  5
1C5
100
AcDbEntity
  8
化粧台
  6
EXLTYPE2
 62
     6
100
AcDbLine
 10
957.5
 20
1453.691671
 30
0.0
 11
941.7
 21
1453.691671
 31
0.0
  0
LINE
  5
1C6
100
AcDbEntity
  8
化粧台
  6
EXLTYPE2
 62
     6
100
AcDbLine
 10
957.5
 20
1469.308329
 30
0.0
 11
941.7
 21
1469.308329
 31
0.0
  0
LINE
  5
1C7
100
AcDbEntity
  8
化粧台
  6
EXLTYPE2
 62
     6
100
AcDbLine
 10
957.5
 20
1472.100712
 30
0.0
 11
941.7
 21
1472.100712
 31
0.0
  0
LINE
  5
1C8
100
AcDbEntity
  8
化粧台
  6
EXLTYPE2
 62
     6
100
AcDbLine
 10
923.0
 20
1442.5
 30
0.0
 11
923.0
 21
1479.5
 31
0.0
  0
LINE
  5
1C9
100
AcDbEntity
  8
化粧台
  6
EXLTYPE2
 62
     6
100
AcDbLine
 10
920.0
 20
1445.25
 30
0.0
 11
920.0
 21
1476.5
 31
0.0
  0
LINE
  5
1CA
100
AcDbEntity
  8
化粧台
  6
EXLTYPE2
 62
     6
100
AcDbLine
 10
905.0
 20
1461.5
 30
0.0
 11
924.0
 21
1480.5
 31
0.0
  0
LINE
  5
1CB
100
AcDbEntity
  8
化粧台
  6
EXLTYPE2
 62
     6
100
AcDbLine
 10
888.75
 20
1476.5
 30
0.0
 11
920.0
 21
1476.5
 31
0.0
  0
LINE
  5
1CC
100
AcDbEntity
  8
化粧台
  6
EXLTYPE2
 62
     6
100
AcDbLine
 10
886.0
 20
1479.5
 30
0.0
 11
923.0
 21
1479.5
 31
0.0
  0
LINE
  5
1CD
100
AcDbEntity
  8
化粧台
  6
CONTINUOUS
 62
     6
100
AcDbLine
 10
969.5
 20
933.0
 30
0.0
 11
990.5
 21
933.0
 31
0.0
  0
LINE
  5
1CE
100
AcDbEntity
  8
化粧台
  6
EXLTYPE3
 62
     6
100
AcDbLine
 10
980.0
 20
1151.0
 30
0.0
 11
980.0
 21
923.0
 31
0.0
  0
LINE
  5
1CF
100
AcDbEntity
  8
化粧台
  6
EXLTYPE4
 62
     6
100
AcDbLine
 10
990.5
 20
1141.0
 30
0.0
 11
990.5
 21
933.0
 31
0.0
  0
LINE
  5
1D0
100
AcDbEntity
  8
化粧台
  6
EXLTYPE4
 62
     6
100
AcDbLine
 10
969.5
 20
1141.0
 30
0.0
 11
969.5
 21
933.0
 31
0.0
  0
LINE
  5
1D1
100
AcDbEntity
  8
化粧台
  6
CONTINUOUS
 62
     6
100
AcDbLine
 10
840.5
 20
933.0
 30
0.0
 11
819.5
 21
933.0
 31
0.0
  0
LINE
  5
1D2
100
AcDbEntity
  8
化粧台
  6
EXLTYPE3
 62
     6
100
AcDbLine
 10
830.0
 20
1151.0
 30
0.0
 11
830.0
 21
923.0
 31
0.0
  0
LINE
  5
1D3
100
AcDbEntity
  8
化粧台
  6
EXLTYPE4
 62
     6
100
AcDbLine
 10
819.5
 20
1141.0
 30
0.0
 11
819.5
 21
933.0
 31
0.0
  0
LINE
  5
1D4
100
AcDbEntity
  8
化粧台
  6
EXLTYPE4
 62
     6
100
AcDbLine
 10
840.5
 20
1141.0
 30
0.0
 11
840.5
 21
933.0
 31
0.0
  0
LINE
  5
1D5
100
AcDbEntity
  8
化粧台
  6
EXLTYPE2
 62
     6
100
AcDbLine
 10
968.0
 20
1375.163691
 30
0.0
 11
968.0
 21
1386.836309
 31
0.0
  0
LINE
  5
1D6
100
AcDbEntity
  8
化粧台
  6
EXLTYPE2
 62
     6
100
AcDbLine
 10
966.554392
 20
1389.340176
 30
0.0
 11
956.445608
 21
1395.176485
 31
0.0
  0
LINE
  5
1D7
100
AcDbEntity
  8
化粧台
  6
EXLTYPE2
 62
     6
100
AcDbLine
 10
953.554392
 20
1395.176485
 30
0.0
 11
943.445608
 21
1389.340176
 31
0.0
  0
LINE
  5
1D8
100
AcDbEntity
  8
化粧台
  6
EXLTYPE2
 62
     6
100
AcDbLine
 10
942.0
 20
1386.836309
 30
0.0
 11
942.0
 21
1375.163691
 31
0.0
  0
LINE
  5
1D9
100
AcDbEntity
  8
化粧台
  6
EXLTYPE2
 62
     6
100
AcDbLine
 10
943.445608
 20
1372.659824
 30
0.0
 11
953.554392
 21
1366.823515
 31
0.0
  0
LINE
  5
1DA
100
AcDbEntity
  8
化粧台
  6
EXLTYPE2
 62
     6
100
AcDbLine
 10
956.445608
 20
1366.823515
 30
0.0
 11
966.554392
 21
1372.659824
 31
0.0
  0
ARC
  5
1DB
100
AcDbEntity
  8
化粧台
  6
EXLTYPE2
 62
     6
100
AcDbCircle
 10
955.0
 20
1381.0
 30
0.0
 40
14.25
100
AcDbArc
 50
264.177545
 51
275.822455
  0
ARC
  5
1DC
100
AcDbEntity
  8
化粧台
  6
EXLTYPE2
 62
     6
100
AcDbCircle
 10
955.0
 20
1381.0
 30
0.0
 40
14.25
100
AcDbArc
 50
324.177545
 51
335.822455
  0
ARC
  5
1DD
100
AcDbEntity
  8
化粧台
  6
EXLTYPE2
 62
     6
100
AcDbCircle
 10
955.0
 20
1381.0
 30
0.0
 40
14.25
100
AcDbArc
 50
24.177545
 51
35.822455
  0
ARC
  5
1DE
100
AcDbEntity
  8
化粧台
  6
EXLTYPE2
 62
     6
100
AcDbCircle
 10
955.0
 20
1381.0
 30
0.0
 40
14.25
100
AcDbArc
 50
84.177545
 51
95.822455
  0
ARC
  5
1DF
100
AcDbEntity
  8
化粧台
  6
EXLTYPE2
 62
     6
100
AcDbCircle
 10
955.0
 20
1381.0
 30
0.0
 40
14.25
100
AcDbArc
 50
144.177545
 51
155.822455
  0
ARC
  5
1E0
100
AcDbEntity
  8
化粧台
  6
EXLTYPE2
 62
     6
100
AcDbCircle
 10
955.0
 20
1381.0
 30
0.0
 40
14.25
100
AcDbArc
 50
204.177545
 51
215.822455
  0
CIRCLE
  5
1E1
100
AcDbEntity
  8
化粧台
  6
EXLTYPE2
 62
     6
100
AcDbCircle
 10
955.0
 20
1381.0
 30
0.0
 40
4.75
  0
CIRCLE
  5
1E2
100
AcDbEntity
  8
化粧台
  6
EXLTYPE2
 62
     6
100
AcDbCircle
 10
955.0
 20
1381.0
 30
0.0
 40
12.074349
  0
LINE
  5
1E3
100
AcDbEntity
  8
化粧台
  6
EXLTYPE2
 62
     6
100
AcDbLine
 10
965.5
 20
1403.7
 30
0.0
 11
965.5
 21
1389.948929
 31
0.0
  0
LINE
  5
1E4
100
AcDbEntity
  8
化粧台
  6
EXLTYPE2
 62
     6
100
AcDbLine
 10
944.5
 20
1403.7
 30
0.0
 11
944.5
 21
1389.948929
 31
0.0
  0
LINE
  5
1E5
100
AcDbEntity
  8
化粧台
  6
EXLTYPE2
 62
     6
100
AcDbLine
 10
944.030456
 20
1403.7
 30
0.0
 11
965.969544
 21
1403.7
 31
0.0
  0
LINE
  5
1E6
100
AcDbEntity
  8
化粧台
  6
EXLTYPE2
 62
     6
100
AcDbLine
 10
944.030456
 20
1415.7
 30
0.0
 11
965.969544
 21
1415.7
 31
0.0
  0
LINE
  5
1E7
100
AcDbEntity
  8
化粧台
  6
EXLTYPE2
 62
     6
100
AcDbLine
 10
943.5
 20
1414.792887
 30
0.0
 11
943.5
 21
1404.607113
 31
0.0
  0
LINE
  5
1E8
100
AcDbEntity
  8
化粧台
  6
EXLTYPE2
 62
     6
100
AcDbLine
 10
966.5
 20
1414.792887
 30
0.0
 11
966.5
 21
1404.607113
 31
0.0
  0
ARC
  5
1E9
100
AcDbEntity
  8
化粧台
  6
EXLTYPE2
 62
     6
100
AcDbCircle
 10
953.25
 20
1409.7
 30
0.0
 40
11.0
100
AcDbArc
 50
146.944269
 51
152.419801
  0
ARC
  5
1EA
100
AcDbEntity
  8
化粧台
  6
EXLTYPE2
 62
     6
100
AcDbCircle
 10
953.25
 20
1409.7
 30
0.0
 40
11.0
100
AcDbArc
 50
207.580199
 51
213.055731
  0
ARC
  5
1EB
100
AcDbEntity
  8
化粧台
  6
EXLTYPE2
 62
     6
100
AcDbCircle
 10
956.75
 20
1409.7
 30
0.0
 40
11.0
100
AcDbArc
 50
326.944269
 51
332.419801
  0
ARC
  5
1EC
100
AcDbEntity
  8
化粧台
  6
EXLTYPE2
 62
     6
100
AcDbCircle
 10
956.75
 20
1409.7
 30
0.0
 40
11.0
100
AcDbArc
 50
27.580199
 51
33.055731
  0
ELLIPSE
  5
1ED
100
AcDbEntity
  8
化粧台
  6
EXLTYPE2
 62
     6
100
AcDbEllipse
 10
949.249029
 20
1409.7
 30
0.0
 11
-0.0000000000000009
 21
-5.0928871968700005
 31
0.0
210
0.0
220
0.0
230
1.0
 40
0.93641
 41
0.0
 42
6.2831853071796004
  0
ELLIPSE
  5
1EE
100
AcDbEntity
  8
化粧台
  6
EXLTYPE2
 62
     6
100
AcDbEllipse
 10
960.750971
 20
1409.7
 30
0.0
 11
0.0000000000000003
 21
5.0928871968700005
 31
0.0
210
0.0
220
0.0
230
1.0
 40
0.93641
 41
0.0
 42
6.2831853071796004
  0
LINE
  5
1EF
100
AcDbEntity
  8
化粧台
  6
EXLTYPE2
 62
     6
100
AcDbLine
 10
868.0
 20
1375.163691
 30
0.0
 11
868.0
 21
1386.836309
 31
0.0
  0
LINE
  5
1F0
100
AcDbEntity
  8
化粧台
  6
EXLTYPE2
 62
     6
100
AcDbLine
 10
866.554392
 20
1389.340176
 30
0.0
 11
856.445608
 21
1395.176485
 31
0.0
  0
LINE
  5
1F1
100
AcDbEntity
  8
化粧台
  6
EXLTYPE2
 62
     6
100
AcDbLine
 10
853.554392
 20
1395.176485
 30
0.0
 11
843.445608
 21
1389.340176
 31
0.0
  0
LINE
  5
1F2
100
AcDbEntity
  8
化粧台
  6
EXLTYPE2
 62
     6
100
AcDbLine
 10
842.0
 20
1386.836309
 30
0.0
 11
842.0
 21
1375.163691
 31
0.0
  0
LINE
  5
1F3
100
AcDbEntity
  8
化粧台
  6
EXLTYPE2
 62
     6
100
AcDbLine
 10
843.445608
 20
1372.659824
 30
0.0
 11
853.554392
 21
1366.823515
 31
0.0
  0
LINE
  5
1F4
100
AcDbEntity
  8
化粧台
  6
EXLTYPE2
 62
     6
100
AcDbLine
 10
856.445608
 20
1366.823515
 30
0.0
 11
866.554392
 21
1372.659824
 31
0.0
  0
ARC
  5
1F5
100
AcDbEntity
  8
化粧台
  6
EXLTYPE2
 62
     6
100
AcDbCircle
 10
855.0
 20
1381.0
 30
0.0
 40
14.25
100
AcDbArc
 50
264.177545
 51
275.822455
  0
ARC
  5
1F6
100
AcDbEntity
  8
化粧台
  6
EXLTYPE2
 62
     6
100
AcDbCircle
 10
855.0
 20
1381.0
 30
0.0
 40
14.25
100
AcDbArc
 50
324.177545
 51
335.822455
  0
ARC
  5
1F7
100
AcDbEntity
  8
化粧台
  6
EXLTYPE2
 62
     6
100
AcDbCircle
 10
855.0
 20
1381.0
 30
0.0
 40
14.25
100
AcDbArc
 50
24.177545
 51
35.822455
  0
ARC
  5
1F8
100
AcDbEntity
  8
化粧台
  6
EXLTYPE2
 62
     6
100
AcDbCircle
 10
855.0
 20
1381.0
 30
0.0
 40
14.25
100
AcDbArc
 50
84.177545
 51
95.822455
  0
ARC
  5
1F9
100
AcDbEntity
  8
化粧台
  6
EXLTYPE2
 62
     6
100
AcDbCircle
 10
855.0
 20
1381.0
 30
0.0
 40
14.25
100
AcDbArc
 50
144.177545
 51
155.822455
  0
ARC
  5
1FA
100
AcDbEntity
  8
化粧台
  6
EXLTYPE2
 62
     6
100
AcDbCircle
 10
855.0
 20
1381.0
 30
0.0
 40
14.25
100
AcDbArc
 50
204.177545
 51
215.822455
  0
CIRCLE
  5
1FB
100
AcDbEntity
  8
化粧台
  6
EXLTYPE2
 62
     6
100
AcDbCircle
 10
855.0
 20
1381.0
 30
0.0
 40
4.75
  0
CIRCLE
  5
1FC
100
AcDbEntity
  8
化粧台
  6
EXLTYPE2
 62
     6
100
AcDbCircle
 10
855.0
 20
1381.0
 30
0.0
 40
12.074349
  0
LINE
  5
1FD
100
AcDbEntity
  8
化粧台
  6
EXLTYPE2
 62
     6
100
AcDbLine
 10
865.5
 20
1403.7
 30
0.0
 11
865.5
 21
1389.948929
 31
0.0
  0
LINE
  5
1FE
100
AcDbEntity
  8
化粧台
  6
EXLTYPE2
 62
     6
100
AcDbLine
 10
844.5
 20
1403.7
 30
0.0
 11
844.5
 21
1389.948929
 31
0.0
  0
LINE
  5
1FF
100
AcDbEntity
  8
化粧台
  6
EXLTYPE2
 62
     6
100
AcDbLine
 10
844.030456
 20
1403.7
 30
0.0
 11
865.969544
 21
1403.7
 31
0.0
  0
LINE
  5
200
100
AcDbEntity
  8
化粧台
  6
EXLTYPE2
 62
     6
100
AcDbLine
 10
844.030456
 20
1415.7
 30
0.0
 11
865.969544
 21
1415.7
 31
0.0
  0
LINE
  5
201
100
AcDbEntity
  8
化粧台
  6
EXLTYPE2
 62
     6
100
AcDbLine
 10
843.5
 20
1414.792887
 30
0.0
 11
843.5
 21
1404.607113
 31
0.0
  0
LINE
  5
202
100
AcDbEntity
  8
化粧台
  6
EXLTYPE2
 62
     6
100
AcDbLine
 10
866.5
 20
1414.792887
 30
0.0
 11
866.5
 21
1404.607113
 31
0.0
  0
ARC
  5
203
100
AcDbEntity
  8
化粧台
  6
EXLTYPE2
 62
     6
100
AcDbCircle
 10
853.25
 20
1409.7
 30
0.0
 40
11.0
100
AcDbArc
 50
146.944269
 51
152.419801
  0
ARC
  5
204
100
AcDbEntity
  8
化粧台
  6
EXLTYPE2
 62
     6
100
AcDbCircle
 10
853.25
 20
1409.7
 30
0.0
 40
11.0
100
AcDbArc
 50
207.580199
 51
213.055731
  0
ARC
  5
205
100
AcDbEntity
  8
化粧台
  6
EXLTYPE2
 62
     6
100
AcDbCircle
 10
856.75
 20
1409.7
 30
0.0
 40
11.0
100
AcDbArc
 50
326.944269
 51
332.419801
  0
ARC
  5
206
100
AcDbEntity
  8
化粧台
  6
EXLTYPE2
 62
     6
100
AcDbCircle
 10
856.75
 20
1409.7
 30
0.0
 40
11.0
100
AcDbArc
 50
27.580199
 51
33.055731
  0
ELLIPSE
  5
207
100
AcDbEntity
  8
化粧台
  6
EXLTYPE2
 62
     6
100
AcDbEllipse
 10
849.249029
 20
1409.7
 30
0.0
 11
-0.0000000000000009
 21
-5.0928871968700005
 31
0.0
210
0.0
220
0.0
230
1.0
 40
0.93641
 41
0.0
 42
6.2831853071796004
  0
ELLIPSE
  5
208
100
AcDbEntity
  8
化粧台
  6
EXLTYPE2
 62
     6
100
AcDbEllipse
 10
860.750971
 20
1409.7
 30
0.0
 11
0.0000000000000003
 21
5.0928871968700005
 31
0.0
210
0.0
220
0.0
230
1.0
 40
0.93641
 41
0.0
 42
6.2831853071796004
  0
LINE
  5
209
100
AcDbEntity
  8
化粧台
  6
CONTINUOUS
 62
     6
100
AcDbLine
 10
825.0
 20
1381.0
 30
0.0
 11
885.0
 21
1381.0
 31
0.0
  0
LINE
  5
20A
100
AcDbEntity
  8
化粧台
  6
CONTINUOUS
 62
     6
100
AcDbLine
 10
855.0
 20
1411.0
 30
0.0
 11
855.0
 21
1351.0
 31
0.0
  0
LINE
  5
20B
100
AcDbEntity
  8
化粧台
  6
CONTINUOUS
 62
     6
100
AcDbLine
 10
925.0
 20
1381.0
 30
0.0
 11
985.0
 21
1381.0
 31
0.0
  0
LINE
  5
20C
100
AcDbEntity
  8
化粧台
  6
CONTINUOUS
 62
     6
100
AcDbLine
 10
955.0
 20
1411.0
 30
0.0
 11
955.0
 21
1351.0
 31
0.0
  0
LINE
  5
20D
100
AcDbEntity
  8
化粧台
  6
EXLTYPE2
 62
     6
100
AcDbLine
 10
848.5
 20
1415.7
 30
0.0
 11
848.5
 21
1520.469883
 31
0.0
  0
LINE
  5
20E
100
AcDbEntity
  8
化粧台
  6
EXLTYPE2
 62
     6
100
AcDbLine
 10
861.5
 20
1415.7
 30
0.0
 11
861.5
 21
1520.469883
 31
0.0
  0
LINE
  5
20F
100
AcDbEntity
  8
化粧台
  6
EXLTYPE2
 62
     6
100
AcDbLine
 10
948.5
 20
1415.7
 30
0.0
 11
948.5
 21
1520.469883
 31
0.0
  0
LINE
  5
210
100
AcDbEntity
  8
化粧台
  6
EXLTYPE2
 62
     6
100
AcDbLine
 10
961.5
 20
1415.7
 30
0.0
 11
961.5
 21
1520.469883
 31
0.0
  0
LINE
  5
211
100
AcDbEntity
  8
化粧台
  6
CONTINUOUS
 62
     2
100
AcDbLine
 10
880.0
 20
1901.883863
 30
0.0
 11
880.0
 21
1800.383863
 31
0.0
  0
LINE
  5
212
100
AcDbEntity
  8
化粧台
  6
CONTINUOUS
 62
     2
100
AcDbLine
 10
930.0
 20
1901.883863
 30
0.0
 11
930.0
 21
1800.383863
 31
0.0
  0
LINE
  5
213
100
AcDbEntity
  8
化粧台
  6
CONTINUOUS
 62
     2
100
AcDbLine
 10
930.0
 20
1947.483197
 30
0.0
 11
930.0
 21
1911.919938
 31
0.0
  0
LINE
  5
214
100
AcDbEntity
  8
化粧台
  6
CONTINUOUS
 62
     2
100
AcDbLine
 10
880.0
 20
1947.483197
 30
0.0
 11
880.0
 21
1911.919938
 31
0.0
  0
ARC
  5
215
100
AcDbEntity
  8
化粧台
  6
CONTINUOUS
 62
     2
100
AcDbCircle
 10
905.0
 20
1873.682012
 30
0.0
 40
15.0
100
AcDbArc
 50
322.90405
 51
217.09595
  0
ELLIPSE
  5
216
100
AcDbEntity
  8
化粧台
  6
CONTINUOUS
 62
     2
100
AcDbEllipse
 10
905.0
 20
1864.211821
 30
0.0
 11
-11.999999999999998
 21
0.0000000000000015
 31
0.0
210
0.0
220
0.0
230
1.0
 40
0.22103
 41
3.1415926535897931
 42
0.0
  0
ELLIPSE
  5
217
100
AcDbEntity
  8
化粧台
  6
CONTINUOUS
 62
     2
100
AcDbEllipse
 10
905.0
 20
1854.991406
 30
0.0
 11
-11.999999999999998
 21
0.0000000000000015
 31
0.0
210
0.0
220
0.0
230
1.0
 40
0.173648
 41
0.0
 42
6.2831853071796004
  0
LINE
  5
218
100
AcDbEntity
  8
化粧台
  6
CONTINUOUS
 62
     2
100
AcDbLine
 10
893.0
 20
1854.991406
 30
0.0
 11
893.0
 21
1864.423411
 31
0.0
  0
LINE
  5
219
100
AcDbEntity
  8
化粧台
  6
CONTINUOUS
 62
     2
100
AcDbLine
 10
917.0
 20
1854.991406
 30
0.0
 11
917.0
 21
1864.423411
 31
0.0
  0
LINE
  5
21A
100
AcDbEntity
  8
化粧台
  6
CONTINUOUS
 62
     2
100
AcDbLine
 10
928.0
 20
1908.383863
 30
0.0
 11
882.055831
 21
1908.383084
 31
0.0
  0
LINE
  5
21B
100
AcDbEntity
  8
化粧台
  6
CONTINUOUS
 62
     2
100
AcDbLine
 10
930.0
 20
1911.919938
 30
0.0
 11
880.0
 21
1911.919938
 31
0.0
  0
ARC
  5
21C
100
AcDbEntity
  8
化粧台
  6
CONTINUOUS
 62
     2
100
AcDbCircle
 10
882.0
 20
1906.383863
 30
0.0
 40
2.0
100
AcDbArc
 50
88.400357
 51
180.0
  0
LINE
  5
21D
100
AcDbEntity
  8
化粧台
  6
CONTINUOUS
 62
     2
100
AcDbLine
 10
880.5
 20
1902.383863
 30
0.0
 11
880.0
 21
1901.883863
 31
0.0
  0
LINE
  5
21E
100
AcDbEntity
  8
化粧台
  6
CONTINUOUS
 62
     2
100
AcDbLine
 10
880.0
 20
1906.383863
 30
0.0
 11
880.0
 21
1902.383863
 31
0.0
  0
ARC
  5
21F
100
AcDbEntity
  8
化粧台
  6
CONTINUOUS
 62
     2
100
AcDbCircle
 10
905.020089
 20
1904.266622
 30
0.0
 40
22.5
100
AcDbArc
 50
160.114148
 51
167.425717
  0
ARC
  5
220
100
AcDbEntity
  8
化粧台
  6
CONTINUOUS
 62
     2
100
AcDbCircle
 10
882.083746
 20
1909.382694
 30
0.0
 40
1.0
100
AcDbArc
 50
268.400357
 51
347.425717
  0
ARC
  5
221
100
AcDbEntity
  8
化粧台
  6
CONTINUOUS
 62
     2
100
AcDbCircle
 10
928.0
 20
1906.383863
 30
0.0
 40
2.0
100
AcDbArc
 50
0.0
 51
90.0
  0
LINE
  5
222
100
AcDbEntity
  8
化粧台
  6
CONTINUOUS
 62
     2
100
AcDbLine
 10
929.5
 20
1902.383863
 30
0.0
 11
930.0
 21
1901.883863
 31
0.0
  0
LINE
  5
223
100
AcDbEntity
  8
化粧台
  6
CONTINUOUS
 62
     2
100
AcDbLine
 10
930.0
 20
1906.383863
 30
0.0
 11
930.0
 21
1902.383863
 31
0.0
  0
ARC
  5
224
100
AcDbEntity
  8
化粧台
  6
CONTINUOUS
 62
     2
100
AcDbCircle
 10
927.915993
 20
1909.383863
 30
0.0
 40
1.0
100
AcDbArc
 50
192.577203
 51
270.0
  0
LINE
  5
225
100
AcDbEntity
  8
化粧台
  6
CONTINUOUS
 62
     2
100
AcDbLine
 10
927.915993
 20
1908.383863
 30
0.0
 11
928.0
 21
1908.383863
 31
0.0
  0
ARC
  5
226
100
AcDbEntity
  8
化粧台
  6
CONTINUOUS
 62
     2
100
AcDbCircle
 10
904.979911
 20
1904.266622
 30
0.0
 40
22.5
100
AcDbArc
 50
12.577203
 51
19.885852
  0
ELLIPSE
  5
227
100
AcDbEntity
  8
化粧台
  6
CONTINUOUS
 62
     2
100
AcDbEllipse
 10
905.0
 20
1954.013579
 30
0.0
 11
-7.5000000000000044
 21
0.0000000000000009
 31
0.0
210
0.0
220
0.0
230
1.0
 40
0.96368
 41
0.0
 42
6.2831853071796004
  0
LINE
  5
228
100
AcDbEntity
  8
化粧台
  6
CONTINUOUS
 62
     2
100
AcDbLine
 10
912.5
 20
1942.225923
 30
0.0
 11
912.5
 21
1954.013579
 31
0.0
  0
LINE
  5
229
100
AcDbEntity
  8
化粧台
  6
CONTINUOUS
 62
     2
100
AcDbLine
 10
897.5
 20
1942.225923
 30
0.0
 11
897.5
 21
1954.013579
 31
0.0
  0
ARC
  5
22A
100
AcDbEntity
  8
化粧台
  6
CONTINUOUS
 62
     2
100
AcDbCircle
 10
882.0
 20
1947.483197
 30
0.0
 40
2.0
100
AcDbArc
 50
97.462794
 51
180.0
  0
ARC
  5
22B
100
AcDbEntity
  8
化粧台
  6
CONTINUOUS
 62
     2
100
AcDbCircle
 10
928.0
 20
1947.483197
 30
0.0
 40
2.0
100
AcDbArc
 50
0.0
 51
82.537206
  0
ELLIPSE
  5
22C
100
AcDbEntity
  8
化粧台
  6
CONTINUOUS
 62
     2
100
AcDbEllipse
 10
905.0
 20
1942.225923
 30
0.0
 11
-7.5000000000000044
 21
0.0000000000000009
 31
0.0
210
0.0
220
0.0
230
1.0
 40
0.96368
 41
0.0
 42
3.1415926535897931
  0
ARC
  5
22D
100
AcDbEntity
  8
化粧台
  6
CONTINUOUS
 62
     2
100
AcDbCircle
 10
905.0
 20
2021.580525
 30
0.0
 40
154.622782
100
AcDbArc
 50
264.918147
 51
275.081853
  0
LINE
  5
22E
100
AcDbEntity
  8
化粧台
  6
EXLTYPE3
 62
     2
100
AcDbLine
 10
891.844286
 20
1854.991406
 30
0.0
 11
917.888391
 21
1854.991406
 31
0.0
  0
ARC
  5
22F
100
AcDbEntity
  8
化粧台
  6
CONTINUOUS
 62
     2
100
AcDbCircle
 10
905.0
 20
1771.899864
 30
0.0
 40
179.083333
100
AcDbArc
 50
92.400246
 51
97.462794
  0
ARC
  5
230
100
AcDbEntity
  8
化粧台
  6
CONTINUOUS
 62
     2
100
AcDbCircle
 10
905.0
 20
1771.899864
 30
0.0
 40
179.083333
100
AcDbArc
 50
82.537206
 51
87.599754
  0
CIRCLE
  5
231
100
AcDbEntity
  8
化粧台
  6
CONTINUOUS
 62
     2
100
AcDbCircle
 10
905.0
 20
1925.983863
 30
0.0
 40
5.1
  0
LINE
  5
232
100
AcDbEntity
  8
化粧台
  6
CONTINUOUS
 62
     2
100
AcDbLine
 10
905.0
 20
1902.383863
 30
0.0
 11
880.0
 21
1902.383863
 31
0.0
  0
LINE
  5
233
100
AcDbEntity
  8
化粧台
  6
CONTINUOUS
 62
     2
100
AcDbLine
 10
930.0
 20
1902.383863
 30
0.0
 11
905.0
 21
1902.383863
 31
0.0
  0
LINE
  5
234
100
AcDbEntity
  8
化粧台
  6
EXLTYPE3
 62
     6
100
AcDbLine
 10
905.0
 20
1972.2
 30
0.0
 11
905.0
 21
926.0
 31
0.0
  0
ARC
  5
235
100
AcDbEntity
  8
化粧台
  6
CONTINUOUS
 62
     2
100
AcDbCircle
 10
905.0
 20
-3037.5
 30
0.0
 40
4847.5
100
AcDbArc
 50
90.295493
 51
92.603905
  0
ARC
  5
236
100
AcDbEntity
  8
化粧台
  6
CONTINUOUS
 62
     2
100
AcDbCircle
 10
905.0
 20
-3037.5
 30
0.0
 40
4847.5
100
AcDbArc
 50
87.396095
 51
89.704507
  0
CIRCLE
  5
237
100
AcDbEntity
  8
化粧台
  6
EXLTYPE2
 62
     6
100
AcDbCircle
 10
1145.0
 20
1411.0
 30
0.0
 40
16.0
  0
LINE
  5
238
100
AcDbEntity
  8
化粧台
  6
CONTINUOUS
 62
     6
100
AcDbLine
 10
1166.5
 20
1411.0
 30
0.0
 11
1124.5
 21
1411.0
 31
0.0
  0
LINE
  5
239
100
AcDbEntity
  8
化粧台
  6
CONTINUOUS
 62
     6
100
AcDbLine
 10
1145.0
 20
1392.0
 30
0.0
 11
1145.0
 21
1437.0
 31
0.0
  0
LINE
  5
23A
100
AcDbEntity
  8
化粧台
  6
EXLTYPE3
 62
     6
100
AcDbLine
 10
1145.0
 20
1433.7
 30
0.0
 11
1145.0
 21
901.5
 31
0.0
  0
LINE
  5
23B
100
AcDbEntity
  8
化粧台
  6
EXLTYPE4
 62
     6
100
AcDbLine
 10
318.0
 20
3880.0
 30
0.0
 11
1728.0
 21
3880.0
 31
0.0
  0
TEXT
  5
23C
100
AcDbEntity
  8
化粧台
  6
CONTINUOUS
 62
     2
100
AcDbText
 10
1629.000001
 20
3820.0
 30
0.0
 40
60.0
  1
W.L.
 41
0.4125
  7
EXCADSTD
 72
     5
 11
1719.7434
 21
3820.0
 31
0.0
100
AcDbText
  0
LINE
  5
23D
100
AcDbEntity
  8
化粧台
  6
CONTINUOUS
 62
     2
100
AcDbLine
 10
530.0
 20
3880.0
 30
0.0
 11
530.0
 21
3430.0
 31
0.0
  0
LINE
  5
23E
100
AcDbEntity
  8
化粧台
  6
CONTINUOUS
 62
     2
100
AcDbLine
 10
1280.0
 20
3880.0
 30
0.0
 11
1280.0
 21
3430.0
 31
0.0
  0
LINE
  5
23F
100
AcDbEntity
  8
化粧台
  6
CONTINUOUS
 62
     2
100
AcDbLine
 10
530.0
 20
3880.0
 30
0.0
 11
1280.0
 21
3880.0
 31
0.0
  0
LINE
  5
240
100
AcDbEntity
  8
化粧台
  6
EXLTYPE3
 62
     6
100
AcDbLine
 10
666.0
 20
3625.0
 30
0.0
 11
1140.5
 21
3625.0
 31
0.0
  0
CIRCLE
  5
241
100
AcDbEntity
  8
化粧台
  6
CONTINUOUS
 62
     2
100
AcDbCircle
 10
905.0
 20
3625.0
 30
0.0
 40
220.0
  0
CIRCLE
  5
242
100
AcDbEntity
  8
化粧台
  6
CONTINUOUS
 62
     2
100
AcDbCircle
 10
905.0
 20
3625.0
 30
0.0
 40
225.0
  0
ARC
  5
243
100
AcDbEntity
  8
化粧台
  6
CONTINUOUS
 62
     2
100
AcDbCircle
 10
905.0
 20
3632.429987
 30
0.0
 40
212.570013
100
AcDbArc
 50
9.763897
 51
170.236103
  0
ARC
  5
244
100
AcDbEntity
  8
化粧台
  6
CONTINUOUS
 62
     2
100
AcDbCircle
 10
744.784821
 20
3660.0
 30
0.0
 40
50.0
100
AcDbArc
 50
90.0
 51
170.236103
  0
ARC
  5
245
100
AcDbEntity
  8
化粧台
  6
CONTINUOUS
 62
     2
100
AcDbCircle
 10
1065.215179
 20
3660.0
 30
0.0
 40
50.0
100
AcDbArc
 50
9.763897
 51
90.0
  0
LINE
  5
246
100
AcDbEntity
  8
化粧台
  6
CONTINUOUS
 62
     6
100
AcDbLine
 10
938.75
 20
3771.0
 30
0.0
 11
871.25
 21
3771.0
 31
0.0
  0
ARC
  5
247
100
AcDbEntity
  8
化粧台
  6
CONTINUOUS
 62
     6
100
AcDbCircle
 10
853.038476
 20
3652.0
 30
0.0
 40
50.0
100
AcDbArc
 50
90.0
 51
171.786789
  0
ARC
  5
248
100
AcDbEntity
  8
化粧台
  6
CONTINUOUS
 62
     6
100
AcDbCircle
 10
956.961524
 20
3652.0
 30
0.0
 40
50.0
100
AcDbArc
 50
8.213211
 51
90.0
  0
ARC
  5
249
100
AcDbEntity
  8
化粧台
  6
CONTINUOUS
 62
     6
100
AcDbCircle
 10
905.0
 20
3644.5
 30
0.0
 40
102.5
100
AcDbArc
 50
171.786789
 51
8.213211
  0
LINE
  5
24A
100
AcDbEntity
  8
化粧台
  6
CONTINUOUS
 62
     6
100
AcDbLine
 10
868.1
 20
3622.0
 30
0.0
 11
941.9
 21
3622.0
 31
0.0
  0
LINE
  5
24B
100
AcDbEntity
  8
化粧台
  6
EXLTYPE3
 62
     6
100
AcDbLine
 10
905.0
 20
3385.0
 30
0.0
 11
905.0
 21
3895.0
 31
0.0
  0
LINE
  5
24C
100
AcDbEntity
  8
化粧台
  6
CONTINUOUS
 62
     2
100
AcDbLine
 10
530.0
 20
3430.0
 30
0.0
 11
792.750278
 21
3430.0
 31
0.0
  0
LINE
  5
24D
100
AcDbEntity
  8
化粧台
  6
CONTINUOUS
 62
     2
100
AcDbLine
 10
1017.249722
 20
3430.0
 30
0.0
 11
1280.0
 21
3430.0
 31
0.0
  0
LINE
  5
24E
100
AcDbEntity
  8
化粧台
  6
CONTINUOUS
 62
     6
100
AcDbLine
 10
965.5
 20
3880.0
 30
0.0
 11
965.5
 21
3888.0
 31
0.0
  0
LINE
  5
24F
100
AcDbEntity
  8
化粧台
  6
CONTINUOUS
 62
     6
100
AcDbLine
 10
944.5
 20
3888.0
 30
0.0
 11
965.5
 21
3888.0
 31
0.0
  0
LINE
  5
250
100
AcDbEntity
  8
化粧台
  6
CONTINUOUS
 62
     6
100
AcDbLine
 10
944.5
 20
3880.0
 30
0.0
 11
944.5
 21
3888.0
 31
0.0
  0
LINE
  5
251
100
AcDbEntity
  8
化粧台
  6
CONTINUOUS
 62
     6
100
AcDbLine
 10
955.0
 20
3903.0
 30
0.0
 11
955.0
 21
3850.0
 31
0.0
  0
LINE
  5
252
100
AcDbEntity
  8
化粧台
  6
CONTINUOUS
 62
     6
100
AcDbLine
 10
648.0
 20
3880.0
 30
0.0
 11
650.0
 21
3912.5
 31
0.0
  0
LINE
  5
253
100
AcDbEntity
  8
化粧台
  6
CONTINUOUS
 62
     6
100
AcDbLine
 10
650.0
 20
3912.5
 30
0.0
 11
652.0
 21
3880.0
 31
0.0
  0
LINE
  5
254
100
AcDbEntity
  8
化粧台
  6
CONTINUOUS
 62
     6
100
AcDbLine
 10
650.0
 20
3865.0
 30
0.0
 11
650.0
 21
3922.5
 31
0.0
  0
LINE
  5
255
100
AcDbEntity
  8
化粧台
  6
CONTINUOUS
 62
     6
100
AcDbLine
 10
1158.0
 20
3880.0
 30
0.0
 11
1160.0
 21
3912.5
 31
0.0
  0
LINE
  5
256
100
AcDbEntity
  8
化粧台
  6
CONTINUOUS
 62
     6
100
AcDbLine
 10
1160.0
 20
3912.5
 30
0.0
 11
1162.0
 21
3880.0
 31
0.0
  0
LINE
  5
257
100
AcDbEntity
  8
化粧台
  6
CONTINUOUS
 62
     6
100
AcDbLine
 10
1160.0
 20
3865.0
 30
0.0
 11
1160.0
 21
3922.5
 31
0.0
  0
LINE
  5
258
100
AcDbEntity
  8
化粧台
  6
CONTINUOUS
 62
     6
100
AcDbLine
 10
844.5
 20
3880.0
 30
0.0
 11
844.5
 21
3888.0
 31
0.0
  0
LINE
  5
259
100
AcDbEntity
  8
化粧台
  6
CONTINUOUS
 62
     6
100
AcDbLine
 10
865.5
 20
3888.0
 30
0.0
 11
844.5
 21
3888.0
 31
0.0
  0
LINE
  5
25A
100
AcDbEntity
  8
化粧台
  6
CONTINUOUS
 62
     6
100
AcDbLine
 10
865.5
 20
3880.0
 30
0.0
 11
865.5
 21
3888.0
 31
0.0
  0
LINE
  5
25B
100
AcDbEntity
  8
化粧台
  6
CONTINUOUS
 62
     6
100
AcDbLine
 10
855.0
 20
3903.0
 30
0.0
 11
855.0
 21
3850.0
 31
0.0
  0
CIRCLE
  5
25C
100
AcDbEntity
  8
化粧台
  6
CONTINUOUS
 62
     2
100
AcDbCircle
 10
905.0
 20
3771.0
 30
0.0
 40
25.0
  0
ELLIPSE
  5
25D
100
AcDbEntity
  8
化粧台
  6
CONTINUOUS
 62
     2
100
AcDbEllipse
 10
905.0
 20
3677.440536
 30
0.0
 11
-7.5000000000000062
 21
0.0000000000000009
 31
0.0
210
0.0
220
0.0
230
1.0
 40
0.438812
 41
0.0
 42
6.2831853071796004
  0
ELLIPSE
  5
25E
100
AcDbEntity
  8
化粧台
  6
CONTINUOUS
 62
     2
100
AcDbEllipse
 10
905.0
 20
3653.214523
 30
0.0
 11
-15.000000000000011
 21
0.0000000000000018
 31
0.0
210
0.0
220
0.0
230
1.0
 40
0.436279
 41
0.0
 42
6.2831853071796004
  0
LINE
  5
25F
100
AcDbEntity
  8
化粧台
  6
CONTINUOUS
 62
     2
100
AcDbLine
 10
890.0
 20
3653.214523
 30
0.0
 11
890.0
 21
3751.0
 31
0.0
  0
LINE
  5
260
100
AcDbEntity
  8
化粧台
  6
CONTINUOUS
 62
     2
100
AcDbLine
 10
920.0
 20
3653.214523
 30
0.0
 11
920.0
 21
3751.0
 31
0.0
  0
LINE
  5
261
100
AcDbEntity
  8
化粧台
  6
CONTINUOUS
 62
     2
100
AcDbLine
 10
897.5
 20
3677.440536
 30
0.0
 11
897.5
 21
3747.15152
 31
0.0
  0
LINE
  5
262
100
AcDbEntity
  8
化粧台
  6
CONTINUOUS
 62
     2
100
AcDbLine
 10
912.5
 20
3677.440536
 30
0.0
 11
912.5
 21
3747.15152
 31
0.0
  0
LINE
  5
263
100
AcDbEntity
  8
化粧台
  6
CONTINUOUS
 62
     6
100
AcDbLine
 10
890.0
 20
3702.0
 30
0.0
 11
853.038476
 21
3702.0
 31
0.0
  0
LINE
  5
264
100
AcDbEntity
  8
化粧台
  6
CONTINUOUS
 62
     2
100
AcDbLine
 10
744.784821
 20
3710.0
 30
0.0
 11
890.0
 21
3710.0
 31
0.0
  0
LINE
  5
265
100
AcDbEntity
  8
化粧台
  6
CONTINUOUS
 62
     2
100
AcDbLine
 10
920.0
 20
3710.0
 30
0.0
 11
1065.215179
 21
3710.0
 31
0.0
  0
LINE
  5
266
100
AcDbEntity
  8
化粧台
  6
CONTINUOUS
 62
     6
100
AcDbLine
 10
956.961524
 20
3702.0
 30
0.0
 11
920.0
 21
3702.0
 31
0.0
  0
CIRCLE
  5
267
100
AcDbEntity
  8
化粧台
  6
CONTINUOUS
 62
     2
100
AcDbCircle
 10
905.0
 20
3622.0
 30
0.0
 40
19.2
  0
ARC
  5
268
100
AcDbEntity
  8
化粧台
  6
CONTINUOUS
 62
     2
100
AcDbCircle
 10
905.0
 20
3622.0
 30
0.0
 40
26.9
100
AcDbArc
 50
107.317019
 51
72.682981
  0
LINE
  5
269
100
AcDbEntity
  8
化粧台
  6
CONTINUOUS
 62
     2
100
AcDbLine
 10
899.158916
 20
3818.168598
 30
0.0
 11
910.841084
 21
3818.168598
 31
0.0
  0
ARC
  5
26A
100
AcDbEntity
  8
化粧台
  6
CONTINUOUS
 62
     2
100
AcDbCircle
 10
905.0
 20
3800.617513
 30
0.0
 40
18.551084
100
AcDbArc
 50
72.298207
 51
107.701793
  0
ARC
  5
26B
100
AcDbEntity
  8
化粧台
  6
CONTINUOUS
 62
     2
100
AcDbCircle
 10
909.726224
 20
3803.668598
 30
0.0
 40
0.5
100
AcDbArc
 50
270.0
 51
356.914712
  0
ARC
  5
26C
100
AcDbEntity
  8
化粧台
  6
CONTINUOUS
 62
     2
100
AcDbCircle
 10
910.488665
 20
3817.813914
 30
0.0
 40
0.5
100
AcDbArc
 50
356.914712
 51
72.298207
  0
LINE
  5
26D
100
AcDbEntity
  8
化粧台
  6
CONTINUOUS
 62
     2
100
AcDbLine
 10
910.2255
 20
3803.641687
 30
0.0
 11
910.98794
 21
3817.787003
 31
0.0
  0
ARC
  5
26E
100
AcDbEntity
  8
化粧台
  6
CONTINUOUS
 62
     2
100
AcDbCircle
 10
900.273776
 20
3803.668598
 30
0.0
 40
0.5
100
AcDbArc
 50
183.085288
 51
270.0
  0
ARC
  5
26F
100
AcDbEntity
  8
化粧台
  6
CONTINUOUS
 62
     2
100
AcDbCircle
 10
899.511335
 20
3817.813914
 30
0.0
 40
0.5
100
AcDbArc
 50
107.701793
 51
183.085288
  0
LINE
  5
270
100
AcDbEntity
  8
化粧台
  6
CONTINUOUS
 62
     2
100
AcDbLine
 10
899.7745
 20
3803.641687
 30
0.0
 11
899.01206
 21
3817.787003
 31
0.0
  0
LINE
  5
271
100
AcDbEntity
  8
化粧台
  6
CONTINUOUS
 62
     2
100
AcDbLine
 10
900.273776
 20
3803.168598
 30
0.0
 11
905.0
 21
3803.168598
 31
0.0
  0
LINE
  5
272
100
AcDbEntity
  8
化粧台
  6
CONTINUOUS
 62
     2
100
AcDbLine
 10
905.0
 20
3803.168598
 30
0.0
 11
909.726224
 21
3803.168598
 31
0.0
  0
LINE
  5
273
100
AcDbEntity
  8
化粧台
  6
CONTINUOUS
 62
     2
100
AcDbLine
 10
902.0
 20
3803.168598
 30
0.0
 11
902.0
 21
3795.819347
 31
0.0
  0
LINE
  5
274
100
AcDbEntity
  8
化粧台
  6
CONTINUOUS
 62
     2
100
AcDbLine
 10
908.0
 20
3803.168598
 30
0.0
 11
908.0
 21
3795.819347
 31
0.0
  0
LINE
  5
275
100
AcDbEntity
  8
化粧台
  6
CONTINUOUS
 62
     2
100
AcDbLine
 10
605.0
 20
2691.0
 30
0.0
 11
605.0
 21
2171.0
 31
0.0
  0
LINE
  5
276
100
AcDbEntity
  8
化粧台
  6
CONTINUOUS
 62
     2
100
AcDbLine
 10
1205.0
 20
2691.0
 30
0.0
 11
1205.0
 21
2171.0
 31
0.0
  0
LINE
  5
277
100
AcDbEntity
  8
化粧台
  6
CONTINUOUS
 62
     4
100
AcDbLine
 10
647.5
 20
2179.8
 30
0.0
 11
647.5
 21
2169.8
 31
0.0
  0
LINE
  5
278
100
AcDbEntity
  8
化粧台
  6
CONTINUOUS
 62
     4
100
AcDbLine
 10
647.5
 20
2179.8
 30
0.0
 11
1162.5
 21
2179.8
 31
0.0
  0
LINE
  5
279
100
AcDbEntity
  8
化粧台
  6
CONTINUOUS
 62
     4
100
AcDbLine
 10
647.5
 20
2169.8
 30
0.0
 11
1162.5
 21
2169.8
 31
0.0
  0
LINE
  5
27A
100
AcDbEntity
  8
化粧台
  6
CONTINUOUS
 62
     4
100
AcDbLine
 10
1162.5
 20
2179.8
 30
0.0
 11
1162.5
 21
2169.8
 31
0.0
  0
LINE
  5
27B
100
AcDbEntity
  8
化粧台
  6
CONTINUOUS
 62
     2
100
AcDbLine
 10
645.5
 20
2691.0
 30
0.0
 11
645.5
 21
2171.0
 31
0.0
  0
LINE
  5
27C
100
AcDbEntity
  8
化粧台
  6
CONTINUOUS
 62
     4
100
AcDbLine
 10
647.5
 20
2692.2
 30
0.0
 11
647.5
 21
2682.2
 31
0.0
  0
LINE
  5
27D
100
AcDbEntity
  8
化粧台
  6
CONTINUOUS
 62
     4
100
AcDbLine
 10
1162.5
 20
2692.2
 30
0.0
 11
1162.5
 21
2682.2
 31
0.0
  0
LINE
  5
27E
100
AcDbEntity
  8
化粧台
  6
CONTINUOUS
 62
     4
100
AcDbLine
 10
647.5
 20
2692.2
 30
0.0
 11
1162.5
 21
2692.2
 31
0.0
  0
LINE
  5
27F
100
AcDbEntity
  8
化粧台
  6
CONTINUOUS
 62
     4
100
AcDbLine
 10
647.5
 20
2682.2
 30
0.0
 11
1162.5
 21
2682.2
 31
0.0
  0
LINE
  5
280
100
AcDbEntity
  8
化粧台
  6
CONTINUOUS
 62
     2
100
AcDbLine
 10
1164.5
 20
2691.0
 30
0.0
 11
1164.5
 21
2171.0
 31
0.0
  0
LINE
  5
281
100
AcDbEntity
  8
化粧台
  6
CONTINUOUS
 62
     2
100
AcDbLine
 10
605.0
 20
2691.0
 30
0.0
 11
647.5
 21
2691.0
 31
0.0
  0
LINE
  5
282
100
AcDbEntity
  8
化粧台
  6
CONTINUOUS
 62
     2
100
AcDbLine
 10
1162.5
 20
2691.0
 30
0.0
 11
1205.0
 21
2691.0
 31
0.0
  0
LINE
  5
283
100
AcDbEntity
  8
化粧台
  6
CONTINUOUS
 62
     2
100
AcDbLine
 10
1162.5
 20
2171.0
 30
0.0
 11
1205.0
 21
2171.0
 31
0.0
  0
LINE
  5
284
100
AcDbEntity
  8
化粧台
  6
CONTINUOUS
 62
     2
100
AcDbLine
 10
605.0
 20
2171.0
 30
0.0
 11
647.5
 21
2171.0
 31
0.0
  0
LINE
  5
285
100
AcDbEntity
  8
化粧台
  6
CONTINUOUS
 62
     6
100
AcDbLine
 10
961.535534
 20
2515.464466
 30
0.0
 11
976.535534
 21
2530.464466
 31
0.0
  0
LINE
  5
286
100
AcDbEntity
  8
化粧台
  6
CONTINUOUS
 62
     6
100
AcDbLine
 10
951.0
 20
2512.0
 30
0.0
 11
983.5
 21
2544.5
 31
0.0
  0
LINE
  5
287
100
AcDbEntity
  8
化粧台
  6
CONTINUOUS
 62
     6
100
AcDbLine
 10
971.714466
 20
2539.785534
 30
0.0
 11
958.964466
 21
2527.035534
 31
0.0
  0
LINE
  5
288
100
AcDbEntity
  8
化粧台
  6
CONTINUOUS
 62
     6
100
AcDbLine
 10
796.535534
 20
2488.464466
 30
0.0
 11
811.535534
 21
2503.464466
 31
0.0
  0
LINE
  5
289
100
AcDbEntity
  8
化粧台
  6
CONTINUOUS
 62
     6
100
AcDbLine
 10
786.0
 20
2485.0
 30
0.0
 11
818.5
 21
2517.5
 31
0.0
  0
LINE
  5
28A
100
AcDbEntity
  8
化粧台
  6
CONTINUOUS
 62
     6
100
AcDbLine
 10
806.714466
 20
2512.785534
 30
0.0
 11
793.964466
 21
2500.035534
 31
0.0
  0
LINE
  5
28B
100
AcDbEntity
  8
化粧台
  6
CONTINUOUS
 62
     6
100
AcDbLine
 10
940.535534
 20
2325.464466
 30
0.0
 11
955.535534
 21
2340.464466
 31
0.0
  0
LINE
  5
28C
100
AcDbEntity
  8
化粧台
  6
CONTINUOUS
 62
     6
100
AcDbLine
 10
930.0
 20
2322.0
 30
0.0
 11
962.5
 21
2354.5
 31
0.0
  0
LINE
  5
28D
100
AcDbEntity
  8
化粧台
  6
CONTINUOUS
 62
     6
100
AcDbLine
 10
950.714466
 20
2349.785534
 30
0.0
 11
937.964466
 21
2337.035534
 31
0.0
  0
LINE
  5
28E
100
AcDbEntity
  8
化粧台
  6
CONTINUOUS
 62
     6
100
AcDbLine
 10
1055.0
 20
2617.980762
 30
0.0
 11
1055.0
 21
2643.980762
 31
0.0
  0
LINE
  5
28F
100
AcDbEntity
  8
化粧台
  6
CONTINUOUS
 62
     6
100
AcDbLine
 10
1068.0
 20
2630.980762
 30
0.0
 11
1042.0
 21
2630.980762
 31
0.0
  0
LINE
  5
290
100
AcDbEntity
  8
化粧台
  6
CONTINUOUS
 62
     6
100
AcDbLine
 10
768.0
 20
2630.980762
 30
0.0
 11
742.0
 21
2630.980762
 31
0.0
  0
LINE
  5
291
100
AcDbEntity
  8
化粧台
  6
CONTINUOUS
 62
     6
100
AcDbLine
 10
755.0
 20
2617.980762
 30
0.0
 11
755.0
 21
2643.980762
 31
0.0
  0
LINE
  5
292
100
AcDbEntity
  8
化粧台
  6
CONTINUOUS
 62
     6
100
AcDbLine
 10
768.0
 20
2191.0
 30
0.0
 11
742.0
 21
2191.0
 31
0.0
  0
LINE
  5
293
100
AcDbEntity
  8
化粧台
  6
CONTINUOUS
 62
     6
100
AcDbLine
 10
755.0
 20
2178.0
 30
0.0
 11
755.0
 21
2204.0
 31
0.0
  0
LINE
  5
294
100
AcDbEntity
  8
化粧台
  6
CONTINUOUS
 62
     6
100
AcDbLine
 10
1068.0
 20
2191.0
 30
0.0
 11
1042.0
 21
2191.0
 31
0.0
  0
LINE
  5
295
100
AcDbEntity
  8
化粧台
  6
CONTINUOUS
 62
     6
100
AcDbLine
 10
1055.0
 20
2178.0
 30
0.0
 11
1055.0
 21
2204.0
 31
0.0
  0
LINE
  5
296
100
AcDbEntity
  8
化粧台
  6
EXLTYPE3
 62
     6
100
AcDbLine
 10
905.0
 20
2707.2
 30
0.0
 11
905.0
 21
2154.8
 31
0.0
  0
LINE
  5
297
100
AcDbEntity
  8
化粧台
  6
EXLTYPE4
 62
     6
100
AcDbLine
 10
2457.0
 20
941.0
 30
0.0
 11
1828.5
 21
941.0
 31
0.0
  0
TEXT
  5
298
100
AcDbEntity
  8
化粧台
  6
CONTINUOUS
 62
     2
100
AcDbText
 10
1828.5
 20
941.0
 30
0.0
 40
60.0
  1
F.L.
 41
0.4125
  7
EXCADSTD
 72
     5
 11
1919.2434
 21
941.0
 31
0.0
100
AcDbText
  0
LINE
  5
299
100
AcDbEntity
  8
化粧台
  6
CONTINUOUS
 62
     2
100
AcDbLine
 10
2457.0
 20
1640.0
 30
0.0
 11
2457.0
 21
1621.0
 31
0.0
  0
ARC
  5
29A
100
AcDbEntity
  8
化粧台
  6
CONTINUOUS
 62
     2
100
AcDbCircle
 10
2009.0
 20
1638.0
 30
0.0
 40
2.0
100
AcDbArc
 50
90.0
 51
180.0
  0
LINE
  5
29B
100
AcDbEntity
  8
化粧台
  6
CONTINUOUS
 62
     2
100
AcDbLine
 10
2007.0
 20
1638.0
 30
0.0
 11
2007.0
 21
1623.0
 31
0.0
  0
ARC
  5
29C
100
AcDbEntity
  8
化粧台
  6
CONTINUOUS
 62
     2
100
AcDbCircle
 10
2009.0
 20
1623.0
 30
0.0
 40
2.0
100
AcDbArc
 50
180.0
 51
270.0
  0
LINE
  5
29D
100
AcDbEntity
  8
化粧台
  6
CONTINUOUS
 62
     2
100
AcDbLine
 10
2032.0
 20
941.0
 30
0.0
 11
2457.0
 21
941.0
 31
0.0
  0
LINE
  5
29E
100
AcDbEntity
  8
化粧台
  6
CONTINUOUS
 62
     2
100
AcDbLine
 10
2457.0
 20
941.0
 30
0.0
 11
2457.0
 21
1621.0
 31
0.0
  0
LINE
  5
29F
100
AcDbEntity
  8
化粧台
  6
CONTINUOUS
 62
     2
100
AcDbLine
 10
2032.0
 20
941.0
 30
0.0
 11
2032.0
 21
1621.0
 31
0.0
  0
LINE
  5
2A0
100
AcDbEntity
  8
化粧台
  6
CONTINUOUS
 62
     2
100
AcDbLine
 10
2011.5
 20
1031.0
 30
0.0
 11
2028.5
 21
1031.0
 31
0.0
  0
LINE
  5
2A1
100
AcDbEntity
  8
化粧台
  6
CONTINUOUS
 62
     2
100
AcDbLine
 10
2011.5
 20
1441.0
 30
0.0
 11
2028.5
 21
1441.0
 31
0.0
  0
LINE
  5
2A2
100
AcDbEntity
  8
化粧台
  6
CONTINUOUS
 62
     2
100
AcDbLine
 10
2011.5
 20
1586.0
 30
0.0
 11
2028.5
 21
1586.0
 31
0.0
  0
LINE
  5
2A3
100
AcDbEntity
  8
化粧台
  6
CONTINUOUS
 62
     2
100
AcDbLine
 10
2011.5
 20
1441.0
 30
0.0
 11
2011.5
 21
1586.0
 31
0.0
  0
LINE
  5
2A4
100
AcDbEntity
  8
化粧台
  6
CONTINUOUS
 62
     2
100
AcDbLine
 10
2028.5
 20
1441.0
 30
0.0
 11
2028.5
 21
1586.0
 31
0.0
  0
LINE
  5
2A5
100
AcDbEntity
  8
化粧台
  6
CONTINUOUS
 62
     6
100
AcDbLine
 10
2010.5
 20
1586.0
 30
0.0
 11
2028.5
 21
1586.0
 31
0.0
  0
ARC
  5
2A6
100
AcDbEntity
  8
化粧台
  6
CONTINUOUS
 62
     6
100
AcDbCircle
 10
2027.15
 20
1612.95
 30
0.0
 40
1.0
100
AcDbArc
 50
0.0
 51
90.0
  0
ARC
  5
2A7
100
AcDbEntity
  8
化粧台
  6
CONTINUOUS
 62
     6
100
AcDbCircle
 10
2027.0
 20
1613.0
 30
0.0
 40
3.0
100
AcDbArc
 50
0.0
 51
90.0
  0
ARC
  5
2A8
100
AcDbEntity
  8
化粧台
  6
CONTINUOUS
 62
     6
100
AcDbCircle
 10
2010.75
 20
1607.75
 30
0.0
 40
1.75
100
AcDbArc
 50
170.744962
 51
68.766314
  0
ARC
  5
2A9
100
AcDbEntity
  8
化粧台
  6
CONTINUOUS
 62
     6
100
AcDbCircle
 10
2023.827515
 20
1605.619011
 30
0.0
 40
13.0
100
AcDbArc
 50
142.344254
 51
163.178039
  0
ARC
  5
2AA
100
AcDbEntity
  8
化粧台
  6
CONTINUOUS
 62
     6
100
AcDbCircle
 10
2014.327167
 20
1612.95
 30
0.0
 40
1.0
100
AcDbArc
 50
90.0
 51
142.344254
  0
ARC
  5
2AB
100
AcDbEntity
  8
化粧台
  6
CONTINUOUS
 62
     6
100
AcDbCircle
 10
2023.827515
 20
1605.619011
 30
0.0
 40
15.0
100
AcDbArc
 50
142.042092
 51
170.744962
  0
ARC
  5
2AC
100
AcDbEntity
  8
化粧台
  6
CONTINUOUS
 62
     6
100
AcDbCircle
 10
2014.365961
 20
1613.0
 30
0.0
 40
3.0
100
AcDbArc
 50
90.0
 51
142.042092
  0
LINE
  5
2AD
100
AcDbEntity
  8
化粧台
  6
CONTINUOUS
 62
     6
100
AcDbLine
 10
2014.365961
 20
1616.0
 30
0.0
 11
2027.0
 21
1616.0
 31
0.0
  0
LINE
  5
2AE
100
AcDbEntity
  8
化粧台
  6
CONTINUOUS
 62
     6
100
AcDbLine
 10
2014.327167
 20
1613.95
 30
0.0
 11
2027.15
 21
1613.95
 31
0.0
  0
LINE
  5
2AF
100
AcDbEntity
  8
化粧台
  6
CONTINUOUS
 62
     6
100
AcDbLine
 10
2028.15
 20
1612.95
 30
0.0
 11
2028.15
 21
1596.560271
 31
0.0
  0
LINE
  5
2B0
100
AcDbEntity
  8
化粧台
  6
CONTINUOUS
 62
     6
100
AcDbLine
 10
2028.5
 20
1586.0
 30
0.0
 11
2028.5
 21
1571.0
 31
0.0
  0
LINE
  5
2B1
100
AcDbEntity
  8
化粧台
  6
CONTINUOUS
 62
     6
100
AcDbLine
 10
2009.950253
 20
1588.042314
 30
0.0
 11
2020.547979
 21
1588.570176
 31
0.0
  0
ARC
  5
2B2
100
AcDbEntity
  8
化粧台
  6
CONTINUOUS
 62
     6
100
AcDbCircle
 10
2020.15
 20
1596.560271
 30
0.0
 40
8.0
100
AcDbArc
 50
272.851492
 51
0.0
  0
ARC
  5
2B3
100
AcDbEntity
  8
化粧台
  6
CONTINUOUS
 62
     6
100
AcDbCircle
 10
2010.0
 20
1587.043552
 30
0.0
 40
1.0
100
AcDbArc
 50
92.851492
 51
180.0
  0
ARC
  5
2B4
100
AcDbEntity
  8
化粧台
  6
CONTINUOUS
 62
     6
100
AcDbCircle
 10
2029.0
 20
1572.0
 30
0.0
 40
1.0
100
AcDbArc
 50
270.0
 51
0.0
  0
LINE
  5
2B5
100
AcDbEntity
  8
化粧台
  6
CONTINUOUS
 62
     6
100
AcDbLine
 10
2030.0
 20
1613.0
 30
0.0
 11
2030.0
 21
1572.0
 31
0.0
  0
LINE
  5
2B6
100
AcDbEntity
  8
化粧台
  6
CONTINUOUS
 62
     6
100
AcDbLine
 10
2028.5
 20
1571.0
 30
0.0
 11
2029.0
 21
1571.0
 31
0.0
  0
ARC
  5
2B7
100
AcDbEntity
  8
化粧台
  6
CONTINUOUS
 62
     6
100
AcDbCircle
 10
2010.0
 20
1585.0
 30
0.0
 40
1.0
100
AcDbArc
 50
180.0
 51
270.0
  0
LINE
  5
2B8
100
AcDbEntity
  8
化粧台
  6
CONTINUOUS
 62
     6
100
AcDbLine
 10
2010.5
 20
1584.0
 30
0.0
 11
2010.0
 21
1584.0
 31
0.0
  0
LINE
  5
2B9
100
AcDbEntity
  8
化粧台
  6
CONTINUOUS
 62
     6
100
AcDbLine
 10
2009.0
 20
1587.043552
 30
0.0
 11
2009.0
 21
1585.0
 31
0.0
  0
LINE
  5
2BA
100
AcDbEntity
  8
化粧台
  6
CONTINUOUS
 62
     6
100
AcDbLine
 10
2010.5
 20
1586.0
 30
0.0
 11
2010.5
 21
1584.0
 31
0.0
  0
LINE
  5
2BB
100
AcDbEntity
  8
化粧台
  6
CONTINUOUS
 62
     2
100
AcDbLine
 10
2011.5
 20
1407.0
 30
0.0
 11
2028.5
 21
1407.0
 31
0.0
  0
LINE
  5
2BC
100
AcDbEntity
  8
化粧台
  6
CONTINUOUS
 62
     2
100
AcDbLine
 10
2011.5
 20
1031.0
 30
0.0
 11
2011.5
 21
1407.0
 31
0.0
  0
LINE
  5
2BD
100
AcDbEntity
  8
化粧台
  6
CONTINUOUS
 62
     2
100
AcDbLine
 10
2028.5
 20
1031.0
 30
0.0
 11
2028.5
 21
1407.0
 31
0.0
  0
LINE
  5
2BE
100
AcDbEntity
  8
化粧台
  6
CONTINUOUS
 62
     6
100
AcDbLine
 10
2010.5
 20
1407.0
 30
0.0
 11
2028.5
 21
1407.0
 31
0.0
  0
ARC
  5
2BF
100
AcDbEntity
  8
化粧台
  6
CONTINUOUS
 62
     6
100
AcDbCircle
 10
2027.15
 20
1433.95
 30
0.0
 40
1.0
100
AcDbArc
 50
0.0
 51
90.0
  0
ARC
  5
2C0
100
AcDbEntity
  8
化粧台
  6
CONTINUOUS
 62
     6
100
AcDbCircle
 10
2027.0
 20
1434.0
 30
0.0
 40
3.0
100
AcDbArc
 50
0.0
 51
90.0
  0
ARC
  5
2C1
100
AcDbEntity
  8
化粧台
  6
CONTINUOUS
 62
     6
100
AcDbCircle
 10
2010.75
 20
1428.75
 30
0.0
 40
1.75
100
AcDbArc
 50
170.744962
 51
68.766314
  0
ARC
  5
2C2
100
AcDbEntity
  8
化粧台
  6
CONTINUOUS
 62
     6
100
AcDbCircle
 10
2023.827515
 20
1426.619011
 30
0.0
 40
13.0
100
AcDbArc
 50
142.344254
 51
163.178039
  0
ARC
  5
2C3
100
AcDbEntity
  8
化粧台
  6
CONTINUOUS
 62
     6
100
AcDbCircle
 10
2014.327167
 20
1433.95
 30
0.0
 40
1.0
100
AcDbArc
 50
90.0
 51
142.344254
  0
ARC
  5
2C4
100
AcDbEntity
  8
化粧台
  6
CONTINUOUS
 62
     6
100
AcDbCircle
 10
2023.827515
 20
1426.619011
 30
0.0
 40
15.0
100
AcDbArc
 50
142.042092
 51
170.744962
  0
ARC
  5
2C5
100
AcDbEntity
  8
化粧台
  6
CONTINUOUS
 62
     6
100
AcDbCircle
 10
2014.365961
 20
1434.0
 30
0.0
 40
3.0
100
AcDbArc
 50
90.0
 51
142.042092
  0
LINE
  5
2C6
100
AcDbEntity
  8
化粧台
  6
CONTINUOUS
 62
     6
100
AcDbLine
 10
2014.365961
 20
1437.0
 30
0.0
 11
2027.0
 21
1437.0
 31
0.0
  0
LINE
  5
2C7
100
AcDbEntity
  8
化粧台
  6
CONTINUOUS
 62
     6
100
AcDbLine
 10
2014.327167
 20
1434.95
 30
0.0
 11
2027.15
 21
1434.95
 31
0.0
  0
LINE
  5
2C8
100
AcDbEntity
  8
化粧台
  6
CONTINUOUS
 62
     6
100
AcDbLine
 10
2028.15
 20
1433.95
 30
0.0
 11
2028.15
 21
1417.560271
 31
0.0
  0
LINE
  5
2C9
100
AcDbEntity
  8
化粧台
  6
CONTINUOUS
 62
     6
100
AcDbLine
 10
2028.5
 20
1407.0
 30
0.0
 11
2028.5
 21
1392.0
 31
0.0
  0
LINE
  5
2CA
100
AcDbEntity
  8
化粧台
  6
CONTINUOUS
 62
     6
100
AcDbLine
 10
2009.950253
 20
1409.042314
 30
0.0
 11
2020.547979
 21
1409.570176
 31
0.0
  0
ARC
  5
2CB
100
AcDbEntity
  8
化粧台
  6
CONTINUOUS
 62
     6
100
AcDbCircle
 10
2020.15
 20
1417.560271
 30
0.0
 40
8.0
100
AcDbArc
 50
272.851492
 51
0.0
  0
ARC
  5
2CC
100
AcDbEntity
  8
化粧台
  6
CONTINUOUS
 62
     6
100
AcDbCircle
 10
2010.0
 20
1408.043552
 30
0.0
 40
1.0
100
AcDbArc
 50
92.851492
 51
180.0
  0
ARC
  5
2CD
100
AcDbEntity
  8
化粧台
  6
CONTINUOUS
 62
     6
100
AcDbCircle
 10
2029.0
 20
1393.0
 30
0.0
 40
1.0
100
AcDbArc
 50
270.0
 51
0.0
  0
LINE
  5
2CE
100
AcDbEntity
  8
化粧台
  6
CONTINUOUS
 62
     6
100
AcDbLine
 10
2030.0
 20
1434.0
 30
0.0
 11
2030.0
 21
1393.0
 31
0.0
  0
LINE
  5
2CF
100
AcDbEntity
  8
化粧台
  6
CONTINUOUS
 62
     6
100
AcDbLine
 10
2028.5
 20
1392.0
 30
0.0
 11
2029.0
 21
1392.0
 31
0.0
  0
ARC
  5
2D0
100
AcDbEntity
  8
化粧台
  6
CONTINUOUS
 62
     6
100
AcDbCircle
 10
2010.0
 20
1406.0
 30
0.0
 40
1.0
100
AcDbArc
 50
180.0
 51
270.0
  0
LINE
  5
2D1
100
AcDbEntity
  8
化粧台
  6
CONTINUOUS
 62
     6
100
AcDbLine
 10
2010.5
 20
1405.0
 30
0.0
 11
2010.0
 21
1405.0
 31
0.0
  0
LINE
  5
2D2
100
AcDbEntity
  8
化粧台
  6
CONTINUOUS
 62
     6
100
AcDbLine
 10
2009.0
 20
1408.043552
 30
0.0
 11
2009.0
 21
1406.0
 31
0.0
  0
LINE
  5
2D3
100
AcDbEntity
  8
化粧台
  6
CONTINUOUS
 62
     6
100
AcDbLine
 10
2010.5
 20
1407.0
 30
0.0
 11
2010.5
 21
1405.0
 31
0.0
  0
LINE
  5
2D4
100
AcDbEntity
  8
化粧台
  6
CONTINUOUS
 62
     2
100
AcDbLine
 10
2457.0
 20
1640.0
 30
0.0
 11
2009.0
 21
1640.0
 31
0.0
  0
LINE
  5
2D5
100
AcDbEntity
  8
化粧台
  6
CONTINUOUS
 62
     2
100
AcDbLine
 10
2457.0
 20
1621.0
 30
0.0
 11
2009.0
 21
1621.0
 31
0.0
  0
LINE
  5
2D6
100
AcDbEntity
  8
化粧台
  6
EXLTYPE2
 62
     6
100
AcDbLine
 10
2050.5
 20
1621.0
 30
0.0
 11
2050.5
 21
1571.0
 31
0.0
  0
LINE
  5
2D7
100
AcDbEntity
  8
化粧台
  6
EXLTYPE2
 62
     6
100
AcDbLine
 10
2033.0
 20
1621.0
 30
0.0
 11
2033.0
 21
1571.0
 31
0.0
  0
LINE
  5
2D8
100
AcDbEntity
  8
化粧台
  6
EXLTYPE2
 62
     6
100
AcDbLine
 10
2033.0
 20
1571.0
 30
0.0
 11
2050.5
 21
1571.0
 31
0.0
  0
LINE
  5
2D9
100
AcDbEntity
  8
化粧台
  6
EXLTYPE2
 62
     6
100
AcDbLine
 10
2133.5
 20
1471.0
 30
0.0
 11
2133.5
 21
1531.0
 31
0.0
  0
LINE
  5
2DA
100
AcDbEntity
  8
化粧台
  6
EXLTYPE2
 62
     6
100
AcDbLine
 10
2376.5
 20
1531.0
 30
0.0
 11
2376.5
 21
1456.0
 31
0.0
  0
LINE
  5
2DB
100
AcDbEntity
  8
化粧台
  6
EXLTYPE2
 62
     6
100
AcDbLine
 10
2298.5
 20
1531.0
 30
0.0
 11
2298.5
 21
1456.0
 31
0.0
  0
LINE
  5
2DC
100
AcDbEntity
  8
化粧台
  6
EXLTYPE2
 62
     6
100
AcDbLine
 10
2376.5
 20
1456.0
 30
0.0
 11
2028.5
 21
1456.0
 31
0.0
  0
LINE
  5
2DD
100
AcDbEntity
  8
化粧台
  6
EXLTYPE2
 62
     6
100
AcDbLine
 10
2148.5
 20
1456.0
 30
0.0
 11
2148.5
 21
1531.0
 31
0.0
  0
LINE
  5
2DE
100
AcDbEntity
  8
化粧台
  6
EXLTYPE2
 62
     6
100
AcDbLine
 10
2376.5
 20
1531.0
 30
0.0
 11
2028.5
 21
1531.0
 31
0.0
  0
LINE
  5
2DF
100
AcDbEntity
  8
化粧台
  6
EXLTYPE2
 62
     6
100
AcDbLine
 10
2133.5
 20
1471.0
 30
0.0
 11
2028.5
 21
1471.0
 31
0.0
  0
LINE
  5
2E0
100
AcDbEntity
  8
化粧台
  6
EXLTYPE2
 62
     6
100
AcDbLine
 10
2376.5
 20
1061.0
 30
0.0
 11
2028.5
 21
1061.0
 31
0.0
  0
LINE
  5
2E1
100
AcDbEntity
  8
化粧台
  6
EXLTYPE2
 62
     6
100
AcDbLine
 10
2376.5
 20
1201.0
 30
0.0
 11
2376.5
 21
1061.0
 31
0.0
  0
LINE
  5
2E2
100
AcDbEntity
  8
化粧台
  6
EXLTYPE2
 62
     6
100
AcDbLine
 10
2298.5
 20
1201.0
 30
0.0
 11
2298.5
 21
1061.0
 31
0.0
  0
LINE
  5
2E3
100
AcDbEntity
  8
化粧台
  6
EXLTYPE2
 62
     6
100
AcDbLine
 10
2283.5
 20
1201.0
 30
0.0
 11
2283.5
 21
1076.0
 31
0.0
  0
LINE
  5
2E4
100
AcDbEntity
  8
化粧台
  6
EXLTYPE2
 62
     6
100
AcDbLine
 10
2376.5
 20
1201.0
 30
0.0
 11
2028.5
 21
1201.0
 31
0.0
  0
LINE
  5
2E5
100
AcDbEntity
  8
化粧台
  6
EXLTYPE2
 62
     6
100
AcDbLine
 10
2283.5
 20
1076.0
 30
0.0
 11
2028.5
 21
1076.0
 31
0.0
  0
LINE
  5
2E6
100
AcDbEntity
  8
化粧台
  6
EXLTYPE2
 62
     6
100
AcDbLine
 10
2033.0
 20
1046.0
 30
0.0
 11
2033.0
 21
1031.0
 31
0.0
  0
LINE
  5
2E7
100
AcDbEntity
  8
化粧台
  6
EXLTYPE2
 62
     6
100
AcDbLine
 10
2242.0
 20
941.0
 30
0.0
 11
2242.0
 21
1031.0
 31
0.0
  0
LINE
  5
2E8
100
AcDbEntity
  8
化粧台
  6
EXLTYPE2
 62
     6
100
AcDbLine
 10
2237.0
 20
1046.0
 30
0.0
 11
2237.0
 21
1043.0
 31
0.0
  0
LINE
  5
2E9
100
AcDbEntity
  8
化粧台
  6
EXLTYPE2
 62
     6
100
AcDbLine
 10
2257.0
 20
941.0
 30
0.0
 11
2257.0
 21
1043.0
 31
0.0
  0
LINE
  5
2EA
100
AcDbEntity
  8
化粧台
  6
EXLTYPE2
 62
     6
100
AcDbLine
 10
2409.0
 20
1043.0
 30
0.0
 11
2409.0
 21
1028.0
 31
0.0
  0
LINE
  5
2EB
100
AcDbEntity
  8
化粧台
  6
EXLTYPE2
 62
     6
100
AcDbLine
 10
2033.0
 20
1031.0
 30
0.0
 11
2257.0
 21
1031.0
 31
0.0
  0
LINE
  5
2EC
100
AcDbEntity
  8
化粧台
  6
EXLTYPE2
 62
     6
100
AcDbLine
 10
2409.0
 20
1028.0
 30
0.0
 11
2439.0
 21
1028.0
 31
0.0
  0
LINE
  5
2ED
100
AcDbEntity
  8
化粧台
  6
EXLTYPE2
 62
     6
100
AcDbLine
 10
2237.0
 20
1043.0
 30
0.0
 11
2439.0
 21
1043.0
 31
0.0
  0
LINE
  5
2EE
100
AcDbEntity
  8
化粧台
  6
EXLTYPE2
 62
     6
100
AcDbLine
 10
2033.0
 20
1046.0
 30
0.0
 11
2439.0
 21
1046.0
 31
0.0
  0
LINE
  5
2EF
100
AcDbEntity
  8
化粧台
  6
EXLTYPE2
 62
     6
100
AcDbLine
 10
2442.0
 20
1081.0
 30
0.0
 11
2457.0
 21
1081.0
 31
0.0
  0
LINE
  5
2F0
100
AcDbEntity
  8
化粧台
  6
EXLTYPE2
 62
     6
100
AcDbLine
 10
2442.0
 20
1501.0
 30
0.0
 11
2457.0
 21
1501.0
 31
0.0
  0
LINE
  5
2F1
100
AcDbEntity
  8
化粧台
  6
EXLTYPE2
 62
     6
100
AcDbLine
 10
2442.0
 20
1031.0
 30
0.0
 11
2442.0
 21
1621.0
 31
0.0
  0
LINE
  5
2F2
100
AcDbEntity
  8
化粧台
  6
EXLTYPE2
 62
     6
100
AcDbLine
 10
2439.0
 20
1031.0
 30
0.0
 11
2457.0
 21
1031.0
 31
0.0
  0
LINE
  5
2F3
100
AcDbEntity
  8
化粧台
  6
EXLTYPE2
 62
     6
100
AcDbLine
 10
2439.0
 20
1028.0
 30
0.0
 11
2439.0
 21
1621.0
 31
0.0
  0
ARC
  5
2F4
100
AcDbEntity
  8
化粧台
  6
CONTINUOUS
 62
     2
100
AcDbCircle
 10
2422.0
 20
1805.0
 30
0.0
 40
5.0
100
AcDbArc
 50
357.493195
 51
91.301953
  0
ARC
  5
2F5
100
AcDbEntity
  8
化粧台
  6
CONTINUOUS
 62
     2
100
AcDbCircle
 10
1982.0
 20
1795.0
 30
0.0
 40
5.0
100
AcDbArc
 50
91.301953
 51
214.381811
  0
LINE
  5
2F6
100
AcDbEntity
  8
化粧台
  6
CONTINUOUS
 62
     2
100
AcDbLine
 10
1981.886393
 20
1799.998709
 30
0.0
 11
2421.886393
 21
1809.998709
 31
0.0
  0
LINE
  5
2F7
100
AcDbEntity
  8
化粧台
  6
CONTINUOUS
 62
     2
100
AcDbLine
 10
2426.995215
 20
1804.78131
 30
0.0
 11
2420.00257
 21
1640.0
 31
0.0
  0
LINE
  5
2F8
100
AcDbEntity
  8
化粧台
  6
CONTINUOUS
 62
     2
100
AcDbLine
 10
1977.873536
 20
1792.176475
 30
0.0
 11
2082.0
 21
1640.0
 31
0.0
  0
LINE
  5
2F9
100
AcDbEntity
  8
化粧台
  6
CONTINUOUS
 62
     2
100
AcDbLine
 10
2420.00257
 20
1640.0
 30
0.0
 11
2082.0
 21
1640.0
 31
0.0
  0
LINE
  5
2FA
100
AcDbEntity
  8
化粧台
  6
CONTINUOUS
 62
     2
100
AcDbLine
 10
2372.85
 20
916.5
 30
0.0
 11
2341.15
 21
916.5
 31
0.0
  0
LINE
  5
2FB
100
AcDbEntity
  8
化粧台
  6
CONTINUOUS
 62
     2
100
AcDbLine
 10
2341.15
 20
916.5
 30
0.0
 11
2341.15
 21
941.0
 31
0.0
  0
LINE
  5
2FC
100
AcDbEntity
  8
化粧台
  6
CONTINUOUS
 62
     2
100
AcDbLine
 10
2372.85
 20
941.0
 30
0.0
 11
2372.85
 21
916.5
 31
0.0
  0
ARC
  5
2FD
100
AcDbEntity
  8
化粧台
  6
EXLTYPE2
 62
     6
100
AcDbCircle
 10
2353.811111
 20
1575.0
 30
0.0
 40
174.511111
100
AcDbArc
 50
171.763621
 51
188.236379
  0
LINE
  5
2FE
100
AcDbEntity
  8
化粧台
  6
EXLTYPE2
 62
     6
100
AcDbLine
 10
2181.1
 20
1550.0
 30
0.0
 11
2183.2
 21
1547.9
 31
0.0
  0
LINE
  5
2FF
100
AcDbEntity
  8
化粧台
  6
EXLTYPE2
 62
     6
100
AcDbLine
 10
2216.9
 20
1550.0
 30
0.0
 11
2214.8
 21
1547.9
 31
0.0
  0
LINE
  5
300
100
AcDbEntity
  8
化粧台
  6
EXLTYPE2
 62
     6
100
AcDbLine
 10
2246.0
 20
1581.5
 30
0.0
 11
2243.0
 21
1577.2
 31
0.0
  0
LINE
  5
301
100
AcDbEntity
  8
化粧台
  6
EXLTYPE2
 62
     6
100
AcDbLine
 10
2246.0
 20
1548.5
 30
0.0
 11
2243.0
 21
1552.8
 31
0.0
  0
LINE
  5
302
100
AcDbEntity
  8
化粧台
  6
EXLTYPE2
 62
     6
100
AcDbLine
 10
2243.0
 20
1577.2
 30
0.0
 11
2218.686132
 21
1577.2
 31
0.0
  0
LINE
  5
303
100
AcDbEntity
  8
化粧台
  6
EXLTYPE2
 62
     6
100
AcDbLine
 10
2243.0
 20
1552.8
 30
0.0
 11
2217.282181
 21
1552.8
 31
0.0
  0
LINE
  5
304
100
AcDbEntity
  8
化粧台
  6
EXLTYPE2
 62
     6
100
AcDbLine
 10
2233.686132
 20
1577.2
 30
0.0
 11
2218.340225
 21
1586.2
 31
0.0
  0
LINE
  5
305
100
AcDbEntity
  8
化粧台
  6
EXLTYPE2
 62
     6
100
AcDbLine
 10
2233.686132
 20
1552.8
 30
0.0
 11
2214.8
 21
1541.723744
 31
0.0
  0
LINE
  5
306
100
AcDbEntity
  8
化粧台
  6
EXLTYPE2
 62
     6
100
AcDbLine
 10
2233.686132
 20
1566.25
 30
0.0
 11
2212.4
 21
1566.25
 31
0.0
  0
LINE
  5
307
100
AcDbEntity
  8
化粧台
  6
EXLTYPE2
 62
     6
100
AcDbLine
 10
2233.686132
 20
1563.75
 30
0.0
 11
2212.4
 21
1563.75
 31
0.0
  0
LINE
  5
308
100
AcDbEntity
  8
化粧台
  6
EXLTYPE2
 62
     6
100
AcDbLine
 10
2233.686132
 20
1566.25
 30
0.0
 11
2233.686132
 21
1563.75
 31
0.0
  0
ARC
  5
309
100
AcDbEntity
  8
化粧台
  6
EXLTYPE2
 62
     6
100
AcDbCircle
 10
2044.188889
 20
1575.0
 30
0.0
 40
174.511111
100
AcDbArc
 50
351.763621
 51
352.691455
  0
ARC
  5
30A
100
AcDbEntity
  8
化粧台
  6
EXLTYPE2
 62
     6
100
AcDbCircle
 10
2044.188889
 20
1575.0
 30
0.0
 40
174.511111
100
AcDbArc
 50
0.722327
 51
8.236379
  0
ELLIPSE
  5
30B
100
AcDbEntity
  8
化粧台
  6
EXLTYPE2
 62
     6
100
AcDbEllipse
 10
2217.984157
 20
1565.0
 30
0.0
 11
-0.7019753845999902
 21
-12.200000000000056
 31
0.0
210
0.0
220
0.0
230
1.0
 40
0.215354
 41
3.1415926535898118
 42
4.6221483396039345
  0
ELLIPSE
  5
30C
100
AcDbEntity
  8
化粧台
  6
EXLTYPE2
 62
     6
100
AcDbEllipse
 10
2217.984157
 20
1565.0
 30
0.0
 11
-0.7019753845999902
 21
-12.200000000000056
 31
0.0
210
0.0
220
0.0
230
1.0
 40
0.215354
 41
4.8274107966977384
 42
0.0247811754805761
  0
LINE
  5
30D
100
AcDbEntity
  8
化粧台
  6
EXLTYPE2
 62
     6
100
AcDbLine
 10
2268.5
 20
1578.0
 30
0.0
 11
2262.0
 21
1580.0
 31
0.0
  0
LINE
  5
30E
100
AcDbEntity
  8
化粧台
  6
EXLTYPE2
 62
     6
100
AcDbLine
 10
2281.0
 20
1578.0
 30
0.0
 11
2268.5
 21
1578.0
 31
0.0
  0
LINE
  5
30F
100
AcDbEntity
  8
化粧台
  6
EXLTYPE2
 62
     6
100
AcDbLine
 10
2262.0
 20
1582.5
 30
0.0
 11
2246.0
 21
1582.5
 31
0.0
  0
LINE
  5
310
100
AcDbEntity
  8
化粧台
  6
EXLTYPE2
 62
     6
100
AcDbLine
 10
2268.5
 20
1552.0
 30
0.0
 11
2262.0
 21
1550.0
 31
0.0
  0
LINE
  5
311
100
AcDbEntity
  8
化粧台
  6
EXLTYPE2
 62
     6
100
AcDbLine
 10
2281.0
 20
1552.0
 30
0.0
 11
2268.5
 21
1552.0
 31
0.0
  0
LINE
  5
312
100
AcDbEntity
  8
化粧台
  6
EXLTYPE2
 62
     6
100
AcDbLine
 10
2262.0
 20
1547.5
 30
0.0
 11
2246.0
 21
1547.5
 31
0.0
  0
LINE
  5
313
100
AcDbEntity
  8
化粧台
  6
EXLTYPE2
 62
     6
100
AcDbLine
 10
2281.0
 20
1578.0
 30
0.0
 11
2281.0
 21
1552.0
 31
0.0
  0
LINE
  5
314
100
AcDbEntity
  8
化粧台
  6
EXLTYPE2
 62
     6
100
AcDbLine
 10
2262.0
 20
1582.5
 30
0.0
 11
2262.0
 21
1547.5
 31
0.0
  0
LINE
  5
315
100
AcDbEntity
  8
化粧台
  6
EXLTYPE2
 62
     6
100
AcDbLine
 10
2246.0
 20
1582.5
 30
0.0
 11
2246.0
 21
1547.5
 31
0.0
  0
LINE
  5
316
100
AcDbEntity
  8
化粧台
  6
EXLTYPE2
 62
     6
100
AcDbLine
 10
2390.0
 20
1568.0
 30
0.0
 11
2281.0
 21
1568.0
 31
0.0
  0
LINE
  5
317
100
AcDbEntity
  8
化粧台
  6
EXLTYPE2
 62
     6
100
AcDbLine
 10
2281.0
 20
1562.0
 30
0.0
 11
2390.0
 21
1562.0
 31
0.0
  0
LINE
  5
318
100
AcDbEntity
  8
化粧台
  6
EXLTYPE2
 62
     6
100
AcDbLine
 10
2390.0
 20
1568.0
 30
0.0
 11
2390.0
 21
1562.0
 31
0.0
  0
LINE
  5
319
100
AcDbEntity
  8
化粧台
  6
EXLTYPE2
 62
     6
100
AcDbLine
 10
2225.25
 20
1620.5
 30
0.0
 11
2172.75
 21
1620.5
 31
0.0
  0
ARC
  5
31A
100
AcDbEntity
  8
化粧台
  6
EXLTYPE2
 62
     6
100
AcDbCircle
 10
2222.25
 20
1604.5
 30
0.0
 40
3.0
100
AcDbArc
 50
270.0
 51
0.0
  0
ARC
  5
31B
100
AcDbEntity
  8
化粧台
  6
EXLTYPE2
 62
     6
100
AcDbCircle
 10
2175.75
 20
1604.5
 30
0.0
 40
3.0
100
AcDbArc
 50
180.0
 51
270.0
  0
LINE
  5
31C
100
AcDbEntity
  8
化粧台
  6
EXLTYPE2
 62
     6
100
AcDbLine
 10
2172.75
 20
1620.5
 30
0.0
 11
2172.75
 21
1604.5
 31
0.0
  0
LINE
  5
31D
100
AcDbEntity
  8
化粧台
  6
EXLTYPE2
 62
     6
100
AcDbLine
 10
2222.25
 20
1601.5
 30
0.0
 11
2175.75
 21
1601.5
 31
0.0
  0
LINE
  5
31E
100
AcDbEntity
  8
化粧台
  6
EXLTYPE2
 62
     6
100
AcDbLine
 10
2225.25
 20
1620.5
 30
0.0
 11
2225.25
 21
1604.5
 31
0.0
  0
LINE
  5
31F
100
AcDbEntity
  8
化粧台
  6
EXLTYPE2
 62
     6
100
AcDbLine
 10
2216.9
 20
1600.0
 30
0.0
 11
2216.9
 21
1601.5
 31
0.0
  0
LINE
  5
320
100
AcDbEntity
  8
化粧台
  6
EXLTYPE2
 62
     6
100
AcDbLine
 10
2181.1
 20
1600.0
 30
0.0
 11
2181.1
 21
1601.5
 31
0.0
  0
LINE
  5
321
100
AcDbEntity
  8
化粧台
  6
EXLTYPE2
 62
     6
100
AcDbLine
 10
2227.3
 20
1627.9
 30
0.0
 11
2170.7
 21
1627.9
 31
0.0
  0
LINE
  5
322
100
AcDbEntity
  8
化粧台
  6
EXLTYPE2
 62
     6
100
AcDbLine
 10
2227.3
 20
1635.7
 30
0.0
 11
2170.7
 21
1635.7
 31
0.0
  0
LINE
  5
323
100
AcDbEntity
  8
化粧台
  6
EXLTYPE2
 62
     6
100
AcDbLine
 10
2222.5
 20
1627.9
 30
0.0
 11
2222.5
 21
1620.5
 31
0.0
  0
LINE
  5
324
100
AcDbEntity
  8
化粧台
  6
EXLTYPE2
 62
     6
100
AcDbLine
 10
2175.5
 20
1627.9
 30
0.0
 11
2175.5
 21
1620.5
 31
0.0
  0
LINE
  5
325
100
AcDbEntity
  8
化粧台
  6
EXLTYPE2
 62
     6
100
AcDbLine
 10
2214.8
 20
1547.9
 30
0.0
 11
2183.2
 21
1547.9
 31
0.0
  0
LINE
  5
326
100
AcDbEntity
  8
化粧台
  6
EXLTYPE2
 62
     6
100
AcDbLine
 10
2216.9
 20
1550.0
 30
0.0
 11
2181.1
 21
1550.0
 31
0.0
  0
LINE
  5
327
100
AcDbEntity
  8
化粧台
  6
EXLTYPE2
 62
     6
100
AcDbLine
 10
2243.0
 20
1577.2
 30
0.0
 11
2243.0
 21
1552.8
 31
0.0
  0
LINE
  5
328
100
AcDbEntity
  8
化粧台
  6
EXLTYPE2
 62
     6
100
AcDbLine
 10
2268.5
 20
1578.0
 30
0.0
 11
2268.5
 21
1552.0
 31
0.0
  0
LINE
  5
329
100
AcDbEntity
  8
化粧台
  6
EXLTYPE2
 62
     6
100
AcDbLine
 10
2216.9
 20
1600.0
 30
0.0
 11
2181.1
 21
1600.0
 31
0.0
  0
LINE
  5
32A
100
AcDbEntity
  8
化粧台
  6
EXLTYPE2
 62
     6
100
AcDbLine
 10
2187.328204
 20
1620.5
 30
0.0
 11
2187.328204
 21
1604.5
 31
0.0
  0
LINE
  5
32B
100
AcDbEntity
  8
化粧台
  6
EXLTYPE2
 62
     6
100
AcDbLine
 10
2189.256412
 20
1620.5
 30
0.0
 11
2189.256412
 21
1604.5
 31
0.0
  0
LINE
  5
32C
100
AcDbEntity
  8
化粧台
  6
EXLTYPE2
 62
     6
100
AcDbLine
 10
2208.743588
 20
1620.5
 30
0.0
 11
2208.743588
 21
1604.5
 31
0.0
  0
LINE
  5
32D
100
AcDbEntity
  8
化粧台
  6
EXLTYPE2
 62
     6
100
AcDbLine
 10
2210.671796
 20
1620.5
 30
0.0
 11
2210.671796
 21
1604.5
 31
0.0
  0
LINE
  5
32E
100
AcDbEntity
  8
化粧台
  6
EXLTYPE2
 62
     6
100
AcDbLine
 10
2183.053127
 20
1635.7
 30
0.0
 11
2183.053127
 21
1627.9
 31
0.0
  0
LINE
  5
32F
100
AcDbEntity
  8
化粧台
  6
EXLTYPE2
 62
     6
100
AcDbLine
 10
2186.726451
 20
1635.7
 30
0.0
 11
2186.726451
 21
1627.9
 31
0.0
  0
LINE
  5
330
100
AcDbEntity
  8
化粧台
  6
EXLTYPE2
 62
     6
100
AcDbLine
 10
2211.273549
 20
1635.7
 30
0.0
 11
2211.273549
 21
1627.9
 31
0.0
  0
LINE
  5
331
100
AcDbEntity
  8
化粧台
  6
EXLTYPE2
 62
     6
100
AcDbLine
 10
2214.946873
 20
1635.7
 30
0.0
 11
2214.946873
 21
1627.9
 31
0.0
  0
LINE
  5
332
100
AcDbEntity
  8
化粧台
  6
EXLTYPE2
 62
     6
100
AcDbLine
 10
2227.3
 20
1640.0
 30
0.0
 11
2227.3
 21
1627.9
 31
0.0
  0
LINE
  5
333
100
AcDbEntity
  8
化粧台
  6
EXLTYPE2
 62
     6
100
AcDbLine
 10
2170.7
 20
1640.0
 30
0.0
 11
2170.7
 21
1627.9
 31
0.0
  0
ARC
  5
334
100
AcDbEntity
  8
化粧台
  6
EXLTYPE2
 62
     6
100
AcDbCircle
 10
2233.0
 20
1495.5
 30
0.0
 40
15.0
100
AcDbArc
 50
180.0
 51
270.0
  0
LINE
  5
335
100
AcDbEntity
  8
化粧台
  6
EXLTYPE2
 62
     6
100
AcDbLine
 10
2235.7
 20
1442.5
 30
0.0
 11
2217.0
 21
1442.5
 31
0.0
  0
LINE
  5
336
100
AcDbEntity
  8
化粧台
  6
EXLTYPE2
 62
     6
100
AcDbLine
 10
2180.0
 20
1479.5
 30
0.0
 11
2180.0
 21
1498.2
 31
0.0
  0
LINE
  5
337
100
AcDbEntity
  8
化粧台
  6
EXLTYPE2
 62
     6
100
AcDbLine
 10
2182.75
 20
1461.5
 30
0.0
 11
2182.75
 21
1476.5
 31
0.0
  0
LINE
  5
338
100
AcDbEntity
  8
化粧台
  6
EXLTYPE2
 62
     6
100
AcDbLine
 10
2199.0
 20
1445.25
 30
0.0
 11
2214.0
 21
1445.25
 31
0.0
  0
ARC
  5
339
100
AcDbEntity
  8
化粧台
  6
EXLTYPE2
 62
     6
100
AcDbCircle
 10
2199.0
 20
1461.5
 30
0.0
 40
16.25
100
AcDbArc
 50
180.0
 51
270.0
  0
LINE
  5
33A
100
AcDbEntity
  8
化粧台
  6
EXLTYPE2
 62
     6
100
AcDbLine
 10
2217.0
 20
1442.5
 30
0.0
 11
2214.0
 21
1445.25
 31
0.0
  0
LINE
  5
33B
100
AcDbEntity
  8
化粧台
  6
EXLTYPE2
 62
     6
100
AcDbLine
 10
2180.0
 20
1479.5
 30
0.0
 11
2182.75
 21
1476.5
 31
0.0
  0
LINE
  5
33C
100
AcDbEntity
  8
化粧台
  6
EXLTYPE2
 62
     6
100
AcDbLine
 10
2235.7
 20
1480.5
 30
0.0
 11
2218.0
 21
1480.5
 31
0.0
  0
LINE
  5
33D
100
AcDbEntity
  8
化粧台
  6
EXLTYPE2
 62
     6
100
AcDbLine
 10
2218.0
 20
1480.5
 30
0.0
 11
2218.0
 21
1498.2
 31
0.0
  0
LINE
  5
33E
100
AcDbEntity
  8
化粧台
  6
EXLTYPE2
 62
     6
100
AcDbLine
 10
2253.5
 20
1484.3
 30
0.0
 11
2235.7
 21
1484.3
 31
0.0
  0
LINE
  5
33F
100
AcDbEntity
  8
化粧台
  6
EXLTYPE2
 62
     6
100
AcDbLine
 10
2253.5
 20
1438.7
 30
0.0
 11
2235.7
 21
1438.7
 31
0.0
  0
LINE
  5
340
100
AcDbEntity
  8
化粧台
  6
EXLTYPE2
 62
     6
100
AcDbLine
 10
2253.5
 20
1484.3
 30
0.0
 11
2253.5
 21
1438.7
 31
0.0
  0
LINE
  5
341
100
AcDbEntity
  8
化粧台
  6
EXLTYPE2
 62
     6
100
AcDbLine
 10
2235.7
 20
1484.3
 30
0.0
 11
2235.7
 21
1438.7
 31
0.0
  0
LINE
  5
342
100
AcDbEntity
  8
化粧台
  6
EXLTYPE2
 62
     6
100
AcDbLine
 10
2176.2
 20
1516.0
 30
0.0
 11
2176.2
 21
1498.2
 31
0.0
  0
LINE
  5
343
100
AcDbEntity
  8
化粧台
  6
EXLTYPE2
 62
     6
100
AcDbLine
 10
2221.8
 20
1516.0
 30
0.0
 11
2221.8
 21
1498.2
 31
0.0
  0
LINE
  5
344
100
AcDbEntity
  8
化粧台
  6
EXLTYPE2
 62
     6
100
AcDbLine
 10
2176.2
 20
1516.0
 30
0.0
 11
2221.8
 21
1516.0
 31
0.0
  0
LINE
  5
345
100
AcDbEntity
  8
化粧台
  6
EXLTYPE2
 62
     6
100
AcDbLine
 10
2176.2
 20
1498.2
 30
0.0
 11
2221.8
 21
1498.2
 31
0.0
  0
LINE
  5
346
100
AcDbEntity
  8
化粧台
  6
EXLTYPE2
 62
     6
100
AcDbLine
 10
2220.643357
 20
1514.0
 30
0.0
 11
2220.643357
 21
1498.2
 31
0.0
  0
LINE
  5
347
100
AcDbEntity
  8
化粧台
  6
EXLTYPE2
 62
     6
100
AcDbLine
 10
2177.356643
 20
1514.0
 30
0.0
 11
2177.356643
 21
1498.2
 31
0.0
  0
LINE
  5
348
100
AcDbEntity
  8
化粧台
  6
EXLTYPE2
 62
     6
100
AcDbLine
 10
2209.600712
 20
1514.0
 30
0.0
 11
2209.600712
 21
1498.2
 31
0.0
  0
LINE
  5
349
100
AcDbEntity
  8
化粧台
  6
EXLTYPE2
 62
     6
100
AcDbLine
 10
2206.808329
 20
1514.0
 30
0.0
 11
2206.808329
 21
1498.2
 31
0.0
  0
LINE
  5
34A
100
AcDbEntity
  8
化粧台
  6
EXLTYPE2
 62
     6
100
AcDbLine
 10
2191.191671
 20
1514.0
 30
0.0
 11
2191.191671
 21
1498.2
 31
0.0
  0
LINE
  5
34B
100
AcDbEntity
  8
化粧台
  6
EXLTYPE2
 62
     6
100
AcDbLine
 10
2188.399288
 20
1514.0
 30
0.0
 11
2188.399288
 21
1498.2
 31
0.0
  0
LINE
  5
34C
100
AcDbEntity
  8
化粧台
  6
EXLTYPE2
 62
     6
100
AcDbLine
 10
2251.5
 20
1439.856643
 30
0.0
 11
2235.7
 21
1439.856643
 31
0.0
  0
LINE
  5
34D
100
AcDbEntity
  8
化粧台
  6
EXLTYPE2
 62
     6
100
AcDbLine
 10
2251.5
 20
1483.143357
 30
0.0
 11
2235.7
 21
1483.143357
 31
0.0
  0
LINE
  5
34E
100
AcDbEntity
  8
化粧台
  6
EXLTYPE2
 62
     6
100
AcDbLine
 10
2251.5
 20
1450.899288
 30
0.0
 11
2235.7
 21
1450.899288
 31
0.0
  0
LINE
  5
34F
100
AcDbEntity
  8
化粧台
  6
EXLTYPE2
 62
     6
100
AcDbLine
 10
2251.5
 20
1453.691671
 30
0.0
 11
2235.7
 21
1453.691671
 31
0.0
  0
LINE
  5
350
100
AcDbEntity
  8
化粧台
  6
EXLTYPE2
 62
     6
100
AcDbLine
 10
2251.5
 20
1469.308329
 30
0.0
 11
2235.7
 21
1469.308329
 31
0.0
  0
LINE
  5
351
100
AcDbEntity
  8
化粧台
  6
EXLTYPE2
 62
     6
100
AcDbLine
 10
2251.5
 20
1472.100712
 30
0.0
 11
2235.7
 21
1472.100712
 31
0.0
  0
LINE
  5
352
100
AcDbEntity
  8
化粧台
  6
EXLTYPE2
 62
     6
100
AcDbLine
 10
2183.2
 20
1547.9
 30
0.0
 11
2183.2
 21
1516.0
 31
0.0
  0
LINE
  5
353
100
AcDbEntity
  8
化粧台
  6
EXLTYPE2
 62
     6
100
AcDbLine
 10
2214.8
 20
1547.9
 30
0.0
 11
2214.8
 21
1516.0
 31
0.0
  0
ARC
  5
354
100
AcDbEntity
  8
化粧台
  6
EXLTYPE2
 62
     6
100
AcDbCircle
 10
2341.0
 20
1445.5
 30
0.0
 40
32.0
100
AcDbArc
 50
0.0
 51
90.0
  0
LINE
  5
355
100
AcDbEntity
  8
化粧台
  6
EXLTYPE2
 62
     6
100
AcDbLine
 10
2341.0
 20
1477.5
 30
0.0
 11
2253.5
 21
1477.5
 31
0.0
  0
LINE
  5
356
100
AcDbEntity
  8
化粧台
  6
EXLTYPE2
 62
     6
100
AcDbLine
 10
2341.0
 20
1445.5
 30
0.0
 11
2253.5
 21
1445.5
 31
0.0
  0
LINE
  5
357
100
AcDbEntity
  8
化粧台
  6
EXLTYPE2
 62
     6
100
AcDbLine
 10
2338.5
 20
1396.5
 30
0.0
 11
2338.5
 21
1361.5
 31
0.0
  0
LINE
  5
358
100
AcDbEntity
  8
化粧台
  6
EXLTYPE2
 62
     6
100
AcDbLine
 10
2372.85
 20
1358.85
 30
0.0
 11
2372.85
 21
1333.834963
 31
0.0
  0
LINE
  5
359
100
AcDbEntity
  8
化粧台
  6
EXLTYPE2
 62
     6
100
AcDbLine
 10
2338.5
 20
1361.5
 30
0.0
 11
2341.15
 21
1358.85
 31
0.0
  0
LINE
  5
35A
100
AcDbEntity
  8
化粧台
  6
EXLTYPE2
 62
     6
100
AcDbLine
 10
2375.5
 20
1361.5
 30
0.0
 11
2372.85
 21
1358.85
 31
0.0
  0
LINE
  5
35B
100
AcDbEntity
  8
化粧台
  6
EXLTYPE2
 62
     6
100
AcDbLine
 10
2333.6
 20
1412.5
 30
0.0
 11
2333.6
 21
1396.5
 31
0.0
  0
ARC
  5
35C
100
AcDbEntity
  8
化粧台
  6
EXLTYPE2
 62
     6
100
AcDbCircle
 10
2335.6
 20
1412.5
 30
0.0
 40
2.0
100
AcDbArc
 50
90.0
 51
180.0
  0
LINE
  5
35D
100
AcDbEntity
  8
化粧台
  6
EXLTYPE2
 62
     6
100
AcDbLine
 10
2399.521127
 20
1274.0
 30
0.0
 11
2399.521127
 21
1289.0
 31
0.0
  0
ARC
  5
35E
100
AcDbEntity
  8
化粧台
  6
EXLTYPE2
 62
     6
100
AcDbCircle
 10
2398.021127
 20
1274.0
 30
0.0
 40
1.5
100
AcDbArc
 50
270.0
 51
0.0
  0
LINE
  5
35F
100
AcDbEntity
  8
化粧台
  6
EXLTYPE2
 62
     6
100
AcDbLine
 10
2423.442253
 20
1348.5
 30
0.0
 11
2376.642253
 21
1348.5
 31
0.0
  0
LINE
  5
360
100
AcDbEntity
  8
化粧台
  6
EXLTYPE2
 62
     6
100
AcDbLine
 10
2421.442253
 20
1366.5
 30
0.0
 11
2378.642253
 21
1366.5
 31
0.0
  0
LINE
  5
361
100
AcDbEntity
  8
化粧台
  6
EXLTYPE2
 62
     6
100
AcDbLine
 10
2423.442253
 20
1364.5
 30
0.0
 11
2423.442253
 21
1348.5
 31
0.0
  0
LINE
  5
362
100
AcDbEntity
  8
化粧台
  6
EXLTYPE2
 62
     6
100
AcDbLine
 10
2376.642253
 20
1364.5
 30
0.0
 11
2376.642253
 21
1348.5
 31
0.0
  0
ARC
  5
363
100
AcDbEntity
  8
化粧台
  6
EXLTYPE2
 62
     6
100
AcDbCircle
 10
2421.442253
 20
1364.5
 30
0.0
 40
2.0
100
AcDbArc
 50
0.0
 51
90.0
  0
ARC
  5
364
100
AcDbEntity
  8
化粧台
  6
EXLTYPE2
 62
     6
100
AcDbCircle
 10
2378.642253
 20
1364.5
 30
0.0
 40
2.0
100
AcDbArc
 50
90.0
 51
180.0
  0
LINE
  5
365
100
AcDbEntity
  8
化粧台
  6
EXLTYPE2
 62
     6
100
AcDbLine
 10
2418.542253
 20
1348.5
 30
0.0
 11
2418.542253
 21
1318.5
 31
0.0
  0
LINE
  5
366
100
AcDbEntity
  8
化粧台
  6
EXLTYPE2
 62
     6
100
AcDbLine
 10
2415.892253
 20
1378.128873
 30
0.0
 11
2415.892253
 21
1366.5
 31
0.0
  0
LINE
  5
367
100
AcDbEntity
  8
化粧台
  6
EXLTYPE2
 62
     6
100
AcDbLine
 10
2384.192253
 20
1378.128873
 30
0.0
 11
2384.192253
 21
1366.5
 31
0.0
  0
LINE
  5
368
100
AcDbEntity
  8
化粧台
  6
EXLTYPE2
 62
     6
100
AcDbLine
 10
2339.870011
 20
1412.5
 30
0.0
 11
2339.870011
 21
1396.5
 31
0.0
  0
LINE
  5
369
100
AcDbEntity
  8
化粧台
  6
EXLTYPE2
 62
     6
100
AcDbLine
 10
2398.774648
 20
1274.0
 30
0.0
 11
2398.774648
 21
1289.0
 31
0.0
  0
LINE
  5
36A
100
AcDbEntity
  8
化粧台
  6
EXLTYPE2
 62
     6
100
AcDbLine
 10
2395.343495
 20
1274.0
 30
0.0
 11
2395.343495
 21
1289.0
 31
0.0
  0
LINE
  5
36B
100
AcDbEntity
  8
化粧台
  6
EXLTYPE2
 62
     6
100
AcDbLine
 10
2380.995985
 20
1274.0
 30
0.0
 11
2380.995985
 21
1289.0
 31
0.0
  0
LINE
  5
36C
100
AcDbEntity
  8
化粧台
  6
EXLTYPE2
 62
     6
100
AcDbLine
 10
2376.046268
 20
1274.0
 30
0.0
 11
2376.046268
 21
1289.0
 31
0.0
  0
LINE
  5
36D
100
AcDbEntity
  8
化粧台
  6
EXLTYPE2
 62
     6
100
AcDbLine
 10
2417.172242
 20
1364.5
 30
0.0
 11
2417.172242
 21
1348.5
 31
0.0
  0
LINE
  5
36E
100
AcDbEntity
  8
化粧台
  6
EXLTYPE2
 62
     6
100
AcDbLine
 10
2406.312265
 20
1364.5
 30
0.0
 11
2406.312265
 21
1348.5
 31
0.0
  0
LINE
  5
36F
100
AcDbEntity
  8
化粧台
  6
EXLTYPE2
 62
     6
100
AcDbLine
 10
2393.772242
 20
1364.5
 30
0.0
 11
2393.772242
 21
1348.5
 31
0.0
  0
LINE
  5
370
100
AcDbEntity
  8
化粧台
  6
EXLTYPE2
 62
     6
100
AcDbLine
 10
2382.912265
 20
1364.5
 30
0.0
 11
2382.912265
 21
1348.5
 31
0.0
  0
ARC
  5
371
100
AcDbEntity
  8
化粧台
  6
EXLTYPE2
 62
     6
100
AcDbCircle
 10
2378.521127
 20
1378.128873
 30
0.0
 40
37.371127
100
AcDbArc
 50
0.0
 51
180.0
  0
ARC
  5
372
100
AcDbEntity
  8
化粧台
  6
EXLTYPE2
 62
     6
100
AcDbCircle
 10
2378.521127
 20
1378.128873
 30
0.0
 40
5.671127
100
AcDbArc
 50
0.0
 51
180.0
  0
LINE
  5
373
100
AcDbEntity
  8
化粧台
  6
EXLTYPE2
 62
     6
100
AcDbLine
 10
2350.729989
 20
1412.5
 30
0.0
 11
2350.729989
 21
1403.113944
 31
0.0
  0
LINE
  5
374
100
AcDbEntity
  8
化粧台
  6
EXLTYPE2
 62
     6
100
AcDbLine
 10
2345.977267
 20
1396.5
 30
0.0
 11
2333.6
 21
1396.5
 31
0.0
  0
LINE
  5
375
100
AcDbEntity
  8
化粧台
  6
EXLTYPE2
 62
     6
100
AcDbLine
 10
2375.5
 20
1382.928297
 30
0.0
 11
2375.5
 21
1361.5
 31
0.0
  0
LINE
  5
376
100
AcDbEntity
  8
化粧台
  6
EXLTYPE2
 62
     6
100
AcDbLine
 10
2369.933796
 20
1414.5
 30
0.0
 11
2335.6
 21
1414.5
 31
0.0
  0
LINE
  5
377
100
AcDbEntity
  8
化粧台
  6
EXLTYPE2
 62
     6
100
AcDbLine
 10
2381.542253
 20
1348.5
 30
0.0
 11
2381.542253
 21
1318.5
 31
0.0
  0
LINE
  5
378
100
AcDbEntity
  8
化粧台
  6
EXLTYPE2
 62
     6
100
AcDbLine
 10
2418.542253
 20
1318.5
 30
0.0
 11
2381.542253
 21
1318.5
 31
0.0
  0
LINE
  5
379
100
AcDbEntity
  8
化粧台
  6
EXLTYPE2
 62
     6
100
AcDbLine
 10
2396.021127
 20
1296.850662
 30
0.0
 11
2396.021127
 21
1289.0
 31
0.0
  0
ARC
  5
37A
100
AcDbEntity
  8
化粧台
  6
EXLTYPE2
 62
     6
100
AcDbCircle
 10
2378.521127
 20
1329.871127
 30
0.0
 40
37.371127
100
AcDbArc
 50
265.207599
 51
342.285405
  0
LINE
  5
37B
100
AcDbEntity
  8
化粧台
  6
EXLTYPE2
 62
     6
100
AcDbLine
 10
2399.521127
 20
1289.0
 30
0.0
 11
2372.85
 21
1289.0
 31
0.0
  0
LINE
  5
37C
100
AcDbEntity
  8
化粧台
  6
EXLTYPE2
 62
     6
100
AcDbLine
 10
2398.021127
 20
1272.5
 30
0.0
 11
2372.85
 21
1272.5
 31
0.0
  0
ARC
  5
37D
100
AcDbEntity
  8
化粧台
  6
EXLTYPE2
 62
     6
100
AcDbCircle
 10
2377.196127
 20
1326.45397
 30
0.0
 40
4.346127
100
AcDbArc
 50
180.0
 51
0.0
  0
LINE
  5
37E
100
AcDbEntity
  8
化粧台
  6
EXLTYPE2
 62
     6
100
AcDbLine
 10
2341.0
 20
1414.5
 30
0.0
 11
2341.0
 21
1445.5
 31
0.0
  0
LINE
  5
37F
100
AcDbEntity
  8
化粧台
  6
EXLTYPE2
 62
     6
100
AcDbLine
 10
2373.0
 20
1415.08991
 30
0.0
 11
2373.0
 21
1445.5
 31
0.0
  0
LINE
  5
380
100
AcDbEntity
  8
化粧台
  6
EXLTYPE2
 62
     6
100
AcDbLine
 10
2217.0
 20
1442.5
 30
0.0
 11
2217.0
 21
1479.5
 31
0.0
  0
LINE
  5
381
100
AcDbEntity
  8
化粧台
  6
EXLTYPE2
 62
     6
100
AcDbLine
 10
2214.0
 20
1445.25
 30
0.0
 11
2214.0
 21
1476.5
 31
0.0
  0
LINE
  5
382
100
AcDbEntity
  8
化粧台
  6
EXLTYPE2
 62
     6
100
AcDbLine
 10
2199.0
 20
1461.5
 30
0.0
 11
2218.0
 21
1480.5
 31
0.0
  0
LINE
  5
383
100
AcDbEntity
  8
化粧台
  6
EXLTYPE2
 62
     6
100
AcDbLine
 10
2182.75
 20
1476.5
 30
0.0
 11
2214.0
 21
1476.5
 31
0.0
  0
LINE
  5
384
100
AcDbEntity
  8
化粧台
  6
EXLTYPE2
 62
     6
100
AcDbLine
 10
2180.0
 20
1479.5
 30
0.0
 11
2217.0
 21
1479.5
 31
0.0
  0
LINE
  5
385
100
AcDbEntity
  8
化粧台
  6
EXLTYPE2
 62
     6
100
AcDbLine
 10
2334.2
 20
1003.2
 30
0.0
 11
2379.8
 21
1003.2
 31
0.0
  0
LINE
  5
386
100
AcDbEntity
  8
化粧台
  6
EXLTYPE2
 62
     6
100
AcDbLine
 10
2334.2
 20
1021.0
 30
0.0
 11
2379.8
 21
1021.0
 31
0.0
  0
LINE
  5
387
100
AcDbEntity
  8
化粧台
  6
EXLTYPE2
 62
     6
100
AcDbLine
 10
2379.8
 20
1021.0
 30
0.0
 11
2379.8
 21
1003.2
 31
0.0
  0
LINE
  5
388
100
AcDbEntity
  8
化粧台
  6
EXLTYPE2
 62
     6
100
AcDbLine
 10
2334.2
 20
1021.0
 30
0.0
 11
2334.2
 21
1003.2
 31
0.0
  0
LINE
  5
389
100
AcDbEntity
  8
化粧台
  6
EXLTYPE2
 62
     6
100
AcDbLine
 10
2323.5
 20
963.0
 30
0.0
 11
2390.5
 21
963.0
 31
0.0
  0
LINE
  5
38A
100
AcDbEntity
  8
化粧台
  6
EXLTYPE2
 62
     6
100
AcDbLine
 10
2336.3
 20
1003.2
 30
0.0
 11
2336.3
 21
1001.0
 31
0.0
  0
LINE
  5
38B
100
AcDbEntity
  8
化粧台
  6
EXLTYPE2
 62
     6
100
AcDbLine
 10
2377.7
 20
1003.2
 30
0.0
 11
2377.7
 21
1001.0
 31
0.0
  0
LINE
  5
38C
100
AcDbEntity
  8
化粧台
  6
EXLTYPE2
 62
     6
100
AcDbLine
 10
2390.5
 20
983.0
 30
0.0
 11
2390.5
 21
963.0
 31
0.0
  0
ARC
  5
38D
100
AcDbEntity
  8
化粧台
  6
EXLTYPE2
 62
     6
100
AcDbCircle
 10
2387.5
 20
983.0
 30
0.0
 40
3.0
100
AcDbArc
 50
0.0
 51
90.0
  0
LINE
  5
38E
100
AcDbEntity
  8
化粧台
  6
EXLTYPE2
 62
     6
100
AcDbLine
 10
2384.0
 20
998.0
 30
0.0
 11
2384.0
 21
986.0
 31
0.0
  0
ARC
  5
38F
100
AcDbEntity
  8
化粧台
  6
EXLTYPE2
 62
     6
100
AcDbCircle
 10
2381.0
 20
998.0
 30
0.0
 40
3.0
100
AcDbArc
 50
0.0
 51
90.0
  0
LINE
  5
390
100
AcDbEntity
  8
化粧台
  6
EXLTYPE2
 62
     6
100
AcDbLine
 10
2330.0
 20
998.0
 30
0.0
 11
2330.0
 21
986.0
 31
0.0
  0
LINE
  5
391
100
AcDbEntity
  8
化粧台
  6
EXLTYPE2
 62
     6
100
AcDbLine
 10
2333.0
 20
1001.0
 30
0.0
 11
2381.0
 21
1001.0
 31
0.0
  0
ARC
  5
392
100
AcDbEntity
  8
化粧台
  6
EXLTYPE2
 62
     6
100
AcDbCircle
 10
2333.0
 20
998.0
 30
0.0
 40
3.0
100
AcDbArc
 50
90.0
 51
180.0
  0
LINE
  5
393
100
AcDbEntity
  8
化粧台
  6
EXLTYPE2
 62
     6
100
AcDbLine
 10
2323.5
 20
983.0
 30
0.0
 11
2323.5
 21
963.0
 31
0.0
  0
LINE
  5
394
100
AcDbEntity
  8
化粧台
  6
EXLTYPE2
 62
     6
100
AcDbLine
 10
2326.5
 20
986.0
 30
0.0
 11
2387.5
 21
986.0
 31
0.0
  0
ARC
  5
395
100
AcDbEntity
  8
化粧台
  6
EXLTYPE2
 62
     6
100
AcDbCircle
 10
2326.5
 20
983.0
 30
0.0
 40
3.0
100
AcDbArc
 50
90.0
 51
180.0
  0
LINE
  5
396
100
AcDbEntity
  8
化粧台
  6
EXLTYPE2
 62
     6
100
AcDbLine
 10
2346.399288
 20
1019.0
 30
0.0
 11
2346.399288
 21
1003.2
 31
0.0
  0
LINE
  5
397
100
AcDbEntity
  8
化粧台
  6
EXLTYPE2
 62
     6
100
AcDbLine
 10
2349.191671
 20
1019.0
 30
0.0
 11
2349.191671
 21
1003.2
 31
0.0
  0
LINE
  5
398
100
AcDbEntity
  8
化粧台
  6
EXLTYPE2
 62
     6
100
AcDbLine
 10
2364.808329
 20
1019.0
 30
0.0
 11
2364.808329
 21
1003.2
 31
0.0
  0
LINE
  5
399
100
AcDbEntity
  8
化粧台
  6
EXLTYPE2
 62
     6
100
AcDbLine
 10
2367.600712
 20
1019.0
 30
0.0
 11
2367.600712
 21
1003.2
 31
0.0
  0
LINE
  5
39A
100
AcDbEntity
  8
化粧台
  6
EXLTYPE2
 62
     6
100
AcDbLine
 10
2335.356643
 20
1019.0
 30
0.0
 11
2335.356643
 21
1003.2
 31
0.0
  0
LINE
  5
39B
100
AcDbEntity
  8
化粧台
  6
EXLTYPE2
 62
     6
100
AcDbLine
 10
2378.643357
 20
1019.0
 30
0.0
 11
2378.643357
 21
1003.2
 31
0.0
  0
LINE
  5
39C
100
AcDbEntity
  8
化粧台
  6
EXLTYPE2
 62
     6
100
AcDbLine
 10
2341.15
 20
941.0
 30
0.0
 11
2341.15
 21
1378.128873
 31
0.0
  0
LINE
  5
39D
100
AcDbEntity
  8
化粧台
  6
EXLTYPE2
 62
     6
100
AcDbLine
 10
2372.85
 20
1378.128873
 30
0.0
 11
2372.85
 21
941.0
 31
0.0
  0
LINE
  5
39E
100
AcDbEntity
  8
化粧台
  6
EXLTYPE2
 62
     6
100
AcDbLine
 10
2315.325036
 20
1502.636114
 30
0.0
 11
2321.266644
 21
1501.801075
 31
0.0
  0
LINE
  5
39F
100
AcDbEntity
  8
化粧台
  6
EXLTYPE2
 62
     6
100
AcDbLine
 10
2334.630271
 20
1640.0
 30
0.0
 11
2315.325036
 21
1502.636114
 31
0.0
  0
LINE
  5
3A0
100
AcDbEntity
  8
化粧台
  6
EXLTYPE2
 62
     6
100
AcDbLine
 10
2321.266644
 20
1501.801075
 30
0.0
 11
2340.689237
 21
1640.0
 31
0.0
  0
LINE
  5
3A1
100
AcDbEntity
  8
化粧台
  6
EXLTYPE3
 62
     6
100
AcDbLine
 10
2357.0
 20
901.5
 30
0.0
 11
2357.0
 21
1163.5
 31
0.0
  0
LINE
  5
3A2
100
AcDbEntity
  8
化粧台
  6
CONTINUOUS
 62
     6
100
AcDbLine
 10
2372.0
 20
1341.0
 30
0.0
 11
2372.0
 21
1281.0
 31
0.0
  0
LINE
  5
3A3
100
AcDbEntity
  8
化粧台
  6
EXLTYPE3
 62
     6
100
AcDbLine
 10
2199.0
 20
1660.0
 30
0.0
 11
2199.0
 21
1465.0
 31
0.0
  0
LINE
  5
3A4
100
AcDbEntity
  8
化粧台
  6
CONTINUOUS
 62
     6
100
AcDbLine
 10
2457.0
 20
1523.0
 30
0.0
 11
2489.5
 21
1521.0
 31
0.0
  0
LINE
  5
3A5
100
AcDbEntity
  8
化粧台
  6
CONTINUOUS
 62
     6
100
AcDbLine
 10
2489.5
 20
1521.0
 30
0.0
 11
2457.0
 21
1519.0
 31
0.0
  0
LINE
  5
3A6
100
AcDbEntity
  8
化粧台
  6
CONTINUOUS
 62
     6
100
AcDbLine
 10
2439.0
 20
1528.5
 30
0.0
 11
2438.0
 21
1528.5
 31
0.0
  0
LINE
  5
3A7
100
AcDbEntity
  8
化粧台
  6
CONTINUOUS
 62
     6
100
AcDbLine
 10
2439.0
 20
1513.5
 30
0.0
 11
2438.0
 21
1513.5
 31
0.0
  0
ARC
  5
3A8
100
AcDbEntity
  8
化粧台
  6
CONTINUOUS
 62
     6
100
AcDbCircle
 10
2439.039655
 20
1521.0
 30
0.0
 40
3.939655
100
AcDbArc
 50
105.301302
 51
254.698698
  0
LINE
  5
3A9
100
AcDbEntity
  8
化粧台
  6
CONTINUOUS
 62
     6
100
AcDbLine
 10
2438.0
 20
1528.5
 30
0.0
 11
2438.0
 21
1513.5
 31
0.0
  0
LINE
  5
3AA
100
AcDbEntity
  8
化粧台
  6
CONTINUOUS
 62
     6
100
AcDbLine
 10
2425.1
 20
1521.0
 30
0.0
 11
2499.5
 21
1521.0
 31
0.0
  0
LINE
  5
3AB
100
AcDbEntity
  8
化粧台
  6
CONTINUOUS
 62
     6
100
AcDbLine
 10
2366.5
 20
933.0
 30
0.0
 11
2387.5
 21
933.0
 31
0.0
  0
LINE
  5
3AC
100
AcDbEntity
  8
化粧台
  6
EXLTYPE3
 62
     6
100
AcDbLine
 10
2377.0
 20
1151.0
 30
0.0
 11
2377.0
 21
923.0
 31
0.0
  0
LINE
  5
3AD
100
AcDbEntity
  8
化粧台
  6
EXLTYPE4
 62
     6
100
AcDbLine
 10
2387.5
 20
1141.0
 30
0.0
 11
2387.5
 21
933.0
 31
0.0
  0
LINE
  5
3AE
100
AcDbEntity
  8
化粧台
  6
EXLTYPE4
 62
     6
100
AcDbLine
 10
2366.5
 20
1141.0
 30
0.0
 11
2366.5
 21
933.0
 31
0.0
  0
LINE
  5
3AF
100
AcDbEntity
  8
化粧台
  6
EXLTYPE2
 62
     6
100
AcDbLine
 10
2400.0
 20
1370.5
 30
0.0
 11
2457.0
 21
1370.5
 31
0.0
  0
LINE
  5
3B0
100
AcDbEntity
  8
化粧台
  6
EXLTYPE2
 62
     6
100
AcDbLine
 10
2400.0
 20
1391.5
 30
0.0
 11
2457.0
 21
1391.5
 31
0.0
  0
LINE
  5
3B1
100
AcDbEntity
  8
化粧台
  6
CONTINUOUS
 62
     6
100
AcDbLine
 10
2457.0
 20
1370.5
 30
0.0
 11
2465.0
 21
1370.5
 31
0.0
  0
LINE
  5
3B2
100
AcDbEntity
  8
化粧台
  6
CONTINUOUS
 62
     6
100
AcDbLine
 10
2465.0
 20
1391.5
 30
0.0
 11
2465.0
 21
1370.5
 31
0.0
  0
LINE
  5
3B3
100
AcDbEntity
  8
化粧台
  6
CONTINUOUS
 62
     6
100
AcDbLine
 10
2457.0
 20
1391.5
 30
0.0
 11
2465.0
 21
1391.5
 31
0.0
  0
LINE
  5
3B4
100
AcDbEntity
  8
化粧台
  6
EXLTYPE2
 62
     6
100
AcDbLine
 10
2400.0
 20
1393.25
 30
0.0
 11
2398.572541
 21
1395.722432
 31
0.0
  0
LINE
  5
3B5
100
AcDbEntity
  8
化粧台
  6
EXLTYPE2
 62
     6
100
AcDbLine
 10
2400.0
 20
1393.25
 30
0.0
 11
2400.0
 21
1368.75
 31
0.0
  0
LINE
  5
3B6
100
AcDbEntity
  8
化粧台
  6
EXLTYPE2
 62
     6
100
AcDbLine
 10
2398.572541
 20
1395.722432
 30
0.0
 11
2393.0
 21
1395.722432
 31
0.0
  0
LINE
  5
3B7
100
AcDbEntity
  8
化粧台
  6
EXLTYPE2
 62
     6
100
AcDbLine
 10
2357.5
 20
1368.5
 30
0.0
 11
2388.10588
 21
1368.5
 31
0.0
  0
ARC
  5
3B8
100
AcDbEntity
  8
化粧台
  6
EXLTYPE2
 62
     6
100
AcDbCircle
 10
2388.10588
 20
1362.0
 30
0.0
 40
6.5
100
AcDbArc
 50
41.15417
 51
90.0
  0
LINE
  5
3B9
100
AcDbEntity
  8
化粧台
  6
EXLTYPE2
 62
     6
100
AcDbLine
 10
2400.0
 20
1368.75
 30
0.0
 11
2398.572541
 21
1366.277568
 31
0.0
  0
LINE
  5
3BA
100
AcDbEntity
  8
化粧台
  6
EXLTYPE2
 62
     6
100
AcDbLine
 10
2398.572541
 20
1366.277568
 30
0.0
 11
2393.0
 21
1366.277568
 31
0.0
  0
ARC
  5
3BB
100
AcDbEntity
  8
化粧台
  6
EXLTYPE2
 62
     6
100
AcDbCircle
 10
2388.10588
 20
1400.0
 30
0.0
 40
6.5
100
AcDbArc
 50
270.0
 51
318.84583
  0
ARC
  5
3BC
100
AcDbEntity
  8
化粧台
  6
EXLTYPE2
 62
     6
100
AcDbCircle
 10
2386.0
 20
1397.0
 30
0.0
 40
3.5
100
AcDbArc
 50
180.0
 51
270.0
  0
ARC
  5
3BD
100
AcDbEntity
  8
化粧台
  6
EXLTYPE2
 62
     6
100
AcDbCircle
 10
2370.25
 20
1409.7
 30
0.0
 40
11.0
100
AcDbArc
 50
146.944269
 51
213.055731
  0
LINE
  5
3BE
100
AcDbEntity
  8
化粧台
  6
EXLTYPE2
 62
     6
100
AcDbLine
 10
2361.030456
 20
1403.7
 30
0.0
 11
2382.969544
 21
1403.7
 31
0.0
  0
LINE
  5
3BF
100
AcDbEntity
  8
化粧台
  6
EXLTYPE2
 62
     6
100
AcDbLine
 10
2361.030456
 20
1415.7
 30
0.0
 11
2382.969544
 21
1415.7
 31
0.0
  0
ARC
  5
3C0
100
AcDbEntity
  8
化粧台
  6
EXLTYPE2
 62
     6
100
AcDbCircle
 10
2373.75
 20
1409.7
 30
0.0
 40
11.0
100
AcDbArc
 50
326.944269
 51
33.055731
  0
LINE
  5
3C1
100
AcDbEntity
  8
化粧台
  6
EXLTYPE2
 62
     6
100
AcDbLine
 10
2361.5
 20
1397.0
 30
0.0
 11
2361.5
 21
1403.7
 31
0.0
  0
LINE
  5
3C2
100
AcDbEntity
  8
化粧台
  6
EXLTYPE2
 62
     6
100
AcDbLine
 10
2382.5
 20
1397.0
 30
0.0
 11
2382.5
 21
1403.7
 31
0.0
  0
ARC
  5
3C3
100
AcDbEntity
  8
化粧台
  6
EXLTYPE2
 62
     6
100
AcDbCircle
 10
2358.0
 20
1397.0
 30
0.0
 40
3.5
100
AcDbArc
 50
270.0
 51
0.0
  0
LINE
  5
3C4
100
AcDbEntity
  8
化粧台
  6
EXLTYPE2
 62
     6
100
AcDbLine
 10
2344.6
 20
1375.7
 30
0.0
 11
2344.6
 21
1386.3
 31
0.0
  0
LINE
  5
3C5
100
AcDbEntity
  8
化粧台
  6
EXLTYPE2
 62
     6
100
AcDbLine
 10
2357.5
 20
1368.25
 30
0.0
 11
2357.5
 21
1393.75
 31
0.0
  0
ARC
  5
3C6
100
AcDbEntity
  8
化粧台
  6
EXLTYPE2
 62
     6
100
AcDbCircle
 10
2353.725083
 20
1372.25
 30
0.0
 40
5.5
100
AcDbArc
 50
217.187626
 51
313.341758
  0
LINE
  5
3C7
100
AcDbEntity
  8
化粧台
  6
EXLTYPE2
 62
     6
100
AcDbLine
 10
2344.6
 20
1375.7
 30
0.0
 11
2349.34345
 21
1368.925651
 31
0.0
  0
ARC
  5
3C8
100
AcDbEntity
  8
化粧台
  6
EXLTYPE2
 62
     6
100
AcDbCircle
 10
2353.725083
 20
1389.75
 30
0.0
 40
5.5
100
AcDbArc
 50
46.658242
 51
142.812374
  0
LINE
  5
3C9
100
AcDbEntity
  8
化粧台
  6
EXLTYPE2
 62
     6
100
AcDbLine
 10
2344.6
 20
1386.3
 30
0.0
 11
2349.34345
 21
1393.074349
 31
0.0
  0
LINE
  5
3CA
100
AcDbEntity
  8
化粧台
  6
EXLTYPE2
 62
     6
100
AcDbLine
 10
2349.34345
 20
1368.925651
 30
0.0
 11
2349.34345
 21
1393.074349
 31
0.0
  0
LINE
  5
3CB
100
AcDbEntity
  8
化粧台
  6
EXLTYPE2
 62
     6
100
AcDbLine
 10
2357.5
 20
1393.5
 30
0.0
 11
2358.0
 21
1393.5
 31
0.0
  0
LINE
  5
3CC
100
AcDbEntity
  8
化粧台
  6
EXLTYPE2
 62
     6
100
AcDbLine
 10
2339.0
 20
1385.75
 30
0.0
 11
2344.6
 21
1385.75
 31
0.0
  0
LINE
  5
3CD
100
AcDbEntity
  8
化粧台
  6
EXLTYPE2
 62
     6
100
AcDbLine
 10
2339.0
 20
1376.25
 30
0.0
 11
2344.6
 21
1376.25
 31
0.0
  0
LINE
  5
3CE
100
AcDbEntity
  8
化粧台
  6
EXLTYPE2
 62
     6
100
AcDbLine
 10
2339.0
 20
1385.75
 30
0.0
 11
2339.0
 21
1376.25
 31
0.0
  0
LINE
  5
3CF
100
AcDbEntity
  8
化粧台
  6
EXLTYPE2
 62
     6
100
AcDbLine
 10
2386.0
 20
1393.5
 30
0.0
 11
2388.10588
 21
1393.5
 31
0.0
  0
LINE
  5
3D0
100
AcDbEntity
  8
化粧台
  6
CONTINUOUS
 62
     6
100
AcDbLine
 10
2324.0
 20
1381.0
 30
0.0
 11
2480.0
 21
1381.0
 31
0.0
  0
LINE
  5
3D1
100
AcDbEntity
  8
化粧台
  6
EXLTYPE2
 62
     6
100
AcDbLine
 10
2365.5
 20
1415.7
 30
0.0
 11
2365.5
 21
1640.0
 31
0.0
  0
LINE
  5
3D2
100
AcDbEntity
  8
化粧台
  6
EXLTYPE2
 62
     6
100
AcDbLine
 10
2378.5
 20
1415.7
 30
0.0
 11
2378.5
 21
1640.0
 31
0.0
  0
POLYLINE
  5
3D3
100
AcDbEntity
  8
化粧台
  6
CONTINUOUS
 62
     2
100
AcDb2dPolyline
 66
     1
 10
0.0
 20
0.0
 30
0.0
 70
   128
  0
VERTEX
  5
3D4
100
AcDbEntity
  8
化粧台
  6
CONTINUOUS
 62
     2
100
AcDbVertex
100
AcDb2dVertex
 10
2323.017563
 20
1920.981902
 30
0.0
  0
VERTEX
  5
3D5
100
AcDbEntity
  8
化粧台
  6
CONTINUOUS
 62
     2
100
AcDbVertex
100
AcDb2dVertex
 10
2323.017566
 20
1920.978089
 30
0.0
  0
VERTEX
  5
3D6
100
AcDbEntity
  8
化粧台
  6
CONTINUOUS
 62
     2
100
AcDbVertex
100
AcDb2dVertex
 10
2323.017571
 20
1920.967261
 30
0.0
  0
VERTEX
  5
3D7
100
AcDbEntity
  8
化粧台
  6
CONTINUOUS
 62
     2
100
AcDbVertex
100
AcDb2dVertex
 10
2323.017575
 20
1920.950335
 30
0.0
  0
VERTEX
  5
3D8
100
AcDbEntity
  8
化粧台
  6
CONTINUOUS
 62
     2
100
AcDbVertex
100
AcDb2dVertex
 10
2323.017574
 20
1920.928228
 30
0.0
  0
VERTEX
  5
3D9
100
AcDbEntity
  8
化粧台
  6
CONTINUOUS
 62
     2
100
AcDbVertex
100
AcDb2dVertex
 10
2323.017565
 20
1920.901858
 30
0.0
  0
VERTEX
  5
3DA
100
AcDbEntity
  8
化粧台
  6
CONTINUOUS
 62
     2
100
AcDbVertex
100
AcDb2dVertex
 10
2323.017543
 20
1920.87214
 30
0.0
  0
VERTEX
  5
3DB
100
AcDbEntity
  8
化粧台
  6
CONTINUOUS
 62
     2
100
AcDbVertex
100
AcDb2dVertex
 10
2323.017505
 20
1920.839993
 30
0.0
  0
VERTEX
  5
3DC
100
AcDbEntity
  8
化粧台
  6
CONTINUOUS
 62
     2
100
AcDbVertex
100
AcDb2dVertex
 10
2323.017448
 20
1920.806333
 30
0.0
  0
VERTEX
  5
3DD
100
AcDbEntity
  8
化粧台
  6
CONTINUOUS
 62
     2
100
AcDbVertex
100
AcDb2dVertex
 10
2323.017367
 20
1920.772077
 30
0.0
  0
VERTEX
  5
3DE
100
AcDbEntity
  8
化粧台
  6
CONTINUOUS
 62
     2
100
AcDbVertex
100
AcDb2dVertex
 10
2323.017258
 20
1920.738143
 30
0.0
  0
VERTEX
  5
3DF
100
AcDbEntity
  8
化粧台
  6
CONTINUOUS
 62
     2
100
AcDbVertex
100
AcDb2dVertex
 10
2323.017118
 20
1920.705446
 30
0.0
  0
VERTEX
  5
3E0
100
AcDbEntity
  8
化粧台
  6
CONTINUOUS
 62
     2
100
AcDbVertex
100
AcDb2dVertex
 10
2323.016952
 20
1920.675887
 30
0.0
  0
VERTEX
  5
3E1
100
AcDbEntity
  8
化粧台
  6
CONTINUOUS
 62
     2
100
AcDbVertex
100
AcDb2dVertex
 10
2323.016755
 20
1920.648091
 30
0.0
  0
VERTEX
  5
3E2
100
AcDbEntity
  8
化粧台
  6
CONTINUOUS
 62
     2
100
AcDbVertex
100
AcDb2dVertex
 10
2323.016529
 20
1920.62183
 30
0.0
  0
VERTEX
  5
3E3
100
AcDbEntity
  8
化粧台
  6
CONTINUOUS
 62
     2
100
AcDbVertex
100
AcDb2dVertex
 10
2323.016274
 20
1920.59688
 30
0.0
  0
VERTEX
  5
3E4
100
AcDbEntity
  8
化粧台
  6
CONTINUOUS
 62
     2
100
AcDbVertex
100
AcDb2dVertex
 10
2323.015992
 20
1920.573015
 30
0.0
  0
VERTEX
  5
3E5
100
AcDbEntity
  8
化粧台
  6
CONTINUOUS
 62
     2
100
AcDbVertex
100
AcDb2dVertex
 10
2323.015685
 20
1920.550008
 30
0.0
  0
VERTEX
  5
3E6
100
AcDbEntity
  8
化粧台
  6
CONTINUOUS
 62
     2
100
AcDbVertex
100
AcDb2dVertex
 10
2323.015353
 20
1920.527633
 30
0.0
  0
VERTEX
  5
3E7
100
AcDbEntity
  8
化粧台
  6
CONTINUOUS
 62
     2
100
AcDbVertex
100
AcDb2dVertex
 10
2323.014999
 20
1920.505665
 30
0.0
  0
VERTEX
  5
3E8
100
AcDbEntity
  8
化粧台
  6
CONTINUOUS
 62
     2
100
AcDbVertex
100
AcDb2dVertex
 10
2323.014623
 20
1920.483877
 30
0.0
  0
VERTEX
  5
3E9
100
AcDbEntity
  8
化粧台
  6
CONTINUOUS
 62
     2
100
AcDbVertex
100
AcDb2dVertex
 10
2323.014227
 20
1920.462043
 30
0.0
  0
VERTEX
  5
3EA
100
AcDbEntity
  8
化粧台
  6
CONTINUOUS
 62
     2
100
AcDbVertex
100
AcDb2dVertex
 10
2323.013811
 20
1920.439939
 30
0.0
  0
VERTEX
  5
3EB
100
AcDbEntity
  8
化粧台
  6
CONTINUOUS
 62
     2
100
AcDbVertex
100
AcDb2dVertex
 10
2323.013439
 20
1920.420544
 30
0.0
  0
VERTEX
  5
3EC
100
AcDbEntity
  8
化粧台
  6
CONTINUOUS
 62
     2
100
AcDbVertex
100
AcDb2dVertex
 10
2323.013052
 20
1920.400804
 30
0.0
  0
VERTEX
  5
3ED
100
AcDbEntity
  8
化粧台
  6
CONTINUOUS
 62
     2
100
AcDbVertex
100
AcDb2dVertex
 10
2323.01265
 20
1920.380741
 30
0.0
  0
VERTEX
  5
3EE
100
AcDbEntity
  8
化粧台
  6
CONTINUOUS
 62
     2
100
AcDbVertex
100
AcDb2dVertex
 10
2323.01223
 20
1920.360378
 30
0.0
  0
VERTEX
  5
3EF
100
AcDbEntity
  8
化粧台
  6
CONTINUOUS
 62
     2
100
AcDbVertex
100
AcDb2dVertex
 10
2323.011793
 20
1920.339738
 30
0.0
  0
VERTEX
  5
3F0
100
AcDbEntity
  8
化粧台
  6
CONTINUOUS
 62
     2
100
AcDbVertex
100
AcDb2dVertex
 10
2323.011335
 20
1920.318845
 30
0.0
  0
VERTEX
  5
3F1
100
AcDbEntity
  8
化粧台
  6
CONTINUOUS
 62
     2
100
AcDbVertex
100
AcDb2dVertex
 10
2323.010856
 20
1920.29772
 30
0.0
  0
VERTEX
  5
3F2
100
AcDbEntity
  8
化粧台
  6
CONTINUOUS
 62
     2
100
AcDbVertex
100
AcDb2dVertex
 10
2323.010355
 20
1920.276388
 30
0.0
  0
VERTEX
  5
3F3
100
AcDbEntity
  8
化粧台
  6
CONTINUOUS
 62
     2
100
AcDbVertex
100
AcDb2dVertex
 10
2323.009831
 20
1920.254871
 30
0.0
  0
VERTEX
  5
3F4
100
AcDbEntity
  8
化粧台
  6
CONTINUOUS
 62
     2
100
AcDbVertex
100
AcDb2dVertex
 10
2323.009281
 20
1920.233193
 30
0.0
  0
VERTEX
  5
3F5
100
AcDbEntity
  8
化粧台
  6
CONTINUOUS
 62
     2
100
AcDbVertex
100
AcDb2dVertex
 10
2323.008705
 20
1920.211376
 30
0.0
  0
VERTEX
  5
3F6
100
AcDbEntity
  8
化粧台
  6
CONTINUOUS
 62
     2
100
AcDbVertex
100
AcDb2dVertex
 10
2323.008237
 20
1920.194272
 30
0.0
  0
VERTEX
  5
3F7
100
AcDbEntity
  8
化粧台
  6
CONTINUOUS
 62
     2
100
AcDbVertex
100
AcDb2dVertex
 10
2323.007755
 20
1920.177159
 30
0.0
  0
VERTEX
  5
3F8
100
AcDbEntity
  8
化粧台
  6
CONTINUOUS
 62
     2
100
AcDbVertex
100
AcDb2dVertex
 10
2323.007262
 20
1920.1601
 30
0.0
  0
VERTEX
  5
3F9
100
AcDbEntity
  8
化粧台
  6
CONTINUOUS
 62
     2
100
AcDbVertex
100
AcDb2dVertex
 10
2323.00676
 20
1920.143157
 30
0.0
  0
VERTEX
  5
3FA
100
AcDbEntity
  8
化粧台
  6
CONTINUOUS
 62
     2
100
AcDbVertex
100
AcDb2dVertex
 10
2323.006254
 20
1920.126391
 30
0.0
  0
VERTEX
  5
3FB
100
AcDbEntity
  8
化粧台
  6
CONTINUOUS
 62
     2
100
AcDbVertex
100
AcDb2dVertex
 10
2323.005745
 20
1920.109865
 30
0.0
  0
VERTEX
  5
3FC
100
AcDbEntity
  8
化粧台
  6
CONTINUOUS
 62
     2
100
AcDbVertex
100
AcDb2dVertex
 10
2323.005237
 20
1920.09364
 30
0.0
  0
VERTEX
  5
3FD
100
AcDbEntity
  8
化粧台
  6
CONTINUOUS
 62
     2
100
AcDbVertex
100
AcDb2dVertex
 10
2323.004732
 20
1920.077779
 30
0.0
  0
VERTEX
  5
3FE
100
AcDbEntity
  8
化粧台
  6
CONTINUOUS
 62
     2
100
AcDbVertex
100
AcDb2dVertex
 10
2323.004234
 20
1920.062343
 30
0.0
  0
VERTEX
  5
3FF
100
AcDbEntity
  8
化粧台
  6
CONTINUOUS
 62
     2
100
AcDbVertex
100
AcDb2dVertex
 10
2323.003745
 20
1920.047395
 30
0.0
  0
VERTEX
  5
400
100
AcDbEntity
  8
化粧台
  6
CONTINUOUS
 62
     2
100
AcDbVertex
100
AcDb2dVertex
 10
2323.003269
 20
1920.032996
 30
0.0
  0
VERTEX
  5
401
100
AcDbEntity
  8
化粧台
  6
CONTINUOUS
 62
     2
100
AcDbVertex
100
AcDb2dVertex
 10
2323.002977
 20
1920.024282
 30
0.0
  0
VERTEX
  5
402
100
AcDbEntity
  8
化粧台
  6
CONTINUOUS
 62
     2
100
AcDbVertex
100
AcDb2dVertex
 10
2323.002686
 20
1920.015675
 30
0.0
  0
VERTEX
  5
403
100
AcDbEntity
  8
化粧台
  6
CONTINUOUS
 62
     2
100
AcDbVertex
100
AcDb2dVertex
 10
2323.002391
 20
1920.007047
 30
0.0
  0
VERTEX
  5
404
100
AcDbEntity
  8
化粧台
  6
CONTINUOUS
 62
     2
100
AcDbVertex
100
AcDb2dVertex
 10
2323.002086
 20
1919.998266
 30
0.0
  0
VERTEX
  5
405
100
AcDbEntity
  8
化粧台
  6
CONTINUOUS
 62
     2
100
AcDbVertex
100
AcDb2dVertex
 10
2323.001765
 20
1919.989201
 30
0.0
  0
VERTEX
  5
406
100
AcDbEntity
  8
化粧台
  6
CONTINUOUS
 62
     2
100
AcDbVertex
100
AcDb2dVertex
 10
2323.001424
 20
1919.979723
 30
0.0
  0
VERTEX
  5
407
100
AcDbEntity
  8
化粧台
  6
CONTINUOUS
 62
     2
100
AcDbVertex
100
AcDb2dVertex
 10
2323.001057
 20
1919.969701
 30
0.0
  0
VERTEX
  5
408
100
AcDbEntity
  8
化粧台
  6
CONTINUOUS
 62
     2
100
AcDbVertex
100
AcDb2dVertex
 10
2323.000659
 20
1919.959004
 30
0.0
  0
VERTEX
  5
409
100
AcDbEntity
  8
化粧台
  6
CONTINUOUS
 62
     2
100
AcDbVertex
100
AcDb2dVertex
 10
2323.000225
 20
1919.947502
 30
0.0
  0
VERTEX
  5
40A
100
AcDbEntity
  8
化粧台
  6
CONTINUOUS
 62
     2
100
AcDbVertex
100
AcDb2dVertex
 10
2322.99975
 20
1919.935064
 30
0.0
  0
VERTEX
  5
40B
100
AcDbEntity
  8
化粧台
  6
CONTINUOUS
 62
     2
100
AcDbVertex
100
AcDb2dVertex
 10
2322.999227
 20
1919.921559
 30
0.0
  0
VERTEX
  5
40C
100
AcDbEntity
  8
化粧台
  6
CONTINUOUS
 62
     2
100
AcDbVertex
100
AcDb2dVertex
 10
2322.999039
 20
1919.916744
 30
0.0
  0
VERTEX
  5
40D
100
AcDbEntity
  8
化粧台
  6
CONTINUOUS
 62
     2
100
AcDbVertex
100
AcDb2dVertex
 10
2322.99885
 20
1919.911896
 30
0.0
  0
VERTEX
  5
40E
100
AcDbEntity
  8
化粧台
  6
CONTINUOUS
 62
     2
100
AcDbVertex
100
AcDb2dVertex
 10
2322.998663
 20
1919.907118
 30
0.0
  0
VERTEX
  5
40F
100
AcDbEntity
  8
化粧台
  6
CONTINUOUS
 62
     2
100
AcDbVertex
100
AcDb2dVertex
 10
2322.998482
 20
1919.902514
 30
0.0
  0
VERTEX
  5
410
100
AcDbEntity
  8
化粧台
  6
CONTINUOUS
 62
     2
100
AcDbVertex
100
AcDb2dVertex
 10
2322.998312
 20
1919.898188
 30
0.0
  0
VERTEX
  5
411
100
AcDbEntity
  8
化粧台
  6
CONTINUOUS
 62
     2
100
AcDbVertex
100
AcDb2dVertex
 10
2322.998157
 20
1919.894243
 30
0.0
  0
VERTEX
  5
412
100
AcDbEntity
  8
化粧台
  6
CONTINUOUS
 62
     2
100
AcDbVertex
100
AcDb2dVertex
 10
2322.99802
 20
1919.890782
 30
0.0
  0
VERTEX
  5
413
100
AcDbEntity
  8
化粧台
  6
CONTINUOUS
 62
     2
100
AcDbVertex
100
AcDb2dVertex
 10
2322.997907
 20
1919.887911
 30
0.0
  0
VERTEX
  5
414
100
AcDbEntity
  8
化粧台
  6
CONTINUOUS
 62
     2
100
AcDbVertex
100
AcDb2dVertex
 10
2322.997821
 20
1919.885731
 30
0.0
  0
VERTEX
  5
415
100
AcDbEntity
  8
化粧台
  6
CONTINUOUS
 62
     2
100
AcDbVertex
100
AcDb2dVertex
 10
2322.997767
 20
1919.884348
 30
0.0
  0
VERTEX
  5
416
100
AcDbEntity
  8
化粧台
  6
CONTINUOUS
 62
     2
100
AcDbVertex
100
AcDb2dVertex
 10
2322.997747
 20
1919.883863
 30
0.0
  0
SEQEND
  5
417
100
AcDbEntity
  8
化粧台
  6
CONTINUOUS
 62
     2
  0
ARC
  5
418
100
AcDbEntity
  8
化粧台
  6
CONTINUOUS
 62
     2
100
AcDbCircle
 10
2380.107635
 20
1839.377355
 30
0.0
 40
4.0
100
AcDbArc
 50
90.0
 51
152.0
  0
LINE
  5
419
100
AcDbEntity
  8
化粧台
  6
CONTINUOUS
 62
     2
100
AcDbLine
 10
2395.168598
 20
1852.21844
 30
0.0
 11
2395.168598
 21
1840.536271
 31
0.0
  0
ARC
  5
41A
100
AcDbEntity
  8
化粧台
  6
CONTINUOUS
 62
     2
100
AcDbCircle
 10
2377.617513
 20
1846.377355
 30
0.0
 40
18.551084
100
AcDbArc
 50
342.298207
 51
17.701793
  0
ARC
  5
41B
100
AcDbEntity
  8
化粧台
  6
CONTINUOUS
 62
     2
100
AcDbCircle
 10
2380.668598
 20
1841.651131
 30
0.0
 40
0.5
100
AcDbArc
 50
180.0
 51
266.914712
  0
ARC
  5
41C
100
AcDbEntity
  8
化粧台
  6
CONTINUOUS
 62
     2
100
AcDbCircle
 10
2394.813914
 20
1840.888691
 30
0.0
 40
0.5
100
AcDbArc
 50
266.914712
 51
342.298207
  0
LINE
  5
41D
100
AcDbEntity
  8
化粧台
  6
CONTINUOUS
 62
     2
100
AcDbLine
 10
2380.641687
 20
1841.151855
 30
0.0
 11
2394.787003
 21
1840.389415
 31
0.0
  0
LINE
  5
41E
100
AcDbEntity
  8
化粧台
  6
CONTINUOUS
 62
     2
100
AcDbLine
 10
2316.925576
 20
1934.998321
 30
0.0
 11
2252.030887
 21
1946.441006
 31
0.0
  0
LINE
  5
41F
100
AcDbEntity
  8
化粧台
  6
CONTINUOUS
 62
     2
100
AcDbLine
 10
2230.196642
 20
1890.978998
 30
0.0
 11
2323.0
 21
1874.615262
 31
0.0
  0
LINE
  5
420
100
AcDbEntity
  8
化粧台
  6
CONTINUOUS
 62
     2
100
AcDbLine
 10
2259.847711
 20
1855.287917
 30
0.0
 11
2323.0
 21
1844.152464
 31
0.0
  0
ARC
  5
421
100
AcDbEntity
  8
化粧台
  6
CONTINUOUS
 62
     2
100
AcDbCircle
 10
2380.668598
 20
1851.10358
 30
0.0
 40
0.5
100
AcDbArc
 50
93.085288
 51
180.0
  0
ARC
  5
422
100
AcDbEntity
  8
化粧台
  6
CONTINUOUS
 62
     2
100
AcDbCircle
 10
2394.813914
 20
1851.86602
 30
0.0
 40
0.5
100
AcDbArc
 50
17.701793
 51
93.085288
  0
LINE
  5
423
100
AcDbEntity
  8
化粧台
  6
CONTINUOUS
 62
     2
100
AcDbLine
 10
2380.641687
 20
1851.602855
 30
0.0
 11
2394.787003
 21
1852.365295
 31
0.0
  0
ARC
  5
424
100
AcDbEntity
  8
化粧台
  6
CONTINUOUS
 62
     2
100
AcDbCircle
 10
2371.0
 20
1906.383863
 30
0.0
 40
2.0
100
AcDbArc
 50
0.0
 51
91.599643
  0
LINE
  5
425
100
AcDbEntity
  8
化粧台
  6
CONTINUOUS
 62
     2
100
AcDbLine
 10
2372.5
 20
1902.383863
 30
0.0
 11
2373.0
 21
1901.883863
 31
0.0
  0
LINE
  5
426
100
AcDbEntity
  8
化粧台
  6
CONTINUOUS
 62
     2
100
AcDbLine
 10
2373.0
 20
1906.383863
 30
0.0
 11
2373.0
 21
1902.383863
 31
0.0
  0
ARC
  5
427
100
AcDbEntity
  8
化粧台
  6
CONTINUOUS
 62
     2
100
AcDbCircle
 10
2370.916254
 20
1909.382694
 30
0.0
 40
1.0
100
AcDbArc
 50
192.574283
 51
271.599643
  0
LINE
  5
428
100
AcDbEntity
  8
化粧台
  6
CONTINUOUS
 62
     2
100
AcDbLine
 10
2323.5
 20
1902.383863
 30
0.0
 11
2323.0
 21
1901.883863
 31
0.0
  0
LINE
  5
429
100
AcDbEntity
  8
化粧台
  6
CONTINUOUS
 62
     2
100
AcDbLine
 10
2325.084007
 20
1908.383863
 30
0.0
 11
2325.0
 21
1908.383863
 31
0.0
  0
ARC
  5
42A
100
AcDbEntity
  8
化粧台
  6
CONTINUOUS
 62
     2
100
AcDbCircle
 10
2325.084007
 20
1909.383863
 30
0.0
 40
1.0
100
AcDbArc
 50
270.0
 51
347.422797
  0
LINE
  5
42B
100
AcDbEntity
  8
化粧台
  6
CONTINUOUS
 62
     2
100
AcDbLine
 10
2323.0
 20
1906.383863
 30
0.0
 11
2323.0
 21
1902.383863
 31
0.0
  0
ARC
  5
42C
100
AcDbEntity
  8
化粧台
  6
CONTINUOUS
 62
     2
100
AcDbCircle
 10
2325.0
 20
1906.383863
 30
0.0
 40
2.0
100
AcDbArc
 50
90.0
 51
180.0
  0
ARC
  5
42D
100
AcDbEntity
  8
化粧台
  6
CONTINUOUS
 62
     2
100
AcDbCircle
 10
2348.0
 20
1771.899864
 30
0.0
 40
179.083333
100
AcDbArc
 50
82.537206
 51
97.462794
  0
ARC
  5
42E
100
AcDbEntity
  8
化粧台
  6
CONTINUOUS
 62
     2
100
AcDbCircle
 10
2348.0
 20
1771.899864
 30
0.0
 40
179.083333
100
AcDbArc
 50
82.537206
 51
97.462794
  0
ARC
  5
42F
100
AcDbEntity
  8
化粧台
  6
CONTINUOUS
 62
     2
100
AcDbCircle
 10
2371.0
 20
1947.483197
 30
0.0
 40
2.0
100
AcDbArc
 50
0.0
 51
90.0
  0
ARC
  5
430
100
AcDbEntity
  8
化粧台
  6
CONTINUOUS
 62
     2
100
AcDbCircle
 10
2371.0
 20
1947.483197
 30
0.0
 40
2.0
100
AcDbArc
 50
0.0
 51
90.0
  0
LINE
  5
431
100
AcDbEntity
  8
化粧台
  6
CONTINUOUS
 62
     2
100
AcDbLine
 10
2373.0
 20
1918.618668
 30
0.0
 11
2373.0
 21
1947.483197
 31
0.0
  0
LINE
  5
432
100
AcDbEntity
  8
化粧台
  6
CONTINUOUS
 62
     2
100
AcDbLine
 10
2373.0
 20
1918.618668
 30
0.0
 11
2373.0
 21
1947.483197
 31
0.0
  0
LINE
  5
433
100
AcDbEntity
  8
化粧台
  6
CONTINUOUS
 62
     2
100
AcDbLine
 10
2318.720341
 20
1942.297555
 30
0.0
 11
2319.935879
 21
1949.19121
 31
0.0
  0
ARC
  5
434
100
AcDbEntity
  8
化粧台
  6
CONTINUOUS
 62
     2
100
AcDbCircle
 10
2319.443475
 20
1949.278034
 30
0.0
 40
0.5
100
AcDbArc
 50
350.0
 51
80.0
  0
ARC
  5
435
100
AcDbEntity
  8
化粧台
  6
CONTINUOUS
 62
     2
100
AcDbCircle
 10
2319.994162
 20
1946.642366
 30
0.0
 40
0.5
100
AcDbArc
 50
170.0
 51
260.0
  0
ARC
  5
436
100
AcDbEntity
  8
化粧台
  6
CONTINUOUS
 62
     2
100
AcDbCircle
 10
2317.0124
 20
1935.490725
 30
0.0
 40
0.5
100
AcDbArc
 50
260.0
 51
350.0
  0
ARC
  5
437
100
AcDbEntity
  8
化粧台
  6
CONTINUOUS
 62
     2
100
AcDbCircle
 10
2318.431328
 20
1937.779096
 30
0.0
 40
0.5
100
AcDbArc
 50
80.0
 51
170.0
  0
LINE
  5
438
100
AcDbEntity
  8
化粧台
  6
CONTINUOUS
 62
     2
100
AcDbLine
 10
2317.504804
 20
1935.403901
 30
0.0
 11
2318.720341
 21
1942.297555
 31
0.0
  0
ARC
  5
439
100
AcDbEntity
  8
化粧台
  6
CONTINUOUS
 62
     2
100
AcDbCircle
 10
2328.06944
 20
1925.983863
 30
0.0
 40
7.550071
100
AcDbArc
 50
137.507763
 51
222.492237
  0
ARC
  5
43A
100
AcDbEntity
  8
化粧台
  6
CONTINUOUS
 62
     2
100
AcDbCircle
 10
2325.0
 20
1947.483197
 30
0.0
 40
2.0
100
AcDbArc
 50
90.0
 51
180.0
  0
ARC
  5
43B
100
AcDbEntity
  8
化粧台
  6
CONTINUOUS
 62
     2
100
AcDbCircle
 10
2325.0
 20
1947.483197
 30
0.0
 40
2.0
100
AcDbArc
 50
90.0
 51
180.0
  0
LINE
  5
43C
100
AcDbEntity
  8
化粧台
  6
CONTINUOUS
 62
     2
100
AcDbLine
 10
2323.0
 20
1931.083863
 30
0.0
 11
2322.502253
 21
1931.083863
 31
0.0
  0
ARC
  5
43D
100
AcDbEntity
  8
化粧台
  6
CONTINUOUS
 62
     2
100
AcDbCircle
 10
2301.334229
 20
1863.204123
 30
0.0
 40
78.0
100
AcDbArc
 50
160.150973
 51
174.754975
  0
LINE
  5
43E
100
AcDbEntity
  8
化粧台
  6
CONTINUOUS
 62
     2
100
AcDbLine
 10
2250.070285
 20
1855.667248
 30
0.0
 11
2228.404514
 21
1859.487508
 31
0.0
  0
LINE
  5
43F
100
AcDbEntity
  8
化粧台
  6
CONTINUOUS
 62
     2
100
AcDbLine
 10
2228.404514
 20
1859.487508
 30
0.0
 11
2250.070285
 21
1855.667248
 31
0.0
  0
LINE
  5
440
100
AcDbEntity
  8
化粧台
  6
CONTINUOUS
 62
     2
100
AcDbLine
 10
2250.070285
 20
1855.667248
 30
0.0
 11
2251.155348
 21
1856.062178
 31
0.0
  0
LINE
  5
441
100
AcDbEntity
  8
化粧台
  6
CONTINUOUS
 62
     2
100
AcDbLine
 10
2250.070285
 20
1855.667248
 30
0.0
 11
2251.155348
 21
1856.062178
 31
0.0
  0
LINE
  5
442
100
AcDbEntity
  8
化粧台
  6
CONTINUOUS
 62
     2
100
AcDbLine
 10
2255.402914
 20
1862.875012
 30
0.0
 11
2259.847711
 21
1855.287917
 31
0.0
  0
LINE
  5
443
100
AcDbEntity
  8
化粧台
  6
CONTINUOUS
 62
     2
100
AcDbLine
 10
2228.404514
 20
1859.487508
 30
0.0
 11
2227.519962
 21
1860.229735
 31
0.0
  0
LINE
  5
444
100
AcDbEntity
  8
化粧台
  6
CONTINUOUS
 62
     2
100
AcDbLine
 10
2228.404514
 20
1859.487508
 30
0.0
 11
2227.519962
 21
1860.229735
 31
0.0
  0
ARC
  5
445
100
AcDbEntity
  8
化粧台
  6
CONTINUOUS
 62
     2
100
AcDbCircle
 10
2225.652451
 20
1870.151675
 30
0.0
 40
2.0
100
AcDbArc
 50
174.754975
 51
260.0
  0
ARC
  5
446
100
AcDbEntity
  8
化粧台
  6
CONTINUOUS
 62
     2
100
AcDbCircle
 10
2229.849346
 20
1889.009383
 30
0.0
 40
2.0
100
AcDbArc
 50
80.0
 51
160.150973
  0
LINE
  5
447
100
AcDbEntity
  8
化粧台
  6
CONTINUOUS
 62
     2
100
AcDbLine
 10
2251.146757
 20
1947.612328
 30
0.0
 11
2253.404184
 21
1960.414829
 31
0.0
  0
ARC
  5
448
100
AcDbEntity
  8
化粧台
  6
CONTINUOUS
 62
     2
100
AcDbCircle
 10
2252.131565
 20
1947.43868
 30
0.0
 40
1.0
100
AcDbArc
 50
170.0
 51
260.0
  0
ARC
  5
449
100
AcDbEntity
  8
化粧台
  6
CONTINUOUS
 62
     2
100
AcDbCircle
 10
2254.388992
 20
1960.241181
 30
0.0
 40
1.0
100
AcDbArc
 50
80.0
 51
170.0
  0
LINE
  5
44A
100
AcDbEntity
  8
化粧台
  6
CONTINUOUS
 62
     2
100
AcDbLine
 10
2323.0
 20
1911.919938
 30
0.0
 11
2323.0
 21
1919.883863
 31
0.0
  0
LINE
  5
44B
100
AcDbEntity
  8
化粧台
  6
CONTINUOUS
 62
     2
100
AcDbLine
 10
2323.0
 20
1911.919938
 30
0.0
 11
2323.0
 21
1925.983863
 31
0.0
  0
LINE
  5
44C
100
AcDbEntity
  8
化粧台
  6
CONTINUOUS
 62
     2
100
AcDbLine
 10
2319.907338
 20
1946.149962
 30
0.0
 11
2323.0
 21
1945.604642
 31
0.0
  0
LINE
  5
44D
100
AcDbEntity
  8
化粧台
  6
CONTINUOUS
 62
     2
100
AcDbLine
 10
2318.518152
 20
1938.2715
 30
0.0
 11
2323.0
 21
1937.48123
 31
0.0
  0
LINE
  5
44E
100
AcDbEntity
  8
化粧台
  6
CONTINUOUS
 62
     2
100
AcDbLine
 10
2348.0
 20
1911.919938
 30
0.0
 11
2373.0
 21
1918.618668
 31
0.0
  0
LINE
  5
44F
100
AcDbEntity
  8
化粧台
  6
CONTINUOUS
 62
     2
100
AcDbLine
 10
2323.0
 20
1911.919938
 30
0.0
 11
2348.0
 21
1911.919938
 31
0.0
  0
ARC
  5
450
100
AcDbEntity
  8
化粧台
  6
CONTINUOUS
 62
     2
100
AcDbCircle
 10
2348.020089
 20
1904.266622
 30
0.0
 40
22.5
100
AcDbArc
 50
160.114148
 51
167.422797
  0
ARC
  5
451
100
AcDbEntity
  8
化粧台
  6
CONTINUOUS
 62
     2
100
AcDbCircle
 10
2347.979911
 20
1904.266622
 30
0.0
 40
22.5
100
AcDbArc
 50
12.574283
 51
34.167204
  0
LINE
  5
452
100
AcDbEntity
  8
化粧台
  6
CONTINUOUS
 62
     2
100
AcDbLine
 10
2380.168598
 20
1851.10358
 30
0.0
 11
2380.168598
 21
1846.377355
 31
0.0
  0
LINE
  5
453
100
AcDbEntity
  8
化粧台
  6
CONTINUOUS
 62
     2
100
AcDbLine
 10
2380.168598
 20
1846.377355
 30
0.0
 11
2380.168598
 21
1841.651131
 31
0.0
  0
LINE
  5
454
100
AcDbEntity
  8
化粧台
  6
CONTINUOUS
 62
     2
100
AcDbLine
 10
2373.0
 20
1901.883863
 30
0.0
 11
2373.0
 21
1840.92022
 31
0.0
  0
LINE
  5
455
100
AcDbEntity
  8
化粧台
  6
CONTINUOUS
 62
     2
100
AcDbLine
 10
2240.630798
 20
1865.479735
 30
0.0
 11
2255.402914
 21
1862.875012
 31
0.0
  0
LINE
  5
456
100
AcDbEntity
  8
化粧台
  6
CONTINUOUS
 62
     2
100
AcDbLine
 10
2225.305155
 20
1868.182059
 30
0.0
 11
2240.630798
 21
1865.479735
 31
0.0
  0
LINE
  5
457
100
AcDbEntity
  8
化粧台
  6
CONTINUOUS
 62
     2
100
AcDbLine
 10
2228.813105
 20
1867.563513
 30
0.0
 11
2227.519962
 21
1860.229735
 31
0.0
  0
LINE
  5
458
100
AcDbEntity
  8
化粧台
  6
CONTINUOUS
 62
     2
100
AcDbLine
 10
2252.448491
 20
1863.395957
 30
0.0
 11
2251.155348
 21
1856.062178
 31
0.0
  0
LINE
  5
459
100
AcDbEntity
  8
化粧台
  6
CONTINUOUS
 62
     2
100
AcDbLine
 10
2323.0
 20
1901.883863
 30
0.0
 11
2323.0
 21
1874.615262
 31
0.0
  0
LINE
  5
45A
100
AcDbEntity
  8
化粧台
  6
CONTINUOUS
 62
     2
100
AcDbLine
 10
2323.0
 20
1945.604642
 30
0.0
 11
2323.0
 21
1947.483197
 31
0.0
  0
LINE
  5
45B
100
AcDbEntity
  8
化粧台
  6
CONTINUOUS
 62
     2
100
AcDbLine
 10
2323.0
 20
1925.983863
 30
0.0
 11
2323.0
 21
1937.48123
 31
0.0
  0
ARC
  5
45C
100
AcDbEntity
  8
化粧台
  6
CONTINUOUS
 62
     2
100
AcDbCircle
 10
2305.583227
 20
1859.383863
 30
0.0
 40
23.137405
100
AcDbArc
 50
318.8295
 51
41.1705
  0
ARC
  5
45D
100
AcDbEntity
  8
化粧台
  6
CONTINUOUS
 62
     2
100
AcDbCircle
 10
2318.184406
 20
1941.542936
 30
0.0
 40
6.299794
100
AcDbArc
 50
319.854088
 51
40.145912
  0
LINE
  5
45E
100
AcDbEntity
  8
化粧台
  6
CONTINUOUS
 62
     2
100
AcDbLine
 10
2348.0
 20
1902.383863
 30
0.0
 11
2373.0
 21
1902.383863
 31
0.0
  0
LINE
  5
45F
100
AcDbEntity
  8
化粧台
  6
CONTINUOUS
 62
     2
100
AcDbLine
 10
2323.0
 20
1902.383863
 30
0.0
 11
2348.0
 21
1902.383863
 31
0.0
  0
LINE
  5
460
100
AcDbEntity
  8
化粧台
  6
CONTINUOUS
 62
     2
100
AcDbLine
 10
2319.34451
 20
1949.803197
 30
0.0
 11
2254.56264
 21
1961.225989
 31
0.0
  0
ARC
  5
461
100
AcDbEntity
  8
化粧台
  6
CONTINUOUS
 62
     2
100
AcDbCircle
 10
2380.107635
 20
1839.377355
 30
0.0
 40
10.0
100
AcDbArc
 50
90.0
 51
135.297068
  0
LINE
  5
462
100
AcDbEntity
  8
化粧台
  6
CONTINUOUS
 62
     2
100
AcDbLine
 10
2373.0
 20
1834.530056
 30
0.0
 11
2376.575844
 21
1841.255241
 31
0.0
  0
LINE
  5
463
100
AcDbEntity
  8
化粧台
  6
CONTINUOUS
 62
     2
100
AcDbLine
 10
2323.0
 20
1844.152464
 30
0.0
 11
2323.0
 21
1807.751291
 31
0.0
  0
LINE
  5
464
100
AcDbEntity
  8
化粧台
  6
CONTINUOUS
 62
     2
100
AcDbLine
 10
2373.0
 20
1840.92022
 30
0.0
 11
2373.0
 21
1808.887655
 31
0.0
  0
LINE
  5
465
100
AcDbEntity
  8
化粧台
  6
EXLTYPE2
 62
     6
100
AcDbLine
 10
2487.0
 20
1427.0
 30
0.0
 11
2430.042253
 21
1427.0
 31
0.0
  0
LINE
  5
466
100
AcDbEntity
  8
化粧台
  6
EXLTYPE2
 62
     6
100
AcDbLine
 10
2487.0
 20
1395.0
 30
0.0
 11
2487.0
 21
1427.0
 31
0.0
  0
LINE
  5
467
100
AcDbEntity
  8
化粧台
  6
EXLTYPE2
 62
     6
100
AcDbLine
 10
2487.0
 20
1395.0
 30
0.0
 11
2430.042253
 21
1395.0
 31
0.0
  0
LINE
  5
468
100
AcDbEntity
  8
化粧台
  6
EXLTYPE3
 62
     6
100
AcDbLine
 10
2494.05
 20
1411.0
 30
0.0
 11
2430.3
 21
1411.0
 31
0.0
  0
LINE
  5
469
100
AcDbEntity
  8
化粧台
  6
CONTINUOUS
 62
     2
100
AcDbLine
 10
2427.0
 20
2691.0
 30
0.0
 11
2427.0
 21
2171.0
 31
0.0
  0
LINE
  5
46A
100
AcDbEntity
  8
化粧台
  6
CONTINUOUS
 62
     2
100
AcDbLine
 10
2457.0
 20
2236.0
 30
0.0
 11
2457.0
 21
2176.0
 31
0.0
  0
LINE
  5
46B
100
AcDbEntity
  8
化粧台
  6
CONTINUOUS
 62
     2
100
AcDbLine
 10
2426.0
 20
2690.0
 30
0.0
 11
2426.0
 21
2171.0
 31
0.0
  0
LINE
  5
46C
100
AcDbEntity
  8
化粧台
  6
CONTINUOUS
 62
     2
100
AcDbLine
 10
2421.0
 20
2690.0
 30
0.0
 11
2426.0
 21
2690.0
 31
0.0
  0
LINE
  5
46D
100
AcDbEntity
  8
化粧台
  6
CONTINUOUS
 62
     2
100
AcDbLine
 10
2439.8
 20
2692.2
 30
0.0
 11
2439.8
 21
2691.0
 31
0.0
  0
LINE
  5
46E
100
AcDbEntity
  8
化粧台
  6
CONTINUOUS
 62
     2
100
AcDbLine
 10
2419.8
 20
2682.2
 30
0.0
 11
2421.0
 21
2682.2
 31
0.0
  0
LINE
  5
46F
100
AcDbEntity
  8
化粧台
  6
CONTINUOUS
 62
     2
100
AcDbLine
 10
2419.8
 20
2692.2
 30
0.0
 11
2439.8
 21
2692.2
 31
0.0
  0
LINE
  5
470
100
AcDbEntity
  8
化粧台
  6
CONTINUOUS
 62
     2
100
AcDbLine
 10
2419.8
 20
2682.2
 30
0.0
 11
2419.8
 21
2692.2
 31
0.0
  0
LINE
  5
471
100
AcDbEntity
  8
化粧台
  6
CONTINUOUS
 62
     2
100
AcDbLine
 10
2421.0
 20
2691.0
 30
0.0
 11
2421.0
 21
2171.0
 31
0.0
  0
LINE
  5
472
100
AcDbEntity
  8
化粧台
  6
CONTINUOUS
 62
     2
100
AcDbLine
 10
2421.0
 20
2691.0
 30
0.0
 11
2444.5
 21
2691.0
 31
0.0
  0
LINE
  5
473
100
AcDbEntity
  8
化粧台
  6
CONTINUOUS
 62
     2
100
AcDbLine
 10
2419.8
 20
2179.8
 30
0.0
 11
2421.0
 21
2179.8
 31
0.0
  0
LINE
  5
474
100
AcDbEntity
  8
化粧台
  6
CONTINUOUS
 62
     2
100
AcDbLine
 10
2439.8
 20
2171.0
 30
0.0
 11
2439.8
 21
2169.8
 31
0.0
  0
LINE
  5
475
100
AcDbEntity
  8
化粧台
  6
CONTINUOUS
 62
     2
100
AcDbLine
 10
2419.8
 20
2169.8
 30
0.0
 11
2439.8
 21
2169.8
 31
0.0
  0
LINE
  5
476
100
AcDbEntity
  8
化粧台
  6
CONTINUOUS
 62
     2
100
AcDbLine
 10
2419.8
 20
2179.8
 30
0.0
 11
2419.8
 21
2169.8
 31
0.0
  0
LINE
  5
477
100
AcDbEntity
  8
化粧台
  6
CONTINUOUS
 62
     2
100
AcDbLine
 10
2421.0
 20
2171.0
 30
0.0
 11
2444.5
 21
2171.0
 31
0.0
  0
LINE
  5
478
100
AcDbEntity
  8
化粧台
  6
CONTINUOUS
 62
     2
100
AcDbLine
 10
2457.0
 20
2690.0
 30
0.0
 11
2457.0
 21
2615.980762
 31
0.0
  0
LINE
  5
479
100
AcDbEntity
  8
化粧台
  6
CONTINUOUS
 62
     2
100
AcDbLine
 10
2457.0
 20
2690.0
 30
0.0
 11
2444.5
 21
2690.0
 31
0.0
  0
LINE
  5
47A
100
AcDbEntity
  8
化粧台
  6
CONTINUOUS
 62
     2
100
AcDbLine
 10
2457.0
 20
2640.0
 30
0.0
 11
2444.5
 21
2661.650635
 31
0.0
  0
LINE
  5
47B
100
AcDbEntity
  8
化粧台
  6
CONTINUOUS
 62
     2
100
AcDbLine
 10
2444.5
 20
2615.980762
 30
0.0
 11
2457.0
 21
2615.980762
 31
0.0
  0
LINE
  5
47C
100
AcDbEntity
  8
化粧台
  6
CONTINUOUS
 62
     2
100
AcDbLine
 10
2444.5
 20
2691.0
 30
0.0
 11
2444.5
 21
2171.0
 31
0.0
  0
LINE
  5
47D
100
AcDbEntity
  8
化粧台
  6
CONTINUOUS
 62
     2
100
AcDbLine
 10
2457.0
 20
2236.0
 30
0.0
 11
2444.5
 21
2236.0
 31
0.0
  0
LINE
  5
47E
100
AcDbEntity
  8
化粧台
  6
CONTINUOUS
 62
     2
100
AcDbLine
 10
2457.0
 20
2206.0
 30
0.0
 11
2444.5
 21
2206.0
 31
0.0
  0
LINE
  5
47F
100
AcDbEntity
  8
化粧台
  6
CONTINUOUS
 62
     2
100
AcDbLine
 10
2457.0
 20
2176.0
 30
0.0
 11
2444.5
 21
2176.0
 31
0.0
  0
LINE
  5
480
100
AcDbEntity
  8
化粧台
  6
CONTINUOUS
 62
     6
100
AcDbLine
 10
2444.8
 20
2176.0
 30
0.0
 11
2454.2
 21
2176.0
 31
0.0
  0
ARC
  5
481
100
AcDbEntity
  8
化粧台
  6
CONTINUOUS
 62
     6
100
AcDbCircle
 10
2449.5
 20
2179.168
 30
0.0
 40
5.668
100
AcDbArc
 50
213.981647
 51
326.018353
  0
LINE
  5
482
100
AcDbEntity
  8
化粧台
  6
CONTINUOUS
 62
     6
100
AcDbLine
 10
2457.0
 20
2632.980762
 30
0.0
 11
2489.5
 21
2630.980762
 31
0.0
  0
LINE
  5
483
100
AcDbEntity
  8
化粧台
  6
CONTINUOUS
 62
     6
100
AcDbLine
 10
2489.5
 20
2630.980762
 30
0.0
 11
2457.0
 21
2628.980762
 31
0.0
  0
LINE
  5
484
100
AcDbEntity
  8
化粧台
  6
CONTINUOUS
 62
     6
100
AcDbLine
 10
2442.0
 20
2630.980762
 30
0.0
 11
2499.5
 21
2630.980762
 31
0.0
  0
LINE
  5
485
100
AcDbEntity
  8
化粧台
  6
CONTINUOUS
 62
     6
100
AcDbLine
 10
2457.0
 20
2193.0
 30
0.0
 11
2489.5
 21
2191.0
 31
0.0
  0
LINE
  5
486
100
AcDbEntity
  8
化粧台
  6
CONTINUOUS
 62
     6
100
AcDbLine
 10
2489.5
 20
2191.0
 30
0.0
 11
2457.0
 21
2189.0
 31
0.0
  0
LINE
  5
487
100
AcDbEntity
  8
化粧台
  6
CONTINUOUS
 62
     6
100
AcDbLine
 10
2442.0
 20
2191.0
 30
0.0
 11
2499.5
 21
2191.0
 31
0.0
  0
TEXT
  5
488
100
AcDbEntity
  8
化粧台
  6
CONTINUOUS
 62
     2
100
AcDbText
 10
2457.0
 20
2971.200001
 30
0.0
 40
60.0
  1
W.L.
 50
90.0
 41
0.4125
  7
EXCADSTD
 72
     5
 11
2457.0
 21
3061.9434
 31
0.0
100
AcDbText
  0
LINE
  5
489
100
AcDbEntity
  8
化粧台
  6
EXLTYPE4
 62
     6
100
AcDbLine
 10
2457.0
 20
941.0
 30
0.0
 11
2457.0
 21
3078.0
 31
0.0
  0
LINE
  5
48A
100
AcDbEntity
  8
寸法
  6
CONTINUOUS
 62
     3
100
AcDbLine
 10
1145.0
 20
916.500003
 30
0.0
 11
1145.0
 21
687.0
 31
0.0
  0
LINE
  5
48B
100
AcDbEntity
  8
寸法
  6
CONTINUOUS
 62
     3
100
AcDbLine
 10
905.0
 20
930.5
 30
0.0
 11
905.0
 21
687.0
 31
0.0
  0
TEXT
  5
48C
100
AcDbEntity
  8
寸法
  6
CONTINUOUS
 62
     2
100
AcDbText
 10
461.0
 20
707.25
 30
0.0
 40
60.0
  1
２４０
 41
0.7
  7
EXCADSTD
 72
     5
 11
611.0
 21
707.25
 31
0.0
100
AcDbText
  0
TEXT
  5
48D
100
AcDbEntity
  8
寸法
  6
CONTINUOUS
 62
     2
100
AcDbText
 10
603.5
 20
707.25
 30
0.0
 40
47.999996
  1
（壁・床排水）
 41
0.66
  7
EXCADSTD
 72
     5
 11
867.499984
 21
707.25
 31
0.0
100
AcDbText
  0
LINE
  5
48E
100
AcDbEntity
  8
寸法
  6
CONTINUOUS
 62
     3
100
AcDbLine
 10
455.749989
 20
702.0
 30
0.0
 11
1190.0
 21
702.0
 31
0.0
  0
LINE
  5
48F
100
AcDbEntity
  8
寸法
  6
CONTINUOUS
 62
     3
100
AcDbLine
 10
860.0
 20
694.5
 30
0.0
 11
905.0
 21
702.0
 31
0.0
  0
LINE
  5
490
100
AcDbEntity
  8
寸法
  6
CONTINUOUS
 62
     3
100
AcDbLine
 10
905.0
 20
702.0
 30
0.0
 11
860.0
 21
709.5
 31
0.0
  0
LINE
  5
491
100
AcDbEntity
  8
寸法
  6
CONTINUOUS
 62
     3
100
AcDbLine
 10
1190.0
 20
709.5
 30
0.0
 11
1145.0
 21
702.0
 31
0.0
  0
LINE
  5
492
100
AcDbEntity
  8
寸法
  6
CONTINUOUS
 62
     3
100
AcDbLine
 10
1145.0
 20
702.0
 30
0.0
 11
1190.0
 21
694.5
 31
0.0
  0
LEADER
  5
493
100
AcDbEntity
  8
寸法
  6
CONTINUOUS
 62
     3
100
AcDbLeader
  3
STANDARD
 73
     3
 74
     1
 75
     0
 40
0.0
 76
     3
 10
1160.85
 20
941.0
 30
0.0
 10
1299.0
 20
738.0
 30
0.0
 10
1729.5
 20
738.0
 30
0.0
 77
     3
1001
ACAD
1000
DSTYLE
1002
{
1070
    41
1040
45.0
1070
     5
1000
_EX_NORM
1070
     6
1000
_EX_NORM
1070
     7
1000
_EX_NORM
1070
   341
1005
2A
1002
}
  0
TEXT
  5
494
100
AcDbEntity
  8
寸法
  6
CONTINUOUS
 62
     2
100
AcDbText
 10
1306.5
 20
803.25
 30
0.0
 40
60.0
  1
ＶＰ･ＶＵ４０･５０
 41
0.62784
  7
EXCADSTD
 72
     5
 11
1738.499998
 21
803.25
 31
0.0
100
AcDbText
  0
TEXT
  5
495
100
AcDbEntity
  8
寸法
  6
CONTINUOUS
 62
     2
100
AcDbText
 10
1306.5
 20
743.25
 30
0.0
 40
60.0
  1
４０～５０㎜立上げ
 41
0.690667
  7
EXCADSTD
 72
     5
 11
1750.499999
 21
743.25
 31
0.0
100
AcDbText
  0
LINE
  5
496
100
AcDbEntity
  8
寸法
  6
CONTINUOUS
 62
     3
100
AcDbLine
 10
2467.5
 20
941.0
 30
0.0
 11
2818.5
 21
941.0
 31
0.0
  0
LINE
  5
497
100
AcDbEntity
  8
寸法
  6
CONTINUOUS
 62
     3
100
AcDbLine
 10
2500.0
 20
1521.0
 30
0.0
 11
2818.5
 21
1521.0
 31
0.0
  0
TEXT
  5
498
100
AcDbEntity
  8
寸法
  6
CONTINUOUS
 62
     2
100
AcDbText
 10
2798.25
 20
1067.5
 30
0.0
 40
60.0
  1
５８０
 50
90.0
 41
0.7
  7
EXCADSTD
 72
     5
 11
2798.25
 21
1217.5
 31
0.0
100
AcDbText
  0
TEXT
  5
499
100
AcDbEntity
  8
寸法
  6
CONTINUOUS
 62
     2
100
AcDbText
 10
2798.25
 20
1210.0
 30
0.0
 40
47.999996
  1
（壁固定）
 50
90.0
 41
0.672
  7
EXCADSTD
 72
     5
 11
2798.25
 21
1401.999989
 31
0.0
100
AcDbText
  0
LINE
  5
49A
100
AcDbEntity
  8
寸法
  6
CONTINUOUS
 62
     3
100
AcDbLine
 10
2803.5
 20
941.0
 30
0.0
 11
2803.5
 21
1521.0
 31
0.0
  0
LINE
  5
49B
100
AcDbEntity
  8
寸法
  6
CONTINUOUS
 62
     3
100
AcDbLine
 10
2796.0
 20
986.0
 30
0.0
 11
2803.5
 21
941.0
 31
0.0
  0
LINE
  5
49C
100
AcDbEntity
  8
寸法
  6
CONTINUOUS
 62
     3
100
AcDbLine
 10
2803.5
 20
941.0
 30
0.0
 11
2811.0
 21
986.0
 31
0.0
  0
LINE
  5
49D
100
AcDbEntity
  8
寸法
  6
CONTINUOUS
 62
     3
100
AcDbLine
 10
2811.0
 20
1476.0
 30
0.0
 11
2803.5
 21
1521.0
 31
0.0
  0
LINE
  5
49E
100
AcDbEntity
  8
寸法
  6
CONTINUOUS
 62
     3
100
AcDbLine
 10
2803.5
 20
1521.0
 30
0.0
 11
2796.0
 21
1476.0
 31
0.0
  0
LINE
  5
49F
100
AcDbEntity
  8
寸法
  6
CONTINUOUS
 62
     3
100
AcDbLine
 10
2357.0
 20
916.500003
 30
0.0
 11
2357.0
 21
687.0
 31
0.0
  0
LINE
  5
4A0
100
AcDbEntity
  8
寸法
  6
CONTINUOUS
 62
     3
100
AcDbLine
 10
2457.0
 20
930.5
 30
0.0
 11
2457.0
 21
687.0
 31
0.0
  0
TEXT
  5
4A1
100
AcDbEntity
  8
寸法
  6
CONTINUOUS
 62
     2
100
AcDbText
 10
2502.0
 20
707.25
 30
0.0
 40
60.0
  1
１００
 41
0.7
  7
EXCADSTD
 72
     5
 11
2652.0
 21
707.25
 31
0.0
100
AcDbText
  0
TEXT
  5
4A2
100
AcDbEntity
  8
寸法
  6
CONTINUOUS
 62
     2
100
AcDbText
 10
2644.5
 20
707.25
 30
0.0
 40
47.999996
  1
（床排水）
 41
0.672
  7
EXCADSTD
 72
     5
 11
2836.499989
 21
707.25
 31
0.0
100
AcDbText
  0
LINE
  5
4A3
100
AcDbEntity
  8
寸法
  6
CONTINUOUS
 62
     3
100
AcDbLine
 10
2312.0
 20
702.0
 30
0.0
 11
2834.249994
 21
702.0
 31
0.0
  0
LINE
  5
4A4
100
AcDbEntity
  8
寸法
  6
CONTINUOUS
 62
     3
100
AcDbLine
 10
2312.0
 20
694.5
 30
0.0
 11
2357.0
 21
702.0
 31
0.0
  0
LINE
  5
4A5
100
AcDbEntity
  8
寸法
  6
CONTINUOUS
 62
     3
100
AcDbLine
 10
2357.0
 20
702.0
 30
0.0
 11
2312.0
 21
709.5
 31
0.0
  0
LINE
  5
4A6
100
AcDbEntity
  8
寸法
  6
CONTINUOUS
 62
     3
100
AcDbLine
 10
2502.0
 20
709.5
 30
0.0
 11
2457.0
 21
702.0
 31
0.0
  0
LINE
  5
4A7
100
AcDbEntity
  8
寸法
  6
CONTINUOUS
 62
     3
100
AcDbLine
 10
2457.0
 20
702.0
 30
0.0
 11
2502.0
 21
694.5
 31
0.0
  0
DIMENSION
  5
4B3
100
AcDbEntity
  8
寸法
  6
CONTINUOUS
 62
     3
100
AcDbDimension
  2
*D15
 10
2457.0
 20
612.0
 30
0.0
 11
2244.5
 21
647.25
 31
0.0
 70
   160
  3
STANDARD
100
AcDbAlignedDimension
 13
2032.0
 23
941.0
 33
0.0
 14
2457.0
 24
941.0
 34
0.0
100
AcDbRotatedDimension
1001
ACAD
1000
DSTYLE
1002
{
1070
     6
1000
_EX_NORM
1070
     7
1000
_EX_NORM
1070
    41
1040
45.0
1070
    42
1040
10.5
1070
    44
1040
15.0
1070
    73
1070
     0
1070
    74
1070
     0
1070
    75
1070
     0
1070
    76
1070
     0
1070
    77
1070
     1
1070
    78
1070
     8
1070
   140
1040
60.0
1070
   147
1040
5.25
1070
   173
1070
     1
1070
   176
1070
     3
1070
   177
1070
     3
1070
   178
1070
     2
1070
   271
1070
     2
1070
   279
1070
     2
1070
   280
1070
     0
1070
   287
1070
     5
1070
   340
1005
10A
1002
}
  0
LINE
  5
4B4
100
AcDbEntity
  8
寸法
  6
CONTINUOUS
 62
     3
100
AcDbLine
 10
855.0
 20
3898.5
 30
0.0
 11
855.0
 21
3966.15
 31
0.0
  0
LINE
  5
4B5
100
AcDbEntity
  8
寸法
  6
CONTINUOUS
 62
     3
100
AcDbLine
 10
955.0
 20
3898.5
 30
0.0
 11
955.0
 21
3966.15
 31
0.0
  0
TEXT
  5
4B6
100
AcDbEntity
  8
寸法
  6
CONTINUOUS
 62
     2
100
AcDbText
 10
741.5
 20
3956.4
 30
0.0
 40
60.0
  1
１００
 41
0.7
  7
EXCADSTD
 72
     5
 11
891.5
 21
3956.4
 31
0.0
100
AcDbText
  0
TEXT
  5
4B7
100
AcDbEntity
  8
寸法
  6
CONTINUOUS
 62
     2
100
AcDbText
 10
884.0
 20
3956.4
 30
0.0
 40
47.999996
  1
（壁給水）
 41
0.672
  7
EXCADSTD
 72
     5
 11
1075.999989
 21
3956.4
 31
0.0
100
AcDbText
  0
LINE
  5
4B8
100
AcDbEntity
  8
寸法
  6
CONTINUOUS
 62
     3
100
AcDbLine
 10
810.0
 20
3951.15
 30
0.0
 11
1000.0
 21
3951.15
 31
0.0
  0
LINE
  5
4B9
100
AcDbEntity
  8
寸法
  6
CONTINUOUS
 62
     3
100
AcDbLine
 10
810.0
 20
3943.65
 30
0.0
 11
855.0
 21
3951.15
 31
0.0
  0
LINE
  5
4BA
100
AcDbEntity
  8
寸法
  6
CONTINUOUS
 62
     3
100
AcDbLine
 10
855.0
 20
3951.15
 30
0.0
 11
810.0
 21
3958.65
 31
0.0
  0
LINE
  5
4BB
100
AcDbEntity
  8
寸法
  6
CONTINUOUS
 62
     3
100
AcDbLine
 10
1000.0
 20
3958.65
 30
0.0
 11
955.0
 21
3951.15
 31
0.0
  0
LINE
  5
4BC
100
AcDbEntity
  8
寸法
  6
CONTINUOUS
 62
     3
100
AcDbLine
 10
955.0
 20
3951.15
 30
0.0
 11
1000.0
 21
3943.65
 31
0.0
  0
LINE
  5
4BD
100
AcDbEntity
  8
寸法
  6
CONTINUOUS
 62
     3
100
AcDbLine
 10
650.0
 20
3923.0
 30
0.0
 11
650.0
 21
4063.5
 31
0.0
  0
LINE
  5
4BE
100
AcDbEntity
  8
寸法
  6
CONTINUOUS
 62
     3
100
AcDbLine
 10
1160.0
 20
3923.0
 30
0.0
 11
1160.0
 21
4063.5
 31
0.0
  0
TEXT
  5
4BF
100
AcDbEntity
  8
寸法
  6
CONTINUOUS
 62
     2
100
AcDbText
 10
741.5
 20
4053.75
 30
0.0
 40
60.0
  1
５１０
 41
0.7
  7
EXCADSTD
 72
     5
 11
891.5
 21
4053.75
 31
0.0
100
AcDbText
  0
TEXT
  5
4C0
100
AcDbEntity
  8
寸法
  6
CONTINUOUS
 62
     2
100
AcDbText
 10
884.0
 20
4053.75
 30
0.0
 40
47.999996
  1
（壁固定）
 41
0.672
  7
EXCADSTD
 72
     5
 11
1075.999989
 21
4053.75
 31
0.0
100
AcDbText
  0
LINE
  5
4C1
100
AcDbEntity
  8
寸法
  6
CONTINUOUS
 62
     3
100
AcDbLine
 10
650.0
 20
4048.5
 30
0.0
 11
1160.0
 21
4048.5
 31
0.0
  0
LINE
  5
4C2
100
AcDbEntity
  8
寸法
  6
CONTINUOUS
 62
     3
100
AcDbLine
 10
695.0
 20
4056.0
 30
0.0
 11
650.0
 21
4048.5
 31
0.0
  0
LINE
  5
4C3
100
AcDbEntity
  8
寸法
  6
CONTINUOUS
 62
     3
100
AcDbLine
 10
650.0
 20
4048.5
 30
0.0
 11
695.0
 21
4041.0
 31
0.0
  0
LINE
  5
4C4
100
AcDbEntity
  8
寸法
  6
CONTINUOUS
 62
     3
100
AcDbLine
 10
1115.0
 20
4041.0
 30
0.0
 11
1160.0
 21
4048.5
 31
0.0
  0
LINE
  5
4C5
100
AcDbEntity
  8
寸法
  6
CONTINUOUS
 62
     3
100
AcDbLine
 10
1160.0
 20
4048.5
 30
0.0
 11
1115.0
 21
4056.0
 31
0.0
  0
DIMENSION
  5
4D0
100
AcDbEntity
  8
寸法
  6
CONTINUOUS
 62
     3
100
AcDbDimension
  2
*D16
 10
1386.0
 20
3430.0
 30
0.0
 11
1350.75
 21
3655.0
 31
0.0
 70
   160
  3
STANDARD
100
AcDbAlignedDimension
 13
1280.0
 23
3880.0
 33
0.0
 14
1280.0
 24
3430.0
 34
0.0
 50
90.0
100
AcDbRotatedDimension
1001
ACAD
1000
DSTYLE
1002
{
1070
     6
1000
_EX_NORM
1070
     7
1000
_EX_NORM
1070
    41
1040
45.0
1070
    42
1040
10.5
1070
    44
1040
15.0
1070
    73
1070
     0
1070
    74
1070
     0
1070
    75
1070
     1
1070
    76
1070
     0
1070
    77
1070
     1
1070
    78
1070
     8
1070
   140
1040
60.0
1070
   147
1040
5.25
1070
   173
1070
     1
1070
   176
1070
     3
1070
   177
1070
     3
1070
   178
1070
     2
1070
   271
1070
     2
1070
   279
1070
     2
1070
   280
1070
     0
1070
   287
1070
     5
1070
   340
1005
10A
1002
}
  0
DIMENSION
  5
4DC
100
AcDbEntity
  8
寸法
  6
CONTINUOUS
 62
     3
100
AcDbDimension
  2
*D17
 10
1280.0
 20
3178.5
 30
0.0
 11
905.0
 21
3213.75
 31
0.0
 70
   160
  3
STANDARD
100
AcDbAlignedDimension
 13
530.0
 23
3430.0
 33
0.0
 14
1280.0
 24
3430.0
 34
0.0
100
AcDbRotatedDimension
1001
ACAD
1000
DSTYLE
1002
{
1070
     6
1000
_EX_NORM
1070
     7
1000
_EX_NORM
1070
    41
1040
45.0
1070
    42
1040
10.5
1070
    44
1040
15.0
1070
    73
1070
     0
1070
    74
1070
     0
1070
    75
1070
     0
1070
    76
1070
     0
1070
    77
1070
     1
1070
    78
1070
     8
1070
   140
1040
60.0
1070
   147
1040
5.25
1070
   173
1070
     1
1070
   176
1070
     3
1070
   177
1070
     3
1070
   178
1070
     2
1070
   271
1070
     2
1070
   279
1070
     2
1070
   280
1070
     0
1070
   287
1070
     5
1070
   340
1005
10A
1002
}
  0
DIMENSION
  5
4E7
100
AcDbEntity
  8
寸法
  6
CONTINUOUS
 62
     3
100
AcDbDimension
  2
*D18
 10
1476.0
 20
3880.0
 30
0.0
 11
1440.75
 21
3640.0
 31
0.0
 70
   160
  3
STANDARD
100
AcDbAlignedDimension
 13
905.0
 23
3400.0
 33
0.0
 14
1280.0
 24
3880.0
 34
0.0
 50
90.0
100
AcDbRotatedDimension
1001
ACAD
1000
DSTYLE
1002
{
1070
     6
1000
_EX_NORM
1070
     7
1000
_EX_NORM
1070
    41
1040
45.0
1070
    42
1040
10.5
1070
    44
1040
15.0
1070
    73
1070
     0
1070
    74
1070
     0
1070
    75
1070
     0
1070
    76
1070
     1
1070
    77
1070
     1
1070
    78
1070
     8
1070
   140
1040
60.0
1070
   147
1040
5.25
1070
   173
1070
     1
1070
   176
1070
     3
1070
   177
1070
     3
1070
   178
1070
     2
1070
   271
1070
     2
1070
   279
1070
     2
1070
   280
1070
     0
1070
   287
1070
     5
1070
   340
1005
10A
1002
}
  0
DIMENSION
  5
4F3
100
AcDbEntity
  8
寸法
  6
CONTINUOUS
 62
     3
100
AcDbDimension
  2
*D19
 10
1130.0
 20
3268.5
 30
0.0
 11
905.0
 21
3303.75
 31
0.0
 70
   160
  1
%%c<>
  3
STANDARD
100
AcDbAlignedDimension
 13
680.0
 23
3625.0
 33
0.0
 14
1130.0
 24
3625.0
 34
0.0
100
AcDbRotatedDimension
1001
ACAD
1000
DSTYLE
1002
{
1070
     6
1000
_EX_NORM
1070
     7
1000
_EX_NORM
1070
    41
1040
45.0
1070
    42
1040
10.5
1070
    44
1040
15.0
1070
    73
1070
     0
1070
    74
1070
     0
1070
    75
1070
     0
1070
    76
1070
     0
1070
    77
1070
     1
1070
    78
1070
     8
1070
   140
1040
60.0
1070
   147
1040
5.25
1070
   173
1070
     1
1070
   176
1070
     3
1070
   177
1070
     3
1070
   178
1070
     2
1070
   271
1070
     2
1070
   279
1070
     2
1070
   280
1070
     0
1070
   287
1070
     5
1070
   340
1005
10A
1002
}
  0
DIMENSION
  5
4FE
100
AcDbEntity
  8
寸法
  6
CONTINUOUS
 62
     3
100
AcDbDimension
  2
*D20
 10
1395.0
 20
1640.0
 30
0.0
 11
1359.75
 21
1290.5
 31
0.0
 70
   160
  3
STANDARD
100
AcDbAlignedDimension
 13
1278.0
 23
941.0
 33
0.0
 14
1280.0
 24
1640.0
 34
0.0
 50
90.0
100
AcDbRotatedDimension
1001
ACAD
1000
DSTYLE
1002
{
1070
     6
1000
_EX_NORM
1070
     7
1000
_EX_NORM
1070
    41
1040
45.0
1070
    42
1040
10.5
1070
    44
1040
15.0
1070
    73
1070
     0
1070
    74
1070
     0
1070
    75
1070
     1
1070
    76
1070
     0
1070
    77
1070
     1
1070
    78
1070
     8
1070
   140
1040
60.0
1070
   147
1040
5.25
1070
   173
1070
     1
1070
   176
1070
     3
1070
   177
1070
     3
1070
   178
1070
     2
1070
   271
1070
     2
1070
   279
1070
     2
1070
   280
1070
     0
1070
   287
1070
     5
1070
   340
1005
10A
1002
}
  0
DIMENSION
  5
508
100
AcDbEntity
  8
寸法
  6
CONTINUOUS
 62
     3
100
AcDbDimension
  2
*D21
 10
1485.0
 20
1810.0
 30
0.0
 11
1449.75
 21
1375.5
 31
0.0
 70
   160
  3
STANDARD
100
AcDbAlignedDimension
 13
1278.0
 23
941.0
 33
0.0
 14
905.0
 24
1810.0
 34
0.0
 50
90.0
100
AcDbRotatedDimension
1001
ACAD
1000
DSTYLE
1002
{
1070
     6
1000
_EX_NORM
1070
     7
1000
_EX_NORM
1070
    41
1040
45.0
1070
    42
1040
0.0
1070
    44
1040
0.0
1070
    73
1070
     0
1070
    74
1070
     0
1070
    75
1070
     1
1070
    76
1070
     1
1070
    77
1070
     1
1070
    78
1070
     8
1070
   140
1040
60.0
1070
   147
1040
5.25
1070
   173
1070
     1
1070
   176
1070
     3
1070
   177
1070
     3
1070
   178
1070
     2
1070
   271
1070
     2
1070
   279
1070
     2
1070
   280
1070
     0
1070
   287
1070
     5
1070
   340
1005
10A
1002
}
  0
DIMENSION
  5
513
100
AcDbEntity
  8
寸法
  6
CONTINUOUS
 62
     3
100
AcDbDimension
  2
*D22
 10
2623.5
 20
941.0
 30
0.0
 11
2588.25
 21
1161.0
 31
0.0
 70
   160
  1
440（壁給水）
  3
STANDARD
100
AcDbAlignedDimension
 13
2480.0
 23
1381.0
 33
0.0
 14
2623.5
 24
941.0
 34
0.0
 50
90.0
100
AcDbRotatedDimension
1001
ACAD
1000
DSTYLE
1002
{
1070
     6
1000
_EX_NORM
1070
     7
1000
_EX_NORM
1070
    41
1040
45.0
1070
    42
1040
7.5
1070
    44
1040
15.0
1070
    73
1070
     0
1070
    74
1070
     0
1070
    75
1070
     0
1070
    76
1070
     1
1070
    77
1070
     1
1070
    78
1070
     8
1070
   140
1040
60.0
1070
   147
1040
5.25
1070
   173
1070
     1
1070
   176
1070
     3
1070
   177
1070
     3
1070
   178
1070
     2
1070
   271
1070
     2
1070
   279
1070
     2
1070
   280
1070
     0
1070
   287
1070
     5
1070
   340
1005
10A
1002
}
  0
LINE
  5
514
100
AcDbEntity
  8
寸法
  6
CONTINUOUS
 62
     3
100
AcDbLine
 10
930.0
 20
1810.0
 30
0.0
 11
1500.0
 21
1810.0
 31
0.0
  0
DIMENSION
  5
520
100
AcDbEntity
  8
寸法
  6
CONTINUOUS
 62
     3
100
AcDbDimension
  2
*D23
 10
1318.5
 20
2171.0
 30
0.0
 11
1283.25
 21
2431.0
 31
0.0
 70
   160
  3
STANDARD
100
AcDbAlignedDimension
 13
1205.0
 23
2691.0
 33
0.0
 14
1205.0
 24
2171.0
 34
0.0
 50
90.0
100
AcDbRotatedDimension
1001
ACAD
1000
DSTYLE
1002
{
1070
     6
1000
_EX_NORM
1070
     7
1000
_EX_NORM
1070
    41
1040
45.0
1070
    42
1040
10.5
1070
    44
1040
15.0
1070
    73
1070
     0
1070
    74
1070
     0
1070
    75
1070
     0
1070
    76
1070
     0
1070
    77
1070
     1
1070
    78
1070
     8
1070
   140
1040
60.0
1070
   147
1040
5.25
1070
   173
1070
     1
1070
   176
1070
     3
1070
   177
1070
     3
1070
   178
1070
     2
1070
   271
1070
     2
1070
   279
1070
     2
1070
   280
1070
     0
1070
   287
1070
     5
1070
   340
1005
10A
1002
}
  0
DIMENSION
  5
52C
100
AcDbEntity
  8
寸法
  6
CONTINUOUS
 62
     3
100
AcDbDimension
  2
*D24
 10
1055.0
 20
2751.0
 30
0.0
 11
905.0
 21
2786.25
 31
0.0
 70
   160
  1
<>（壁固定）
  3
STANDARD
100
AcDbAlignedDimension
 13
755.0
 23
2630.980762
 33
0.0
 14
1055.0
 24
2630.980762
 34
0.0
100
AcDbRotatedDimension
1001
ACAD
1000
DSTYLE
1002
{
1070
     6
1000
_EX_NORM
1070
     7
1000
_EX_NORM
1070
    41
1040
45.0
1070
    42
1040
10.5
1070
    44
1040
15.0
1070
    73
1070
     0
1070
    74
1070
     0
1070
    75
1070
     0
1070
    76
1070
     0
1070
    77
1070
     1
1070
    78
1070
     8
1070
   140
1040
60.0
1070
   147
1040
5.25
1070
   173
1070
     1
1070
   176
1070
     3
1070
   177
1070
     3
1070
   178
1070
     2
1070
   271
1070
     2
1070
   279
1070
     2
1070
   280
1070
     0
1070
   287
1070
     5
1070
   340
1005
10A
1002
}
  0
DIMENSION
  5
538
100
AcDbEntity
  8
寸法
  6
CONTINUOUS
 62
     3
100
AcDbDimension
  2
*D25
 10
1205.0
 20
2838.0
 30
0.0
 11
905.0
 21
2873.25
 31
0.0
 70
   160
  3
STANDARD
100
AcDbAlignedDimension
 13
605.0
 23
2691.0
 33
0.0
 14
1205.0
 24
2691.0
 34
0.0
100
AcDbRotatedDimension
1001
ACAD
1000
DSTYLE
1002
{
1070
     6
1000
_EX_NORM
1070
     7
1000
_EX_NORM
1070
    41
1040
45.0
1070
    42
1040
10.5
1070
    44
1040
15.0
1070
    73
1070
     0
1070
    74
1070
     0
1070
    75
1070
     0
1070
    76
1070
     0
1070
    77
1070
     1
1070
    78
1070
     8
1070
   140
1040
60.0
1070
   147
1040
5.25
1070
   173
1070
     1
1070
   176
1070
     3
1070
   177
1070
     3
1070
   178
1070
     2
1070
   271
1070
     2
1070
   279
1070
     2
1070
   280
1070
     0
1070
   287
1070
     5
1070
   340
1005
10A
1002
}
  0
DIMENSION
  5
543
100
AcDbEntity
  8
寸法
  6
CONTINUOUS
 62
     3
100
AcDbDimension
  2
*D26
 10
1575.0
 20
2691.0
 30
0.0
 11
1539.75
 21
1816.0
 31
0.0
 70
   160
  1
（1750）
  3
STANDARD
100
AcDbAlignedDimension
 13
1353.0
 23
941.0
 33
0.0
 14
1205.0
 24
2691.0
 34
0.0
 50
90.0
100
AcDbRotatedDimension
1001
ACAD
1000
DSTYLE
1002
{
1070
     6
1000
_EX_NORM
1070
     7
1000
_EX_NORM
1070
    41
1040
45.0
1070
    42
1040
10.5
1070
    44
1040
15.0
1070
    73
1070
     0
1070
    74
1070
     0
1070
    75
1070
     1
1070
    76
1070
     0
1070
    77
1070
     1
1070
    78
1070
     8
1070
   140
1040
60.0
1070
   147
1040
5.25
1070
   173
1070
     1
1070
   176
1070
     3
1070
   177
1070
     3
1070
   178
1070
     2
1070
   271
1070
     2
1070
   279
1070
     2
1070
   280
1070
     0
1070
   287
1070
     5
1070
   340
1005
10A
1002
}
  0
DIMENSION
  5
54F
100
AcDbEntity
  8
寸法
  6
CONTINUOUS
 62
     3
100
AcDbDimension
  2
*D27
 10
2892.0
 20
2191.0
 30
0.0
 11
2856.75
 21
1566.0
 31
0.0
 70
   160
  1
（<>）
  3
STANDARD
100
AcDbAlignedDimension
 13
2457.0
 23
941.0
 33
0.0
 14
2489.5
 24
2191.0
 34
0.0
 50
90.0
100
AcDbRotatedDimension
1001
ACAD
1000
DSTYLE
1002
{
1070
     6
1000
_EX_NORM
1070
     7
1000
_EX_NORM
1070
    41
1040
45.0
1070
    42
1040
10.5
1070
    44
1040
15.0
1070
    73
1070
     0
1070
    74
1070
     0
1070
    75
1070
     0
1070
    76
1070
     0
1070
    77
1070
     1
1070
    78
1070
     8
1070
   140
1040
60.0
1070
   147
1040
5.25
1070
   173
1070
     1
1070
   176
1070
     3
1070
   177
1070
     3
1070
   178
1070
     2
1070
   271
1070
     2
1070
   279
1070
     2
1070
   280
1070
     0
1070
   287
1070
     5
1070
   340
1005
10A
1002
}
  0
DIMENSION
  5
55A
100
AcDbEntity
  8
寸法
  6
CONTINUOUS
 62
     3
100
AcDbDimension
  2
*D28
 10
2457.0
 20
2751.0
 30
0.0
 11
2322.3
 21
2786.25
 31
0.0
 70
   160
  1
38
  3
STANDARD
100
AcDbAlignedDimension
 13
2419.8
 23
2692.2
 33
0.0
 14
2457.0
 24
2690.0
 34
0.0
100
AcDbRotatedDimension
1001
ACAD
1000
DSTYLE
1002
{
1070
     6
1000
_EX_NORM
1070
     7
1000
_EX_NORM
1070
    41
1040
45.0
1070
    42
1040
10.5
1070
    44
1040
15.0
1070
    73
1070
     0
1070
    74
1070
     0
1070
    75
1070
     0
1070
    76
1070
     1
1070
    77
1070
     1
1070
    78
1070
     8
1070
   140
1040
60.0
1070
   147
1040
5.25
1070
   173
1070
     1
1070
   176
1070
     3
1070
   177
1070
     3
1070
   178
1070
     2
1070
   271
1070
     2
1070
   279
1070
     2
1070
   280
1070
     1
1070
   287
1070
     5
1070
   340
1005
10A
1002
}
  0
LINE
  5
55B
100
AcDbEntity
  8
寸法
  6
CONTINUOUS
 62
     3
100
AcDbLine
 10
2500.0
 20
2191.0
 30
0.0
 11
2907.0
 21
2191.0
 31
0.0
  0
LINE
  5
55C
100
AcDbEntity
  8
寸法
  6
CONTINUOUS
 62
     3
100
AcDbLine
 10
2500.0
 20
2630.980762
 30
0.0
 11
2907.0
 21
2630.980762
 31
0.0
  0
TEXT
  5
55D
100
AcDbEntity
  8
寸法
  6
CONTINUOUS
 62
     2
100
AcDbText
 10
2886.75
 20
2247.490381
 30
0.0
 40
60.0
  1
４４０
 50
90.0
 41
0.7
  7
EXCADSTD
 72
     5
 11
2886.75
 21
2397.490381
 31
0.0
100
AcDbText
  0
TEXT
  5
55E
100
AcDbEntity
  8
寸法
  6
CONTINUOUS
 62
     2
100
AcDbText
 10
2886.75
 20
2389.990381
 30
0.0
 40
47.999996
  1
（壁固定）
 50
90.0
 41
0.672
  7
EXCADSTD
 72
     5
 11
2886.75
 21
2581.99037
 31
0.0
100
AcDbText
  0
LINE
  5
55F
100
AcDbEntity
  8
寸法
  6
CONTINUOUS
 62
     3
100
AcDbLine
 10
2892.0
 20
2191.0
 30
0.0
 11
2892.0
 21
2630.980762
 31
0.0
  0
LINE
  5
560
100
AcDbEntity
  8
寸法
  6
CONTINUOUS
 62
     3
100
AcDbLine
 10
2884.5
 20
2236.0
 30
0.0
 11
2892.0
 21
2191.0
 31
0.0
  0
LINE
  5
561
100
AcDbEntity
  8
寸法
  6
CONTINUOUS
 62
     3
100
AcDbLine
 10
2892.0
 20
2191.0
 30
0.0
 11
2899.5
 21
2236.0
 31
0.0
  0
LINE
  5
562
100
AcDbEntity
  8
寸法
  6
CONTINUOUS
 62
     3
100
AcDbLine
 10
2899.5
 20
2585.980762
 30
0.0
 11
2892.0
 21
2630.980762
 31
0.0
  0
LINE
  5
563
100
AcDbEntity
  8
寸法
  6
CONTINUOUS
 62
     3
100
AcDbLine
 10
2892.0
 20
2630.980762
 30
0.0
 11
2884.5
 21
2585.980762
 31
0.0
  0
DIMENSION
  5
56F
100
AcDbEntity
  8
寸法
  6
CONTINUOUS
 62
     3
100
AcDbDimension
  2
*D29
 10
2892.0
 20
2630.980762
 30
0.0
 11
2856.75
 21
2788.5
 31
0.0
 70
   160
  1
60
  3
STANDARD
100
AcDbAlignedDimension
 13
2444.5
 23
2691.0
 33
0.0
 14
2489.5
 24
2630.980762
 34
0.0
 50
90.0
100
AcDbRotatedDimension
1001
ACAD
1000
DSTYLE
1002
{
1070
     6
1000
_EX_NORM
1070
     7
1000
_EX_NORM
1070
    41
1040
45.0
1070
    42
1040
10.5
1070
    44
1040
15.0
1070
    73
1070
     0
1070
    74
1070
     0
1070
    75
1070
     0
1070
    76
1070
     0
1070
    77
1070
     1
1070
    78
1070
     8
1070
   140
1040
60.0
1070
   147
1040
5.25
1070
   173
1070
     1
1070
   176
1070
     3
1070
   177
1070
     3
1070
   178
1070
     2
1070
   271
1070
     2
1070
   279
1070
     2
1070
   280
1070
     1
1070
   287
1070
     5
1070
   340
1005
10A
1002
}
  0
ENDSEC
  0
SECTION
  2
OBJECTS
  0
DICTIONARY
  5
19
100
AcDbDictionary
  3
ACAD_GROUP
350
1A
  3
ACAD_MLINESTYLE
350
1B
  0
DICTIONARY
  5
1A
102
{ACAD_REACTORS
330
19
102
}
100
AcDbDictionary
  0
DICTIONARY
  5
1B
102
{ACAD_REACTORS
330
19
102
}
100
AcDbDictionary
  3
STANDARD
350
1C
  0
MLINESTYLE
  5
1C
102
{ACAD_REACTORS
330
1B
102
}
100
AcDbMlineStyle
  2
Standard
 70
     0
  3

 62
     0
 51
90.0
 52
90.0
 71
     2
 49
0.5
 62
   256
  6
ByLayer
 49
-0.5
 62
   256
  6
ByLayer
  0
ENDSEC
  0
EOF
