  0
SECTION
  2
HEADER
  9
$ACADVER
  1
AC1014
  9
$ACADMAINTVER
 70
     0
  9
$DWGCODEPAGE
  3
ANSI_932
  9
$INSBASE
 10
0.0
 20
0.0
 30
0.0
  9
$EXTMIN
 10
-129.2
 20
11.5
 30
0.0
  9
$EXTMAX
 10
199.9
 20
291.5
 30
0.0
  9
$LIMMIN
 10
0.0
 20
0.0
  9
$LIMMAX
 10
210.0
 20
297.0
  9
$ORTHOMODE
 70
     0
  9
$REGENMODE
 70
     1
  9
$FILLMODE
 70
     1
  9
$QTEXTMODE
 70
     0
  9
$MIRRTEXT
 70
     1
  9
$DRAGMODE
 70
     2
  9
$LTSCALE
 40
1.0
  9
$OSMODE
 70
     0
  9
$ATTMODE
 70
     1
  9
$TEXTSIZE
 40
0.2
  9
$TRACEWID
 40
0.05
  9
$TEXTSTYLE
  7
STANDARD
  9
$CLAYER
  8
本体
  9
$CELTYPE
  6
CONTINUOUS
  9
$CECOLOR
 62
   256
  9
$CELTSCALE
 40
1.0
  9
$DELOBJ
 70
     1
  9
$DISPSILH
 70
     0
  9
$DIMSCALE
 40
1.0
  9
$DIMASZ
 40
0.18
  9
$DIMEXO
 40
0.0625
  9
$DIMDLI
 40
0.38
  9
$DIMRND
 40
0.0
  9
$DIMDLE
 40
0.0
  9
$DIMEXE
 40
0.18
  9
$DIMTP
 40
0.0
  9
$DIMTM
 40
0.0
  9
$DIMTXT
 40
0.18
  9
$DIMCEN
 40
0.09
  9
$DIMTSZ
 40
0.0
  9
$DIMTOL
 70
     0
  9
$DIMLIM
 70
     0
  9
$DIMTIH
 70
     1
  9
$DIMTOH
 70
     1
  9
$DIMSE1
 70
     0
  9
$DIMSE2
 70
     0
  9
$DIMTAD
 70
     0
  9
$DIMZIN
 70
     0
  9
$DIMBLK
  1

  9
$DIMASO
 70
     1
  9
$DIMSHO
 70
     1
  9
$DIMPOST
  1

  9
$DIMAPOST
  1

  9
$DIMALT
 70
     0
  9
$DIMALTD
 70
     2
  9
$DIMALTF
 40
25.4
  9
$DIMLFAC
 40
1.0
  9
$DIMTOFL
 70
     0
  9
$DIMTVP
 40
0.0
  9
$DIMTIX
 70
     0
  9
$DIMSOXD
 70
     0
  9
$DIMSAH
 70
     0
  9
$DIMBLK1
  1

  9
$DIMBLK2
  1

  9
$DIMSTYLE
  2
STANDARD
  9
$DIMCLRD
 70
     0
  9
$DIMCLRE
 70
     0
  9
$DIMCLRT
 70
     0
  9
$DIMTFAC
 40
1.0
  9
$DIMGAP
 40
0.09
  9
$DIMJUST
 70
     0
  9
$DIMSD1
 70
     0
  9
$DIMSD2
 70
     0
  9
$DIMTOLJ
 70
     1
  9
$DIMTZIN
 70
     0
  9
$DIMALTZ
 70
     0
  9
$DIMALTTZ
 70
     0
  9
$DIMFIT
 70
     3
  9
$DIMUPT
 70
     0
  9
$DIMUNIT
 70
     2
  9
$DIMDEC
 70
     4
  9
$DIMTDEC
 70
     4
  9
$DIMALTU
 70
     2
  9
$DIMALTTD
 70
     2
  9
$DIMTXSTY
  7
STANDARD
  9
$DIMAUNIT
 70
     0
  9
$LUNITS
 70
     2
  9
$LUPREC
 70
     4
  9
$SKETCHINC
 40
0.1
  9
$FILLETRAD
 40
0.0
  9
$AUNITS
 70
     0
  9
$AUPREC
 70
     0
  9
$MENU
  1
acad
  9
$ELEVATION
 40
0.0
  9
$PELEVATION
 40
0.0
  9
$THICKNESS
 40
0.0
  9
$LIMCHECK
 70
     0
  9
$BLIPMODE
 70
     1
  9
$CHAMFERA
 40
0.0
  9
$CHAMFERB
 40
0.0
  9
$CHAMFERC
 40
0.0
  9
$CHAMFERD
 40
0.0
  9
$SKPOLY
 70
     0
  9
$TDCREATE
 40
2455300.460162859
  9
$TDUPDATE
 40
2455300.460162859
  9
$TDINDWG
 40
0.0000000000
  9
$TDUSRTIMER
 40
0.0000000000
  9
$USRTIMER
 70
     1
  9
$ANGBASE
 50
0.0
  9
$ANGDIR
 70
     0
  9
$PDMODE
 70
     0
  9
$PDSIZE
 40
0.0
  9
$PLINEWID
 40
0.0
  9
$COORDS
 70
     1
  9
$SPLFRAME
 70
     0
  9
$SPLINETYPE
 70
     6
  9
$SPLINESEGS
 70
     8
  9
$ATTDIA
 70
     0
  9
$ATTREQ
 70
     1
  9
$HANDLING
 70
     1
  9
$HANDSEED
  5
55D
  9
$SURFTAB1
 70
     6
  9
$SURFTAB2
 70
     6
  9
$SURFTYPE
 70
     6
  9
$SURFU
 70
     6
  9
$SURFV
 70
     6
  9
$UCSNAME
  2

  9
$UCSORG
 10
0.0
 20
0.0
 30
0.0
  9
$UCSXDIR
 10
1.0
 20
0.0
 30
0.0
  9
$UCSYDIR
 10
0.0
 20
1.0
 30
0.0
  9
$PUCSNAME
  2

  9
$PUCSORG
 10
0.0
 20
0.0
 30
0.0
  9
$PUCSXDIR
 10
1.0
 20
0.0
 30
0.0
  9
$PUCSYDIR
 10
0.0
 20
1.0
 30
0.0
  9
$USERI1
 70
     0
  9
$USERI2
 70
     0
  9
$USERI3
 70
     0
  9
$USERI4
 70
     0
  9
$USERI5
 70
     0
  9
$USERR1
 40
0.0
  9
$USERR2
 40
0.0
  9
$USERR3
 40
0.0
  9
$USERR4
 40
0.0
  9
$USERR5
 40
0.0
  9
$WORLDVIEW
 70
     1
  9
$SHADEDGE
 70
     3
  9
$SHADEDIF
 70
    70
  9
$TILEMODE
 70
     1
  9
$MAXACTVP
 70
    16
  9
$PINSBASE
 10
0.0
 20
0.0
 30
0.0
  9
$PLIMCHECK
 70
     0
  9
$PEXTMIN
 10
1.000000E+20
 20
1.000000E+20
 30
1.000000E+20
  9
$PEXTMAX
 10
-1.000000E+20
 20
-1.000000E+20
 30
-1.000000E+20
  9
$PLIMMIN
 10
0.0
 20
0.0
  9
$PLIMMAX
 10
12.0
 20
9.0
  9
$UNITMODE
 70
     0
  9
$VISRETAIN
 70
     0
  9
$PLINEGEN
 70
     1
  9
$PSLTSCALE
 70
     0
  9
$TREEDEPTH
 70
  3020
  9
$PICKSTYLE
 70
     1
  9
$CMLSTYLE
  2
Standard
  9
$CMLJUST
 70
     0
  9
$CMLSCALE
 40
1.0
  9
$PROXYGRAPHICS
 70
     0
  9
$MEASUREMENT
 70
     0
  0
ENDSEC
  0
SECTION
  2
CLASSES
  0
CLASS
  1
LWPOLYLINE
  2
AcDbPolyline
  3
"AutoCAD"
 90
        0
280
     0
281
     1
  0
CLASS
  1
IMAGE
  2
AcDbRasterImage
  3
ISM
 90
      127
280
     0
281
     1
  0
CLASS
  1
OLE2FRAME
  2
AcDbOle2Frame
  3
""
 90
        0
280
     0
281
     1
  0
CLASS
  1
HATCH
  2
AcDbHatch
  3
"ACAD_SEDONA"
 90
        0
280
     0
281
     1
  0
CLASS
  1
DICTIONARYVAR
  2
AcDbDictionaryVar
  3
"AutoCAD"
 90
        0
280
     0
281
     0
  0
CLASS
  1
RASTERVARIABLES
  2
AcDbRasterVariables
  3
ISM
 90
        0
280
     0
281
     0
  0
CLASS
  1
IMAGEDEF
  2
AcDbRasterImageDef
  3
ISM
 90
        0
280
     0
281
     0
  0
CLASS
  1
IMAGEDEF_REACTOR
  2
AcDbRasterImageDefReactor
  3
ISM
 90
        1
280
     0
281
     0
  0
CLASS
  1
IDBUFFER
  2
AcDbIdBuffer
  3
"Acad"
 90
        0
280
     0
281
     0
  0
CLASS
  1
SPATIAL_FILTER
  2
AcDbSpatialFilter
  3
"Acad"
 90
        0
280
     0
281
     0
  0
CLASS
  1
XRECORD
  2
AcDbXrecord
  3
"<Built In>"
 90
        0
280
     0
281
     0
  0
CLASS
  1
SORTENTSTABLE
  2
AcDbSortentsTable
  3
"AutoCAD"
 90
        0
280
     0
281
     0
  0
CLASS
  1
LAYER_INDEX
  2
AcDbLayerIndex
  3
"Acad"
 90
        0
280
     0
281
     0
  0
CLASS
  1
SPATIAL_INDEX
  2
AcDbSpatialIndex
  3
"Acad"
 90
        0
280
     0
281
     0
  0
CLASS
  1
OBJECT_PTR
  2
CAseDLPNTableRecord
  3
"ASE-LPNTableRecord"
 90
        1
280
     0
281
     0
  0
CLASS
  1
LAYOUT
  2
AcDbLayout
  3
"AutoCAD 2000"
 90
        1
280
     0
281
     0
  0
CLASS
  1
PLOTSETTINGS
  2
AcDbPlotSettings
  3
"AutoCAD 2000"
 90
        1
280
     0
281
     0
  0
CLASS
  1
ACDBDICTIONARYWDFLT
  2
AcDbDictionaryWithDefault
  3
"AutoCAD 2000"
 90
        1
280
     0
281
     0
  0
CLASS
  1
ACDBPLACEHOLDER
  2
AcDbPlaceHolder
  3
"AutoCAD 2000"
 90
        1
280
     0
281
     0
  0
CLASS
  1
VBA_PROJECT
  2
AcDbVbaProject
  3
"acadvba"
 90
        1
280
     0
281
     0
  0
CLASS
  1
WIPEOUT
  2
AcDbWipeout
  3
WipeOut|AutoCAD Express Tool|expresstools@autodesk.com
 90
      127
280
     0
281
     1
  0
CLASS
  1
WIPEOUTVARIABLES
  2
AcDbWipeoutVariables
  3
WipeOut|AutoCAD Express Tool|expresstools@autodesk.com
 90
        0
280
     0
281
     0
  0
CLASS
  1
RTEXT
  2
RText
  3
RText|AutoCAD Express Tool|expresstools@autodesk.com
 90
        0
280
     0
281
     1
  0
CLASS
  1
ARCALIGNEDTEXT
  2
AcDbArcAlignedText
  3
ATEXT|AutoCAD Express Tool|expresstools@autodesk.com
 90
        0
280
     0
281
     1
  0
ENDSEC
  0
SECTION
  2
TABLES
  0
TABLE
  2
VPORT
  5
7
100
AcDbSymbolTable
 70
     1
  0
VPORT
  5
15
100
AcDbSymbolTableRecord
100
AcDbViewportTableRecord
  2
*ACTIVE
 70
     0
 10
0.0
 20
0.0
 11
1.0
 21
1.0
 12
353.5
 22
1515.0
 13
0.0
 23
0.0
 14
1.0
 24
1.0
 15
0.0
 25
0.0
 16
0.0
 26
0.0
 36
1.0
 17
0.0
 27
0.0
 37
0.0
 40
2800.0
 41
1.722533
 42
50.0
 43
0.0
 44
0.0
 50
0.0
 51
0.0
 71
     0
 72
   100
 73
     1
 74
     1
 75
     0
 76
     0
 77
     0
 78
     0
  0
ENDTAB
  0
TABLE
  2
LTYPE
  5
4
100
AcDbSymbolTable
 70
    11
  0
LTYPE
  5
11
100
AcDbSymbolTableRecord
100
AcDbLinetypeTableRecord
  2
BYBLOCK
 70
    64
  3

 72
    65
 73
     0
 40
0.0
  0
LTYPE
  5
12
100
AcDbSymbolTableRecord
100
AcDbLinetypeTableRecord
  2
BYLAYER
 70
    64
  3

 72
    65
 73
     0
 40
0.0
  0
LTYPE
  5
13
100
AcDbSymbolTableRecord
100
AcDbLinetypeTableRecord
  2
CONTINUOUS
 70
    64
  3
実線
 72
    65
 73
     0
 40
0.0
  0
LTYPE
  5
1D
100
AcDbSymbolTableRecord
100
AcDbLinetypeTableRecord
  2
EXLTYPE1
 70
    64
  3
破線
 72
    65
 73
     2
 40
3.0
 49
2.0
 74
     0
 49
-1.0
 74
     0
  0
LTYPE
  5
1E
100
AcDbSymbolTableRecord
100
AcDbLinetypeTableRecord
  2
EXLTYPE2
 70
    64
  3
点線
 72
    65
 73
     2
 40
2.0
 49
1.0
 74
     0
 49
-1.0
 74
     0
  0
LTYPE
  5
1F
100
AcDbSymbolTableRecord
100
AcDbLinetypeTableRecord
  2
EXLTYPE3
 70
    64
  3
一点鎖線
 72
    65
 73
     4
 40
10.0
 49
7.0
 74
     0
 49
-1.0
 74
     0
 49
1.0
 74
     0
 49
-1.0
 74
     0
  0
LTYPE
  5
20
100
AcDbSymbolTableRecord
100
AcDbLinetypeTableRecord
  2
EXLTYPE4
 70
    64
  3
二点鎖線
 72
    65
 73
     6
 40
12.0
 49
7.0
 74
     0
 49
-1.0
 74
     0
 49
1.0
 74
     0
 49
-1.0
 74
     0
 49
1.0
 74
     0
 49
-1.0
 74
     0
  0
LTYPE
  5
21
100
AcDbSymbolTableRecord
100
AcDbLinetypeTableRecord
  2
EXLTYPE5
 70
    64
  3
三点鎖線
 72
    65
 73
     8
 40
37.0
 49
30.0
 74
     0
 49
-1.0
 74
     0
 49
1.0
 74
     0
 49
-1.0
 74
     0
 49
1.0
 74
     0
 49
-1.0
 74
     0
 49
1.0
 74
     0
 49
-1.0
 74
     0
  0
LTYPE
  5
22
100
AcDbSymbolTableRecord
100
AcDbLinetypeTableRecord
  2
EXLTYPE6
 70
    64
  3
四点鎖線
 72
    65
 73
    10
 40
39.0
 49
30.0
 74
     0
 49
-1.0
 74
     0
 49
1.0
 74
     0
 49
-1.0
 74
     0
 49
1.0
 74
     0
 49
-1.0
 74
     0
 49
1.0
 74
     0
 49
-1.0
 74
     0
 49
1.0
 74
     0
 49
-1.0
 74
     0
  0
LTYPE
  5
23
100
AcDbSymbolTableRecord
100
AcDbLinetypeTableRecord
  2
EXLTYPE7
 70
    64
  3
一点鎖線2
 72
    65
 73
     4
 40
9.011873
 49
3.918206
 74
     0
 49
-1.959103
 74
     0
 49
1.175462
 74
     0
 49
-1.959103
 74
     0
  0
LTYPE
  5
24
100
AcDbSymbolTableRecord
100
AcDbLinetypeTableRecord
  2
EXLTYPE8
 70
    64
  3
破線5
 72
    65
 73
     2
 40
3.526385
 49
2.350923
 74
     0
 49
-1.175462
 74
     0
  0
ENDTAB
  0
TABLE
  2
LAYER
  5
2
100
AcDbSymbolTable
 70
     6
  0
LAYER
  5
14
100
AcDbSymbolTableRecord
100
AcDbLayerTableRecord
  2
0
 70
     0
 62
     7
  6
CONTINUOUS
  0
LAYER
  5
27
100
AcDbSymbolTableRecord
100
AcDbLayerTableRecord
  2
枠
 70
    64
 62
     7
  6
CONTINUOUS
  0
LAYER
  5
28
100
AcDbSymbolTableRecord
100
AcDbLayerTableRecord
  2
本体
 70
    64
 62
     7
  6
CONTINUOUS
  0
LAYER
  5
29
100
AcDbSymbolTableRecord
100
AcDbLayerTableRecord
  2
寸法
 70
    64
 62
     7
  6
CONTINUOUS
  0
LAYER
  5
2A
100
AcDbSymbolTableRecord
100
AcDbLayerTableRecord
  2
詳細図
 70
    64
 62
     7
  6
CONTINUOUS
  0
LAYER
  5
2B
100
AcDbSymbolTableRecord
100
AcDbLayerTableRecord
  2
詳細図寸法
 70
    64
 62
     7
  6
CONTINUOUS
  0
ENDTAB
  0
TABLE
  2
STYLE
  5
3
100
AcDbSymbolTable
 70
     5
  0
STYLE
  5
17
100
AcDbSymbolTableRecord
100
AcDbTextStyleTableRecord
  2
STANDARD
 70
     0
 40
0.0
 41
1.0
 50
0.0
 71
     0
 42
0.0
  3
monotxt
  4
extfont
  0
STYLE
  5
25
100
AcDbSymbolTableRecord
100
AcDbTextStyleTableRecord
  2
EXCADSTD
 70
    64
 40
0.0
 41
1.0
 50
0.0
 71
     0
 42
0.2
  3
monotxt
  4
extfont
  0
STYLE
  5
26
100
AcDbSymbolTableRecord
100
AcDbTextStyleTableRecord
  2
EXCADVERT
 70
    68
 40
0.0
 41
1.0
 50
0.0
 71
     0
 42
0.286885
  3
monotxt
  4
extfont
  0
STYLE
  5
BB
100
AcDbSymbolTableRecord
100
AcDbTextStyleTableRecord
  2
EXCADTTF1
 70
    64
 40
0.0
 41
1.0
 50
0.0
 71
     0
 42
0.2
  3
MS Gothic.ttf
  4

1001
ACAD
1000
MS Gothic
1071
    32817
  0
STYLE
  5
CD
100
AcDbSymbolTableRecord
100
AcDbTextStyleTableRecord
  2
EXCADDIM1
 70
    64
 40
0.0
 41
0.84
 50
0.0
 71
     0
 42
0.2
  3
monotxt
  4
extfont
  0
ENDTAB
  0
TABLE
  2
VIEW
  5
5
100
AcDbSymbolTable
 70
     0
  0
ENDTAB
  0
TABLE
  2
UCS
  5
6
100
AcDbSymbolTable
 70
     0
  0
ENDTAB
  0
TABLE
  2
APPID
  5
8
100
AcDbSymbolTable
 70
     1
  0
APPID
  5
16
100
AcDbSymbolTableRecord
100
AcDbRegAppTableRecord
  2
ACAD
 70
     0
  0
ENDTAB
  0
TABLE
  2
DIMSTYLE
  5
9
100
AcDbSymbolTable
 70
     1
  0
DIMSTYLE
105
18
100
AcDbSymbolTableRecord
100
AcDbDimStyleTableRecord
  2
STANDARD
 70
     0
  3

  4

  5

  6

  7

 40
1.0
 41
0.18
 42
0.0625
 43
0.38
 44
0.18
 45
0.0
 46
0.0
 47
0.0
 48
0.0
 71
     0
 72
     0
 73
     1
 74
     1
 75
     0
 76
     0
 77
     0
 78
     0
140
0.18
141
0.09
142
0.0
143
25.4
144
1.0
145
0.0
146
1.0
147
0.09
170
     0
171
     2
172
     1
173
     0
174
     0
175
     0
176
     0
177
     0
178
     0
270
     2
271
     4
272
     4
273
     2
274
     2
275
     0
280
     0
281
     0
282
     0
283
     1
284
     0
285
     0
286
     0
287
     0
288
     0
340
17
  0
ENDTAB
  0
TABLE
  2
BLOCK_RECORD
  5
1
100
AcDbSymbolTable
 70
    29
  0
BLOCK_RECORD
  5
A
100
AcDbSymbolTableRecord
100
AcDbBlockTableRecord
  2
*MODEL_SPACE
  0
BLOCK_RECORD
  5
B
100
AcDbSymbolTableRecord
100
AcDbBlockTableRecord
  2
*PAPER_SPACE
  0
BLOCK_RECORD
  5
2C
100
AcDbSymbolTableRecord
100
AcDbBlockTableRecord
  2
_EX_NORM
  0
BLOCK_RECORD
  5
2D
100
AcDbSymbolTableRecord
100
AcDbBlockTableRecord
  2
_EX_BNORM
  0
BLOCK_RECORD
  5
2E
100
AcDbSymbolTableRecord
100
AcDbBlockTableRecord
  2
_EX_BCIR
  0
BLOCK_RECORD
  5
2F
100
AcDbSymbolTableRecord
100
AcDbBlockTableRecord
  2
_EX_RCIVIL
  0
BLOCK_RECORD
  5
30
100
AcDbSymbolTableRecord
100
AcDbBlockTableRecord
  2
_EX_SLANT
  0
BLOCK_RECORD
  5
31
100
AcDbSymbolTableRecord
100
AcDbBlockTableRecord
  2
_EX_NONE
  0
BLOCK_RECORD
  5
32
100
AcDbSymbolTableRecord
100
AcDbBlockTableRecord
  2
_EX_CIVIL
  0
BLOCK_RECORD
  5
33
100
AcDbSymbolTableRecord
100
AcDbBlockTableRecord
  2
_EX_WCIR
  0
BLOCK_RECORD
  5
34
100
AcDbSymbolTableRecord
100
AcDbBlockTableRecord
  2
_EX_WCIR2
  0
BLOCK_RECORD
  5
35
100
AcDbSymbolTableRecord
100
AcDbBlockTableRecord
  2
_EX_WNORM
  0
BLOCK_RECORD
  5
36
100
AcDbSymbolTableRecord
100
AcDbBlockTableRecord
  2
_EX_NNORM
  0
BLOCK_RECORD
  5
37
100
AcDbSymbolTableRecord
100
AcDbBlockTableRecord
  2
_EX_BBOX
  0
BLOCK_RECORD
  5
38
100
AcDbSymbolTableRecord
100
AcDbBlockTableRecord
  2
_EX_WBOX
  0
BLOCK_RECORD
  5
39
100
AcDbSymbolTableRecord
100
AcDbBlockTableRecord
  2
_EX_INTEGRAL
  0
BLOCK_RECORD
  5
C4
100
AcDbSymbolTableRecord
100
AcDbBlockTableRecord
  2
*D14
  0
BLOCK_RECORD
  5
190
100
AcDbSymbolTableRecord
100
AcDbBlockTableRecord
  2
*D15
  0
BLOCK_RECORD
  5
19A
100
AcDbSymbolTableRecord
100
AcDbBlockTableRecord
  2
*D16
  0
BLOCK_RECORD
  5
1A5
100
AcDbSymbolTableRecord
100
AcDbBlockTableRecord
  2
*D17
  0
BLOCK_RECORD
  5
33E
100
AcDbSymbolTableRecord
100
AcDbBlockTableRecord
  2
*D18
  0
BLOCK_RECORD
  5
480
100
AcDbSymbolTableRecord
100
AcDbBlockTableRecord
  2
*D19
  0
BLOCK_RECORD
  5
48B
100
AcDbSymbolTableRecord
100
AcDbBlockTableRecord
  2
*D20
  0
BLOCK_RECORD
  5
496
100
AcDbSymbolTableRecord
100
AcDbBlockTableRecord
  2
*D21
  0
BLOCK_RECORD
  5
4A3
100
AcDbSymbolTableRecord
100
AcDbBlockTableRecord
  2
*D22
  0
BLOCK_RECORD
  5
4AE
100
AcDbSymbolTableRecord
100
AcDbBlockTableRecord
  2
*D23
  0
BLOCK_RECORD
  5
4BA
100
AcDbSymbolTableRecord
100
AcDbBlockTableRecord
  2
*D24
  0
BLOCK_RECORD
  5
4C6
100
AcDbSymbolTableRecord
100
AcDbBlockTableRecord
  2
*D25
  0
BLOCK_RECORD
  5
4D2
100
AcDbSymbolTableRecord
100
AcDbBlockTableRecord
  2
*D26
  0
BLOCK_RECORD
  5
4DE
100
AcDbSymbolTableRecord
100
AcDbBlockTableRecord
  2
*D27
  0
BLOCK_RECORD
  5
4EA
100
AcDbSymbolTableRecord
100
AcDbBlockTableRecord
  2
*D28
  0
ENDTAB
  0
ENDSEC
  0
SECTION
  2
BLOCKS
  0
BLOCK
  5
D
100
AcDbEntity
  8
0
100
AcDbBlockBegin
  2
*MODEL_SPACE
 70
     0
 10
0.0
 20
0.0
 30
0.0
  3
*MODEL_SPACE
  1

  0
ENDBLK
  5
E
100
AcDbEntity
  8
0
100
AcDbBlockEnd
  0
BLOCK
  5
F
100
AcDbEntity
 67
     1
  8
0
100
AcDbBlockBegin
  2
*PAPER_SPACE
 70
     0
 10
0.0
 20
0.0
 30
0.0
  3
*PAPER_SPACE
  1

  0
ENDBLK
  5
10
100
AcDbEntity
 67
     1
  8
0
100
AcDbBlockEnd
  0
BLOCK
  5
3A
100
AcDbEntity
  8
0
100
AcDbBlockBegin
  2
_EX_NORM
 70
     0
 10
0.0
 20
0.0
 30
0.0
  3
_EX_NORM
  1

  0
LINE
  5
3B
100
AcDbEntity
  8
0
  6
CONTINUOUS
 62
     0
100
AcDbLine
 10
0.0
 20
0.0
 30
0.0
 11
-1.0
 21
0.0
 31
0.0
  0
LINE
  5
3C
100
AcDbEntity
  8
0
  6
CONTINUOUS
 62
     0
100
AcDbLine
 10
0.0
 20
0.0
 30
0.0
 11
-1.0
 21
0.166667
 31
0.0
  0
LINE
  5
3D
100
AcDbEntity
  8
0
  6
CONTINUOUS
 62
     0
100
AcDbLine
 10
0.0
 20
0.0
 30
0.0
 11
-1.0
 21
-0.166667
 31
0.0
  0
ENDBLK
  5
3E
100
AcDbEntity
  8
0
100
AcDbBlockEnd
  0
BLOCK
  5
3F
100
AcDbEntity
  8
0
100
AcDbBlockBegin
  2
_EX_BNORM
 70
     0
 10
0.0
 20
0.0
 30
0.0
  3
_EX_BNORM
  1

  0
LINE
  5
40
100
AcDbEntity
  8
0
  6
CONTINUOUS
 62
     0
100
AcDbLine
 10
0.0
 20
0.0
 30
0.0
 11
-1.0
 21
0.0
 31
0.0
  0
LINE
  5
41
100
AcDbEntity
  8
0
  6
CONTINUOUS
 62
     0
100
AcDbLine
 10
0.0
 20
0.0
 30
0.0
 11
-1.0
 21
0.166667
 31
0.0
  0
LINE
  5
42
100
AcDbEntity
  8
0
  6
CONTINUOUS
 62
     0
100
AcDbLine
 10
0.0
 20
0.0
 30
0.0
 11
-1.0
 21
-0.166667
 31
0.0
  0
LINE
  5
43
100
AcDbEntity
  8
0
  6
CONTINUOUS
 62
     0
100
AcDbLine
 10
0.0
 20
0.0
 30
0.0
 11
-1.0
 21
0.083333
 31
0.0
  0
LINE
  5
44
100
AcDbEntity
  8
0
  6
CONTINUOUS
 62
     0
100
AcDbLine
 10
0.0
 20
0.0
 30
0.0
 11
-1.0
 21
-0.083333
 31
0.0
  0
LINE
  5
45
100
AcDbEntity
  8
0
  6
CONTINUOUS
 62
     0
100
AcDbLine
 10
-1.0
 20
0.166667
 30
0.0
 11
-1.0
 21
-0.166667
 31
0.0
  0
ENDBLK
  5
46
100
AcDbEntity
  8
0
100
AcDbBlockEnd
  0
BLOCK
  5
47
100
AcDbEntity
  8
0
100
AcDbBlockBegin
  2
_EX_BCIR
 70
     0
 10
0.0
 20
0.0
 30
0.0
  3
_EX_BCIR
  1

  0
LINE
  5
48
100
AcDbEntity
  8
0
  6
CONTINUOUS
 62
     0
100
AcDbLine
 10
0.0
 20
0.0
 30
0.0
 11
-1.0
 21
0.0
 31
0.0
  0
CIRCLE
  5
49
100
AcDbEntity
  8
0
  6
CONTINUOUS
 62
     0
100
AcDbCircle
 10
0.0
 20
0.0
 30
0.0
 40
0.5
  0
CIRCLE
  5
4A
100
AcDbEntity
  8
0
  6
CONTINUOUS
 62
     0
100
AcDbCircle
 10
0.0
 20
0.0
 30
0.0
 40
0.25
  0
ENDBLK
  5
4B
100
AcDbEntity
  8
0
100
AcDbBlockEnd
  0
BLOCK
  5
4C
100
AcDbEntity
  8
0
100
AcDbBlockBegin
  2
_EX_RCIVIL
 70
     0
 10
0.0
 20
0.0
 30
0.0
  3
_EX_RCIVIL
  1

  0
LINE
  5
4D
100
AcDbEntity
  8
0
  6
CONTINUOUS
 62
     0
100
AcDbLine
 10
0.0
 20
0.0
 30
0.0
 11
-1.0
 21
0.0
 31
0.0
  0
LINE
  5
4E
100
AcDbEntity
  8
0
  6
CONTINUOUS
 62
     0
100
AcDbLine
 10
-1.0
 20
-0.25
 30
0.0
 11
0.0
 21
-0.25
 31
0.0
  0
LINE
  5
4F
100
AcDbEntity
  8
0
  6
CONTINUOUS
 62
     0
100
AcDbLine
 10
-1.0
 20
-0.125
 30
0.0
 11
0.0
 21
-0.125
 31
0.0
  0
ENDBLK
  5
50
100
AcDbEntity
  8
0
100
AcDbBlockEnd
  0
BLOCK
  5
51
100
AcDbEntity
  8
0
100
AcDbBlockBegin
  2
_EX_SLANT
 70
     0
 10
0.0
 20
0.0
 30
0.0
  3
_EX_SLANT
  1

  0
LINE
  5
52
100
AcDbEntity
  8
0
  6
CONTINUOUS
 62
     0
100
AcDbLine
 10
0.0
 20
0.0
 30
0.0
 11
-1.0
 21
0.0
 31
0.0
  0
LINE
  5
53
100
AcDbEntity
  8
0
  6
CONTINUOUS
 62
     0
100
AcDbLine
 10
0.707107
 20
0.707107
 30
0.0
 11
-0.707107
 21
-0.707107
 31
0.0
  0
ENDBLK
  5
54
100
AcDbEntity
  8
0
100
AcDbBlockEnd
  0
BLOCK
  5
55
100
AcDbEntity
  8
0
100
AcDbBlockBegin
  2
_EX_NONE
 70
     0
 10
0.0
 20
0.0
 30
0.0
  3
_EX_NONE
  1

  0
LINE
  5
56
100
AcDbEntity
  8
0
  6
CONTINUOUS
 62
     0
100
AcDbLine
 10
0.0
 20
0.0
 30
0.0
 11
-1.0
 21
0.0
 31
0.0
  0
ENDBLK
  5
57
100
AcDbEntity
  8
0
100
AcDbBlockEnd
  0
BLOCK
  5
58
100
AcDbEntity
  8
0
100
AcDbBlockBegin
  2
_EX_CIVIL
 70
     0
 10
0.0
 20
0.0
 30
0.0
  3
_EX_CIVIL
  1

  0
LINE
  5
59
100
AcDbEntity
  8
0
  6
CONTINUOUS
 62
     0
100
AcDbLine
 10
0.0
 20
0.0
 30
0.0
 11
-1.0
 21
0.0
 31
0.0
  0
LINE
  5
5A
100
AcDbEntity
  8
0
  6
CONTINUOUS
 62
     0
100
AcDbLine
 10
-1.0
 20
0.25
 30
0.0
 11
0.0
 21
0.25
 31
0.0
  0
LINE
  5
5B
100
AcDbEntity
  8
0
  6
CONTINUOUS
 62
     0
100
AcDbLine
 10
-1.0
 20
0.125
 30
0.0
 11
0.0
 21
0.125
 31
0.0
  0
ENDBLK
  5
5C
100
AcDbEntity
  8
0
100
AcDbBlockEnd
  0
BLOCK
  5
5D
100
AcDbEntity
  8
0
100
AcDbBlockBegin
  2
_EX_WCIR
 70
     0
 10
0.0
 20
0.0
 30
0.0
  3
_EX_WCIR
  1

  0
LINE
  5
5E
100
AcDbEntity
  8
0
  6
CONTINUOUS
 62
     0
100
AcDbLine
 10
0.0
 20
0.0
 30
0.0
 11
-1.0
 21
0.0
 31
0.0
  0
CIRCLE
  5
5F
100
AcDbEntity
  8
0
  6
CONTINUOUS
 62
     0
100
AcDbCircle
 10
0.0
 20
0.0
 30
0.0
 40
0.5
  0
ENDBLK
  5
60
100
AcDbEntity
  8
0
100
AcDbBlockEnd
  0
BLOCK
  5
61
100
AcDbEntity
  8
0
100
AcDbBlockBegin
  2
_EX_WCIR2
 70
     0
 10
0.0
 20
0.0
 30
0.0
  3
_EX_WCIR2
  1

  0
LINE
  5
62
100
AcDbEntity
  8
0
  6
CONTINUOUS
 62
     0
100
AcDbLine
 10
-0.5
 20
0.0
 30
0.0
 11
-1.0
 21
0.0
 31
0.0
  0
CIRCLE
  5
63
100
AcDbEntity
  8
0
  6
CONTINUOUS
 62
     0
100
AcDbCircle
 10
0.0
 20
0.0
 30
0.0
 40
0.5
  0
ENDBLK
  5
64
100
AcDbEntity
  8
0
100
AcDbBlockEnd
  0
BLOCK
  5
65
100
AcDbEntity
  8
0
100
AcDbBlockBegin
  2
_EX_WNORM
 70
     0
 10
0.0
 20
0.0
 30
0.0
  3
_EX_WNORM
  1

  0
LINE
  5
66
100
AcDbEntity
  8
0
  6
CONTINUOUS
 62
     0
100
AcDbLine
 10
-1.0
 20
0.0
 30
0.0
 11
-1.0
 21
0.0
 31
0.0
  0
LINE
  5
67
100
AcDbEntity
  8
0
  6
CONTINUOUS
 62
     0
100
AcDbLine
 10
0.0
 20
0.0
 30
0.0
 11
-1.0
 21
0.166667
 31
0.0
  0
LINE
  5
68
100
AcDbEntity
  8
0
  6
CONTINUOUS
 62
     0
100
AcDbLine
 10
0.0
 20
0.0
 30
0.0
 11
-1.0
 21
-0.166667
 31
0.0
  0
LINE
  5
69
100
AcDbEntity
  8
0
  6
CONTINUOUS
 62
     0
100
AcDbLine
 10
-1.0
 20
0.166667
 30
0.0
 11
-1.0
 21
-0.166667
 31
0.0
  0
ENDBLK
  5
6A
100
AcDbEntity
  8
0
100
AcDbBlockEnd
  0
BLOCK
  5
6B
100
AcDbEntity
  8
0
100
AcDbBlockBegin
  2
_EX_NNORM
 70
     0
 10
0.0
 20
0.0
 30
0.0
  3
_EX_NNORM
  1

  0
LINE
  5
6C
100
AcDbEntity
  8
0
  6
CONTINUOUS
 62
     0
100
AcDbLine
 10
0.0
 20
0.0
 30
0.0
 11
-1.0
 21
0.0
 31
0.0
  0
LINE
  5
6D
100
AcDbEntity
  8
0
  6
CONTINUOUS
 62
     0
100
AcDbLine
 10
0.0
 20
0.0
 30
0.0
 11
-1.0
 21
0.166667
 31
0.0
  0
LINE
  5
6E
100
AcDbEntity
  8
0
  6
CONTINUOUS
 62
     0
100
AcDbLine
 10
0.0
 20
0.0
 30
0.0
 11
-1.0
 21
-0.166667
 31
0.0
  0
LINE
  5
6F
100
AcDbEntity
  8
0
  6
CONTINUOUS
 62
     0
100
AcDbLine
 10
-1.0
 20
0.166667
 30
0.0
 11
-1.0
 21
-0.166667
 31
0.0
  0
ENDBLK
  5
70
100
AcDbEntity
  8
0
100
AcDbBlockEnd
  0
BLOCK
  5
71
100
AcDbEntity
  8
0
100
AcDbBlockBegin
  2
_EX_BBOX
 70
     0
 10
0.0
 20
0.0
 30
0.0
  3
_EX_BBOX
  1

  0
LINE
  5
72
100
AcDbEntity
  8
0
  6
CONTINUOUS
 62
     0
100
AcDbLine
 10
0.0
 20
0.0
 30
0.0
 11
-1.0
 21
0.0
 31
0.0
  0
LINE
  5
73
100
AcDbEntity
  8
0
  6
CONTINUOUS
 62
     0
100
AcDbLine
 10
-0.5
 20
0.5
 30
0.0
 11
0.5
 21
0.5
 31
0.0
  0
LINE
  5
74
100
AcDbEntity
  8
0
  6
CONTINUOUS
 62
     0
100
AcDbLine
 10
0.5
 20
0.5
 30
0.0
 11
0.5
 21
-0.5
 31
0.0
  0
LINE
  5
75
100
AcDbEntity
  8
0
  6
CONTINUOUS
 62
     0
100
AcDbLine
 10
0.5
 20
-0.5
 30
0.0
 11
-0.5
 21
-0.5
 31
0.0
  0
LINE
  5
76
100
AcDbEntity
  8
0
  6
CONTINUOUS
 62
     0
100
AcDbLine
 10
-0.5
 20
-0.5
 30
0.0
 11
-0.5
 21
0.5
 31
0.0
  0
LINE
  5
77
100
AcDbEntity
  8
0
  6
CONTINUOUS
 62
     0
100
AcDbLine
 10
-0.25
 20
0.25
 30
0.0
 11
0.25
 21
0.25
 31
0.0
  0
LINE
  5
78
100
AcDbEntity
  8
0
  6
CONTINUOUS
 62
     0
100
AcDbLine
 10
0.25
 20
0.25
 30
0.0
 11
0.25
 21
-0.25
 31
0.0
  0
LINE
  5
79
100
AcDbEntity
  8
0
  6
CONTINUOUS
 62
     0
100
AcDbLine
 10
0.25
 20
-0.25
 30
0.0
 11
-0.25
 21
-0.25
 31
0.0
  0
LINE
  5
7A
100
AcDbEntity
  8
0
  6
CONTINUOUS
 62
     0
100
AcDbLine
 10
-0.25
 20
-0.25
 30
0.0
 11
-0.25
 21
0.25
 31
0.0
  0
ENDBLK
  5
7B
100
AcDbEntity
  8
0
100
AcDbBlockEnd
  0
BLOCK
  5
7C
100
AcDbEntity
  8
0
100
AcDbBlockBegin
  2
_EX_WBOX
 70
     0
 10
0.0
 20
0.0
 30
0.0
  3
_EX_WBOX
  1

  0
LINE
  5
7D
100
AcDbEntity
  8
0
  6
CONTINUOUS
 62
     0
100
AcDbLine
 10
-0.5
 20
0.0
 30
0.0
 11
-1.0
 21
0.0
 31
0.0
  0
LINE
  5
7E
100
AcDbEntity
  8
0
  6
CONTINUOUS
 62
     0
100
AcDbLine
 10
-0.5
 20
0.5
 30
0.0
 11
0.5
 21
0.5
 31
0.0
  0
LINE
  5
7F
100
AcDbEntity
  8
0
  6
CONTINUOUS
 62
     0
100
AcDbLine
 10
0.5
 20
0.5
 30
0.0
 11
0.5
 21
-0.5
 31
0.0
  0
LINE
  5
80
100
AcDbEntity
  8
0
  6
CONTINUOUS
 62
     0
100
AcDbLine
 10
0.5
 20
-0.5
 30
0.0
 11
-0.5
 21
-0.5
 31
0.0
  0
LINE
  5
81
100
AcDbEntity
  8
0
  6
CONTINUOUS
 62
     0
100
AcDbLine
 10
-0.5
 20
-0.5
 30
0.0
 11
-0.5
 21
0.5
 31
0.0
  0
ENDBLK
  5
82
100
AcDbEntity
  8
0
100
AcDbBlockEnd
  0
BLOCK
  5
83
100
AcDbEntity
  8
0
100
AcDbBlockBegin
  2
_EX_INTEGRAL
 70
     0
 10
0.0
 20
0.0
 30
0.0
  3
_EX_INTEGRAL
  1

  0
LINE
  5
84
100
AcDbEntity
  8
0
  6
CONTINUOUS
 62
     0
100
AcDbLine
 10
0.0
 20
0.0
 30
0.0
 11
-1.0
 21
0.0
 31
0.0
  0
ARC
  5
85
100
AcDbEntity
  8
0
  6
CONTINUOUS
 62
     0
100
AcDbCircle
 10
0.542115
 20
0.164992
 30
0.0
 40
0.56667
100
AcDbArc
 50
73.07249
 51
196.927513
  0
ARC
  5
86
100
AcDbEntity
  8
0
  6
CONTINUOUS
 62
     0
100
AcDbCircle
 10
-0.542115
 20
-0.164992
 30
0.0
 40
0.56667
100
AcDbArc
 50
253.072487
 51
16.927513
  0
ENDBLK
  5
87
100
AcDbEntity
  8
0
100
AcDbBlockEnd
  0
BLOCK
  5
C5
100
AcDbEntity
  8
0
100
AcDbBlockBegin
  2
*D14
 70
    65
 10
0.0
 20
0.0
 30
0.0
  3
*D14
  1

  0
TEXT
  5
C6
100
AcDbEntity
  8
本体
  6
CONTINUOUS
 62
     2
100
AcDbText
 10
1060.639048
 20
1243.944088
 30
0.0
 40
40.0
  1
1°10′
 50
68.477189
 41
0.84
  7
EXCADSTD
 72
     1
 11
1085.292821
 21
1306.458338
 31
0.0
100
AcDbText
  0
ARC
  5
C7
100
AcDbEntity
  8
本体
  6
CONTINUOUS
 62
     3
100
AcDbCircle
 10
800.053998
 20
1418.948061
 30
0.0
 40
309.618836
100
AcDbArc
 50
323.11783
 51
5.551561
  0
LINE
  5
C8
100
AcDbEntity
  8
本体
  6
CONTINUOUS
 62
     3
100
AcDbLine
 10
1113.996589
 20
1382.546484
 30
0.0
 11
1109.608623
 21
1412.642095
 31
0.0
  0
LINE
  5
C9
100
AcDbEntity
  8
本体
  6
CONTINUOUS
 62
     3
100
AcDbLine
 10
1109.608623
 20
1412.642095
 30
0.0
 11
1103.998663
 21
1382.75015
 31
0.0
  0
LINE
  5
CA
100
AcDbEntity
  8
本体
  6
CONTINUOUS
 62
     3
100
AcDbLine
 10
1104.672845
 20
1448.947966
 30
0.0
 11
1109.672845
 21
1418.947966
 31
0.0
  0
LINE
  5
CB
100
AcDbEntity
  8
本体
  6
CONTINUOUS
 62
     3
100
AcDbLine
 10
1109.672845
 20
1418.947966
 30
0.0
 11
1114.672845
 21
1448.947966
 31
0.0
  0
ENDBLK
  5
CC
100
AcDbEntity
  8
0
100
AcDbBlockEnd
  0
BLOCK
  5
191
100
AcDbEntity
  8
0
100
AcDbBlockBegin
  2
*D15
 70
    65
 10
0.0
 20
0.0
 30
0.0
  3
*D15
  1

  0
TEXT
  5
192
100
AcDbEntity
  8
本体
  6
CONTINUOUS
 62
     2
100
AcDbText
 10
-719.360952
 20
1009.944088
 30
0.0
 40
40.0
  1
1°10′
 50
68.477189
 41
0.84
  7
EXCADSTD
 72
     1
 11
-694.707179
 21
1072.458338
 31
0.0
100
AcDbText
  0
ARC
  5
193
100
AcDbEntity
  8
本体
  6
CONTINUOUS
 62
     3
100
AcDbCircle
 10
-979.946002
 20
1184.948061
 30
0.0
 40
309.618836
100
AcDbArc
 50
323.11783
 51
5.551561
  0
LINE
  5
194
100
AcDbEntity
  8
本体
  6
CONTINUOUS
 62
     3
100
AcDbLine
 10
-666.003411
 20
1148.546484
 30
0.0
 11
-670.391377
 21
1178.642095
 31
0.0
  0
LINE
  5
195
100
AcDbEntity
  8
本体
  6
CONTINUOUS
 62
     3
100
AcDbLine
 10
-670.391377
 20
1178.642095
 30
0.0
 11
-676.001337
 21
1148.75015
 31
0.0
  0
LINE
  5
196
100
AcDbEntity
  8
本体
  6
CONTINUOUS
 62
     3
100
AcDbLine
 10
-675.327155
 20
1214.947966
 30
0.0
 11
-670.327155
 21
1184.947966
 31
0.0
  0
LINE
  5
197
100
AcDbEntity
  8
本体
  6
CONTINUOUS
 62
     3
100
AcDbLine
 10
-670.327155
 20
1184.947966
 30
0.0
 11
-665.327155
 21
1214.947966
 31
0.0
  0
ENDBLK
  5
198
100
AcDbEntity
  8
0
100
AcDbBlockEnd
  0
BLOCK
  5
19B
100
AcDbEntity
  8
0
100
AcDbBlockBegin
  2
*D16
 70
    65
 10
0.0
 20
0.0
 30
0.0
  3
*D16
  1

  0
LINE
  5
19C
100
AcDbEntity
  8
本体
  6
CONTINUOUS
 62
     3
100
AcDbLine
 10
-1119.413668
 20
1158.0
 30
0.0
 11
-1253.2
 21
1158.0
 31
0.0
  0
TEXT
  5
19D
100
AcDbEntity
  8
本体
  6
CONTINUOUS
 62
     2
100
AcDbText
 10
-1246.7
 20
1176.1
 30
0.0
 40
40.0
  1
95
 50
90.0
 41
0.84
  7
EXCADSTD
 72
     1
 11
-1246.7
 21
1205.5
 31
0.0
100
AcDbText
  0
LINE
  5
19E
100
AcDbEntity
  8
本体
  6
CONTINUOUS
 62
     3
100
AcDbLine
 10
-1243.2
 20
1253.0
 30
0.0
 11
-1243.2
 21
1158.0
 31
0.0
  0
LINE
  5
19F
100
AcDbEntity
  8
本体
  6
CONTINUOUS
 62
     3
100
AcDbLine
 10
-1238.2
 20
1223.0
 30
0.0
 11
-1243.2
 21
1253.0
 31
0.0
  0
LINE
  5
1A0
100
AcDbEntity
  8
本体
  6
CONTINUOUS
 62
     3
100
AcDbLine
 10
-1243.2
 20
1253.0
 30
0.0
 11
-1248.2
 21
1223.0
 31
0.0
  0
LINE
  5
1A1
100
AcDbEntity
  8
本体
  6
CONTINUOUS
 62
     3
100
AcDbLine
 10
-1248.2
 20
1188.0
 30
0.0
 11
-1243.2
 21
1158.0
 31
0.0
  0
LINE
  5
1A2
100
AcDbEntity
  8
本体
  6
CONTINUOUS
 62
     3
100
AcDbLine
 10
-1243.2
 20
1158.0
 30
0.0
 11
-1238.2
 21
1188.0
 31
0.0
  0
ENDBLK
  5
1A3
100
AcDbEntity
  8
0
100
AcDbBlockEnd
  0
BLOCK
  5
1A6
100
AcDbEntity
  8
0
100
AcDbBlockBegin
  2
*D17
 70
    65
 10
0.0
 20
0.0
 30
0.0
  3
*D17
  1

  0
LINE
  5
1A7
100
AcDbEntity
  8
本体
  6
CONTINUOUS
 62
     3
100
AcDbLine
 10
-656.9
 20
1184.947966
 30
0.0
 11
-602.8
 21
1184.947966
 31
0.0
  0
LINE
  5
1A8
100
AcDbEntity
  8
本体
  6
CONTINUOUS
 62
     3
100
AcDbLine
 10
-617.9
 20
1253.0
 30
0.0
 11
-602.8
 21
1253.0
 31
0.0
  0
TEXT
  5
1A9
100
AcDbEntity
  8
本体
  6
CONTINUOUS
 62
     2
100
AcDbText
 10
-616.3
 20
1160.173983
 30
0.0
 40
40.0
  1
68.05
 50
90.0
 41
0.84
  7
EXCADSTD
 72
     1
 11
-616.3
 21
1218.973983
 31
0.0
100
AcDbText
  0
LINE
  5
1AA
100
AcDbEntity
  8
本体
  6
CONTINUOUS
 62
     3
100
AcDbLine
 10
-612.8
 20
1184.947966
 30
0.0
 11
-612.8
 21
1253.0
 31
0.0
  0
LINE
  5
1AB
100
AcDbEntity
  8
本体
  6
CONTINUOUS
 62
     3
100
AcDbLine
 10
-617.8
 20
1214.947966
 30
0.0
 11
-612.8
 21
1184.947966
 31
0.0
  0
LINE
  5
1AC
100
AcDbEntity
  8
本体
  6
CONTINUOUS
 62
     3
100
AcDbLine
 10
-612.8
 20
1184.947966
 30
0.0
 11
-607.8
 21
1214.947966
 31
0.0
  0
LINE
  5
1AD
100
AcDbEntity
  8
本体
  6
CONTINUOUS
 62
     3
100
AcDbLine
 10
-607.8
 20
1223.0
 30
0.0
 11
-612.8
 21
1253.0
 31
0.0
  0
LINE
  5
1AE
100
AcDbEntity
  8
本体
  6
CONTINUOUS
 62
     3
100
AcDbLine
 10
-612.8
 20
1253.0
 30
0.0
 11
-617.8
 21
1223.0
 31
0.0
  0
ENDBLK
  5
1AF
100
AcDbEntity
  8
0
100
AcDbBlockEnd
  0
BLOCK
  5
33F
100
AcDbEntity
  8
0
100
AcDbBlockBegin
  2
*D18
 70
    65
 10
0.0
 20
0.0
 30
0.0
  3
*D18
  1

  0
LINE
  5
340
100
AcDbEntity
  8
本体
  6
CONTINUOUS
 62
     3
100
AcDbLine
 10
1209.5
 20
1489.0
 30
0.0
 11
1157.0
 21
1489.0
 31
0.0
  0
LINE
  5
341
100
AcDbEntity
  8
本体
  6
CONTINUOUS
 62
     3
100
AcDbLine
 10
1098.8
 20
1419.0
 30
0.0
 11
1177.0
 21
1419.0
 31
0.0
  0
LINE
  5
342
100
AcDbEntity
  8
本体
  6
CONTINUOUS
 62
     3
100
AcDbLine
 10
1167.0
 20
1489.0
 30
0.0
 11
1167.0
 21
1419.0
 31
0.0
  0
LINE
  5
343
100
AcDbEntity
  8
本体
  6
CONTINUOUS
 62
     3
100
AcDbLine
 10
1172.0
 20
1459.0
 30
0.0
 11
1167.0
 21
1489.0
 31
0.0
  0
LINE
  5
344
100
AcDbEntity
  8
本体
  6
CONTINUOUS
 62
     3
100
AcDbLine
 10
1167.0
 20
1489.0
 30
0.0
 11
1162.0
 21
1459.0
 31
0.0
  0
LINE
  5
345
100
AcDbEntity
  8
本体
  6
CONTINUOUS
 62
     3
100
AcDbLine
 10
1162.0
 20
1449.0
 30
0.0
 11
1167.0
 21
1419.0
 31
0.0
  0
LINE
  5
346
100
AcDbEntity
  8
本体
  6
CONTINUOUS
 62
     3
100
AcDbLine
 10
1167.0
 20
1419.0
 30
0.0
 11
1172.0
 21
1449.0
 31
0.0
  0
TEXT
  5
347
100
AcDbEntity
  8
本体
  6
CONTINUOUS
 62
     2
100
AcDbText
 10
1163.5
 20
1424.6
 30
0.0
 40
40.0
  1
74
 50
90.0
 41
0.84
  7
EXCADSTD
 72
     1
 11
1163.5
 21
1454.0
 31
0.0
100
AcDbText
  0
ENDBLK
  5
348
100
AcDbEntity
  8
0
100
AcDbBlockEnd
  0
BLOCK
  5
481
100
AcDbEntity
  8
0
100
AcDbBlockBegin
  2
*D19
 70
    65
 10
0.0
 20
0.0
 30
0.0
  3
*D19
  1

  0
LINE
  5
482
100
AcDbEntity
  8
寸法
  6
CONTINUOUS
 62
     3
100
AcDbLine
 10
1212.2
 20
1549.0
 30
0.0
 11
1317.0
 21
1549.0
 31
0.0
  0
TEXT
  5
483
100
AcDbEntity
  8
寸法
  6
CONTINUOUS
 62
     2
100
AcDbText
 10
1303.5
 20
1584.6
 30
0.0
 40
40.0
  1
60
 50
90.0
 41
0.84
  7
EXCADSTD
 72
     1
 11
1303.5
 21
1614.0
 31
0.0
100
AcDbText
  0
LINE
  5
484
100
AcDbEntity
  8
寸法
  6
CONTINUOUS
 62
     3
100
AcDbLine
 10
1307.0
 20
1459.0
 30
0.0
 11
1307.0
 21
1652.500004
 31
0.0
  0
LINE
  5
485
100
AcDbEntity
  8
寸法
  6
CONTINUOUS
 62
     3
100
AcDbLine
 10
1312.0
 20
1459.0
 30
0.0
 11
1307.0
 21
1489.0
 31
0.0
  0
LINE
  5
486
100
AcDbEntity
  8
寸法
  6
CONTINUOUS
 62
     3
100
AcDbLine
 10
1307.0
 20
1489.0
 30
0.0
 11
1302.0
 21
1459.0
 31
0.0
  0
LINE
  5
487
100
AcDbEntity
  8
寸法
  6
CONTINUOUS
 62
     3
100
AcDbLine
 10
1302.0
 20
1579.0
 30
0.0
 11
1307.0
 21
1549.0
 31
0.0
  0
LINE
  5
488
100
AcDbEntity
  8
寸法
  6
CONTINUOUS
 62
     3
100
AcDbLine
 10
1307.0
 20
1549.0
 30
0.0
 11
1312.0
 21
1579.0
 31
0.0
  0
ENDBLK
  5
489
100
AcDbEntity
  8
0
100
AcDbBlockEnd
  0
BLOCK
  5
48C
100
AcDbEntity
  8
0
100
AcDbBlockBegin
  2
*D20
 70
    65
 10
0.0
 20
0.0
 30
0.0
  3
*D20
  1

  0
LINE
  5
48D
100
AcDbEntity
  8
寸法
  6
CONTINUOUS
 62
     3
100
AcDbLine
 10
890.0
 20
2040.0
 30
0.0
 11
544.5
 21
2040.0
 31
0.0
  0
LINE
  5
48E
100
AcDbEntity
  8
寸法
  6
CONTINUOUS
 62
     3
100
AcDbLine
 10
727.5
 20
2045.0
 30
0.0
 11
697.5
 21
2040.0
 31
0.0
  0
LINE
  5
48F
100
AcDbEntity
  8
寸法
  6
CONTINUOUS
 62
     3
100
AcDbLine
 10
697.5
 20
2040.0
 30
0.0
 11
727.5
 21
2035.0
 31
0.0
  0
LINE
  5
490
100
AcDbEntity
  8
寸法
  6
CONTINUOUS
 62
     3
100
AcDbLine
 10
544.5
 20
2035.0
 30
0.0
 11
574.5
 21
2040.0
 31
0.0
  0
LINE
  5
491
100
AcDbEntity
  8
寸法
  6
CONTINUOUS
 62
     3
100
AcDbLine
 10
574.5
 20
2040.0
 30
0.0
 11
544.5
 21
2045.0
 31
0.0
  0
TEXT
  5
492
100
AcDbEntity
  8
寸法
  6
CONTINUOUS
 62
     2
100
AcDbText
 10
809.5
 20
2043.5
 30
0.0
 40
40.0
  1
123
 41
0.84
  7
EXCADSTD
 72
     1
 11
851.5
 21
2043.5
 31
0.0
100
AcDbText
  0
LINE
  5
493
100
AcDbEntity
  8
寸法
  6
CONTINUOUS
 62
     3
100
AcDbLine
 10
697.5
 20
2073.999998
 30
0.0
 11
697.5
 21
2030.0
 31
0.0
  0
ENDBLK
  5
494
100
AcDbEntity
  8
0
100
AcDbBlockEnd
  0
BLOCK
  5
497
100
AcDbEntity
  8
0
100
AcDbBlockBegin
  2
*D21
 70
    65
 10
0.0
 20
0.0
 30
0.0
  3
*D21
  1

  0
LINE
  5
498
100
AcDbEntity
  8
寸法
  6
CONTINUOUS
 62
     3
100
AcDbLine
 10
-567.8
 20
1313.0
 30
0.0
 11
-463.0
 21
1313.0
 31
0.0
  0
TEXT
  5
499
100
AcDbEntity
  8
寸法
  6
CONTINUOUS
 62
     2
100
AcDbText
 10
-476.5
 20
1348.6
 30
0.0
 40
40.0
  1
60
 50
90.0
 41
0.84
  7
EXCADSTD
 72
     1
 11
-476.5
 21
1378.0
 31
0.0
100
AcDbText
  0
LINE
  5
49A
100
AcDbEntity
  8
寸法
  6
CONTINUOUS
 62
     3
100
AcDbLine
 10
-473.0
 20
1223.0
 30
0.0
 11
-473.0
 21
1416.500004
 31
0.0
  0
LINE
  5
49B
100
AcDbEntity
  8
寸法
  6
CONTINUOUS
 62
     3
100
AcDbLine
 10
-468.0
 20
1223.0
 30
0.0
 11
-473.0
 21
1253.0
 31
0.0
  0
LINE
  5
49C
100
AcDbEntity
  8
寸法
  6
CONTINUOUS
 62
     3
100
AcDbLine
 10
-473.0
 20
1253.0
 30
0.0
 11
-478.0
 21
1223.0
 31
0.0
  0
LINE
  5
49D
100
AcDbEntity
  8
寸法
  6
CONTINUOUS
 62
     3
100
AcDbLine
 10
-478.0
 20
1343.0
 30
0.0
 11
-473.0
 21
1313.0
 31
0.0
  0
LINE
  5
49E
100
AcDbEntity
  8
寸法
  6
CONTINUOUS
 62
     3
100
AcDbLine
 10
-473.0
 20
1313.0
 30
0.0
 11
-468.0
 21
1343.0
 31
0.0
  0
ENDBLK
  5
49F
100
AcDbEntity
  8
0
100
AcDbBlockEnd
  0
BLOCK
  5
4A4
100
AcDbEntity
  8
0
100
AcDbBlockBegin
  2
*D22
 70
    65
 10
0.0
 20
0.0
 30
0.0
  3
*D22
  1

  0
LINE
  5
4A5
100
AcDbEntity
  8
寸法
  6
CONTINUOUS
 62
     3
100
AcDbLine
 10
660.586332
 20
1392.0
 30
0.0
 11
504.0
 21
1392.0
 31
0.0
  0
LINE
  5
4A6
100
AcDbEntity
  8
寸法
  6
CONTINUOUS
 62
     3
100
AcDbLine
 10
514.0
 20
1489.0
 30
0.0
 11
514.0
 21
1392.0
 31
0.0
  0
LINE
  5
4A7
100
AcDbEntity
  8
寸法
  6
CONTINUOUS
 62
     3
100
AcDbLine
 10
519.0
 20
1459.0
 30
0.0
 11
514.0
 21
1489.0
 31
0.0
  0
LINE
  5
4A8
100
AcDbEntity
  8
寸法
  6
CONTINUOUS
 62
     3
100
AcDbLine
 10
514.0
 20
1489.0
 30
0.0
 11
509.0
 21
1459.0
 31
0.0
  0
LINE
  5
4A9
100
AcDbEntity
  8
寸法
  6
CONTINUOUS
 62
     3
100
AcDbLine
 10
509.0
 20
1422.0
 30
0.0
 11
514.0
 21
1392.0
 31
0.0
  0
LINE
  5
4AA
100
AcDbEntity
  8
寸法
  6
CONTINUOUS
 62
     3
100
AcDbLine
 10
514.0
 20
1392.0
 30
0.0
 11
519.0
 21
1422.0
 31
0.0
  0
TEXT
  5
4AB
100
AcDbEntity
  8
寸法
  6
CONTINUOUS
 62
     2
100
AcDbText
 10
510.5
 20
1398.5
 30
0.0
 40
40.0
  1
101
 50
90.0
 41
0.84
  7
EXCADSTD
 72
     1
 11
510.5
 21
1440.5
 31
0.0
100
AcDbText
  0
ENDBLK
  5
4AC
100
AcDbEntity
  8
0
100
AcDbBlockEnd
  0
BLOCK
  5
4AF
100
AcDbEntity
  8
0
100
AcDbBlockBegin
  2
*D23
 70
    65
 10
0.0
 20
0.0
 30
0.0
  3
*D23
  1

  0
LINE
  5
4B0
100
AcDbEntity
  8
寸法
  6
CONTINUOUS
 62
     3
100
AcDbLine
 10
597.0
 20
2431.288259
 30
0.0
 11
597.0
 21
2571.488263
 31
0.0
  0
LINE
  5
4B1
100
AcDbEntity
  8
寸法
  6
CONTINUOUS
 62
     3
100
AcDbLine
 10
1192.0
 20
2432.088267
 30
0.0
 11
1192.0
 21
2571.488263
 31
0.0
  0
TEXT
  5
4B2
100
AcDbEntity
  8
寸法
  6
CONTINUOUS
 62
     2
100
AcDbText
 10
850.82
 20
2554.988263
 30
0.0
 40
40.0
  1
595
 41
0.84
  7
EXCADSTD
 72
     1
 11
894.5
 21
2554.988263
 31
0.0
100
AcDbText
  0
LINE
  5
4B3
100
AcDbEntity
  8
寸法
  6
CONTINUOUS
 62
     3
100
AcDbLine
 10
597.0
 20
2551.488263
 30
0.0
 11
1192.0
 21
2551.488263
 31
0.0
  0
LINE
  5
4B4
100
AcDbEntity
  8
寸法
  6
CONTINUOUS
 62
     3
100
AcDbLine
 10
632.0
 20
2557.321597
 30
0.0
 11
597.0
 21
2551.488263
 31
0.0
  0
LINE
  5
4B5
100
AcDbEntity
  8
寸法
  6
CONTINUOUS
 62
     3
100
AcDbLine
 10
597.0
 20
2551.488263
 30
0.0
 11
632.0
 21
2545.65493
 31
0.0
  0
LINE
  5
4B6
100
AcDbEntity
  8
寸法
  6
CONTINUOUS
 62
     3
100
AcDbLine
 10
1157.0
 20
2545.65493
 30
0.0
 11
1192.0
 21
2551.488263
 31
0.0
  0
LINE
  5
4B7
100
AcDbEntity
  8
寸法
  6
CONTINUOUS
 62
     3
100
AcDbLine
 10
1192.0
 20
2551.488263
 30
0.0
 11
1157.0
 21
2557.321597
 31
0.0
  0
ENDBLK
  5
4B8
100
AcDbEntity
  8
0
100
AcDbBlockEnd
  0
BLOCK
  5
4BB
100
AcDbEntity
  8
0
100
AcDbBlockBegin
  2
*D24
 70
    65
 10
0.0
 20
0.0
 30
0.0
  3
*D24
  1

  0
LINE
  5
4BC
100
AcDbEntity
  8
寸法
  6
CONTINUOUS
 62
     3
100
AcDbLine
 10
614.299995
 20
2448.988263
 30
0.0
 11
474.5
 21
2448.988263
 31
0.0
  0
LINE
  5
4BD
100
AcDbEntity
  8
寸法
  6
CONTINUOUS
 62
     3
100
AcDbLine
 10
612.900002
 20
1853.988263
 30
0.0
 11
474.5
 21
1853.988263
 31
0.0
  0
TEXT
  5
4BE
100
AcDbEntity
  8
寸法
  6
CONTINUOUS
 62
     2
100
AcDbText
 10
491.0
 20
2107.808263
 30
0.0
 40
40.0
  1
595
 50
90.0
 41
0.84
  7
EXCADSTD
 72
     1
 11
491.0
 21
2151.488263
 31
0.0
100
AcDbText
  0
LINE
  5
4BF
100
AcDbEntity
  8
寸法
  6
CONTINUOUS
 62
     3
100
AcDbLine
 10
494.5
 20
2448.988263
 30
0.0
 11
494.5
 21
1853.988263
 31
0.0
  0
LINE
  5
4C0
100
AcDbEntity
  8
寸法
  6
CONTINUOUS
 62
     3
100
AcDbLine
 10
500.333333
 20
2413.988263
 30
0.0
 11
494.5
 21
2448.988263
 31
0.0
  0
LINE
  5
4C1
100
AcDbEntity
  8
寸法
  6
CONTINUOUS
 62
     3
100
AcDbLine
 10
494.5
 20
2448.988263
 30
0.0
 11
488.666667
 21
2413.988263
 31
0.0
  0
LINE
  5
4C2
100
AcDbEntity
  8
寸法
  6
CONTINUOUS
 62
     3
100
AcDbLine
 10
488.666667
 20
1888.988263
 30
0.0
 11
494.5
 21
1853.988263
 31
0.0
  0
LINE
  5
4C3
100
AcDbEntity
  8
寸法
  6
CONTINUOUS
 62
     3
100
AcDbLine
 10
494.5
 20
1853.988263
 30
0.0
 11
500.333333
 21
1888.988263
 31
0.0
  0
ENDBLK
  5
4C4
100
AcDbEntity
  8
0
100
AcDbBlockEnd
  0
BLOCK
  5
4C7
100
AcDbEntity
  8
0
100
AcDbBlockBegin
  2
*D25
 70
    65
 10
0.0
 20
0.0
 30
0.0
  3
*D25
  1

  0
LINE
  5
4C8
100
AcDbEntity
  8
寸法
  6
CONTINUOUS
 62
     3
100
AcDbLine
 10
574.5
 20
1836.488263
 30
0.0
 11
574.5
 21
1685.0
 31
0.0
  0
LINE
  5
4C9
100
AcDbEntity
  8
寸法
  6
CONTINUOUS
 62
     3
100
AcDbLine
 10
1214.5
 20
1836.488263
 30
0.0
 11
1214.5
 21
1685.0
 31
0.0
  0
TEXT
  5
4CA
100
AcDbEntity
  8
寸法
  6
CONTINUOUS
 62
     2
100
AcDbText
 10
852.5
 20
1698.5
 30
0.0
 40
40.0
  1
640
 41
0.84
  7
EXCADSTD
 72
     1
 11
894.5
 21
1698.5
 31
0.0
100
AcDbText
  0
LINE
  5
4CB
100
AcDbEntity
  8
寸法
  6
CONTINUOUS
 62
     3
100
AcDbLine
 10
574.5
 20
1695.0
 30
0.0
 11
1214.5
 21
1695.0
 31
0.0
  0
LINE
  5
4CC
100
AcDbEntity
  8
寸法
  6
CONTINUOUS
 62
     3
100
AcDbLine
 10
604.5
 20
1700.0
 30
0.0
 11
574.5
 21
1695.0
 31
0.0
  0
LINE
  5
4CD
100
AcDbEntity
  8
寸法
  6
CONTINUOUS
 62
     3
100
AcDbLine
 10
574.5
 20
1695.0
 30
0.0
 11
604.5
 21
1690.0
 31
0.0
  0
LINE
  5
4CE
100
AcDbEntity
  8
寸法
  6
CONTINUOUS
 62
     3
100
AcDbLine
 10
1184.5
 20
1690.0
 30
0.0
 11
1214.5
 21
1695.0
 31
0.0
  0
LINE
  5
4CF
100
AcDbEntity
  8
寸法
  6
CONTINUOUS
 62
     3
100
AcDbLine
 10
1214.5
 20
1695.0
 30
0.0
 11
1184.5
 21
1700.0
 31
0.0
  0
ENDBLK
  5
4D0
100
AcDbEntity
  8
0
100
AcDbBlockEnd
  0
BLOCK
  5
4D3
100
AcDbEntity
  8
0
100
AcDbBlockBegin
  2
*D26
 70
    65
 10
0.0
 20
0.0
 30
0.0
  3
*D26
  1

  0
LINE
  5
4D4
100
AcDbEntity
  8
寸法
  6
CONTINUOUS
 62
     3
100
AcDbLine
 10
1189.5
 20
1868.831398
 30
0.0
 11
1189.5
 21
1744.0
 31
0.0
  0
LINE
  5
4D5
100
AcDbEntity
  8
寸法
  6
CONTINUOUS
 62
     3
100
AcDbLine
 10
599.5
 20
1868.831398
 30
0.0
 11
599.5
 21
1744.0
 31
0.0
  0
TEXT
  5
4D6
100
AcDbEntity
  8
寸法
  6
CONTINUOUS
 62
     2
100
AcDbText
 10
802.1
 20
1757.5
 30
0.0
 40
40.0
  1
590（内寸）
 41
0.84
  7
EXCADSTD
 72
     1
 11
894.5
 21
1757.5
 31
0.0
100
AcDbText
  0
LINE
  5
4D7
100
AcDbEntity
  8
寸法
  6
CONTINUOUS
 62
     3
100
AcDbLine
 10
1189.5
 20
1754.0
 30
0.0
 11
599.5
 21
1754.0
 31
0.0
  0
LINE
  5
4D8
100
AcDbEntity
  8
寸法
  6
CONTINUOUS
 62
     3
100
AcDbLine
 10
1159.5
 20
1749.0
 30
0.0
 11
1189.5
 21
1754.0
 31
0.0
  0
LINE
  5
4D9
100
AcDbEntity
  8
寸法
  6
CONTINUOUS
 62
     3
100
AcDbLine
 10
1189.5
 20
1754.0
 30
0.0
 11
1159.5
 21
1759.0
 31
0.0
  0
LINE
  5
4DA
100
AcDbEntity
  8
寸法
  6
CONTINUOUS
 62
     3
100
AcDbLine
 10
629.5
 20
1759.0
 30
0.0
 11
599.5
 21
1754.0
 31
0.0
  0
LINE
  5
4DB
100
AcDbEntity
  8
寸法
  6
CONTINUOUS
 62
     3
100
AcDbLine
 10
599.5
 20
1754.0
 30
0.0
 11
629.5
 21
1749.0
 31
0.0
  0
ENDBLK
  5
4DC
100
AcDbEntity
  8
0
100
AcDbBlockEnd
  0
BLOCK
  5
4DF
100
AcDbEntity
  8
0
100
AcDbBlockBegin
  2
*D27
 70
    65
 10
0.0
 20
0.0
 30
0.0
  3
*D27
  1

  0
LINE
  5
4E0
100
AcDbEntity
  8
寸法
  6
CONTINUOUS
 62
     3
100
AcDbLine
 10
1177.156865
 20
2446.488263
 30
0.0
 11
1318.0
 21
2446.488263
 31
0.0
  0
LINE
  5
4E1
100
AcDbEntity
  8
寸法
  6
CONTINUOUS
 62
     3
100
AcDbLine
 10
1177.156865
 20
1856.488263
 30
0.0
 11
1318.0
 21
1856.488263
 31
0.0
  0
TEXT
  5
4E2
100
AcDbEntity
  8
寸法
  6
CONTINUOUS
 62
     2
100
AcDbText
 10
1304.5
 20
2059.088263
 30
0.0
 40
40.0
  1
590（内寸）
 50
90.0
 41
0.84
  7
EXCADSTD
 72
     1
 11
1304.5
 21
2151.488263
 31
0.0
100
AcDbText
  0
LINE
  5
4E3
100
AcDbEntity
  8
寸法
  6
CONTINUOUS
 62
     3
100
AcDbLine
 10
1308.0
 20
2446.488263
 30
0.0
 11
1308.0
 21
1856.488263
 31
0.0
  0
LINE
  5
4E4
100
AcDbEntity
  8
寸法
  6
CONTINUOUS
 62
     3
100
AcDbLine
 10
1313.0
 20
2416.488263
 30
0.0
 11
1308.0
 21
2446.488263
 31
0.0
  0
LINE
  5
4E5
100
AcDbEntity
  8
寸法
  6
CONTINUOUS
 62
     3
100
AcDbLine
 10
1308.0
 20
2446.488263
 30
0.0
 11
1303.0
 21
2416.488263
 31
0.0
  0
LINE
  5
4E6
100
AcDbEntity
  8
寸法
  6
CONTINUOUS
 62
     3
100
AcDbLine
 10
1303.0
 20
1886.488263
 30
0.0
 11
1308.0
 21
1856.488263
 31
0.0
  0
LINE
  5
4E7
100
AcDbEntity
  8
寸法
  6
CONTINUOUS
 62
     3
100
AcDbLine
 10
1308.0
 20
1856.488263
 30
0.0
 11
1313.0
 21
1886.488263
 31
0.0
  0
ENDBLK
  5
4E8
100
AcDbEntity
  8
0
100
AcDbBlockEnd
  0
BLOCK
  5
4EB
100
AcDbEntity
  8
0
100
AcDbBlockBegin
  2
*D28
 70
    65
 10
0.0
 20
0.0
 30
0.0
  3
*D28
  1

  0
LINE
  5
4EC
100
AcDbEntity
  8
寸法
  6
CONTINUOUS
 62
     3
100
AcDbLine
 10
1209.5
 20
2471.488263
 30
0.0
 11
1376.0
 21
2471.488263
 31
0.0
  0
LINE
  5
4ED
100
AcDbEntity
  8
寸法
  6
CONTINUOUS
 62
     3
100
AcDbLine
 10
1209.5
 20
1831.488263
 30
0.0
 11
1376.0
 21
1831.488263
 31
0.0
  0
TEXT
  5
4EE
100
AcDbEntity
  8
寸法
  6
CONTINUOUS
 62
     2
100
AcDbText
 10
1362.5
 20
2109.488263
 30
0.0
 40
40.0
  1
640
 50
90.0
 41
0.84
  7
EXCADSTD
 72
     1
 11
1362.5
 21
2151.488263
 31
0.0
100
AcDbText
  0
LINE
  5
4EF
100
AcDbEntity
  8
寸法
  6
CONTINUOUS
 62
     3
100
AcDbLine
 10
1366.0
 20
2471.488263
 30
0.0
 11
1366.0
 21
1831.488263
 31
0.0
  0
LINE
  5
4F0
100
AcDbEntity
  8
寸法
  6
CONTINUOUS
 62
     3
100
AcDbLine
 10
1371.0
 20
2441.488263
 30
0.0
 11
1366.0
 21
2471.488263
 31
0.0
  0
LINE
  5
4F1
100
AcDbEntity
  8
寸法
  6
CONTINUOUS
 62
     3
100
AcDbLine
 10
1366.0
 20
2471.488263
 30
0.0
 11
1361.0
 21
2441.488263
 31
0.0
  0
LINE
  5
4F2
100
AcDbEntity
  8
寸法
  6
CONTINUOUS
 62
     3
100
AcDbLine
 10
1361.0
 20
1861.488263
 30
0.0
 11
1366.0
 21
1831.488263
 31
0.0
  0
LINE
  5
4F3
100
AcDbEntity
  8
寸法
  6
CONTINUOUS
 62
     3
100
AcDbLine
 10
1366.0
 20
1831.488263
 30
0.0
 11
1371.0
 21
1861.488263
 31
0.0
  0
ENDBLK
  5
4F4
100
AcDbEntity
  8
0
100
AcDbBlockEnd
  0
ENDSEC
  0
SECTION
  2
ENTITIES
  0
TEXT
  5
88
100
AcDbEntity
  8
枠
  6
CONTINUOUS
 62
     2
100
AcDbText
 10
201.5
 20
287.5
 30
0.0
 40
45.0
  1
製図
 41
1.026667
  7
EXCADSTD
 72
     5
 11
302.326
 21
287.5
 31
0.0
100
AcDbText
  0
TEXT
  5
89
100
AcDbEntity
  8
枠
  6
CONTINUOUS
 62
     2
100
AcDbText
 10
356.5
 20
287.5
 30
0.0
 40
45.0
  1
写図
 41
1.026667
  7
EXCADSTD
 72
     5
 11
457.326
 21
287.5
 31
0.0
100
AcDbText
  0
TEXT
  5
8A
100
AcDbEntity
  8
枠
  6
CONTINUOUS
 62
     2
100
AcDbText
 10
504.0
 20
287.5
 30
0.0
 40
45.0
  1
検図
 41
0.933333
  7
EXCADSTD
 72
     5
 11
595.66
 21
287.5
 31
0.0
100
AcDbText
  0
TEXT
  5
8B
100
AcDbEntity
  8
枠
  6
CONTINUOUS
 62
     2
100
AcDbText
 10
634.0
 20
287.5
 30
0.0
 40
45.0
  1
承認
 41
0.933333
  7
EXCADSTD
 72
     5
 11
725.66
 21
287.5
 31
0.0
100
AcDbText
  0
TEXT
  5
8C
100
AcDbEntity
  8
枠
  6
CONTINUOUS
 62
     2
100
AcDbText
 10
774.0
 20
325.0
 30
0.0
 40
45.0
  1
品名
  7
EXCADVERT
 72
     3
 11
774.0
 21
225.0
 31
0.0
100
AcDbText
  0
TEXT
  5
8D
100
AcDbEntity
  8
枠
  6
CONTINUOUS
 62
     2
100
AcDbText
 10
1414.0
 20
325.0
 30
0.0
 40
45.0
  1
品番
  7
EXCADVERT
 72
     3
 11
1414.0
 21
225.0
 31
0.0
100
AcDbText
  0
TEXT
  5
8E
100
AcDbEntity
  8
枠
  6
CONTINUOUS
 62
     2
100
AcDbText
 10
1834.0
 20
325.0
 30
0.0
 40
45.0
  1
尺度
  7
EXCADVERT
 72
     3
 11
1834.0
 21
225.0
 31
0.0
100
AcDbText
  0
TEXT
  5
8F
100
AcDbEntity
  8
枠
  6
CONTINUOUS
 62
     2
100
AcDbText
 10
1414.0
 20
210.0
 30
0.0
 40
45.0
  1
図番
  7
EXCADVERT
 72
     3
 11
1414.0
 21
120.0
 31
0.0
100
AcDbText
  0
TEXT
  5
90
100
AcDbEntity
  8
枠
  6
CONTINUOUS
 62
     2
100
AcDbText
 10
1896.0
 20
316.5
 30
0.0
 40
35.0
  1
１
 41
0.785714
  7
EXCADVERT
 72
     3
 11
1896.0
 21
281.5
 31
0.0
100
AcDbText
  0
LINE
  5
91
100
AcDbEntity
  8
枠
  6
CONTINUOUS
 62
     7
100
AcDbLine
 10
179.0
 20
115.0
 30
0.0
 11
1999.0
 21
115.0
 31
0.0
  0
LINE
  5
92
100
AcDbEntity
  8
枠
  6
CONTINUOUS
 62
     7
100
AcDbLine
 10
179.0
 20
115.0
 30
0.0
 11
179.0
 21
2915.0
 31
0.0
  0
LINE
  5
93
100
AcDbEntity
  8
枠
  6
CONTINUOUS
 62
     7
100
AcDbLine
 10
179.0
 20
2915.0
 30
0.0
 11
1999.0
 21
2915.0
 31
0.0
  0
LINE
  5
94
100
AcDbEntity
  8
枠
  6
CONTINUOUS
 62
     7
100
AcDbLine
 10
179.0
 20
335.0
 30
0.0
 11
1999.0
 21
335.0
 31
0.0
  0
LINE
  5
95
100
AcDbEntity
  8
枠
  6
CONTINUOUS
 62
     6
100
AcDbLine
 10
1859.0
 20
335.0
 30
0.0
 11
1859.0
 21
215.0
 31
0.0
  0
LINE
  5
96
100
AcDbEntity
  8
枠
  6
CONTINUOUS
 62
     6
100
AcDbLine
 10
1809.0
 20
335.0
 30
0.0
 11
1809.0
 21
215.0
 31
0.0
  0
LINE
  5
97
100
AcDbEntity
  8
枠
  6
CONTINUOUS
 62
     6
100
AcDbLine
 10
1439.0
 20
335.0
 30
0.0
 11
1439.0
 21
115.0
 31
0.0
  0
LINE
  5
98
100
AcDbEntity
  8
枠
  6
CONTINUOUS
 62
     6
100
AcDbLine
 10
1389.0
 20
335.0
 30
0.0
 11
1389.0
 21
115.0
 31
0.0
  0
LINE
  5
99
100
AcDbEntity
  8
枠
  6
CONTINUOUS
 62
     6
100
AcDbLine
 10
799.0
 20
335.0
 30
0.0
 11
799.0
 21
215.0
 31
0.0
  0
LINE
  5
9A
100
AcDbEntity
  8
枠
  6
CONTINUOUS
 62
     6
100
AcDbLine
 10
749.0
 20
335.0
 30
0.0
 11
749.0
 21
115.0
 31
0.0
  0
LINE
  5
9B
100
AcDbEntity
  8
枠
  6
CONTINUOUS
 62
     6
100
AcDbLine
 10
619.0
 20
335.0
 30
0.0
 11
619.0
 21
115.0
 31
0.0
  0
LINE
  5
9C
100
AcDbEntity
  8
枠
  6
CONTINUOUS
 62
     6
100
AcDbLine
 10
489.0
 20
335.0
 30
0.0
 11
489.0
 21
115.0
 31
0.0
  0
LINE
  5
9D
100
AcDbEntity
  8
枠
  6
CONTINUOUS
 62
     6
100
AcDbLine
 10
334.0
 20
335.0
 30
0.0
 11
334.0
 21
115.0
 31
0.0
  0
LINE
  5
9E
100
AcDbEntity
  8
枠
  6
CONTINUOUS
 62
     6
100
AcDbLine
 10
179.0
 20
285.0
 30
0.0
 11
749.0
 21
285.0
 31
0.0
  0
LINE
  5
9F
100
AcDbEntity
  8
枠
  6
CONTINUOUS
 62
     6
100
AcDbLine
 10
1891.654114
 20
238.00293
 30
0.0
 11
1968.993896
 21
316.699829
 31
0.0
  0
LINE
  5
A0
100
AcDbEntity
  8
枠
  6
EXLTYPE2
 62
     6
100
AcDbLine
 10
179.0
 20
165.0
 30
0.0
 11
489.0
 21
165.0
 31
0.0
  0
CIRCLE
  5
A1
100
AcDbEntity
  8
枠
  6
CONTINUOUS
 62
     6
100
AcDbCircle
 10
229.0
 20
140.0
 30
0.0
 40
1.0
  0
CIRCLE
  5
A2
100
AcDbEntity
  8
枠
  6
CONTINUOUS
 62
     6
100
AcDbCircle
 10
279.0
 20
140.0
 30
0.0
 40
1.0
  0
CIRCLE
  5
A3
100
AcDbEntity
  8
枠
  6
CONTINUOUS
 62
     6
100
AcDbCircle
 10
384.0
 20
140.0
 30
0.0
 40
1.0
  0
CIRCLE
  5
A4
100
AcDbEntity
  8
枠
  6
CONTINUOUS
 62
     6
100
AcDbCircle
 10
434.0
 20
140.0
 30
0.0
 40
1.0
  0
LINE
  5
A5
100
AcDbEntity
  8
枠
  6
CONTINUOUS
 62
     6
100
AcDbLine
 10
1999.0
 20
215.0
 30
0.0
 11
749.0
 21
215.0
 31
0.0
  0
TEXT
  5
A6
100
AcDbEntity
  8
枠
  6
CONTINUOUS
 62
     2
100
AcDbText
 10
882.000003
 20
217.5
 30
0.0
 40
65.0
  1
洗濯機用防水パン
 41
0.684923
  7
EXCADSTD
 72
     5
 11
1305.999997
 21
217.5
 31
0.0
100
AcDbText
  0
TEXT
  5
A7
100
AcDbEntity
  8
枠
  6
CONTINUOUS
 62
     2
100
AcDbText
 10
1938.5
 20
235.5
 30
0.0
 40
35.0
  1
１０
 41
0.564
  7
EXCADSTD
 72
     5
 11
1981.5802
 21
235.5
 31
0.0
100
AcDbText
  0
TEXT
  5
A8
100
AcDbEntity
  8
枠
  6
CONTINUOUS
 62
     2
100
AcDbText
 10
807.0
 20
281.5
 30
0.0
 40
50.0
  1
６４０×６４０
 41
0.684
  7
EXCADSTD
 72
     5
 11
1092.0
 21
281.5
 31
0.0
100
AcDbText
  0
LINE
  5
A9
100
AcDbEntity
  8
枠
  6
CONTINUOUS
 62
     7
100
AcDbLine
 10
1999.0
 20
115.0
 30
0.0
 11
1999.0
 21
2915.0
 31
0.0
  0
TEXT
  5
AA
100
AcDbEntity
  8
枠
  6
CONTINUOUS
 62
     2
100
AcDbText
 10
1840.0
 20
2760.5
 30
0.0
 40
40.0
  1
個数
 41
0.861
  7
EXCADSTD
 72
     5
 11
1915.1612
 21
2760.5
 31
0.0
100
AcDbText
  0
TEXT
  5
AB
100
AcDbEntity
  8
枠
  6
CONTINUOUS
 62
     2
100
AcDbText
 10
1858.5
 20
2705.5
 30
0.0
 40
40.0
  1
１
 41
0.945
  7
EXCADSTD
 72
     5
 11
1894.5
 21
2705.5
 31
0.0
100
AcDbText
  0
TEXT
  5
AC
100
AcDbEntity
  8
枠
  6
CONTINUOUS
 62
     2
100
AcDbText
 10
1858.5
 20
2650.5
 30
0.0
 40
40.0
  1
１
 41
0.945
  7
EXCADSTD
 72
     5
 11
1894.5
 21
2650.5
 31
0.0
100
AcDbText
  0
LINE
  5
AD
100
AcDbEntity
  8
枠
  6
CONTINUOUS
 62
     6
100
AcDbLine
 10
1831.0
 20
2643.0
 30
0.0
 11
1831.0
 21
2808.0
 31
0.0
  0
LINE
  5
AE
100
AcDbEntity
  8
枠
  6
CONTINUOUS
 62
     6
100
AcDbLine
 10
1931.0
 20
2643.0
 30
0.0
 11
1931.0
 21
2808.0
 31
0.0
  0
LINE
  5
AF
100
AcDbEntity
  8
枠
  6
CONTINUOUS
 62
     6
100
AcDbLine
 10
1331.0
 20
2643.0
 30
0.0
 11
1331.0
 21
2808.0
 31
0.0
  0
TEXT
  5
B0
100
AcDbEntity
  8
枠
  6
CONTINUOUS
 62
     2
100
AcDbText
 10
1331.0
 20
2818.0
 30
0.0
 40
50.0
  1
器具明細
 41
0.924
  7
EXCADSTD
 72
     5
 11
1551.0
 21
2818.0
 31
0.0
100
AcDbText
  0
LINE
  5
B1
100
AcDbEntity
  8
枠
  6
CONTINUOUS
 62
     6
100
AcDbLine
 10
1331.0
 20
2808.0
 30
0.0
 11
1931.0
 21
2808.0
 31
0.0
  0
LINE
  5
B2
100
AcDbEntity
  8
枠
  6
CONTINUOUS
 62
     6
100
AcDbLine
 10
1331.0
 20
2753.0
 30
0.0
 11
1931.0
 21
2753.0
 31
0.0
  0
LINE
  5
B3
100
AcDbEntity
  8
枠
  6
CONTINUOUS
 62
     6
100
AcDbLine
 10
1331.0
 20
2698.0
 30
0.0
 11
1931.0
 21
2698.0
 31
0.0
  0
LINE
  5
B4
100
AcDbEntity
  8
枠
  6
CONTINUOUS
 62
     6
100
AcDbLine
 10
1331.0
 20
2643.0
 30
0.0
 11
1931.0
 21
2643.0
 31
0.0
  0
TEXT
  5
B5
100
AcDbEntity
  8
枠
  6
CONTINUOUS
 62
     2
100
AcDbText
 10
1486.0
 20
2760.5
 30
0.0
 40
40.0
  1
品名
 41
1.995
  7
EXCADSTD
 72
     5
 11
1660.154
 21
2760.5
 31
0.0
100
AcDbText
  0
TEXT
  5
B6
100
AcDbEntity
  8
枠
  6
CONTINUOUS
 62
     2
100
AcDbText
 10
1341.0
 20
2705.5
 30
0.0
 40
40.0
  1
防水パン（ＰＰ製）
 41
0.795667
  7
EXCADSTD
 72
     5
 11
1681.999999
 21
2705.5
 31
0.0
100
AcDbText
  0
TEXT
  5
B7
100
AcDbEntity
  8
枠
  6
CONTINUOUS
 62
     2
100
AcDbText
 10
1341.0
 20
2650.5
 30
0.0
 40
40.0
  1
横形トラップ（樹脂製）
 41
0.792273
  7
EXCADSTD
 72
     5
 11
1755.999999
 21
2650.5
 31
0.0
100
AcDbText
  0
TEXT
  5
B8
100
AcDbEntity
  8
枠
  6
CONTINUOUS
 62
     2
100
AcDbText
 10
206.5
 20
200.0
 30
0.0
 40
50.0
  1
間瀬
 41
0.882
  7
EXCADSTD
 72
     5
 11
302.743
 21
200.0
 31
0.0
100
AcDbText
  0
TEXT
  5
B9
100
AcDbEntity
  8
枠
  6
CONTINUOUS
 62
     2
100
AcDbText
 10
502.5
 20
200.0
 30
0.0
 40
50.0
  1
中村
 41
0.882
  7
EXCADSTD
 72
     5
 11
598.743
 21
200.0
 31
0.0
100
AcDbText
  0
TEXT
  5
BA
100
AcDbEntity
  8
枠
  6
CONTINUOUS
 62
     2
100
AcDbText
 10
632.5
 20
200.0
 30
0.0
 40
50.0
  1
古林
 41
0.882
  7
EXCADSTD
 72
     5
 11
728.743
 21
200.0
 31
0.0
100
AcDbText
  0
TEXT
  5
BC
100
AcDbEntity
  8
枠
  6
CONTINUOUS
 62
     2
100
AcDbText
 10
769.0
 20
135.0
 30
0.0
 40
45.0
  1
ジャニス工業株式会社
  7
EXCADTTF1
 72
     5
 11
1369.0
 21
135.0
 31
0.0
100
AcDbText
  0
LINE
  5
BD
100
AcDbEntity
  8
枠
  6
EXLTYPE2
 62
     6
100
AcDbLine
 10
-71.0
 20
1515.0
 30
0.0
 11
179.0
 21
1515.0
 31
0.0
  0
TEXT
  5
BE
100
AcDbEntity
  8
枠
  6
CONTINUOUS
 62
     6
100
AcDbText
 10
183.5
 20
126.5
 30
0.0
 40
25.0
  1
２１
 41
0.756
  7
EXCADSTD
 72
     5
 11
224.747
 21
126.5
 31
0.0
100
AcDbText
  0
TEXT
  5
BF
100
AcDbEntity
  8
枠
  6
CONTINUOUS
 62
     6
100
AcDbText
 10
243.8
 20
126.5
 30
0.0
 40
25.0
  1
９
 41
0.84
  7
EXCADSTD
 72
     5
 11
263.8
 21
126.5
 31
0.0
100
AcDbText
  0
TEXT
  5
C0
100
AcDbEntity
  8
枠
  6
CONTINUOUS
 62
     6
100
AcDbText
 10
296.5
 20
126.5
 30
0.0
 40
25.0
  1
３
 41
0.84
  7
EXCADSTD
 72
     5
 11
316.5
 21
126.5
 31
0.0
100
AcDbText
  0
TEXT
  5
C1
100
AcDbEntity
  8
枠
  6
CONTINUOUS
 62
     2
100
AcDbText
 10
1455.0
 20
275.0
 30
0.0
 40
50.0
  1
ＳＰ６４０１Ｇ
 41
0.6408
  7
EXCADSTD
 72
     5
 11
1721.999999
 21
275.0
 31
0.0
100
AcDbText
  0
TEXT
  5
C2
100
AcDbEntity
  8
枠
  6
CONTINUOUS
 62
     2
100
AcDbText
 10
1455.0
 20
225.0
 30
0.0
 40
50.0
  1
ＳＰ１－Ｍ
 41
0.64848
  7
EXCADSTD
 72
     5
 11
1648.0
 21
225.0
 31
0.0
100
AcDbText
  0
TEXT
  5
C3
100
AcDbEntity
  8
枠
  6
CONTINUOUS
 62
     7
100
AcDbText
 10
1451.000002
 20
131.5
 30
0.0
 40
70.0
  1
Ｐ０１０１９７１
 41
0.804
  7
EXCADSTD
 72
     5
 11
1986.999998
 21
131.5
 31
0.0
100
AcDbText
  0
DIMENSION
  5
CE
100
AcDbEntity
  8
本体
  6
CONTINUOUS
 62
     3
100
AcDbDimension
  2
*D14
 10
1109.656789
 20
1415.794867
 30
0.0
 11
1066.687389
 21
1313.79577
 31
0.0
 70
   165
  1
1°10′
  3
STANDARD
100
AcDb3PointAngularDimension
 13
1109.608623
 23
1412.642095
 33
0.0
 14
1109.672845
 24
1418.947966
 34
0.0
 15
800.054335
 25
1418.947966
 35
0.0
1001
ACAD
1000
DSTYLE
1002
{
1070
     6
1000
_EX_NORM
1070
     7
1000
_EX_NORM
1070
    41
1040
30.0
1070
    42
1040
0.0
1070
    44
1040
0.0
1070
    73
1070
     0
1070
    74
1070
     0
1070
    75
1070
     1
1070
    76
1070
     1
1070
    77
1070
     1
1070
    78
1070
     8
1070
   140
1040
40.0
1070
   147
1040
3.0
1070
   173
1070
     1
1070
   176
1070
     3
1070
   177
1070
     3
1070
   178
1070
     2
1070
   271
1070
     2
1070
   279
1070
     2
1070
   280
1070
     1
1070
   287
1070
     5
1070
   340
1005
CD
1002
}
  0
TEXT
  5
CF
100
AcDbEntity
  8
本体
  6
CONTINUOUS
 62
     2
100
AcDbText
 10
579.731037
 20
1280.333343
 30
0.0
 40
40.0
  1
ＶＰ・ＶＵ５０
 41
0.801
  7
EXCADSTD
 72
     5
 11
846.731037
 21
1280.333343
 31
0.0
100
AcDbText
  0
LEADER
  5
D0
100
AcDbEntity
  8
本体
  6
CONTINUOUS
 62
     6
100
AcDbLeader
  3
STANDARD
 73
     3
 74
     1
 75
     0
 40
0.0
 76
     3
 10
906.114713
 20
1386.781206
 30
0.0
 10
843.731037
 20
1276.833343
 30
0.0
 10
585.0
 20
1276.833343
 30
0.0
 77
     6
1001
ACAD
1000
DSTYLE
1002
{
1070
    41
1040
35.0
1070
     5
1000
_EX_NORM
1070
     6
1000
_EX_NORM
1070
     7
1000
_EX_NORM
1070
   341
1005
2C
1002
}
  0
LINE
  5
D1
100
AcDbEntity
  8
本体
  6
CONTINUOUS
 62
     6
100
AcDbLine
 10
-261.8
 20
1707.196601
 30
0.0
 11
-261.8
 21
1704.153892
 31
0.0
  0
ARC
  5
D2
100
AcDbEntity
  8
本体
  6
CONTINUOUS
 62
     6
100
AcDbCircle
 10
-262.8
 20
1704.153892
 30
0.0
 40
1.0
100
AcDbArc
 50
272.5
 51
0.0
  0
LINE
  5
D3
100
AcDbEntity
  8
本体
  6
CONTINUOUS
 62
     6
100
AcDbLine
 10
-282.8
 20
1614.196601
 30
0.0
 11
-282.8
 21
1612.087626
 31
0.0
  0
ARC
  5
D4
100
AcDbEntity
  8
本体
  6
CONTINUOUS
 62
     6
100
AcDbCircle
 10
-281.8
 20
1612.087626
 30
0.0
 40
1.0
100
AcDbArc
 50
180.0
 51
268.833333
  0
LINE
  5
D5
100
AcDbEntity
  8
本体
  6
CONTINUOUS
 62
     6
100
AcDbLine
 10
-302.8
 20
1617.196601
 30
0.0
 11
-282.081094
 21
1611.127946
 31
0.0
  0
ARC
  5
D6
100
AcDbEntity
  8
本体
  6
CONTINUOUS
 62
     6
100
AcDbCircle
 10
-285.8
 20
1614.196601
 30
0.0
 40
3.0
100
AcDbArc
 50
0.0
 51
90.0
  0
LINE
  5
D7
100
AcDbEntity
  8
本体
  6
CONTINUOUS
 62
     6
100
AcDbLine
 10
-281.820361
 20
1611.087833
 30
0.0
 11
-233.994198
 21
1610.113854
 31
0.0
  0
LINE
  5
D8
100
AcDbEntity
  8
本体
  6
CONTINUOUS
 62
     6
100
AcDbLine
 10
-233.484122
 20
1610.60357
 30
0.0
 11
-232.8
 21
1644.196601
 31
0.0
  0
LINE
  5
D9
100
AcDbEntity
  8
本体
  6
CONTINUOUS
 62
     6
100
AcDbLine
 10
-232.115878
 20
1677.789637
 30
0.0
 11
-232.8
 21
1644.196601
 31
0.0
  0
ARC
  5
DA
100
AcDbEntity
  8
本体
  6
CONTINUOUS
 62
     6
100
AcDbCircle
 10
-232.615775
 20
1677.799818
 30
0.0
 40
0.5
100
AcDbArc
 50
358.833333
 51
88.833333
  0
ARC
  5
DB
100
AcDbEntity
  8
本体
  6
CONTINUOUS
 62
     6
100
AcDbCircle
 10
-257.8
 20
1693.815908
 30
0.0
 40
15.0
100
AcDbArc
 50
180.0
 51
268.833333
  0
LINE
  5
DC
100
AcDbEntity
  8
本体
  6
CONTINUOUS
 62
     6
100
AcDbLine
 10
-364.713668
 20
1617.196601
 30
0.0
 11
-332.8
 21
1617.196601
 31
0.0
  0
LINE
  5
DD
100
AcDbEntity
  8
本体
  6
CONTINUOUS
 62
     6
100
AcDbLine
 10
-391.302002
 20
1687.420411
 30
0.0
 11
-392.448501
 21
1688.397148
 31
0.0
  0
LINE
  5
DE
100
AcDbEntity
  8
本体
  6
CONTINUOUS
 62
     6
100
AcDbLine
 10
-394.712761
 20
1702.799843
 30
0.0
 11
-402.843619
 21
1703.154844
 31
0.0
  0
LINE
  5
DF
100
AcDbEntity
  8
本体
  6
CONTINUOUS
 62
     6
100
AcDbLine
 10
-403.8
 20
1707.196601
 30
0.0
 11
-403.8
 21
1704.153892
 31
0.0
  0
LINE
  5
E0
100
AcDbEntity
  8
本体
  6
CONTINUOUS
 62
     6
100
AcDbLine
 10
-392.8
 20
1700.801747
 30
0.0
 11
-392.8
 21
1689.158362
 31
0.0
  0
LINE
  5
E1
100
AcDbEntity
  8
本体
  6
CONTINUOUS
 62
     6
100
AcDbLine
 10
-379.704443
 20
1631.670609
 30
0.0
 11
-380.423917
 21
1652.175625
 31
0.0
  0
LINE
  5
E2
100
AcDbEntity
  8
本体
  6
CONTINUOUS
 62
     6
100
AcDbLine
 10
-389.871812
 20
1663.639529
 30
0.0
 11
-390.247961
 21
1685.189127
 31
0.0
  0
LINE
  5
E3
100
AcDbEntity
  8
本体
  6
CONTINUOUS
 62
     6
100
AcDbLine
 10
-381.415815
 20
1654.300882
 30
0.0
 11
-348.5442
 21
1672.67173
 31
0.0
  0
LINE
  5
E4
100
AcDbEntity
  8
本体
  6
CONTINUOUS
 62
     6
100
AcDbLine
 10
-388.879486
 20
1659.685748
 30
0.0
 11
-346.427465
 21
1673.59973
 31
0.0
  0
LINE
  5
E5
100
AcDbEntity
  8
本体
  6
CONTINUOUS
 62
     6
100
AcDbLine
 10
-333.8
 20
1702.804053
 30
0.0
 11
-333.8
 21
1696.015288
 31
0.0
  0
ARC
  5
E6
100
AcDbEntity
  8
本体
  6
CONTINUOUS
 62
     6
100
AcDbCircle
 10
-394.8
 20
1700.801747
 30
0.0
 40
2.0
100
AcDbArc
 50
0.0
 51
87.5
  0
ARC
  5
E7
100
AcDbEntity
  8
本体
  6
CONTINUOUS
 62
     6
100
AcDbCircle
 10
-391.8
 20
1689.158362
 30
0.0
 40
1.0
100
AcDbArc
 50
180.0
 51
229.571333
  0
ARC
  5
E8
100
AcDbEntity
  8
本体
  6
CONTINUOUS
 62
     6
100
AcDbCircle
 10
-402.8
 20
1704.153892
 30
0.0
 40
1.0
100
AcDbArc
 50
180.0
 51
267.5
  0
ARC
  5
E9
100
AcDbEntity
  8
本体
  6
CONTINUOUS
 62
     6
100
AcDbCircle
 10
-380.873182
 20
1663.796601
 30
0.0
 40
9.0
100
AcDbArc
 50
181.0
 51
257.736526
  0
ARC
  5
EA
100
AcDbEntity
  8
本体
  6
CONTINUOUS
 62
     6
100
AcDbCircle
 10
-393.247504
 20
1685.13677
 30
0.0
 40
3.0
100
AcDbArc
 50
1.0
 51
49.571333
  0
ARC
  5
EB
100
AcDbEntity
  8
本体
  6
CONTINUOUS
 62
     6
100
AcDbCircle
 10
-364.713668
 20
1632.196601
 30
0.0
 40
15.0
100
AcDbArc
 50
182.009554
 51
270.0
  0
ARC
  5
EC
100
AcDbEntity
  8
本体
  6
CONTINUOUS
 62
     6
100
AcDbCircle
 10
-342.69
 20
1662.196601
 30
0.0
 40
12.0
100
AcDbArc
 50
34.495905
 51
119.199367
  0
ARC
  5
ED
100
AcDbEntity
  8
本体
  6
CONTINUOUS
 62
     6
100
AcDbCircle
 10
-399.8
 20
1696.015288
 30
0.0
 40
7.0
100
AcDbArc
 50
0.0
 51
87.5
  0
ARC
  5
EE
100
AcDbEntity
  8
本体
  6
CONTINUOUS
 62
     6
100
AcDbCircle
 10
-334.3
 20
1702.804053
 30
0.0
 40
0.5
100
AcDbArc
 50
0.0
 51
90.125603
  0
ARC
  5
EF
100
AcDbEntity
  8
本体
  6
CONTINUOUS
 62
     6
100
AcDbCircle
 10
-383.422072
 20
1652.070426
 30
0.0
 40
3.0
100
AcDbArc
 50
2.009554
 51
77.736526
  0
LINE
  5
F0
100
AcDbEntity
  8
本体
  6
CONTINUOUS
 62
     6
100
AcDbLine
 10
-332.8
 20
1617.196601
 30
0.0
 11
-285.8
 21
1617.196601
 31
0.0
  0
LINE
  5
F1
100
AcDbEntity
  8
本体
  6
EXLTYPE7
 62
     6
100
AcDbLine
 10
-279.616416
 20
1644.196601
 30
0.0
 11
-230.668993
 21
1644.196601
 31
0.0
  0
LINE
  5
F2
100
AcDbEntity
  8
本体
  6
CONTINUOUS
 62
     6
100
AcDbLine
 10
-403.800003
 20
1721.696601
 30
0.0
 11
-403.800003
 21
1718.862434
 31
0.0
  0
ARC
  5
F3
100
AcDbEntity
  8
本体
  6
CONTINUOUS
 62
     6
100
AcDbCircle
 10
-403.000003
 20
1718.862434
 30
0.0
 40
0.8
100
AcDbArc
 50
180.0
 51
253.194499
  0
ARC
  5
F4
100
AcDbEntity
  8
本体
  6
CONTINUOUS
 62
     6
100
AcDbCircle
 10
-402.800003
 20
1721.696601
 30
0.0
 40
1.0
100
AcDbArc
 50
90.0
 51
180.0
  0
LINE
  5
F5
100
AcDbEntity
  8
本体
  6
CONTINUOUS
 62
     6
100
AcDbLine
 10
-403.8
 20
1709.346542
 30
0.0
 11
-403.8
 21
1709.950566
 31
0.0
  0
LINE
  5
F6
100
AcDbEntity
  8
本体
  6
CONTINUOUS
 62
     6
100
AcDbLine
 10
-391.3
 20
1711.155294
 30
0.0
 11
-391.3
 21
1713.591248
 31
0.0
  0
LINE
  5
F7
100
AcDbEntity
  8
本体
  6
CONTINUOUS
 62
     6
100
AcDbLine
 10
-403.8
 20
1714.795977
 30
0.0
 11
-403.8
 21
1715.4
 31
0.0
  0
LINE
  5
F8
100
AcDbEntity
  8
本体
  6
CONTINUOUS
 62
     6
100
AcDbLine
 10
-393.088068
 20
1717.53329
 30
0.0
 11
-402.915227
 21
1716.393339
 31
0.0
  0
ARC
  5
F9
100
AcDbEntity
  8
本体
  6
CONTINUOUS
 62
     6
100
AcDbCircle
 10
-402.8
 20
1709.346542
 30
0.0
 40
1.0
100
AcDbArc
 50
180.0
 51
263.383262
  0
ARC
  5
FA
100
AcDbEntity
  8
本体
  6
CONTINUOUS
 62
     6
100
AcDbCircle
 10
-402.8
 20
1714.795977
 30
0.0
 40
1.0
100
AcDbArc
 50
180.0
 51
270.0
  0
ARC
  5
FB
100
AcDbEntity
  8
本体
  6
CONTINUOUS
 62
     6
100
AcDbCircle
 10
-402.8
 20
1715.4
 30
0.0
 40
1.0
100
AcDbArc
 50
96.616738
 51
180.0
  0
ARC
  5
FC
100
AcDbEntity
  8
本体
  6
CONTINUOUS
 62
     6
100
AcDbCircle
 10
-399.3
 20
1710.551271
 30
0.0
 40
0.604023
100
AcDbArc
 50
90.0
 51
138.619383
  0
ARC
  5
FD
100
AcDbEntity
  8
本体
  6
CONTINUOUS
 62
     6
100
AcDbCircle
 10
-399.3
 20
1714.195271
 30
0.0
 40
0.604023
100
AcDbArc
 50
221.380617
 51
270.0
  0
ARC
  5
FE
100
AcDbEntity
  8
本体
  6
CONTINUOUS
 62
     6
100
AcDbCircle
 10
-392.8
 20
1715.049942
 30
0.0
 40
2.5
100
AcDbArc
 50
90.0
 51
96.616738
  0
ARC
  5
FF
100
AcDbEntity
  8
本体
  6
CONTINUOUS
 62
     6
100
AcDbCircle
 10
-402.8
 20
1709.950566
 30
0.0
 40
1.0
100
AcDbArc
 50
90.0
 51
180.0
  0
LINE
  5
100
100
AcDbEntity
  8
本体
  6
CONTINUOUS
 62
     6
100
AcDbLine
 10
-392.8
 20
1717.549942
 30
0.0
 11
-332.8
 21
1717.549942
 31
0.0
  0
LINE
  5
101
100
AcDbEntity
  8
本体
  6
CONTINUOUS
 62
     6
100
AcDbLine
 10
-393.088068
 20
1707.213253
 30
0.0
 11
-402.915227
 21
1708.353203
 31
0.0
  0
ARC
  5
102
100
AcDbEntity
  8
本体
  6
CONTINUOUS
 62
     6
100
AcDbCircle
 10
-392.8
 20
1709.696601
 30
0.0
 40
2.5
100
AcDbArc
 50
263.383262
 51
270.0
  0
LINE
  5
103
100
AcDbEntity
  8
本体
  6
CONTINUOUS
 62
     6
100
AcDbLine
 10
-403.65
 20
1718.096601
 30
0.0
 11
-403.65
 21
1717.596601
 31
0.0
  0
LINE
  5
104
100
AcDbEntity
  8
本体
  6
CONTINUOUS
 62
     6
100
AcDbLine
 10
-332.8
 20
1718.096601
 30
0.0
 11
-403.65
 21
1718.096601
 31
0.0
  0
LINE
  5
105
100
AcDbEntity
  8
本体
  6
EXLTYPE7
 62
     6
100
AcDbLine
 10
-332.8
 20
1744.196596
 30
0.0
 11
-332.8
 21
1612.603926
 31
0.0
  0
LINE
  5
106
100
AcDbEntity
  8
本体
  6
CONTINUOUS
 62
     6
100
AcDbLine
 10
-281.8
 20
1723.155217
 30
0.0
 11
-281.8
 21
1722.696601
 31
0.0
  0
LINE
  5
107
100
AcDbEntity
  8
本体
  6
CONTINUOUS
 62
     6
100
AcDbLine
 10
-281.8
 20
1730.696599
 30
0.0
 11
-281.8
 21
1729.23798
 31
0.0
  0
LINE
  5
108
100
AcDbEntity
  8
本体
  6
CONTINUOUS
 62
     6
100
AcDbLine
 10
-284.52606
 20
1731.696599
 30
0.0
 11
-282.8
 21
1731.696599
 31
0.0
  0
LINE
  5
109
100
AcDbEntity
  8
本体
  6
CONTINUOUS
 62
     6
100
AcDbLine
 10
-286.09749
 20
1722.696601
 30
0.0
 11
-285.523541
 21
1730.767533
 31
0.0
  0
ARC
  5
10A
100
AcDbEntity
  8
本体
  6
CONTINUOUS
 62
     6
100
AcDbCircle
 10
-284.52606
 20
1730.696599
 30
0.0
 40
1.0
100
AcDbArc
 50
90.0
 51
175.932369
  0
ARC
  5
10B
100
AcDbEntity
  8
本体
  6
CONTINUOUS
 62
     6
100
AcDbCircle
 10
-282.8
 20
1730.696599
 30
0.0
 40
1.0
100
AcDbArc
 50
0.0
 51
90.0
  0
ARC
  5
10C
100
AcDbEntity
  8
本体
  6
CONTINUOUS
 62
     6
100
AcDbCircle
 10
-280.466667
 20
1726.196599
 30
0.0
 40
2.833333
100
AcDbArc
 50
127.49525
 51
232.50475
  0
ARC
  5
10D
100
AcDbEntity
  8
本体
  6
CONTINUOUS
 62
     6
100
AcDbCircle
 10
-282.8
 20
1729.23798
 30
0.0
 40
1.0
100
AcDbArc
 50
307.49525
 51
0.0
  0
ARC
  5
10E
100
AcDbEntity
  8
本体
  6
CONTINUOUS
 62
     6
100
AcDbCircle
 10
-282.8
 20
1723.155217
 30
0.0
 40
1.0
100
AcDbArc
 50
0.0
 51
52.50475
  0
LINE
  5
10F
100
AcDbEntity
  8
本体
  6
CONTINUOUS
 62
     6
100
AcDbLine
 10
-351.8
 20
1725.696596
 30
0.0
 11
-349.004545
 21
1725.696596
 31
0.0
  0
LINE
  5
110
100
AcDbEntity
  8
本体
  6
CONTINUOUS
 62
     6
100
AcDbLine
 10
-352.3
 20
1725.196596
 30
0.0
 11
-352.3
 21
1724.196596
 31
0.0
  0
LINE
  5
111
100
AcDbEntity
  8
本体
  6
CONTINUOUS
 62
     6
100
AcDbLine
 10
-351.8
 20
1723.696596
 30
0.0
 11
-352.3
 21
1724.196596
 31
0.0
  0
ARC
  5
112
100
AcDbEntity
  8
本体
  6
CONTINUOUS
 62
     6
100
AcDbCircle
 10
-350.0
 20
1723.496596
 30
0.0
 40
0.2
100
AcDbArc
 50
0.0
 51
90.0
  0
LINE
  5
113
100
AcDbEntity
  8
本体
  6
CONTINUOUS
 62
     6
100
AcDbLine
 10
-351.8
 20
1725.696596
 30
0.0
 11
-352.3
 21
1725.196596
 31
0.0
  0
LINE
  5
114
100
AcDbEntity
  8
本体
  6
CONTINUOUS
 62
     6
100
AcDbLine
 10
-348.3
 20
1734.568217
 30
0.0
 11
-348.3
 21
1728.196596
 31
0.0
  0
LINE
  5
115
100
AcDbEntity
  8
本体
  6
CONTINUOUS
 62
     6
100
AcDbLine
 10
-315.8
 20
1726.696596
 30
0.0
 11
-315.8
 21
1726.196596
 31
0.0
  0
LINE
  5
116
100
AcDbEntity
  8
本体
  6
CONTINUOUS
 62
     6
100
AcDbLine
 10
-317.3
 20
1728.232435
 30
0.0
 11
-317.3
 21
1728.196596
 31
0.0
  0
LINE
  5
117
100
AcDbEntity
  8
本体
  6
CONTINUOUS
 62
     6
100
AcDbLine
 10
-282.8
 20
1753.012945
 30
0.0
 11
-286.012491
 21
1771.231888
 31
0.0
  0
LINE
  5
118
100
AcDbEntity
  8
本体
  6
CONTINUOUS
 62
     6
100
AcDbLine
 10
-303.530413
 20
1768.650719
 30
0.0
 11
-301.166874
 21
1769.067475
 31
0.0
  0
LINE
  5
119
100
AcDbEntity
  8
本体
  6
CONTINUOUS
 62
     6
100
AcDbLine
 10
-282.8
 20
1753.012945
 30
0.0
 11
-279.587509
 21
1734.794
 31
0.0
  0
LINE
  5
11A
100
AcDbEntity
  8
本体
  6
CONTINUOUS
 62
     6
100
AcDbLine
 10
-288.758296
 20
1771.255442
 30
0.0
 11
-286.591719
 21
1771.637468
 31
0.0
  0
LINE
  5
11B
100
AcDbEntity
  8
本体
  6
CONTINUOUS
 62
     6
100
AcDbLine
 10
-282.159665
 20
1733.832746
 30
0.0
 11
-279.993088
 21
1734.214772
 31
0.0
  0
LINE
  5
11C
100
AcDbEntity
  8
本体
  6
CONTINUOUS
 62
     6
100
AcDbLine
 10
-296.931782
 20
1731.228024
 30
0.0
 11
-294.568243
 21
1731.644779
 31
0.0
  0
LINE
  5
11D
100
AcDbEntity
  8
本体
  6
CONTINUOUS
 62
     6
100
AcDbLine
 10
-316.886824
 20
1728.724839
 30
0.0
 11
-297.696315
 21
1732.108643
 31
0.0
  0
LINE
  5
11E
100
AcDbEntity
  8
本体
  6
CONTINUOUS
 62
     6
100
AcDbLine
 10
-316.93171
 20
1766.357259
 30
0.0
 11
-314.079055
 21
1775.264143
 31
0.0
  0
LINE
  5
11F
100
AcDbEntity
  8
本体
  6
CONTINUOUS
 62
     6
100
AcDbLine
 10
-310.397775
 20
1775.196596
 30
0.0
 11
-310.745837
 21
1775.196596
 31
0.0
  0
LINE
  5
120
100
AcDbEntity
  8
本体
  6
CONTINUOUS
 62
     6
100
AcDbLine
 10
-308.344314
 20
1768.309612
 30
0.0
 11
-309.412967
 21
1774.370244
 31
0.0
  0
LINE
  5
121
100
AcDbEntity
  8
本体
  6
CONTINUOUS
 62
     6
100
AcDbLine
 10
-314.012571
 20
1767.27537
 30
0.0
 11
-311.698185
 21
1774.501609
 31
0.0
  0
LINE
  5
122
100
AcDbEntity
  8
本体
  6
CONTINUOUS
 62
     6
100
AcDbLine
 10
-305.882295
 20
1768.743732
 30
0.0
 11
-306.950947
 21
1774.804364
 31
0.0
  0
ARC
  5
123
100
AcDbEntity
  8
本体
  6
CONTINUOUS
 62
     6
100
AcDbCircle
 10
-349.3
 20
1728.196596
 30
0.0
 40
1.0
100
AcDbArc
 50
270.0
 51
0.0
  0
ARC
  5
124
100
AcDbEntity
  8
本体
  6
CONTINUOUS
 62
     6
100
AcDbCircle
 10
-316.8
 20
1728.232435
 30
0.0
 40
0.5
100
AcDbArc
 50
100.0
 51
180.0
  0
ARC
  5
125
100
AcDbEntity
  8
本体
  6
CONTINUOUS
 62
     6
100
AcDbCircle
 10
-349.3
 20
1726.696596
 30
0.0
 40
0.5
100
AcDbArc
 50
90.0
 51
180.0
  0
ARC
  5
126
100
AcDbEntity
  8
本体
  6
CONTINUOUS
 62
     6
100
AcDbCircle
 10
-316.3
 20
1726.696596
 30
0.0
 40
0.5
100
AcDbArc
 50
0.0
 51
90.0
  0
ARC
  5
127
100
AcDbEntity
  8
本体
  6
CONTINUOUS
 62
     6
100
AcDbCircle
 10
-316.3
 20
1726.196596
 30
0.0
 40
0.5
100
AcDbArc
 50
270.0
 51
0.0
  0
ARC
  5
128
100
AcDbEntity
  8
本体
  6
CONTINUOUS
 62
     6
100
AcDbCircle
 10
-316.3
 20
1728.196596
 30
0.0
 40
1.0
100
AcDbArc
 50
180.0
 51
270.0
  0
ARC
  5
129
100
AcDbEntity
  8
本体
  6
CONTINUOUS
 62
     6
100
AcDbCircle
 10
-318.3
 20
1734.568217
 30
0.0
 40
30.0
100
AcDbArc
 50
100.0
 51
180.0
  0
ARC
  5
12A
100
AcDbEntity
  8
本体
  6
CONTINUOUS
 62
     6
100
AcDbCircle
 10
-303.478318
 20
1768.355277
 30
0.0
 40
0.3
100
AcDbArc
 50
100.0
 51
190.0
  0
ARC
  5
12B
100
AcDbEntity
  8
本体
  6
CONTINUOUS
 62
     6
100
AcDbCircle
 10
-301.11478
 20
1768.772032
 30
0.0
 40
0.3
100
AcDbArc
 50
10.0
 51
100.0
  0
ARC
  5
12C
100
AcDbEntity
  8
本体
  6
CONTINUOUS
 62
     6
100
AcDbCircle
 10
-294.098912
 20
1732.438334
 30
0.0
 40
0.3
100
AcDbArc
 50
100.0
 51
190.0
  0
ARC
  5
12D
100
AcDbEntity
  8
本体
  6
CONTINUOUS
 62
     6
100
AcDbCircle
 10
-297.64422
 20
1731.813201
 30
0.0
 40
0.3
100
AcDbArc
 50
10.0
 51
100.0
  0
ARC
  5
12E
100
AcDbEntity
  8
本体
  6
CONTINUOUS
 62
     6
100
AcDbCircle
 10
-296.983876
 20
1731.523466
 30
0.0
 40
0.3
100
AcDbArc
 50
190.0
 51
280.0
  0
ARC
  5
12F
100
AcDbEntity
  8
本体
  6
CONTINUOUS
 62
     6
100
AcDbCircle
 10
-294.620338
 20
1731.940222
 30
0.0
 40
0.3
100
AcDbArc
 50
280.0
 51
10.0
  0
ARC
  5
130
100
AcDbEntity
  8
本体
  6
CONTINUOUS
 62
     6
100
AcDbCircle
 10
-286.504895
 20
1771.145064
 30
0.0
 40
0.5
100
AcDbArc
 50
10.0
 51
100.0
  0
ARC
  5
131
100
AcDbEntity
  8
本体
  6
CONTINUOUS
 62
     6
100
AcDbCircle
 10
-280.079912
 20
1734.707176
 30
0.0
 40
0.5
100
AcDbArc
 50
280.0
 51
10.0
  0
ARC
  5
132
100
AcDbEntity
  8
本体
  6
CONTINUOUS
 62
     6
100
AcDbCircle
 10
-288.706202
 20
1770.959999
 30
0.0
 40
0.3
100
AcDbArc
 50
100.0
 51
190.0
  0
ARC
  5
133
100
AcDbEntity
  8
本体
  6
CONTINUOUS
 62
     6
100
AcDbCircle
 10
-289.227627
 20
1770.461887
 30
0.0
 40
0.3
100
AcDbArc
 50
280.0
 51
10.0
  0
ARC
  5
134
100
AcDbEntity
  8
本体
  6
CONTINUOUS
 62
     6
100
AcDbCircle
 10
-282.872104
 20
1734.417924
 30
0.0
 40
0.3
100
AcDbArc
 50
10.0
 51
100.0
  0
ARC
  5
135
100
AcDbEntity
  8
本体
  6
CONTINUOUS
 62
     6
100
AcDbCircle
 10
-282.21176
 20
1734.128189
 30
0.0
 40
0.3
100
AcDbArc
 50
190.0
 51
280.0
  0
ARC
  5
136
100
AcDbEntity
  8
本体
  6
CONTINUOUS
 62
     6
100
AcDbCircle
 10
-310.745837
 20
1774.196596
 30
0.0
 40
1.0
100
AcDbArc
 50
90.0
 51
162.241018
  0
ARC
  5
137
100
AcDbEntity
  8
本体
  6
CONTINUOUS
 62
     6
100
AcDbCircle
 10
-313.060223
 20
1766.970356
 30
0.0
 40
1.0
100
AcDbArc
 50
162.241018
 51
280.0
  0
ARC
  5
138
100
AcDbEntity
  8
本体
  6
CONTINUOUS
 62
     6
100
AcDbCircle
 10
-304.405083
 20
1769.004204
 30
0.0
 40
1.5
100
AcDbArc
 50
190.0
 51
280.0
  0
ARC
  5
139
100
AcDbEntity
  8
本体
  6
CONTINUOUS
 62
     6
100
AcDbCircle
 10
-318.836406
 20
1766.967286
 30
0.0
 40
2.0
100
AcDbArc
 50
280.0
 51
342.241018
  0
ARC
  5
13A
100
AcDbEntity
  8
本体
  6
CONTINUOUS
 62
     6
100
AcDbCircle
 10
-310.397775
 20
1774.196596
 30
0.0
 40
1.0
100
AcDbArc
 50
10.0
 51
90.0
  0
ARC
  5
13B
100
AcDbEntity
  8
本体
  6
CONTINUOUS
 62
     6
100
AcDbCircle
 10
-309.821526
 20
1768.04914
 30
0.0
 40
1.5
100
AcDbArc
 50
280.0
 51
10.0
  0
ARC
  5
13C
100
AcDbEntity
  8
本体
  6
CONTINUOUS
 62
     6
100
AcDbCircle
 10
-310.745837
 20
1774.196596
 30
0.0
 40
3.5
100
AcDbArc
 50
90.0
 51
162.241018
  0
ARC
  5
13D
100
AcDbEntity
  8
本体
  6
CONTINUOUS
 62
     6
100
AcDbCircle
 10
-310.397775
 20
1774.196596
 30
0.0
 40
3.5
100
AcDbArc
 50
10.0
 51
90.0
  0
LINE
  5
13E
100
AcDbEntity
  8
本体
  6
CONTINUOUS
 62
     6
100
AcDbLine
 10
-294.151007
 20
1732.733777
 30
0.0
 11
-292.476834
 21
1733.028979
 31
0.0
  0
LINE
  5
13F
100
AcDbEntity
  8
本体
  6
CONTINUOUS
 62
     6
100
AcDbLine
 10
-284.598372
 20
1734.418164
 30
0.0
 11
-282.924198
 21
1734.713366
 31
0.0
  0
LINE
  5
140
100
AcDbEntity
  8
本体
  6
CONTINUOUS
 62
     6
100
AcDbLine
 10
-310.397775
 20
1777.696596
 30
0.0
 11
-310.745837
 21
1777.696596
 31
0.0
  0
ARC
  5
141
100
AcDbEntity
  8
本体
  6
CONTINUOUS
 62
     6
100
AcDbCircle
 10
-298.175076
 20
1788.380402
 30
0.0
 40
4.0
100
AcDbArc
 50
10.0
 51
190.0
  0
LINE
  5
142
100
AcDbEntity
  8
本体
  6
CONTINUOUS
 62
     6
100
AcDbLine
 10
-300.32677
 20
1776.831307
 30
0.0
 11
-292.203123
 21
1778.263725
 31
0.0
  0
ARC
  5
143
100
AcDbEntity
  8
本体
  6
CONTINUOUS
 62
     6
100
AcDbCircle
 10
-292.029475
 20
1777.278918
 30
0.0
 40
1.0
100
AcDbArc
 50
17.594643
 51
100.0
  0
ARC
  5
144
100
AcDbEntity
  8
本体
  6
CONTINUOUS
 62
     6
100
AcDbCircle
 10
-300.153122
 20
1775.8465
 30
0.0
 40
1.0
100
AcDbArc
 50
100.0
 51
182.405357
  0
LINE
  5
145
100
AcDbEntity
  8
本体
  6
CONTINUOUS
 62
     6
100
AcDbLine
 10
-294.235845
 20
1789.074994
 30
0.0
 11
-292.325715
 21
1778.242109
 31
0.0
  0
LINE
  5
146
100
AcDbEntity
  8
本体
  6
CONTINUOUS
 62
     6
100
AcDbLine
 10
-302.114307
 20
1787.685809
 30
0.0
 11
-300.204177
 21
1776.852924
 31
0.0
  0
LINE
  5
147
100
AcDbEntity
  8
本体
  6
CONTINUOUS
 62
     6
100
AcDbLine
 10
-289.226369
 20
1771.747723
 30
0.0
 11
-291.076256
 21
1777.581199
 31
0.0
  0
LINE
  5
148
100
AcDbEntity
  8
本体
  6
CONTINUOUS
 62
     6
100
AcDbLine
 10
-301.152241
 20
1775.804531
 30
0.0
 11
-300.8954
 21
1769.690158
 31
0.0
  0
LINE
  5
149
100
AcDbEntity
  8
本体
  6
CONTINUOUS
 62
     6
100
AcDbLine
 10
-300.309016
 20
1769.218738
 30
0.0
 11
-289.616154
 21
1771.104178
 31
0.0
  0
ARC
  5
14A
100
AcDbEntity
  8
本体
  6
CONTINUOUS
 62
     6
100
AcDbCircle
 10
-300.39584
 20
1769.711142
 30
0.0
 40
0.5
100
AcDbArc
 50
182.405357
 51
280.0
  0
LINE
  5
14B
100
AcDbEntity
  8
本体
  6
CONTINUOUS
 62
     6
100
AcDbLine
 10
-292.303185
 20
1732.044171
 30
0.0
 11
-284.424723
 21
1733.433356
 31
0.0
  0
ARC
  5
14C
100
AcDbEntity
  8
本体
  6
CONTINUOUS
 62
     6
100
AcDbCircle
 10
-294.620338
 20
1731.940222
 30
0.0
 40
0.3
100
AcDbArc
 50
280.0
 51
21.141226
  0
ARC
  5
14D
100
AcDbEntity
  8
本体
  6
CONTINUOUS
 62
     6
100
AcDbCircle
 10
-297.64422
 20
1731.813201
 30
0.0
 40
0.3
100
AcDbArc
 50
10.0
 51
100.0
  0
ARC
  5
14E
100
AcDbEntity
  8
本体
  6
CONTINUOUS
 62
     6
100
AcDbCircle
 10
-300.454436
 20
1768.482298
 30
0.0
 40
0.3
100
AcDbArc
 50
190.0
 51
285.228098
  0
LINE
  5
14F
100
AcDbEntity
  8
本体
  6
EXLTYPE7
 62
     6
100
AcDbLine
 10
-332.8
 20
1744.196596
 30
0.0
 11
-280.403258
 21
1753.435555
 31
0.0
  0
ARC
  5
150
100
AcDbEntity
  8
本体
  6
CONTINUOUS
 62
     6
100
AcDbCircle
 10
-303.999744
 20
1767.857165
 30
0.0
 40
0.3
100
AcDbArc
 50
280.0
 51
10.0
  0
LINE
  5
151
100
AcDbEntity
  8
本体
  6
CONTINUOUS
 62
     6
100
AcDbLine
 10
-289.001644
 20
1770.907905
 30
0.0
 11
-282.507202
 21
1734.076094
 31
0.0
  0
LINE
  5
152
100
AcDbEntity
  8
本体
  6
CONTINUOUS
 62
     6
100
AcDbLine
 10
-300.819337
 20
1768.824127
 30
0.0
 11
-294.324895
 21
1731.992316
 31
0.0
  0
LINE
  5
153
100
AcDbEntity
  8
本体
  6
CONTINUOUS
 62
     6
100
AcDbLine
 10
-303.77376
 20
1768.303182
 30
0.0
 11
-297.279318
 21
1731.471371
 31
0.0
  0
ARC
  5
154
100
AcDbEntity
  8
本体
  6
CONTINUOUS
 62
     6
100
AcDbCircle
 10
-289.702978
 20
1771.596582
 30
0.0
 40
0.5
100
AcDbArc
 50
280.0
 51
17.594643
  0
LINE
  5
155
100
AcDbEntity
  8
本体
  6
CONTINUOUS
 62
     6
100
AcDbLine
 10
-298.901816
 20
1769.466866
 30
0.0
 11
-292.303185
 21
1732.044171
 31
0.0
  0
LINE
  5
156
100
AcDbEntity
  8
本体
  6
CONTINUOUS
 62
     6
100
AcDbLine
 10
-291.023354
 20
1770.856051
 30
0.0
 11
-284.424723
 21
1733.433356
 31
0.0
  0
LINE
  5
157
100
AcDbEntity
  8
本体
  6
CONTINUOUS
 62
     6
100
AcDbLine
 10
-300.402341
 20
1768.186856
 30
0.0
 11
-298.728168
 21
1768.482058
 31
0.0
  0
LINE
  5
158
100
AcDbEntity
  8
本体
  6
CONTINUOUS
 62
     6
100
AcDbLine
 10
-290.849706
 20
1769.871243
 30
0.0
 11
-289.175533
 21
1770.166445
 31
0.0
  0
LINE
  5
159
100
AcDbEntity
  8
本体
  6
CONTINUOUS
 62
     6
100
AcDbLine
 10
-323.509445
 20
1764.11245
 30
0.0
 11
-303.947649
 21
1767.561722
 31
0.0
  0
LINE
  5
15A
100
AcDbEntity
  8
本体
  6
CONTINUOUS
 62
     6
100
AcDbLine
 10
-316.3
 20
1727.196596
 30
0.0
 11
-349.3
 21
1727.196596
 31
0.0
  0
LINE
  5
15B
100
AcDbEntity
  8
本体
  6
EXLTYPE7
 62
     6
100
AcDbLine
 10
-280.46934
 20
1645.167386
 30
0.0
 11
-232.107734
 21
1644.182503
 31
0.0
  0
LINE
  5
15C
100
AcDbEntity
  8
本体
  6
CONTINUOUS
 62
     6
100
AcDbLine
 10
-349.8
 20
1723.496596
 30
0.0
 11
-349.8
 21
1722.696601
 31
0.0
  0
LINE
  5
15D
100
AcDbEntity
  8
本体
  6
CONTINUOUS
 62
     6
100
AcDbLine
 10
-313.3
 20
1725.196596
 30
0.0
 11
-313.3
 21
1724.196596
 31
0.0
  0
LINE
  5
15E
100
AcDbEntity
  8
本体
  6
CONTINUOUS
 62
     6
100
AcDbLine
 10
-313.8
 20
1723.696596
 30
0.0
 11
-313.3
 21
1724.196596
 31
0.0
  0
LINE
  5
15F
100
AcDbEntity
  8
本体
  6
CONTINUOUS
 62
     6
100
AcDbLine
 10
-313.8
 20
1725.696596
 30
0.0
 11
-313.3
 21
1725.196596
 31
0.0
  0
LINE
  5
160
100
AcDbEntity
  8
本体
  6
CONTINUOUS
 62
     6
100
AcDbLine
 10
-349.004545
 20
1725.696596
 30
0.0
 11
-313.8
 21
1725.696596
 31
0.0
  0
LINE
  5
161
100
AcDbEntity
  8
本体
  6
CONTINUOUS
 62
     6
100
AcDbLine
 10
-313.8
 20
1723.696596
 30
0.0
 11
-351.8
 21
1723.696596
 31
0.0
  0
ARC
  5
162
100
AcDbEntity
  8
本体
  6
CONTINUOUS
 62
     6
100
AcDbCircle
 10
-349.3
 20
1726.196596
 30
0.0
 40
0.5
100
AcDbArc
 50
180.0
 51
270.0
  0
LINE
  5
163
100
AcDbEntity
  8
本体
  6
CONTINUOUS
 62
     6
100
AcDbLine
 10
-349.8
 20
1726.696596
 30
0.0
 11
-349.8
 21
1726.196596
 31
0.0
  0
LINE
  5
164
100
AcDbEntity
  8
本体
  6
CONTINUOUS
 62
     6
100
AcDbLine
 10
-402.800003
 20
1722.696601
 30
0.0
 11
-262.546727
 21
1722.696601
 31
0.0
  0
LINE
  5
165
100
AcDbEntity
  8
本体
  6
CONTINUOUS
 62
     6
100
AcDbLine
 10
-258.105412
 20
1678.819017
 30
0.0
 11
-232.605594
 21
1678.299714
 31
0.0
  0
ARC
  5
166
100
AcDbEntity
  8
本体
  6
CONTINUOUS
 62
     6
100
AcDbCircle
 10
-233.984018
 20
1610.61375
 30
0.0
 40
0.5
100
AcDbArc
 50
268.833333
 51
358.833333
  0
ARC
  5
167
100
AcDbEntity
  8
本体
  6
CONTINUOUS
 62
     6
100
AcDbCircle
 10
-315.6
 20
1723.496596
 30
0.0
 40
0.2
100
AcDbArc
 50
90.0
 51
180.0
  0
LINE
  5
168
100
AcDbEntity
  8
本体
  6
CONTINUOUS
 62
     6
100
AcDbLine
 10
-315.8
 20
1722.696601
 30
0.0
 11
-315.8
 21
1723.496596
 31
0.0
  0
ARC
  5
169
100
AcDbEntity
  8
本体
  6
CONTINUOUS
 62
     6
100
AcDbCircle
 10
-265.8
 20
1696.015288
 30
0.0
 40
7.0
100
AcDbArc
 50
92.5
 51
180.0
  0
LINE
  5
16A
100
AcDbEntity
  8
本体
  6
CONTINUOUS
 62
     6
100
AcDbLine
 10
-272.8
 20
1696.015288
 30
0.0
 11
-272.8
 21
1693.815908
 31
0.0
  0
LINE
  5
16B
100
AcDbEntity
  8
本体
  6
CONTINUOUS
 62
     6
100
AcDbLine
 10
-270.887239
 20
1702.799843
 30
0.0
 11
-262.756381
 21
1703.154844
 31
0.0
  0
LINE
  5
16C
100
AcDbEntity
  8
本体
  6
CONTINUOUS
 62
     6
100
AcDbLine
 10
-261.8
 20
1707.196601
 30
0.0
 11
-261.8
 21
1704.153892
 31
0.0
  0
ARC
  5
16D
100
AcDbEntity
  8
本体
  6
CONTINUOUS
 62
     6
100
AcDbCircle
 10
-270.8
 20
1700.801747
 30
0.0
 40
2.0
100
AcDbArc
 50
92.5
 51
180.0
  0
ARC
  5
16E
100
AcDbEntity
  8
本体
  6
CONTINUOUS
 62
     6
100
AcDbCircle
 10
-262.8
 20
1704.153892
 30
0.0
 40
1.0
100
AcDbArc
 50
272.5
 51
0.0
  0
LINE
  5
16F
100
AcDbEntity
  8
本体
  6
CONTINUOUS
 62
     6
100
AcDbLine
 10
-261.799997
 20
1721.696601
 30
0.0
 11
-261.799997
 21
1718.862434
 31
0.0
  0
ARC
  5
170
100
AcDbEntity
  8
本体
  6
CONTINUOUS
 62
     6
100
AcDbCircle
 10
-262.599997
 20
1718.862434
 30
0.0
 40
0.8
100
AcDbArc
 50
286.805501
 51
0.0
  0
ARC
  5
171
100
AcDbEntity
  8
本体
  6
CONTINUOUS
 62
     6
100
AcDbCircle
 10
-262.799997
 20
1721.696601
 30
0.0
 40
1.0
100
AcDbArc
 50
0.0
 51
90.0
  0
LINE
  5
172
100
AcDbEntity
  8
本体
  6
CONTINUOUS
 62
     6
100
AcDbLine
 10
-261.8
 20
1709.346542
 30
0.0
 11
-261.8
 21
1709.950566
 31
0.0
  0
LINE
  5
173
100
AcDbEntity
  8
本体
  6
CONTINUOUS
 62
     6
100
AcDbLine
 10
-274.3
 20
1711.155294
 30
0.0
 11
-274.3
 21
1713.591248
 31
0.0
  0
LINE
  5
174
100
AcDbEntity
  8
本体
  6
CONTINUOUS
 62
     6
100
AcDbLine
 10
-261.8
 20
1714.795977
 30
0.0
 11
-261.8
 21
1715.4
 31
0.0
  0
LINE
  5
175
100
AcDbEntity
  8
本体
  6
CONTINUOUS
 62
     6
100
AcDbLine
 10
-272.511932
 20
1717.53329
 30
0.0
 11
-262.684773
 21
1716.393339
 31
0.0
  0
ARC
  5
176
100
AcDbEntity
  8
本体
  6
CONTINUOUS
 62
     6
100
AcDbCircle
 10
-262.8
 20
1709.346542
 30
0.0
 40
1.0
100
AcDbArc
 50
276.616738
 51
0.0
  0
ARC
  5
177
100
AcDbEntity
  8
本体
  6
CONTINUOUS
 62
     6
100
AcDbCircle
 10
-262.8
 20
1714.795977
 30
0.0
 40
1.0
100
AcDbArc
 50
270.0
 51
0.0
  0
ARC
  5
178
100
AcDbEntity
  8
本体
  6
CONTINUOUS
 62
     6
100
AcDbCircle
 10
-262.8
 20
1715.4
 30
0.0
 40
1.0
100
AcDbArc
 50
0.0
 51
83.383262
  0
ARC
  5
179
100
AcDbEntity
  8
本体
  6
CONTINUOUS
 62
     6
100
AcDbCircle
 10
-266.3
 20
1710.551271
 30
0.0
 40
0.604023
100
AcDbArc
 50
41.380617
 51
90.0
  0
ARC
  5
17A
100
AcDbEntity
  8
本体
  6
CONTINUOUS
 62
     6
100
AcDbCircle
 10
-266.3
 20
1714.195271
 30
0.0
 40
0.604023
100
AcDbArc
 50
270.0
 51
318.619383
  0
ARC
  5
17B
100
AcDbEntity
  8
本体
  6
CONTINUOUS
 62
     6
100
AcDbCircle
 10
-272.8
 20
1715.049942
 30
0.0
 40
2.5
100
AcDbArc
 50
83.383262
 51
90.0
  0
ARC
  5
17C
100
AcDbEntity
  8
本体
  6
CONTINUOUS
 62
     6
100
AcDbCircle
 10
-262.8
 20
1709.950566
 30
0.0
 40
1.0
100
AcDbArc
 50
0.0
 51
90.0
  0
LINE
  5
17D
100
AcDbEntity
  8
本体
  6
CONTINUOUS
 62
     6
100
AcDbLine
 10
-272.511932
 20
1707.213253
 30
0.0
 11
-262.684773
 21
1708.353203
 31
0.0
  0
ARC
  5
17E
100
AcDbEntity
  8
本体
  6
CONTINUOUS
 62
     6
100
AcDbCircle
 10
-272.8
 20
1709.696601
 30
0.0
 40
2.5
100
AcDbArc
 50
270.0
 51
276.616738
  0
LINE
  5
17F
100
AcDbEntity
  8
本体
  6
CONTINUOUS
 62
     6
100
AcDbLine
 10
-261.95
 20
1718.096601
 30
0.0
 11
-261.95
 21
1717.596601
 31
0.0
  0
LINE
  5
180
100
AcDbEntity
  8
本体
  6
CONTINUOUS
 62
     6
100
AcDbLine
 10
-403.231302
 20
1718.096601
 30
0.0
 11
-261.95
 21
1718.096601
 31
0.0
  0
LINE
  5
181
100
AcDbEntity
  8
本体
  6
CONTINUOUS
 62
     6
100
AcDbLine
 10
-261.95
 20
1717.596601
 30
0.0
 11
-403.65
 21
1717.596601
 31
0.0
  0
LINE
  5
182
100
AcDbEntity
  8
本体
  6
CONTINUOUS
 62
     6
100
AcDbLine
 10
-402.8
 20
1716.4
 30
0.0
 11
-262.684773
 21
1716.4
 31
0.0
  0
LINE
  5
183
100
AcDbEntity
  8
本体
  6
CONTINUOUS
 62
     6
100
AcDbLine
 10
-402.8
 20
1710.950566
 30
0.0
 11
-262.8
 21
1710.950566
 31
0.0
  0
LINE
  5
184
100
AcDbEntity
  8
本体
  6
CONTINUOUS
 62
     6
100
AcDbLine
 10
-402.8
 20
1713.795977
 30
0.0
 11
-262.8
 21
1713.795977
 31
0.0
  0
LINE
  5
185
100
AcDbEntity
  8
本体
  6
CONTINUOUS
 62
     6
100
AcDbLine
 10
-399.3
 20
1713.591248
 30
0.0
 11
-266.3
 21
1713.591248
 31
0.0
  0
LINE
  5
186
100
AcDbEntity
  8
本体
  6
CONTINUOUS
 62
     6
100
AcDbLine
 10
-399.3
 20
1711.155294
 30
0.0
 11
-266.3
 21
1711.155294
 31
0.0
  0
LINE
  5
187
100
AcDbEntity
  8
本体
  6
CONTINUOUS
 62
     6
100
AcDbLine
 10
-402.8
 20
1708.346542
 30
0.0
 11
-262.742194
 21
1708.346542
 31
0.0
  0
LINE
  5
188
100
AcDbEntity
  8
本体
  6
CONTINUOUS
 62
     6
100
AcDbLine
 10
-261.8
 20
1707.196601
 30
0.0
 11
-403.8
 21
1707.196601
 31
0.0
  0
LINE
  5
189
100
AcDbEntity
  8
本体
  6
CONTINUOUS
 62
     6
100
AcDbLine
 10
-262.077636
 20
1703.462379
 30
0.0
 11
-402.797808
 21
1703.153895
 31
0.0
  0
LINE
  5
18A
100
AcDbEntity
  8
本体
  6
CONTINUOUS
 62
     6
100
AcDbLine
 10
-331.8
 20
1702.804053
 30
0.0
 11
-331.8
 21
1696.015288
 31
0.0
  0
ARC
  5
18B
100
AcDbEntity
  8
本体
  6
CONTINUOUS
 62
     6
100
AcDbCircle
 10
-331.3
 20
1702.804053
 30
0.0
 40
0.5
100
AcDbArc
 50
89.874397
 51
180.0
  0
LINE
  5
18C
100
AcDbEntity
  8
本体
  6
CONTINUOUS
 62
     6
100
AcDbLine
 10
-394.712761
 20
1702.799843
 30
0.0
 11
-333.8
 21
1702.799843
 31
0.0
  0
LINE
  5
18D
100
AcDbEntity
  8
本体
  6
CONTINUOUS
 62
     6
100
AcDbLine
 10
-331.8
 20
1702.799843
 30
0.0
 11
-270.887238
 21
1702.799843
 31
0.0
  0
LINE
  5
18E
100
AcDbEntity
  8
本体
  6
CONTINUOUS
 62
     6
100
AcDbLine
 10
-392.8
 20
1688.696601
 30
0.0
 11
-272.7
 21
1688.696601
 31
0.0
  0
LINE
  5
18F
100
AcDbEntity
  8
本体
  6
CONTINUOUS
 62
     6
100
AcDbLine
 10
-390.440948
 20
1686.196601
 30
0.0
 11
-273.5
 21
1686.196601
 31
0.0
  0
DIMENSION
  5
199
100
AcDbEntity
  8
本体
  6
CONTINUOUS
 62
     3
100
AcDbDimension
  2
*D15
 10
-670.343211
 20
1181.794867
 30
0.0
 11
-713.312611
 21
1079.79577
 31
0.0
 70
   165
  1
1°10′
  3
STANDARD
100
AcDb3PointAngularDimension
 13
-670.391377
 23
1178.642095
 33
0.0
 14
-670.327155
 24
1184.947966
 34
0.0
 15
-979.945665
 25
1184.947966
 35
0.0
1001
ACAD
1000
DSTYLE
1002
{
1070
     6
1000
_EX_NORM
1070
     7
1000
_EX_NORM
1070
    41
1040
30.0
1070
    42
1040
0.0
1070
    44
1040
0.0
1070
    73
1070
     0
1070
    74
1070
     0
1070
    75
1070
     1
1070
    76
1070
     1
1070
    77
1070
     1
1070
    78
1070
     8
1070
   140
1040
40.0
1070
   147
1040
3.0
1070
   173
1070
     1
1070
   176
1070
     3
1070
   177
1070
     3
1070
   178
1070
     2
1070
   271
1070
     2
1070
   279
1070
     2
1070
   280
1070
     1
1070
   287
1070
     5
1070
   340
1005
CD
1002
}
  0
DIMENSION
  5
1A4
100
AcDbEntity
  8
本体
  6
CONTINUOUS
 62
     3
100
AcDbDimension
  2
*D16
 10
-1243.2
 20
1158.0
 30
0.0
 11
-1266.7
 21
1205.5
 31
0.0
 70
   160
  3
STANDARD
100
AcDbAlignedDimension
 13
-1205.5
 23
1253.0
 33
0.0
 14
-1114.413668
 24
1158.0
 34
0.0
 50
90.0
100
AcDbRotatedDimension
1001
ACAD
1000
DSTYLE
1002
{
1070
     6
1000
_EX_NORM
1070
     7
1000
_EX_NORM
1070
    41
1040
30.0
1070
    42
1040
5.0
1070
    44
1040
10.0
1070
    73
1070
     0
1070
    74
1070
     0
1070
    75
1070
     1
1070
    76
1070
     0
1070
    77
1070
     1
1070
    78
1070
     8
1070
   140
1040
40.0
1070
   147
1040
3.5
1070
   173
1070
     1
1070
   176
1070
     3
1070
   177
1070
     3
1070
   178
1070
     2
1070
   271
1070
     2
1070
   279
1070
     2
1070
   280
1070
     0
1070
   287
1070
     5
1070
   340
1005
CD
1002
}
  0
DIMENSION
  5
1B0
100
AcDbEntity
  8
本体
  6
CONTINUOUS
 62
     3
100
AcDbDimension
  2
*D17
 10
-612.8
 20
1253.0
 30
0.0
 11
-636.3
 21
1218.973983
 31
0.0
 70
   160
  3
STANDARD
100
AcDbAlignedDimension
 13
-661.9
 23
1184.947966
 33
0.0
 14
-622.9
 24
1253.0
 34
0.0
 50
90.0
100
AcDbRotatedDimension
1001
ACAD
1000
DSTYLE
1002
{
1070
     6
1000
_EX_NORM
1070
     7
1000
_EX_NORM
1070
    41
1040
30.0
1070
    42
1040
5.0
1070
    44
1040
10.0
1070
    73
1070
     0
1070
    74
1070
     0
1070
    75
1070
     0
1070
    76
1070
     0
1070
    77
1070
     1
1070
    78
1070
     8
1070
   140
1040
40.0
1070
   147
1040
3.5
1070
   173
1070
     1
1070
   176
1070
     3
1070
   177
1070
     3
1070
   178
1070
     2
1070
   271
1070
     2
1070
   279
1070
     2
1070
   280
1070
     0
1070
   287
1070
     5
1070
   340
1005
CD
1002
}
  0
LINE
  5
1B1
100
AcDbEntity
  8
本体
  6
EXLTYPE7
 62
     6
100
AcDbLine
 10
-1082.5
 20
1327.855896
 30
0.0
 11
-1082.5
 21
1234.521355
 31
0.0
  0
LINE
  5
1B2
100
AcDbEntity
  8
本体
  6
CONTINUOUS
 62
     2
100
AcDbLine
 10
-1204.538448
 20
1308.087262
 30
0.0
 11
-1205.5
 21
1253.0
 31
0.0
  0
ARC
  5
1B3
100
AcDbEntity
  8
本体
  6
CONTINUOUS
 62
     2
100
AcDbCircle
 10
-1199.53921
 20
1308.0
 30
0.0
 40
5.0
100
AcDbArc
 50
90.0
 51
179.0
  0
LINE
  5
1B4
100
AcDbEntity
  8
本体
  6
CONTINUOUS
 62
     2
100
AcDbLine
 10
-1199.53921
 20
1313.0
 30
0.0
 11
-571.46079
 21
1313.0
 31
0.0
  0
ARC
  5
1B5
100
AcDbEntity
  8
本体
  6
CONTINUOUS
 62
     2
100
AcDbCircle
 10
-571.46079
 20
1308.0
 30
0.0
 40
5.0
100
AcDbArc
 50
1.0
 51
90.0
  0
LINE
  5
1B6
100
AcDbEntity
  8
本体
  6
CONTINUOUS
 62
     2
100
AcDbLine
 10
-566.461552
 20
1308.087262
 30
0.0
 11
-565.5
 21
1253.0
 31
0.0
  0
ARC
  5
1B7
100
AcDbEntity
  8
本体
  6
CONTINUOUS
 62
     2
100
AcDbCircle
 10
-1153.0
 20
1253.0
 30
0.0
 40
5.0
100
AcDbArc
 50
180.0
 51
270.0
  0
LINE
  5
1B8
100
AcDbEntity
  8
本体
  6
CONTINUOUS
 62
     2
100
AcDbLine
 10
-1292.0
 20
1253.0
 30
0.0
 11
-304.0
 21
1253.0
 31
0.0
  0
LINE
  5
1B9
100
AcDbEntity
  8
本体
  6
CONTINUOUS
 62
     7
100
AcDbLine
 10
-1153.0
 20
1249.149942
 30
0.0
 11
-1012.0
 21
1249.149942
 31
0.0
  0
LINE
  5
1BA
100
AcDbEntity
  8
本体
  6
CONTINUOUS
 62
     6
100
AcDbLine
 10
-1011.5
 20
1248.0
 30
0.0
 11
-1011.5
 21
1244.957292
 31
0.0
  0
ARC
  5
1BB
100
AcDbEntity
  8
本体
  6
CONTINUOUS
 62
     6
100
AcDbCircle
 10
-1012.5
 20
1244.957292
 30
0.0
 40
1.0
100
AcDbArc
 50
272.5
 51
0.0
  0
LINE
  5
1BC
100
AcDbEntity
  8
本体
  6
CONTINUOUS
 62
     6
100
AcDbLine
 10
-1032.5
 20
1155.0
 30
0.0
 11
-1032.5
 21
1152.891025
 31
0.0
  0
ARC
  5
1BD
100
AcDbEntity
  8
本体
  6
CONTINUOUS
 62
     6
100
AcDbCircle
 10
-1031.5
 20
1152.891025
 30
0.0
 40
1.0
100
AcDbArc
 50
180.0
 51
268.833333
  0
LINE
  5
1BE
100
AcDbEntity
  8
本体
  6
CONTINUOUS
 62
     6
100
AcDbLine
 10
-1052.5
 20
1158.0
 30
0.0
 11
-1031.781094
 21
1151.931345
 31
0.0
  0
ARC
  5
1BF
100
AcDbEntity
  8
本体
  6
CONTINUOUS
 62
     6
100
AcDbCircle
 10
-1035.5
 20
1155.0
 30
0.0
 40
3.0
100
AcDbArc
 50
0.0
 51
90.0
  0
LINE
  5
1C0
100
AcDbEntity
  8
本体
  6
CONTINUOUS
 62
     6
100
AcDbLine
 10
-1031.520361
 20
1151.891232
 30
0.0
 11
-983.694198
 21
1150.917253
 31
0.0
  0
LINE
  5
1C1
100
AcDbEntity
  8
本体
  6
CONTINUOUS
 62
     6
100
AcDbLine
 10
-983.184122
 20
1151.406969
 30
0.0
 11
-982.5
 21
1185.0
 31
0.0
  0
LINE
  5
1C2
100
AcDbEntity
  8
本体
  6
CONTINUOUS
 62
     6
100
AcDbLine
 10
-981.815878
 20
1218.593037
 30
0.0
 11
-982.5
 21
1185.0
 31
0.0
  0
ARC
  5
1C3
100
AcDbEntity
  8
本体
  6
CONTINUOUS
 62
     6
100
AcDbCircle
 10
-982.315775
 20
1218.603217
 30
0.0
 40
0.5
100
AcDbArc
 50
358.833333
 51
88.833333
  0
ARC
  5
1C4
100
AcDbEntity
  8
本体
  6
CONTINUOUS
 62
     6
100
AcDbCircle
 10
-1007.5
 20
1234.619307
 30
0.0
 40
15.0
100
AcDbArc
 50
180.0
 51
268.833333
  0
LINE
  5
1C5
100
AcDbEntity
  8
本体
  6
CONTINUOUS
 62
     6
100
AcDbLine
 10
-1114.413668
 20
1158.0
 30
0.0
 11
-1082.5
 21
1158.0
 31
0.0
  0
LINE
  5
1C6
100
AcDbEntity
  8
本体
  6
CONTINUOUS
 62
     6
100
AcDbLine
 10
-1141.002002
 20
1228.223811
 30
0.0
 11
-1142.148501
 21
1229.200547
 31
0.0
  0
LINE
  5
1C7
100
AcDbEntity
  8
本体
  6
CONTINUOUS
 62
     6
100
AcDbLine
 10
-1144.412761
 20
1243.603243
 30
0.0
 11
-1152.543619
 21
1243.958244
 31
0.0
  0
LINE
  5
1C8
100
AcDbEntity
  8
本体
  6
CONTINUOUS
 62
     6
100
AcDbLine
 10
-1153.5
 20
1248.0
 30
0.0
 11
-1153.5
 21
1244.957292
 31
0.0
  0
LINE
  5
1C9
100
AcDbEntity
  8
本体
  6
CONTINUOUS
 62
     6
100
AcDbLine
 10
-1142.5
 20
1241.605146
 30
0.0
 11
-1142.5
 21
1229.961761
 31
0.0
  0
LINE
  5
1CA
100
AcDbEntity
  8
本体
  6
CONTINUOUS
 62
     6
100
AcDbLine
 10
-1129.404443
 20
1172.474008
 30
0.0
 11
-1130.123917
 21
1192.979024
 31
0.0
  0
LINE
  5
1CB
100
AcDbEntity
  8
本体
  6
CONTINUOUS
 62
     6
100
AcDbLine
 10
-1139.571812
 20
1204.442928
 30
0.0
 11
-1139.947961
 21
1225.992526
 31
0.0
  0
LINE
  5
1CC
100
AcDbEntity
  8
本体
  6
CONTINUOUS
 62
     6
100
AcDbLine
 10
-1083.5
 20
1243.607453
 30
0.0
 11
-1083.5
 21
1236.818687
 31
0.0
  0
ARC
  5
1CD
100
AcDbEntity
  8
本体
  6
CONTINUOUS
 62
     6
100
AcDbCircle
 10
-1144.5
 20
1241.605146
 30
0.0
 40
2.0
100
AcDbArc
 50
0.0
 51
87.5
  0
ARC
  5
1CE
100
AcDbEntity
  8
本体
  6
CONTINUOUS
 62
     6
100
AcDbCircle
 10
-1141.5
 20
1229.961761
 30
0.0
 40
1.0
100
AcDbArc
 50
180.0
 51
229.571333
  0
ARC
  5
1CF
100
AcDbEntity
  8
本体
  6
CONTINUOUS
 62
     6
100
AcDbCircle
 10
-1152.5
 20
1244.957292
 30
0.0
 40
1.0
100
AcDbArc
 50
180.0
 51
267.5
  0
ARC
  5
1D0
100
AcDbEntity
  8
本体
  6
CONTINUOUS
 62
     6
100
AcDbCircle
 10
-1130.573182
 20
1204.6
 30
0.0
 40
9.0
100
AcDbArc
 50
181.0
 51
257.736526
  0
ARC
  5
1D1
100
AcDbEntity
  8
本体
  6
CONTINUOUS
 62
     6
100
AcDbCircle
 10
-1142.947504
 20
1225.940169
 30
0.0
 40
3.0
100
AcDbArc
 50
1.0
 51
49.571333
  0
ARC
  5
1D2
100
AcDbEntity
  8
本体
  6
CONTINUOUS
 62
     6
100
AcDbCircle
 10
-1114.413668
 20
1173.0
 30
0.0
 40
15.0
100
AcDbArc
 50
182.009554
 51
270.0
  0
ARC
  5
1D3
100
AcDbEntity
  8
本体
  6
CONTINUOUS
 62
     6
100
AcDbCircle
 10
-1149.5
 20
1236.818687
 30
0.0
 40
7.0
100
AcDbArc
 50
0.0
 51
87.5
  0
ARC
  5
1D4
100
AcDbEntity
  8
本体
  6
CONTINUOUS
 62
     6
100
AcDbCircle
 10
-1084.0
 20
1243.607453
 30
0.0
 40
0.5
100
AcDbArc
 50
0.0
 51
90.125603
  0
ARC
  5
1D5
100
AcDbEntity
  8
本体
  6
CONTINUOUS
 62
     6
100
AcDbCircle
 10
-1133.122072
 20
1192.873826
 30
0.0
 40
3.0
100
AcDbArc
 50
2.009554
 51
77.736526
  0
LINE
  5
1D6
100
AcDbEntity
  8
本体
  6
CONTINUOUS
 62
     6
100
AcDbLine
 10
-1082.5
 20
1158.0
 30
0.0
 11
-1035.5
 21
1158.0
 31
0.0
  0
LINE
  5
1D7
100
AcDbEntity
  8
本体
  6
EXLTYPE7
 62
     6
100
AcDbLine
 10
-1029.316416
 20
1185.0
 30
0.0
 11
-980.368993
 21
1185.0
 31
0.0
  0
LINE
  5
1D8
100
AcDbEntity
  8
本体
  6
CONTINUOUS
 62
     6
100
AcDbLine
 10
-1153.500003
 20
1262.5
 30
0.0
 11
-1153.500003
 21
1259.665833
 31
0.0
  0
ARC
  5
1D9
100
AcDbEntity
  8
本体
  6
CONTINUOUS
 62
     6
100
AcDbCircle
 10
-1152.700003
 20
1259.665833
 30
0.0
 40
0.8
100
AcDbArc
 50
180.0
 51
253.194499
  0
ARC
  5
1DA
100
AcDbEntity
  8
本体
  6
CONTINUOUS
 62
     6
100
AcDbCircle
 10
-1152.500003
 20
1262.5
 30
0.0
 40
1.0
100
AcDbArc
 50
90.0
 51
180.0
  0
LINE
  5
1DB
100
AcDbEntity
  8
本体
  6
CONTINUOUS
 62
     6
100
AcDbLine
 10
-1153.5
 20
1250.149942
 30
0.0
 11
-1153.5
 21
1250.753965
 31
0.0
  0
LINE
  5
1DC
100
AcDbEntity
  8
本体
  6
CONTINUOUS
 62
     6
100
AcDbLine
 10
-1141.0
 20
1251.958694
 30
0.0
 11
-1141.0
 21
1254.394647
 31
0.0
  0
LINE
  5
1DD
100
AcDbEntity
  8
本体
  6
CONTINUOUS
 62
     6
100
AcDbLine
 10
-1153.5
 20
1255.599376
 30
0.0
 11
-1153.5
 21
1256.203399
 31
0.0
  0
LINE
  5
1DE
100
AcDbEntity
  8
本体
  6
CONTINUOUS
 62
     6
100
AcDbLine
 10
-1142.788068
 20
1258.336689
 30
0.0
 11
-1152.615227
 21
1257.196739
 31
0.0
  0
ARC
  5
1DF
100
AcDbEntity
  8
本体
  6
CONTINUOUS
 62
     6
100
AcDbCircle
 10
-1152.5
 20
1250.149942
 30
0.0
 40
1.0
100
AcDbArc
 50
180.0
 51
263.383262
  0
ARC
  5
1E0
100
AcDbEntity
  8
本体
  6
CONTINUOUS
 62
     6
100
AcDbCircle
 10
-1152.5
 20
1255.599376
 30
0.0
 40
1.0
100
AcDbArc
 50
180.0
 51
270.0
  0
ARC
  5
1E1
100
AcDbEntity
  8
本体
  6
CONTINUOUS
 62
     6
100
AcDbCircle
 10
-1152.5
 20
1256.203399
 30
0.0
 40
1.0
100
AcDbArc
 50
96.616738
 51
180.0
  0
ARC
  5
1E2
100
AcDbEntity
  8
本体
  6
CONTINUOUS
 62
     6
100
AcDbCircle
 10
-1149.0
 20
1251.354671
 30
0.0
 40
0.604023
100
AcDbArc
 50
90.0
 51
138.619383
  0
ARC
  5
1E3
100
AcDbEntity
  8
本体
  6
CONTINUOUS
 62
     6
100
AcDbCircle
 10
-1149.0
 20
1254.998671
 30
0.0
 40
0.604023
100
AcDbArc
 50
221.380617
 51
270.0
  0
ARC
  5
1E4
100
AcDbEntity
  8
本体
  6
CONTINUOUS
 62
     6
100
AcDbCircle
 10
-1142.5
 20
1255.853341
 30
0.0
 40
2.5
100
AcDbArc
 50
90.0
 51
96.616738
  0
ARC
  5
1E5
100
AcDbEntity
  8
本体
  6
CONTINUOUS
 62
     6
100
AcDbCircle
 10
-1152.5
 20
1250.753965
 30
0.0
 40
1.0
100
AcDbArc
 50
90.0
 51
180.0
  0
LINE
  5
1E6
100
AcDbEntity
  8
本体
  6
CONTINUOUS
 62
     6
100
AcDbLine
 10
-1142.5
 20
1258.353341
 30
0.0
 11
-1082.5
 21
1258.353341
 31
0.0
  0
LINE
  5
1E7
100
AcDbEntity
  8
本体
  6
CONTINUOUS
 62
     6
100
AcDbLine
 10
-1142.788068
 20
1248.016652
 30
0.0
 11
-1152.615227
 21
1249.156603
 31
0.0
  0
ARC
  5
1E8
100
AcDbEntity
  8
本体
  6
CONTINUOUS
 62
     6
100
AcDbCircle
 10
-1142.5
 20
1250.5
 30
0.0
 40
2.5
100
AcDbArc
 50
263.383262
 51
270.0
  0
LINE
  5
1E9
100
AcDbEntity
  8
本体
  6
CONTINUOUS
 62
     6
100
AcDbLine
 10
-1153.35
 20
1258.9
 30
0.0
 11
-1153.35
 21
1258.4
 31
0.0
  0
LINE
  5
1EA
100
AcDbEntity
  8
本体
  6
CONTINUOUS
 62
     6
100
AcDbLine
 10
-1082.5
 20
1258.9
 30
0.0
 11
-1153.35
 21
1258.9
 31
0.0
  0
LINE
  5
1EB
100
AcDbEntity
  8
本体
  6
EXLTYPE7
 62
     6
100
AcDbLine
 10
-1082.5
 20
1284.999995
 30
0.0
 11
-1082.5
 21
1153.407325
 31
0.0
  0
LINE
  5
1EC
100
AcDbEntity
  8
本体
  6
CONTINUOUS
 62
     6
100
AcDbLine
 10
-1031.5
 20
1263.958617
 30
0.0
 11
-1031.5
 21
1263.5
 31
0.0
  0
LINE
  5
1ED
100
AcDbEntity
  8
本体
  6
CONTINUOUS
 62
     6
100
AcDbLine
 10
-1031.5
 20
1271.499998
 30
0.0
 11
-1031.5
 21
1270.041379
 31
0.0
  0
LINE
  5
1EE
100
AcDbEntity
  8
本体
  6
CONTINUOUS
 62
     6
100
AcDbLine
 10
-1034.22606
 20
1272.499998
 30
0.0
 11
-1032.5
 21
1272.499998
 31
0.0
  0
LINE
  5
1EF
100
AcDbEntity
  8
本体
  6
CONTINUOUS
 62
     6
100
AcDbLine
 10
-1035.79749
 20
1263.5
 30
0.0
 11
-1035.223541
 21
1271.570932
 31
0.0
  0
ARC
  5
1F0
100
AcDbEntity
  8
本体
  6
CONTINUOUS
 62
     6
100
AcDbCircle
 10
-1034.22606
 20
1271.499998
 30
0.0
 40
1.0
100
AcDbArc
 50
90.0
 51
175.932369
  0
ARC
  5
1F1
100
AcDbEntity
  8
本体
  6
CONTINUOUS
 62
     6
100
AcDbCircle
 10
-1032.5
 20
1271.499998
 30
0.0
 40
1.0
100
AcDbArc
 50
0.0
 51
90.0
  0
ARC
  5
1F2
100
AcDbEntity
  8
本体
  6
CONTINUOUS
 62
     6
100
AcDbCircle
 10
-1030.166667
 20
1266.999998
 30
0.0
 40
2.833333
100
AcDbArc
 50
127.49525
 51
232.50475
  0
ARC
  5
1F3
100
AcDbEntity
  8
本体
  6
CONTINUOUS
 62
     6
100
AcDbCircle
 10
-1032.5
 20
1270.041379
 30
0.0
 40
1.0
100
AcDbArc
 50
307.49525
 51
0.0
  0
ARC
  5
1F4
100
AcDbEntity
  8
本体
  6
CONTINUOUS
 62
     6
100
AcDbCircle
 10
-1032.5
 20
1263.958617
 30
0.0
 40
1.0
100
AcDbArc
 50
0.0
 51
52.50475
  0
LINE
  5
1F5
100
AcDbEntity
  8
本体
  6
CONTINUOUS
 62
     6
100
AcDbLine
 10
-1101.5
 20
1266.499995
 30
0.0
 11
-1098.704545
 21
1266.499995
 31
0.0
  0
LINE
  5
1F6
100
AcDbEntity
  8
本体
  6
CONTINUOUS
 62
     6
100
AcDbLine
 10
-1102.0
 20
1265.999995
 30
0.0
 11
-1102.0
 21
1264.999995
 31
0.0
  0
LINE
  5
1F7
100
AcDbEntity
  8
本体
  6
CONTINUOUS
 62
     6
100
AcDbLine
 10
-1101.5
 20
1264.499995
 30
0.0
 11
-1102.0
 21
1264.999995
 31
0.0
  0
ARC
  5
1F8
100
AcDbEntity
  8
本体
  6
CONTINUOUS
 62
     6
100
AcDbCircle
 10
-1099.7
 20
1264.299995
 30
0.0
 40
0.2
100
AcDbArc
 50
0.0
 51
90.0
  0
LINE
  5
1F9
100
AcDbEntity
  8
本体
  6
CONTINUOUS
 62
     6
100
AcDbLine
 10
-1101.5
 20
1266.499995
 30
0.0
 11
-1102.0
 21
1265.999995
 31
0.0
  0
LINE
  5
1FA
100
AcDbEntity
  8
本体
  6
CONTINUOUS
 62
     6
100
AcDbLine
 10
-1098.0
 20
1275.371617
 30
0.0
 11
-1098.0
 21
1268.999995
 31
0.0
  0
LINE
  5
1FB
100
AcDbEntity
  8
本体
  6
CONTINUOUS
 62
     6
100
AcDbLine
 10
-1065.5
 20
1267.499995
 30
0.0
 11
-1065.5
 21
1266.999995
 31
0.0
  0
LINE
  5
1FC
100
AcDbEntity
  8
本体
  6
CONTINUOUS
 62
     6
100
AcDbLine
 10
-1067.0
 20
1269.035834
 30
0.0
 11
-1067.0
 21
1268.999995
 31
0.0
  0
LINE
  5
1FD
100
AcDbEntity
  8
本体
  6
CONTINUOUS
 62
     6
100
AcDbLine
 10
-1053.230413
 20
1309.454119
 30
0.0
 11
-1050.866874
 21
1309.870874
 31
0.0
  0
LINE
  5
1FE
100
AcDbEntity
  8
本体
  6
CONTINUOUS
 62
     6
100
AcDbLine
 10
-1032.5
 20
1293.816344
 30
0.0
 11
-1029.287509
 21
1275.5974
 31
0.0
  0
LINE
  5
1FF
100
AcDbEntity
  8
本体
  6
CONTINUOUS
 62
     6
100
AcDbLine
 10
-1031.859665
 20
1274.636146
 30
0.0
 11
-1029.693088
 21
1275.018172
 31
0.0
  0
LINE
  5
200
100
AcDbEntity
  8
本体
  6
CONTINUOUS
 62
     6
100
AcDbLine
 10
-1046.631782
 20
1272.031423
 30
0.0
 11
-1044.268243
 21
1272.448179
 31
0.0
  0
LINE
  5
201
100
AcDbEntity
  8
本体
  6
CONTINUOUS
 62
     6
100
AcDbLine
 10
-1066.586824
 20
1269.528238
 30
0.0
 11
-1047.396315
 21
1272.912043
 31
0.0
  0
LINE
  5
202
100
AcDbEntity
  8
本体
  6
CONTINUOUS
 62
     6
100
AcDbLine
 10
-1066.63171
 20
1307.160658
 30
0.0
 11
-1063.779055
 21
1316.067543
 31
0.0
  0
LINE
  5
203
100
AcDbEntity
  8
本体
  6
CONTINUOUS
 62
     6
100
AcDbLine
 10
-1060.097775
 20
1315.999995
 30
0.0
 11
-1060.445837
 21
1315.999995
 31
0.0
  0
LINE
  5
204
100
AcDbEntity
  8
本体
  6
CONTINUOUS
 62
     6
100
AcDbLine
 10
-1058.044314
 20
1309.113011
 30
0.0
 11
-1059.112967
 21
1315.173643
 31
0.0
  0
LINE
  5
205
100
AcDbEntity
  8
本体
  6
CONTINUOUS
 62
     6
100
AcDbLine
 10
-1063.712571
 20
1308.078769
 30
0.0
 11
-1061.398185
 21
1315.305009
 31
0.0
  0
LINE
  5
206
100
AcDbEntity
  8
本体
  6
CONTINUOUS
 62
     6
100
AcDbLine
 10
-1055.582295
 20
1309.547132
 30
0.0
 11
-1056.650947
 21
1315.607764
 31
0.0
  0
ARC
  5
207
100
AcDbEntity
  8
本体
  6
CONTINUOUS
 62
     6
100
AcDbCircle
 10
-1099.0
 20
1268.999995
 30
0.0
 40
1.0
100
AcDbArc
 50
270.0
 51
0.0
  0
ARC
  5
208
100
AcDbEntity
  8
本体
  6
CONTINUOUS
 62
     6
100
AcDbCircle
 10
-1066.5
 20
1269.035834
 30
0.0
 40
0.5
100
AcDbArc
 50
100.0
 51
180.0
  0
ARC
  5
209
100
AcDbEntity
  8
本体
  6
CONTINUOUS
 62
     6
100
AcDbCircle
 10
-1099.0
 20
1267.499995
 30
0.0
 40
0.5
100
AcDbArc
 50
90.0
 51
180.0
  0
ARC
  5
20A
100
AcDbEntity
  8
本体
  6
CONTINUOUS
 62
     6
100
AcDbCircle
 10
-1066.0
 20
1267.499995
 30
0.0
 40
0.5
100
AcDbArc
 50
0.0
 51
90.0
  0
ARC
  5
20B
100
AcDbEntity
  8
本体
  6
CONTINUOUS
 62
     6
100
AcDbCircle
 10
-1066.0
 20
1266.999995
 30
0.0
 40
0.5
100
AcDbArc
 50
270.0
 51
0.0
  0
ARC
  5
20C
100
AcDbEntity
  8
本体
  6
CONTINUOUS
 62
     6
100
AcDbCircle
 10
-1066.0
 20
1268.999995
 30
0.0
 40
1.0
100
AcDbArc
 50
180.0
 51
270.0
  0
ARC
  5
20D
100
AcDbEntity
  8
本体
  6
CONTINUOUS
 62
     6
100
AcDbCircle
 10
-1068.0
 20
1275.371617
 30
0.0
 40
30.0
100
AcDbArc
 50
100.0
 51
180.0
  0
ARC
  5
20E
100
AcDbEntity
  8
本体
  6
CONTINUOUS
 62
     6
100
AcDbCircle
 10
-1053.178318
 20
1309.158676
 30
0.0
 40
0.3
100
AcDbArc
 50
100.0
 51
190.0
  0
ARC
  5
20F
100
AcDbEntity
  8
本体
  6
CONTINUOUS
 62
     6
100
AcDbCircle
 10
-1050.81478
 20
1309.575432
 30
0.0
 40
0.3
100
AcDbArc
 50
10.0
 51
100.0
  0
ARC
  5
210
100
AcDbEntity
  8
本体
  6
CONTINUOUS
 62
     6
100
AcDbCircle
 10
-1043.798912
 20
1273.241734
 30
0.0
 40
0.3
100
AcDbArc
 50
100.0
 51
190.0
  0
ARC
  5
211
100
AcDbEntity
  8
本体
  6
CONTINUOUS
 62
     6
100
AcDbCircle
 10
-1047.34422
 20
1272.6166
 30
0.0
 40
0.3
100
AcDbArc
 50
10.0
 51
100.0
  0
ARC
  5
212
100
AcDbEntity
  8
本体
  6
CONTINUOUS
 62
     6
100
AcDbCircle
 10
-1046.683876
 20
1272.326865
 30
0.0
 40
0.3
100
AcDbArc
 50
190.0
 51
280.0
  0
ARC
  5
213
100
AcDbEntity
  8
本体
  6
CONTINUOUS
 62
     6
100
AcDbCircle
 10
-1044.320338
 20
1272.743621
 30
0.0
 40
0.3
100
AcDbArc
 50
280.0
 51
10.0
  0
ARC
  5
214
100
AcDbEntity
  8
本体
  6
CONTINUOUS
 62
     6
100
AcDbCircle
 10
-1036.204895
 20
1311.948463
 30
0.0
 40
0.5
100
AcDbArc
 50
10.0
 51
100.0
  0
ARC
  5
215
100
AcDbEntity
  8
本体
  6
CONTINUOUS
 62
     6
100
AcDbCircle
 10
-1029.779912
 20
1275.510576
 30
0.0
 40
0.5
100
AcDbArc
 50
280.0
 51
10.0
  0
ARC
  5
216
100
AcDbEntity
  8
本体
  6
CONTINUOUS
 62
     6
100
AcDbCircle
 10
-1038.406202
 20
1311.763399
 30
0.0
 40
0.3
100
AcDbArc
 50
100.0
 51
190.0
  0
ARC
  5
217
100
AcDbEntity
  8
本体
  6
CONTINUOUS
 62
     6
100
AcDbCircle
 10
-1038.927627
 20
1311.265287
 30
0.0
 40
0.3
100
AcDbArc
 50
280.0
 51
10.0
  0
ARC
  5
218
100
AcDbEntity
  8
本体
  6
CONTINUOUS
 62
     6
100
AcDbCircle
 10
-1032.572104
 20
1275.221323
 30
0.0
 40
0.3
100
AcDbArc
 50
10.0
 51
100.0
  0
ARC
  5
219
100
AcDbEntity
  8
本体
  6
CONTINUOUS
 62
     6
100
AcDbCircle
 10
-1031.91176
 20
1274.931588
 30
0.0
 40
0.3
100
AcDbArc
 50
190.0
 51
280.0
  0
ARC
  5
21A
100
AcDbEntity
  8
本体
  6
CONTINUOUS
 62
     6
100
AcDbCircle
 10
-1060.445837
 20
1314.999995
 30
0.0
 40
1.0
100
AcDbArc
 50
90.0
 51
162.241018
  0
ARC
  5
21B
100
AcDbEntity
  8
本体
  6
CONTINUOUS
 62
     6
100
AcDbCircle
 10
-1062.760223
 20
1307.773756
 30
0.0
 40
1.0
100
AcDbArc
 50
162.241018
 51
280.0
  0
ARC
  5
21C
100
AcDbEntity
  8
本体
  6
CONTINUOUS
 62
     6
100
AcDbCircle
 10
-1054.105083
 20
1309.807604
 30
0.0
 40
1.5
100
AcDbArc
 50
190.0
 51
280.0
  0
ARC
  5
21D
100
AcDbEntity
  8
本体
  6
CONTINUOUS
 62
     6
100
AcDbCircle
 10
-1068.536406
 20
1307.770686
 30
0.0
 40
2.0
100
AcDbArc
 50
280.0
 51
342.241018
  0
ARC
  5
21E
100
AcDbEntity
  8
本体
  6
CONTINUOUS
 62
     6
100
AcDbCircle
 10
-1060.097775
 20
1314.999995
 30
0.0
 40
1.0
100
AcDbArc
 50
10.0
 51
90.0
  0
ARC
  5
21F
100
AcDbEntity
  8
本体
  6
CONTINUOUS
 62
     6
100
AcDbCircle
 10
-1059.521526
 20
1308.852539
 30
0.0
 40
1.5
100
AcDbArc
 50
280.0
 51
10.0
  0
ARC
  5
220
100
AcDbEntity
  8
本体
  6
CONTINUOUS
 62
     6
100
AcDbCircle
 10
-1060.445837
 20
1314.999995
 30
0.0
 40
3.5
100
AcDbArc
 50
90.0
 51
162.241018
  0
ARC
  5
221
100
AcDbEntity
  8
本体
  6
CONTINUOUS
 62
     6
100
AcDbCircle
 10
-1060.097775
 20
1314.999995
 30
0.0
 40
3.5
100
AcDbArc
 50
10.0
 51
90.0
  0
LINE
  5
222
100
AcDbEntity
  8
本体
  6
CONTINUOUS
 62
     6
100
AcDbLine
 10
-1043.851007
 20
1273.537176
 30
0.0
 11
-1042.176834
 21
1273.832378
 31
0.0
  0
LINE
  5
223
100
AcDbEntity
  8
本体
  6
CONTINUOUS
 62
     6
100
AcDbLine
 10
-1034.298372
 20
1275.221564
 30
0.0
 11
-1032.624198
 21
1275.516765
 31
0.0
  0
LINE
  5
224
100
AcDbEntity
  8
本体
  6
CONTINUOUS
 62
     6
100
AcDbLine
 10
-1060.097775
 20
1318.499995
 30
0.0
 11
-1060.445837
 21
1318.499995
 31
0.0
  0
ARC
  5
225
100
AcDbEntity
  8
本体
  6
CONTINUOUS
 62
     6
100
AcDbCircle
 10
-1047.875076
 20
1329.183801
 30
0.0
 40
4.0
100
AcDbArc
 50
10.0
 51
190.0
  0
LINE
  5
226
100
AcDbEntity
  8
本体
  6
CONTINUOUS
 62
     6
100
AcDbLine
 10
-1050.02677
 20
1317.634707
 30
0.0
 11
-1041.903123
 21
1319.067125
 31
0.0
  0
ARC
  5
227
100
AcDbEntity
  8
本体
  6
CONTINUOUS
 62
     6
100
AcDbCircle
 10
-1041.729475
 20
1318.082317
 30
0.0
 40
1.0
100
AcDbArc
 50
17.594643
 51
100.0
  0
ARC
  5
228
100
AcDbEntity
  8
本体
  6
CONTINUOUS
 62
     6
100
AcDbCircle
 10
-1049.853122
 20
1316.649899
 30
0.0
 40
1.0
100
AcDbArc
 50
100.0
 51
182.405357
  0
LINE
  5
229
100
AcDbEntity
  8
本体
  6
CONTINUOUS
 62
     6
100
AcDbLine
 10
-1043.935845
 20
1329.878394
 30
0.0
 11
-1042.025715
 21
1319.045509
 31
0.0
  0
LINE
  5
22A
100
AcDbEntity
  8
本体
  6
CONTINUOUS
 62
     6
100
AcDbLine
 10
-1051.814307
 20
1328.489208
 30
0.0
 11
-1049.904177
 21
1317.656323
 31
0.0
  0
LINE
  5
22B
100
AcDbEntity
  8
本体
  6
CONTINUOUS
 62
     6
100
AcDbLine
 10
-1038.926369
 20
1312.551122
 30
0.0
 11
-1040.776256
 21
1318.384598
 31
0.0
  0
LINE
  5
22C
100
AcDbEntity
  8
本体
  6
CONTINUOUS
 62
     6
100
AcDbLine
 10
-1050.852241
 20
1316.60793
 30
0.0
 11
-1050.5954
 21
1310.493557
 31
0.0
  0
LINE
  5
22D
100
AcDbEntity
  8
本体
  6
CONTINUOUS
 62
     6
100
AcDbLine
 10
-1050.009016
 20
1310.022138
 30
0.0
 11
-1039.316154
 21
1311.907578
 31
0.0
  0
ARC
  5
22E
100
AcDbEntity
  8
本体
  6
CONTINUOUS
 62
     6
100
AcDbCircle
 10
-1050.09584
 20
1310.514541
 30
0.0
 40
0.5
100
AcDbArc
 50
182.405357
 51
280.0
  0
LINE
  5
22F
100
AcDbEntity
  8
本体
  6
CONTINUOUS
 62
     6
100
AcDbLine
 10
-1042.003185
 20
1272.84757
 30
0.0
 11
-1034.124723
 21
1274.236756
 31
0.0
  0
ARC
  5
230
100
AcDbEntity
  8
本体
  6
CONTINUOUS
 62
     6
100
AcDbCircle
 10
-1044.320338
 20
1272.743621
 30
0.0
 40
0.3
100
AcDbArc
 50
280.0
 51
21.141226
  0
ARC
  5
231
100
AcDbEntity
  8
本体
  6
CONTINUOUS
 62
     6
100
AcDbCircle
 10
-1047.34422
 20
1272.6166
 30
0.0
 40
0.3
100
AcDbArc
 50
10.0
 51
100.0
  0
ARC
  5
232
100
AcDbEntity
  8
本体
  6
CONTINUOUS
 62
     6
100
AcDbCircle
 10
-1050.154436
 20
1309.285698
 30
0.0
 40
0.3
100
AcDbArc
 50
190.0
 51
285.228098
  0
LINE
  5
233
100
AcDbEntity
  8
本体
  6
EXLTYPE7
 62
     6
100
AcDbLine
 10
-1082.5
 20
1284.999995
 30
0.0
 11
-1030.103258
 21
1294.238954
 31
0.0
  0
ARC
  5
234
100
AcDbEntity
  8
本体
  6
CONTINUOUS
 62
     6
100
AcDbCircle
 10
-1053.699744
 20
1308.660564
 30
0.0
 40
0.3
100
AcDbArc
 50
280.0
 51
10.0
  0
LINE
  5
235
100
AcDbEntity
  8
本体
  6
CONTINUOUS
 62
     6
100
AcDbLine
 10
-1038.701644
 20
1311.711304
 30
0.0
 11
-1032.207202
 21
1274.879494
 31
0.0
  0
LINE
  5
236
100
AcDbEntity
  8
本体
  6
CONTINUOUS
 62
     6
100
AcDbLine
 10
-1050.519337
 20
1309.627526
 30
0.0
 11
-1044.024895
 21
1272.795715
 31
0.0
  0
LINE
  5
237
100
AcDbEntity
  8
本体
  6
CONTINUOUS
 62
     6
100
AcDbLine
 10
-1053.47376
 20
1309.106582
 30
0.0
 11
-1046.979318
 21
1272.274771
 31
0.0
  0
ARC
  5
238
100
AcDbEntity
  8
本体
  6
CONTINUOUS
 62
     6
100
AcDbCircle
 10
-1039.402978
 20
1312.399982
 30
0.0
 40
0.5
100
AcDbArc
 50
280.0
 51
17.594643
  0
LINE
  5
239
100
AcDbEntity
  8
本体
  6
CONTINUOUS
 62
     6
100
AcDbLine
 10
-1048.601816
 20
1310.270265
 30
0.0
 11
-1042.003185
 21
1272.84757
 31
0.0
  0
LINE
  5
23A
100
AcDbEntity
  8
本体
  6
CONTINUOUS
 62
     6
100
AcDbLine
 10
-1040.723354
 20
1311.65945
 30
0.0
 11
-1034.124723
 21
1274.236756
 31
0.0
  0
LINE
  5
23B
100
AcDbEntity
  8
本体
  6
CONTINUOUS
 62
     6
100
AcDbLine
 10
-1050.102341
 20
1308.990255
 30
0.0
 11
-1048.428168
 21
1309.285457
 31
0.0
  0
LINE
  5
23C
100
AcDbEntity
  8
本体
  6
CONTINUOUS
 62
     6
100
AcDbLine
 10
-1040.549706
 20
1310.674643
 30
0.0
 11
-1038.875533
 21
1310.969845
 31
0.0
  0
LINE
  5
23D
100
AcDbEntity
  8
本体
  6
CONTINUOUS
 62
     6
100
AcDbLine
 10
-1073.209445
 20
1304.915849
 30
0.0
 11
-1053.647649
 21
1308.365122
 31
0.0
  0
LINE
  5
23E
100
AcDbEntity
  8
本体
  6
CONTINUOUS
 62
     6
100
AcDbLine
 10
-1066.0
 20
1267.999995
 30
0.0
 11
-1099.0
 21
1267.999995
 31
0.0
  0
LINE
  5
23F
100
AcDbEntity
  8
本体
  6
CONTINUOUS
 62
     6
100
AcDbLine
 10
-1099.5
 20
1264.299995
 30
0.0
 11
-1099.5
 21
1263.5
 31
0.0
  0
LINE
  5
240
100
AcDbEntity
  8
本体
  6
CONTINUOUS
 62
     6
100
AcDbLine
 10
-1063.0
 20
1265.999995
 30
0.0
 11
-1063.0
 21
1264.999995
 31
0.0
  0
LINE
  5
241
100
AcDbEntity
  8
本体
  6
CONTINUOUS
 62
     6
100
AcDbLine
 10
-1063.5
 20
1264.499995
 30
0.0
 11
-1063.0
 21
1264.999995
 31
0.0
  0
LINE
  5
242
100
AcDbEntity
  8
本体
  6
CONTINUOUS
 62
     6
100
AcDbLine
 10
-1063.5
 20
1266.499995
 30
0.0
 11
-1063.0
 21
1265.999995
 31
0.0
  0
LINE
  5
243
100
AcDbEntity
  8
本体
  6
CONTINUOUS
 62
     6
100
AcDbLine
 10
-1098.704545
 20
1266.499995
 30
0.0
 11
-1063.5
 21
1266.499995
 31
0.0
  0
LINE
  5
244
100
AcDbEntity
  8
本体
  6
CONTINUOUS
 62
     6
100
AcDbLine
 10
-1063.5
 20
1264.499995
 30
0.0
 11
-1101.5
 21
1264.499995
 31
0.0
  0
ARC
  5
245
100
AcDbEntity
  8
本体
  6
CONTINUOUS
 62
     6
100
AcDbCircle
 10
-1099.0
 20
1266.999995
 30
0.0
 40
0.5
100
AcDbArc
 50
180.0
 51
270.0
  0
LINE
  5
246
100
AcDbEntity
  8
本体
  6
CONTINUOUS
 62
     6
100
AcDbLine
 10
-1099.5
 20
1267.499995
 30
0.0
 11
-1099.5
 21
1266.999995
 31
0.0
  0
LINE
  5
247
100
AcDbEntity
  8
本体
  6
CONTINUOUS
 62
     6
100
AcDbLine
 10
-1152.500003
 20
1263.5
 30
0.0
 11
-1012.246727
 21
1263.5
 31
0.0
  0
LINE
  5
248
100
AcDbEntity
  8
本体
  6
CONTINUOUS
 62
     6
100
AcDbLine
 10
-1007.805412
 20
1219.622417
 30
0.0
 11
-982.305594
 21
1219.103113
 31
0.0
  0
ARC
  5
249
100
AcDbEntity
  8
本体
  6
CONTINUOUS
 62
     6
100
AcDbCircle
 10
-983.684018
 20
1151.41715
 30
0.0
 40
0.5
100
AcDbArc
 50
268.833333
 51
358.833333
  0
ARC
  5
24A
100
AcDbEntity
  8
本体
  6
CONTINUOUS
 62
     6
100
AcDbCircle
 10
-1065.3
 20
1264.299995
 30
0.0
 40
0.2
100
AcDbArc
 50
90.0
 51
180.0
  0
LINE
  5
24B
100
AcDbEntity
  8
本体
  6
CONTINUOUS
 62
     6
100
AcDbLine
 10
-1065.5
 20
1263.5
 30
0.0
 11
-1065.5
 21
1264.299995
 31
0.0
  0
ARC
  5
24C
100
AcDbEntity
  8
本体
  6
CONTINUOUS
 62
     6
100
AcDbCircle
 10
-1015.5
 20
1236.818687
 30
0.0
 40
7.0
100
AcDbArc
 50
92.5
 51
180.0
  0
LINE
  5
24D
100
AcDbEntity
  8
本体
  6
CONTINUOUS
 62
     6
100
AcDbLine
 10
-1022.5
 20
1236.818687
 30
0.0
 11
-1022.5
 21
1234.619307
 31
0.0
  0
LINE
  5
24E
100
AcDbEntity
  8
本体
  6
CONTINUOUS
 62
     6
100
AcDbLine
 10
-1020.587239
 20
1243.603243
 30
0.0
 11
-1012.456381
 21
1243.958244
 31
0.0
  0
LINE
  5
24F
100
AcDbEntity
  8
本体
  6
CONTINUOUS
 62
     6
100
AcDbLine
 10
-1011.5
 20
1248.0
 30
0.0
 11
-1011.5
 21
1244.957292
 31
0.0
  0
ARC
  5
250
100
AcDbEntity
  8
本体
  6
CONTINUOUS
 62
     6
100
AcDbCircle
 10
-1020.5
 20
1241.605146
 30
0.0
 40
2.0
100
AcDbArc
 50
92.5
 51
180.0
  0
ARC
  5
251
100
AcDbEntity
  8
本体
  6
CONTINUOUS
 62
     6
100
AcDbCircle
 10
-1012.5
 20
1244.957292
 30
0.0
 40
1.0
100
AcDbArc
 50
272.5
 51
0.0
  0
LINE
  5
252
100
AcDbEntity
  8
本体
  6
CONTINUOUS
 62
     6
100
AcDbLine
 10
-1011.499997
 20
1262.5
 30
0.0
 11
-1011.499997
 21
1259.665833
 31
0.0
  0
ARC
  5
253
100
AcDbEntity
  8
本体
  6
CONTINUOUS
 62
     6
100
AcDbCircle
 10
-1012.299997
 20
1259.665833
 30
0.0
 40
0.8
100
AcDbArc
 50
286.805501
 51
0.0
  0
ARC
  5
254
100
AcDbEntity
  8
本体
  6
CONTINUOUS
 62
     6
100
AcDbCircle
 10
-1012.499997
 20
1262.5
 30
0.0
 40
1.0
100
AcDbArc
 50
0.0
 51
90.0
  0
LINE
  5
255
100
AcDbEntity
  8
本体
  6
CONTINUOUS
 62
     6
100
AcDbLine
 10
-1011.5
 20
1250.149942
 30
0.0
 11
-1011.5
 21
1250.753965
 31
0.0
  0
LINE
  5
256
100
AcDbEntity
  8
本体
  6
CONTINUOUS
 62
     6
100
AcDbLine
 10
-1024.0
 20
1251.958694
 30
0.0
 11
-1024.0
 21
1254.394647
 31
0.0
  0
LINE
  5
257
100
AcDbEntity
  8
本体
  6
CONTINUOUS
 62
     6
100
AcDbLine
 10
-1011.5
 20
1255.599376
 30
0.0
 11
-1011.5
 21
1256.203399
 31
0.0
  0
LINE
  5
258
100
AcDbEntity
  8
本体
  6
CONTINUOUS
 62
     6
100
AcDbLine
 10
-1022.211932
 20
1258.336689
 30
0.0
 11
-1012.384773
 21
1257.196739
 31
0.0
  0
ARC
  5
259
100
AcDbEntity
  8
本体
  6
CONTINUOUS
 62
     6
100
AcDbCircle
 10
-1012.5
 20
1250.149942
 30
0.0
 40
1.0
100
AcDbArc
 50
276.616738
 51
0.0
  0
ARC
  5
25A
100
AcDbEntity
  8
本体
  6
CONTINUOUS
 62
     6
100
AcDbCircle
 10
-1012.5
 20
1255.599376
 30
0.0
 40
1.0
100
AcDbArc
 50
270.0
 51
0.0
  0
ARC
  5
25B
100
AcDbEntity
  8
本体
  6
CONTINUOUS
 62
     6
100
AcDbCircle
 10
-1012.5
 20
1256.203399
 30
0.0
 40
1.0
100
AcDbArc
 50
0.0
 51
83.383262
  0
ARC
  5
25C
100
AcDbEntity
  8
本体
  6
CONTINUOUS
 62
     6
100
AcDbCircle
 10
-1016.0
 20
1251.354671
 30
0.0
 40
0.604023
100
AcDbArc
 50
41.380617
 51
90.0
  0
ARC
  5
25D
100
AcDbEntity
  8
本体
  6
CONTINUOUS
 62
     6
100
AcDbCircle
 10
-1016.0
 20
1254.998671
 30
0.0
 40
0.604023
100
AcDbArc
 50
270.0
 51
318.619383
  0
ARC
  5
25E
100
AcDbEntity
  8
本体
  6
CONTINUOUS
 62
     6
100
AcDbCircle
 10
-1022.5
 20
1255.853341
 30
0.0
 40
2.5
100
AcDbArc
 50
83.383262
 51
90.0
  0
ARC
  5
25F
100
AcDbEntity
  8
本体
  6
CONTINUOUS
 62
     6
100
AcDbCircle
 10
-1012.5
 20
1250.753965
 30
0.0
 40
1.0
100
AcDbArc
 50
0.0
 51
90.0
  0
LINE
  5
260
100
AcDbEntity
  8
本体
  6
CONTINUOUS
 62
     6
100
AcDbLine
 10
-1022.211932
 20
1248.016652
 30
0.0
 11
-1012.384773
 21
1249.156603
 31
0.0
  0
ARC
  5
261
100
AcDbEntity
  8
本体
  6
CONTINUOUS
 62
     6
100
AcDbCircle
 10
-1022.5
 20
1250.5
 30
0.0
 40
2.5
100
AcDbArc
 50
270.0
 51
276.616738
  0
LINE
  5
262
100
AcDbEntity
  8
本体
  6
CONTINUOUS
 62
     6
100
AcDbLine
 10
-1011.65
 20
1258.9
 30
0.0
 11
-1011.65
 21
1258.4
 31
0.0
  0
LINE
  5
263
100
AcDbEntity
  8
本体
  6
CONTINUOUS
 62
     6
100
AcDbLine
 10
-1152.931302
 20
1258.9
 30
0.0
 11
-1011.65
 21
1258.9
 31
0.0
  0
LINE
  5
264
100
AcDbEntity
  8
本体
  6
CONTINUOUS
 62
     6
100
AcDbLine
 10
-1011.65
 20
1258.4
 30
0.0
 11
-1153.35
 21
1258.4
 31
0.0
  0
LINE
  5
265
100
AcDbEntity
  8
本体
  6
CONTINUOUS
 62
     6
100
AcDbLine
 10
-1152.5
 20
1257.203399
 30
0.0
 11
-1012.384773
 21
1257.203399
 31
0.0
  0
LINE
  5
266
100
AcDbEntity
  8
本体
  6
CONTINUOUS
 62
     6
100
AcDbLine
 10
-1152.5
 20
1251.753965
 30
0.0
 11
-1012.5
 21
1251.753965
 31
0.0
  0
LINE
  5
267
100
AcDbEntity
  8
本体
  6
CONTINUOUS
 62
     6
100
AcDbLine
 10
-1152.5
 20
1254.599376
 30
0.0
 11
-1012.5
 21
1254.599376
 31
0.0
  0
LINE
  5
268
100
AcDbEntity
  8
本体
  6
CONTINUOUS
 62
     6
100
AcDbLine
 10
-1149.0
 20
1254.394647
 30
0.0
 11
-1016.0
 21
1254.394647
 31
0.0
  0
LINE
  5
269
100
AcDbEntity
  8
本体
  6
CONTINUOUS
 62
     6
100
AcDbLine
 10
-1149.0
 20
1251.958694
 30
0.0
 11
-1016.0
 21
1251.958694
 31
0.0
  0
LINE
  5
26A
100
AcDbEntity
  8
本体
  6
CONTINUOUS
 62
     6
100
AcDbLine
 10
-1152.5
 20
1249.149942
 30
0.0
 11
-1012.442194
 21
1249.149942
 31
0.0
  0
LINE
  5
26B
100
AcDbEntity
  8
本体
  6
CONTINUOUS
 62
     6
100
AcDbLine
 10
-1011.5
 20
1248.0
 30
0.0
 11
-1153.5
 21
1248.0
 31
0.0
  0
LINE
  5
26C
100
AcDbEntity
  8
本体
  6
CONTINUOUS
 62
     6
100
AcDbLine
 10
-1011.777636
 20
1244.265779
 30
0.0
 11
-1152.497808
 21
1243.957294
 31
0.0
  0
LINE
  5
26D
100
AcDbEntity
  8
本体
  6
CONTINUOUS
 62
     6
100
AcDbLine
 10
-1081.5
 20
1243.607453
 30
0.0
 11
-1081.5
 21
1236.818687
 31
0.0
  0
ARC
  5
26E
100
AcDbEntity
  8
本体
  6
CONTINUOUS
 62
     6
100
AcDbCircle
 10
-1081.0
 20
1243.607453
 30
0.0
 40
0.5
100
AcDbArc
 50
89.874397
 51
180.0
  0
LINE
  5
26F
100
AcDbEntity
  8
本体
  6
CONTINUOUS
 62
     6
100
AcDbLine
 10
-1144.412761
 20
1243.603243
 30
0.0
 11
-1083.5
 21
1243.603243
 31
0.0
  0
LINE
  5
270
100
AcDbEntity
  8
本体
  6
CONTINUOUS
 62
     6
100
AcDbLine
 10
-1081.5
 20
1243.603243
 30
0.0
 11
-1020.587238
 21
1243.603243
 31
0.0
  0
LINE
  5
271
100
AcDbEntity
  8
本体
  6
CONTINUOUS
 62
     6
100
AcDbLine
 10
-1142.5
 20
1229.5
 30
0.0
 11
-1022.4
 21
1229.5
 31
0.0
  0
LINE
  5
272
100
AcDbEntity
  8
本体
  6
CONTINUOUS
 62
     6
100
AcDbLine
 10
-1038.458296
 20
1312.058841
 30
0.0
 11
-1036.291719
 21
1312.440867
 31
0.0
  0
LINE
  5
273
100
AcDbEntity
  8
本体
  6
CONTINUOUS
 62
     6
100
AcDbLine
 10
-1032.5
 20
1293.816344
 30
0.0
 11
-1035.712491
 21
1312.035287
 31
0.0
  0
LINE
  5
274
100
AcDbEntity
  8
本体
  6
CONTINUOUS
 62
     6
100
AcDbLine
 10
-1023.997998
 20
1228.223811
 30
0.0
 11
-1022.851499
 21
1229.200547
 31
0.0
  0
LINE
  5
275
100
AcDbEntity
  8
本体
  6
CONTINUOUS
 62
     6
100
AcDbLine
 10
-1035.595557
 20
1172.474008
 30
0.0
 11
-1034.876083
 21
1192.979024
 31
0.0
  0
LINE
  5
276
100
AcDbEntity
  8
本体
  6
CONTINUOUS
 62
     6
100
AcDbLine
 10
-1025.428188
 20
1204.442928
 30
0.0
 11
-1025.052039
 21
1225.992526
 31
0.0
  0
ARC
  5
277
100
AcDbEntity
  8
本体
  6
CONTINUOUS
 62
     6
100
AcDbCircle
 10
-1023.5
 20
1229.961761
 30
0.0
 40
1.0
100
AcDbArc
 50
310.428667
 51
0.0
  0
ARC
  5
278
100
AcDbEntity
  8
本体
  6
CONTINUOUS
 62
     6
100
AcDbCircle
 10
-1034.426818
 20
1204.6
 30
0.0
 40
9.0
100
AcDbArc
 50
282.263474
 51
359.0
  0
ARC
  5
279
100
AcDbEntity
  8
本体
  6
CONTINUOUS
 62
     6
100
AcDbCircle
 10
-1022.052496
 20
1225.940169
 30
0.0
 40
3.0
100
AcDbArc
 50
130.428667
 51
179.0
  0
ARC
  5
27A
100
AcDbEntity
  8
本体
  6
CONTINUOUS
 62
     6
100
AcDbCircle
 10
-1050.586332
 20
1173.0
 30
0.0
 40
15.0
100
AcDbArc
 50
270.0
 51
357.990446
  0
ARC
  5
27B
100
AcDbEntity
  8
本体
  6
CONTINUOUS
 62
     6
100
AcDbCircle
 10
-1031.877928
 20
1192.873826
 30
0.0
 40
3.0
100
AcDbArc
 50
102.263474
 51
177.990446
  0
LINE
  5
27C
100
AcDbEntity
  8
本体
  6
CONTINUOUS
 62
     6
100
AcDbLine
 10
-1022.5
 20
1241.605146
 30
0.0
 11
-1022.5
 21
1229.961761
 31
0.0
  0
LINE
  5
27D
100
AcDbEntity
  8
本体
  6
CONTINUOUS
 62
     6
100
AcDbLine
 10
-1140.140948
 20
1227.0
 30
0.0
 11
-1024.859052
 21
1227.0
 31
0.0
  0
ARC
  5
27E
100
AcDbEntity
  8
本体
  6
EXLTYPE4
 62
     6
100
AcDbCircle
 10
-725.265585
 20
1194.763039
 30
0.0
 40
24.94499
100
AcDbArc
 50
321.868279
 51
35.797721
  0
ARC
  5
27F
100
AcDbEntity
  8
本体
  6
EXLTYPE4
 62
     6
100
AcDbCircle
 10
-725.876582
 20
1164.769261
 30
0.0
 40
24.94499
100
AcDbArc
 50
321.868279
 51
35.797721
  0
ARC
  5
280
100
AcDbEntity
  8
本体
  6
EXLTYPE4
 62
     6
100
AcDbCircle
 10
-686.022461
 20
1163.957401
 30
0.0
 40
24.94499
100
AcDbArc
 50
141.868279
 51
215.797721
  0
LINE
  5
281
100
AcDbEntity
  8
本体
  6
EXLTYPE4
 62
     6
100
AcDbLine
 10
-983.110823
 20
1155.006219
 30
0.0
 11
-706.25502
 21
1149.366442
 31
0.0
  0
LINE
  5
282
100
AcDbEntity
  8
本体
  6
EXLTYPE4
 62
     6
100
AcDbLine
 10
-981.889177
 20
1214.993781
 30
0.0
 11
-705.033025
 21
1209.353997
 31
0.0
  0
LINE
  5
283
100
AcDbEntity
  8
本体
  6
EXLTYPE4
 62
     6
100
AcDbLine
 10
-979.945665
 20
1184.947966
 30
0.0
 11
-661.9
 21
1184.947966
 31
0.0
  0
LINE
  5
284
100
AcDbEntity
  8
本体
  6
EXLTYPE3
 62
     6
100
AcDbLine
 10
-1029.441725
 20
1185.956241
 30
0.0
 11
-661.81816
 21
1178.467451
 31
0.0
  0
ARC
  5
285
100
AcDbEntity
  8
本体
  6
CONTINUOUS
 62
     2
100
AcDbCircle
 10
-1012.0
 20
1253.0
 30
0.0
 40
5.0
100
AcDbArc
 50
270.0
 51
0.0
  0
TEXT
  5
286
100
AcDbEntity
  8
本体
  6
CONTINUOUS
 62
     2
100
AcDbText
 10
-1097.268963
 20
1046.333343
 30
0.0
 40
40.0
  1
ＶＵ５０
 41
0.819
  7
EXCADSTD
 72
     5
 11
-941.268963
 21
1046.333343
 31
0.0
100
AcDbText
  0
LEADER
  5
287
100
AcDbEntity
  8
本体
  6
CONTINUOUS
 62
     6
100
AcDbLeader
  3
STANDARD
 73
     3
 74
     1
 75
     0
 40
0.0
 76
     3
 10
-873.885287
 20
1152.781206
 30
0.0
 10
-936.268963
 20
1042.833343
 30
0.0
 10
-1113.38563
 20
1042.833343
 30
0.0
 77
     6
1001
ACAD
1000
DSTYLE
1002
{
1070
    41
1040
35.0
1070
     5
1000
_EX_NORM
1070
     6
1000
_EX_NORM
1070
     7
1000
_EX_NORM
1070
   341
1005
2C
1002
}
  0
LINE
  5
288
100
AcDbEntity
  8
本体
  6
CONTINUOUS
 62
     2
100
AcDbLine
 10
575.461552
 20
1544.087262
 30
0.0
 11
574.5
 21
1489.0
 31
0.0
  0
ARC
  5
289
100
AcDbEntity
  8
本体
  6
CONTINUOUS
 62
     2
100
AcDbCircle
 10
580.46079
 20
1544.0
 30
0.0
 40
5.0
100
AcDbArc
 50
90.0
 51
179.0
  0
LINE
  5
28A
100
AcDbEntity
  8
本体
  6
CONTINUOUS
 62
     2
100
AcDbLine
 10
580.46079
 20
1549.0
 30
0.0
 11
1208.53921
 21
1549.0
 31
0.0
  0
ARC
  5
28B
100
AcDbEntity
  8
本体
  6
CONTINUOUS
 62
     2
100
AcDbCircle
 10
1208.53921
 20
1544.0
 30
0.0
 40
5.0
100
AcDbArc
 50
1.0
 51
90.0
  0
LINE
  5
28C
100
AcDbEntity
  8
本体
  6
CONTINUOUS
 62
     2
100
AcDbLine
 10
1213.538448
 20
1544.087262
 30
0.0
 11
1214.5
 21
1489.0
 31
0.0
  0
ARC
  5
28D
100
AcDbEntity
  8
本体
  6
CONTINUOUS
 62
     2
100
AcDbCircle
 10
627.0
 20
1489.0
 30
0.0
 40
5.0
100
AcDbArc
 50
180.0
 51
270.0
  0
LINE
  5
28E
100
AcDbEntity
  8
本体
  6
CONTINUOUS
 62
     6
100
AcDbLine
 10
638.997998
 20
1464.223811
 30
0.0
 11
637.851499
 21
1465.200547
 31
0.0
  0
ARC
  5
28F
100
AcDbEntity
  8
本体
  6
CONTINUOUS
 62
     6
100
AcDbCircle
 10
638.5
 20
1465.961761
 30
0.0
 40
1.0
100
AcDbArc
 50
180.0
 51
229.571333
  0
ARC
  5
290
100
AcDbEntity
  8
本体
  6
CONTINUOUS
 62
     2
100
AcDbCircle
 10
768.0
 20
1489.0
 30
0.0
 40
5.0
100
AcDbArc
 50
270.0
 51
0.0
  0
LINE
  5
291
100
AcDbEntity
  8
本体
  6
EXLTYPE7
 62
     6
100
AcDbLine
 10
1224.2
 20
2151.488263
 30
0.0
 11
560.6
 21
2151.488263
 31
0.0
  0
LINE
  5
292
100
AcDbEntity
  8
本体
  6
CONTINUOUS
 62
     2
100
AcDbLine
 10
574.5
 20
1841.488263
 30
0.0
 11
574.5
 21
2461.488263
 31
0.0
  0
LINE
  5
293
100
AcDbEntity
  8
本体
  6
CONTINUOUS
 62
     2
100
AcDbLine
 10
1214.5
 20
1841.488263
 30
0.0
 11
1214.5
 21
2461.488263
 31
0.0
  0
LINE
  5
294
100
AcDbEntity
  8
本体
  6
CONTINUOUS
 62
     2
100
AcDbLine
 10
1204.5
 20
2471.488263
 30
0.0
 11
584.5
 21
2471.488263
 31
0.0
  0
LINE
  5
295
100
AcDbEntity
  8
本体
  6
CONTINUOUS
 62
     2
100
AcDbLine
 10
1204.5
 20
1831.488263
 30
0.0
 11
584.5
 21
1831.488263
 31
0.0
  0
ARC
  5
296
100
AcDbEntity
  8
本体
  6
CONTINUOUS
 62
     2
100
AcDbCircle
 10
1204.5
 20
2461.488263
 30
0.0
 40
10.0
100
AcDbArc
 50
0.0
 51
90.0
  0
ARC
  5
297
100
AcDbEntity
  8
本体
  6
CONTINUOUS
 62
     2
100
AcDbCircle
 10
584.5
 20
1841.488263
 30
0.0
 40
10.0
100
AcDbArc
 50
180.0
 51
270.0
  0
ARC
  5
298
100
AcDbEntity
  8
本体
  6
CONTINUOUS
 62
     2
100
AcDbCircle
 10
1204.5
 20
1841.488263
 30
0.0
 40
10.0
100
AcDbArc
 50
270.0
 51
0.0
  0
ARC
  5
299
100
AcDbEntity
  8
本体
  6
CONTINUOUS
 62
     2
100
AcDbCircle
 10
584.5
 20
2461.488263
 30
0.0
 40
10.0
100
AcDbArc
 50
90.0
 51
180.0
  0
CIRCLE
  5
29A
100
AcDbEntity
  8
本体
  6
CONTINUOUS
 62
     6
100
AcDbCircle
 10
697.5
 20
2151.488263
 30
0.0
 40
72.0
  0
CIRCLE
  5
29B
100
AcDbEntity
  8
本体
  6
CONTINUOUS
 62
     6
100
AcDbCircle
 10
697.5
 20
2151.488263
 30
0.0
 40
71.000003
  0
ELLIPSE
  5
29C
100
AcDbEntity
  8
本体
  6
CONTINUOUS
 62
     6
100
AcDbEllipse
 10
745.634936
 20
2151.488263
 30
0.0
 11
0.0000000000000137
 21
-19.499999999999993
 31
0.0
210
0.0
220
0.0
230
1.0
 40
0.258819
 41
0.0
 42
6.2831853071796004
  0
LINE
  5
29D
100
AcDbEntity
  8
本体
  6
CONTINUOUS
 62
     6
100
AcDbLine
 10
710.413214
 20
2154.488263
 30
0.0
 11
710.413214
 21
2148.488263
 31
0.0
  0
LINE
  5
29E
100
AcDbEntity
  8
本体
  6
CONTINUOUS
 62
     6
100
AcDbLine
 10
710.413214
 20
2154.488263
 30
0.0
 11
728.091014
 21
2154.488263
 31
0.0
  0
LINE
  5
29F
100
AcDbEntity
  8
本体
  6
CONTINUOUS
 62
     6
100
AcDbLine
 10
710.413214
 20
2148.488263
 30
0.0
 11
728.091014
 21
2148.488263
 31
0.0
  0
ELLIPSE
  5
2A0
100
AcDbEntity
  8
本体
  6
CONTINUOUS
 62
     6
100
AcDbEllipse
 10
730.180123
 20
2151.488263
 30
0.0
 11
0.0000000000000137
 21
-19.499999999999993
 31
0.0
210
0.0
220
0.0
230
1.0
 40
0.258819
 41
3.1415926535897931
 42
4.5579293819006477
  0
LINE
  5
2A1
100
AcDbEntity
  8
本体
  6
CONTINUOUS
 62
     6
100
AcDbLine
 10
742.737158
 20
2170.988263
 30
0.0
 11
745.634936
 21
2170.988263
 31
0.0
  0
ELLIPSE
  5
2A2
100
AcDbEntity
  8
本体
  6
CONTINUOUS
 62
     6
100
AcDbEllipse
 10
742.737158
 20
2151.488263
 30
0.0
 11
0.0000000000000137
 21
-19.499999999999993
 31
0.0
210
0.0
220
0.0
230
1.0
 40
0.258819
 41
3.1415926535897931
 42
0.0
  0
LINE
  5
2A3
100
AcDbEntity
  8
本体
  6
CONTINUOUS
 62
     6
100
AcDbLine
 10
734.407529
 20
2171.136203
 30
0.0
 11
741.407529
 21
2171.136203
 31
0.0
  0
ELLIPSE
  5
2A4
100
AcDbEntity
  8
本体
  6
CONTINUOUS
 62
     6
100
AcDbEllipse
 10
745.634936
 20
2151.488263
 30
0.0
 11
0.0000000000000116
 21
-16.500000000000004
 31
0.0
210
0.0
220
0.0
230
1.0
 40
0.258819
 41
0.0
 42
6.2831853071796004
  0
LINE
  5
2A5
100
AcDbEntity
  8
本体
  6
CONTINUOUS
 62
     6
100
AcDbLine
 10
730.180123
 20
2170.988263
 30
0.0
 11
733.0779
 21
2170.988263
 31
0.0
  0
LINE
  5
2A6
100
AcDbEntity
  8
本体
  6
CONTINUOUS
 62
     6
100
AcDbLine
 10
732.69479
 20
2169.988263
 30
0.0
 11
731.482432
 21
2169.988263
 31
0.0
  0
LINE
  5
2A7
100
AcDbEntity
  8
本体
  6
CONTINUOUS
 62
     6
100
AcDbLine
 10
720.030929
 20
2148.488263
 30
0.0
 11
720.030929
 21
2154.488263
 31
0.0
  0
LINE
  5
2A8
100
AcDbEntity
  8
本体
  6
CONTINUOUS
 62
     6
100
AcDbLine
 10
741.141691
 20
2169.988263
 30
0.0
 11
740.44309
 21
2169.988263
 31
0.0
  0
LINE
  5
2A9
100
AcDbEntity
  8
本体
  6
CONTINUOUS
 62
     6
100
AcDbLine
 10
742.737158
 20
2131.988263
 30
0.0
 11
745.634936
 21
2131.988263
 31
0.0
  0
LINE
  5
2AA
100
AcDbEntity
  8
本体
  6
CONTINUOUS
 62
     6
100
AcDbLine
 10
732.69479
 20
2132.988263
 30
0.0
 11
731.482432
 21
2132.988263
 31
0.0
  0
LINE
  5
2AB
100
AcDbEntity
  8
本体
  6
CONTINUOUS
 62
     6
100
AcDbLine
 10
741.141691
 20
2132.988263
 30
0.0
 11
740.44309
 21
2132.988263
 31
0.0
  0
ARC
  5
2AC
100
AcDbEntity
  8
本体
  6
CONTINUOUS
 62
     6
100
AcDbCircle
 10
697.5
 20
2151.488263
 30
0.0
 40
17.0
100
AcDbArc
 50
120.139088
 51
239.860912
  0
ARC
  5
2AD
100
AcDbEntity
  8
本体
  6
CONTINUOUS
 62
     6
100
AcDbCircle
 10
697.5
 20
2151.488263
 30
0.0
 40
19.0
100
AcDbArc
 50
84.715267
 51
275.284733
  0
ARC
  5
2AE
100
AcDbEntity
  8
本体
  6
CONTINUOUS
 62
     6
100
AcDbCircle
 10
697.5
 20
2151.488263
 30
0.0
 40
19.5
100
AcDbArc
 50
76.997176
 51
283.342364
  0
ELLIPSE
  5
2AF
100
AcDbEntity
  8
本体
  6
CONTINUOUS
 62
     6
100
AcDbEllipse
 10
734.407529
 20
2151.488263
 30
0.0
 11
0.0000000000000012
 21
19.647939461319989
 31
0.0
210
0.0
220
0.0
230
1.0
 40
0.258819
 41
0.0000000000000007
 42
3.1722900573009816
  0
LINE
  5
2B0
100
AcDbEntity
  8
本体
  6
CONTINUOUS
 62
     6
100
AcDbLine
 10
734.407529
 20
2131.840324
 30
0.0
 11
741.407529
 21
2131.840324
 31
0.0
  0
LINE
  5
2B1
100
AcDbEntity
  8
本体
  6
CONTINUOUS
 62
     6
100
AcDbLine
 10
730.180123
 20
2131.988263
 30
0.0
 11
733.784666
 21
2131.988263
 31
0.0
  0
ELLIPSE
  5
2B2
100
AcDbEntity
  8
本体
  6
CONTINUOUS
 62
     6
100
AcDbEllipse
 10
733.0779
 20
2151.488263
 30
0.0
 11
0.0000000000000012
 21
19.499999999999993
 31
0.0
210
0.0
220
0.0
230
1.0
 40
0.258819
 41
6.1801842312692976
 42
3.1415926535897958
  0
ELLIPSE
  5
2B3
100
AcDbEntity
  8
本体
  6
CONTINUOUS
 62
     6
100
AcDbEllipse
 10
730.180123
 20
2151.488263
 30
0.0
 11
0.0000000000000012
 21
19.499999999999993
 31
0.0
210
0.0
220
0.0
230
1.0
 40
0.258819
 41
1.7252559252789581
 42
3.1415926535897958
  0
LINE
  5
2B4
100
AcDbEntity
  8
本体
  6
CONTINUOUS
 62
     6
100
AcDbLine
 10
742.737158
 20
2131.988263
 30
0.0
 11
745.634936
 21
2131.988263
 31
0.0
  0
ELLIPSE
  5
2B5
100
AcDbEntity
  8
本体
  6
CONTINUOUS
 62
     6
100
AcDbEllipse
 10
741.407529
 20
2151.488263
 30
0.0
 11
0.0000000000000012
 21
19.647939461319989
 31
0.0
210
0.0
220
0.0
230
1.0
 40
0.258819
 41
6.1230797949452587
 42
3.2643850253334796
  0
LINE
  5
2B6
100
AcDbEntity
  8
本体
  6
CONTINUOUS
 62
     6
100
AcDbLine
 10
701.0
 20
2170.488263
 30
0.0
 11
729.044559
 21
2170.488263
 31
0.0
  0
LINE
  5
2B7
100
AcDbEntity
  8
本体
  6
CONTINUOUS
 62
     6
100
AcDbLine
 10
701.0
 20
2132.488263
 30
0.0
 11
729.044559
 21
2132.488263
 31
0.0
  0
ARC
  5
2B8
100
AcDbEntity
  8
本体
  6
CONTINUOUS
 62
     6
100
AcDbCircle
 10
701.0
 20
2151.488263
 30
0.0
 40
19.0
100
AcDbArc
 50
90.0
 51
270.0
  0
LINE
  5
2B9
100
AcDbEntity
  8
本体
  6
EXLTYPE3
 62
     6
100
AcDbLine
 10
697.5
 20
2074.0
 30
0.0
 11
697.5
 21
2236.0
 31
0.0
  0
CIRCLE
  5
2BA
100
AcDbEntity
  8
本体
  6
CONTINUOUS
 62
     6
100
AcDbCircle
 10
655.0
 20
2151.488263
 30
0.0
 40
3.5
  0
ARC
  5
2BB
100
AcDbEntity
  8
本体
  6
CONTINUOUS
 62
     6
100
AcDbCircle
 10
671.157317
 20
2163.615218
 30
0.0
 40
3.5
100
AcDbArc
 50
225.0
 51
45.0
  0
ARC
  5
2BC
100
AcDbEntity
  8
本体
  6
CONTINUOUS
 62
     6
100
AcDbCircle
 10
660.465504
 20
2174.30703
 30
0.0
 40
3.5
100
AcDbArc
 50
45.0
 51
225.0
  0
ARC
  5
2BD
100
AcDbEntity
  8
本体
  6
CONTINUOUS
 62
     6
100
AcDbCircle
 10
662.642136
 20
2157.988263
 30
0.0
 40
3.5
100
AcDbArc
 50
225.0
 51
45.0
  0
ARC
  5
2BE
100
AcDbEntity
  8
本体
  6
CONTINUOUS
 62
     6
100
AcDbCircle
 10
656.024861
 20
2164.605537
 30
0.0
 40
3.5
100
AcDbArc
 50
45.0
 51
225.0
  0
LINE
  5
2BF
100
AcDbEntity
  8
本体
  6
CONTINUOUS
 62
     6
100
AcDbLine
 10
657.990631
 20
2171.832157
 30
0.0
 11
668.682443
 21
2161.140344
 31
0.0
  0
LINE
  5
2C0
100
AcDbEntity
  8
本体
  6
CONTINUOUS
 62
     6
100
AcDbLine
 10
658.499735
 20
2167.080411
 30
0.0
 11
665.117009
 21
2160.463137
 31
0.0
  0
LINE
  5
2C1
100
AcDbEntity
  8
本体
  6
CONTINUOUS
 62
     6
100
AcDbLine
 10
653.549988
 20
2162.130664
 30
0.0
 11
660.167262
 21
2155.51339
 31
0.0
  0
ARC
  5
2C2
100
AcDbEntity
  8
本体
  6
CONTINUOUS
 62
     6
100
AcDbCircle
 10
685.272417
 20
2125.192138
 30
0.0
 40
3.5
100
AcDbArc
 50
315.0
 51
135.0
  0
ARC
  5
2C3
100
AcDbEntity
  8
本体
  6
CONTINUOUS
 62
     6
100
AcDbCircle
 10
674.590256
 20
2114.509977
 30
0.0
 40
3.5
100
AcDbArc
 50
135.0
 51
315.0
  0
ARC
  5
2C4
100
AcDbEntity
  8
本体
  6
CONTINUOUS
 62
     6
100
AcDbCircle
 10
676.95714
 20
2131.018996
 30
0.0
 40
3.5
100
AcDbArc
 50
315.0
 51
135.0
  0
ARC
  5
2C5
100
AcDbEntity
  8
本体
  6
CONTINUOUS
 62
     6
100
AcDbCircle
 10
666.70408
 20
2120.765937
 30
0.0
 40
3.5
100
AcDbArc
 50
135.0
 51
315.0
  0
ARC
  5
2C6
100
AcDbEntity
  8
本体
  6
CONTINUOUS
 62
     6
100
AcDbCircle
 10
671.157317
 20
2139.361309
 30
0.0
 40
3.5
100
AcDbArc
 50
315.0
 51
135.0
  0
ARC
  5
2C7
100
AcDbEntity
  8
本体
  6
CONTINUOUS
 62
     6
100
AcDbCircle
 10
660.465504
 20
2128.669496
 30
0.0
 40
3.5
100
AcDbArc
 50
135.0
 51
315.0
  0
ARC
  5
2C8
100
AcDbEntity
  8
本体
  6
CONTINUOUS
 62
     6
100
AcDbCircle
 10
662.642136
 20
2144.988263
 30
0.0
 40
3.5
100
AcDbArc
 50
315.0
 51
135.0
  0
ARC
  5
2C9
100
AcDbEntity
  8
本体
  6
CONTINUOUS
 62
     6
100
AcDbCircle
 10
656.024861
 20
2138.370989
 30
0.0
 40
3.5
100
AcDbArc
 50
135.0
 51
315.0
  0
LINE
  5
2CA
100
AcDbEntity
  8
本体
  6
CONTINUOUS
 62
     6
100
AcDbLine
 10
677.06513
 20
2112.035103
 30
0.0
 11
687.747291
 21
2122.717264
 31
0.0
  0
LINE
  5
2CB
100
AcDbEntity
  8
本体
  6
CONTINUOUS
 62
     6
100
AcDbLine
 10
672.115383
 20
2116.984851
 30
0.0
 11
682.797543
 21
2127.667012
 31
0.0
  0
LINE
  5
2CC
100
AcDbEntity
  8
本体
  6
CONTINUOUS
 62
     6
100
AcDbLine
 10
669.178954
 20
2118.291063
 30
0.0
 11
679.432014
 21
2128.544122
 31
0.0
  0
LINE
  5
2CD
100
AcDbEntity
  8
本体
  6
CONTINUOUS
 62
     6
100
AcDbLine
 10
664.229207
 20
2123.240811
 30
0.0
 11
674.482266
 21
2133.49387
 31
0.0
  0
LINE
  5
2CE
100
AcDbEntity
  8
本体
  6
CONTINUOUS
 62
     6
100
AcDbLine
 10
662.940378
 20
2126.194623
 30
0.0
 11
673.63219
 21
2136.886435
 31
0.0
  0
LINE
  5
2CF
100
AcDbEntity
  8
本体
  6
CONTINUOUS
 62
     6
100
AcDbLine
 10
657.990631
 20
2131.14437
 30
0.0
 11
668.682443
 21
2141.836182
 31
0.0
  0
LINE
  5
2D0
100
AcDbEntity
  8
本体
  6
CONTINUOUS
 62
     6
100
AcDbLine
 10
658.499735
 20
2135.896115
 30
0.0
 11
665.117009
 21
2142.51339
 31
0.0
  0
LINE
  5
2D1
100
AcDbEntity
  8
本体
  6
CONTINUOUS
 62
     6
100
AcDbLine
 10
653.549988
 20
2140.845863
 30
0.0
 11
660.167262
 21
2147.463137
 31
0.0
  0
CIRCLE
  5
2D2
100
AcDbEntity
  8
本体
  6
CONTINUOUS
 62
     6
100
AcDbCircle
 10
697.5
 20
2188.988263
 30
0.0
 40
7.5
  0
CIRCLE
  5
2D3
100
AcDbEntity
  8
本体
  6
CONTINUOUS
 62
     6
100
AcDbCircle
 10
709.930757
 20
2192.129699
 30
0.0
 40
3.5
  0
ARC
  5
2D4
100
AcDbEntity
  8
本体
  6
CONTINUOUS
 62
     6
100
AcDbCircle
 10
709.727583
 20
2177.784389
 30
0.0
 40
3.5
100
AcDbArc
 50
135.0
 51
315.0
  0
ARC
  5
2D5
100
AcDbEntity
  8
本体
  6
CONTINUOUS
 62
     6
100
AcDbCircle
 10
720.409744
 20
2188.466549
 30
0.0
 40
3.5
100
AcDbArc
 50
315.0
 51
135.0
  0
ARC
  5
2D6
100
AcDbEntity
  8
本体
  6
CONTINUOUS
 62
     6
100
AcDbCircle
 10
728.29592
 20
2182.21059
 30
0.0
 40
3.5
100
AcDbArc
 50
315.0
 51
135.0
  0
ARC
  5
2D7
100
AcDbEntity
  8
本体
  6
CONTINUOUS
 62
     6
100
AcDbCircle
 10
734.534496
 20
2174.30703
 30
0.0
 40
3.5
100
AcDbArc
 50
315.0
 51
135.0
  0
LINE
  5
2D8
100
AcDbEntity
  8
本体
  6
CONTINUOUS
 62
     6
100
AcDbLine
 10
717.93487
 20
2190.941423
 30
0.0
 11
707.252709
 21
2180.259262
 31
0.0
  0
LINE
  5
2D9
100
AcDbEntity
  8
本体
  6
CONTINUOUS
 62
     6
100
AcDbLine
 10
722.884617
 20
2185.991676
 30
0.0
 11
712.202457
 21
2175.309515
 31
0.0
  0
LINE
  5
2DA
100
AcDbEntity
  8
本体
  6
CONTINUOUS
 62
     6
100
AcDbLine
 10
725.821046
 20
2184.685463
 30
0.0
 11
715.567986
 21
2174.432404
 31
0.0
  0
CIRCLE
  5
2DB
100
AcDbEntity
  8
本体
  6
CONTINUOUS
 62
     6
100
AcDbCircle
 10
685.069243
 20
2192.129699
 30
0.0
 40
3.5
  0
ARC
  5
2DC
100
AcDbEntity
  8
本体
  6
CONTINUOUS
 62
     6
100
AcDbCircle
 10
685.272417
 20
2177.784389
 30
0.0
 40
3.5
100
AcDbArc
 50
225.0
 51
45.0
  0
ARC
  5
2DD
100
AcDbEntity
  8
本体
  6
CONTINUOUS
 62
     6
100
AcDbCircle
 10
674.590256
 20
2188.466549
 30
0.0
 40
3.5
100
AcDbArc
 50
45.0
 51
225.0
  0
ARC
  5
2DE
100
AcDbEntity
  8
本体
  6
CONTINUOUS
 62
     6
100
AcDbCircle
 10
676.95714
 20
2171.95753
 30
0.0
 40
3.5
100
AcDbArc
 50
225.0
 51
45.0
  0
ARC
  5
2DF
100
AcDbEntity
  8
本体
  6
CONTINUOUS
 62
     6
100
AcDbCircle
 10
666.70408
 20
2182.21059
 30
0.0
 40
3.5
100
AcDbArc
 50
45.0
 51
225.0
  0
LINE
  5
2E0
100
AcDbEntity
  8
本体
  6
CONTINUOUS
 62
     6
100
AcDbLine
 10
677.06513
 20
2190.941423
 30
0.0
 11
687.747291
 21
2180.259262
 31
0.0
  0
LINE
  5
2E1
100
AcDbEntity
  8
本体
  6
CONTINUOUS
 62
     6
100
AcDbLine
 10
672.115383
 20
2185.991676
 30
0.0
 11
682.797543
 21
2175.309515
 31
0.0
  0
LINE
  5
2E2
100
AcDbEntity
  8
本体
  6
CONTINUOUS
 62
     6
100
AcDbLine
 10
669.178954
 20
2184.685463
 30
0.0
 11
679.432014
 21
2174.432404
 31
0.0
  0
LINE
  5
2E3
100
AcDbEntity
  8
本体
  6
CONTINUOUS
 62
     6
100
AcDbLine
 10
664.229207
 20
2179.735716
 30
0.0
 11
674.482266
 21
2169.482657
 31
0.0
  0
LINE
  5
2E4
100
AcDbEntity
  8
本体
  6
CONTINUOUS
 62
     6
100
AcDbLine
 10
662.940378
 20
2176.781904
 30
0.0
 11
673.63219
 21
2166.090092
 31
0.0
  0
LINE
  5
2E5
100
AcDbEntity
  8
本体
  6
CONTINUOUS
 62
     6
100
AcDbLine
 10
699.0
 20
2196.336733
 30
0.0
 11
699.0
 21
2181.639794
 31
0.0
  0
LINE
  5
2E6
100
AcDbEntity
  8
本体
  6
CONTINUOUS
 62
     6
100
AcDbLine
 10
696.0
 20
2196.336733
 30
0.0
 11
696.0
 21
2181.639794
 31
0.0
  0
CIRCLE
  5
2E7
100
AcDbEntity
  8
本体
  6
CONTINUOUS
 62
     6
100
AcDbCircle
 10
697.5
 20
2113.988263
 30
0.0
 40
7.5
  0
CIRCLE
  5
2E8
100
AcDbEntity
  8
本体
  6
CONTINUOUS
 62
     6
100
AcDbCircle
 10
685.069243
 20
2110.846828
 30
0.0
 40
3.5
  0
LINE
  5
2E9
100
AcDbEntity
  8
本体
  6
CONTINUOUS
 62
     6
100
AcDbLine
 10
699.0
 20
2106.639794
 30
0.0
 11
699.0
 21
2121.336733
 31
0.0
  0
LINE
  5
2EA
100
AcDbEntity
  8
本体
  6
CONTINUOUS
 62
     6
100
AcDbLine
 10
696.0
 20
2106.639794
 30
0.0
 11
696.0
 21
2121.336733
 31
0.0
  0
ARC
  5
2EB
100
AcDbEntity
  8
本体
  6
CONTINUOUS
 62
     6
100
AcDbCircle
 10
709.727583
 20
2125.192138
 30
0.0
 40
3.5
100
AcDbArc
 50
45.0
 51
225.0
  0
ARC
  5
2EC
100
AcDbEntity
  8
本体
  6
CONTINUOUS
 62
     6
100
AcDbCircle
 10
728.29592
 20
2120.765937
 30
0.0
 40
3.5
100
AcDbArc
 50
225.0
 51
45.0
  0
LINE
  5
2ED
100
AcDbEntity
  8
本体
  6
CONTINUOUS
 62
     6
100
AcDbLine
 10
722.884617
 20
2116.984851
 30
0.0
 11
712.202457
 21
2127.667012
 31
0.0
  0
LINE
  5
2EE
100
AcDbEntity
  8
本体
  6
CONTINUOUS
 62
     6
100
AcDbLine
 10
725.821046
 20
2118.291063
 30
0.0
 11
715.567986
 21
2128.544122
 31
0.0
  0
CIRCLE
  5
2EF
100
AcDbEntity
  8
本体
  6
CONTINUOUS
 62
     6
100
AcDbCircle
 10
709.930757
 20
2110.846828
 30
0.0
 40
3.5
  0
ARC
  5
2F0
100
AcDbEntity
  8
本体
  6
CONTINUOUS
 62
     6
100
AcDbCircle
 10
720.409744
 20
2114.509977
 30
0.0
 40
3.5
100
AcDbArc
 50
225.0
 51
45.0
  0
LINE
  5
2F1
100
AcDbEntity
  8
本体
  6
CONTINUOUS
 62
     6
100
AcDbLine
 10
717.93487
 20
2112.035103
 30
0.0
 11
707.252709
 21
2122.717264
 31
0.0
  0
ARC
  5
2F2
100
AcDbEntity
  8
本体
  6
CONTINUOUS
 62
     6
100
AcDbCircle
 10
697.5
 20
2151.488263
 30
0.0
 40
53.0
100
AcDbArc
 50
21.759772
 51
337.946581
  0
ARC
  5
2F3
100
AcDbEntity
  8
本体
  6
CONTINUOUS
 62
     6
100
AcDbCircle
 10
718.04286
 20
2171.95753
 30
0.0
 40
3.5
100
AcDbArc
 50
135.0
 51
204.821367
  0
LINE
  5
2F4
100
AcDbEntity
  8
本体
  6
CONTINUOUS
 62
     6
100
AcDbLine
 10
730.770793
 20
2179.735716
 30
0.0
 11
721.523341
 21
2170.488263
 31
0.0
  0
LINE
  5
2F5
100
AcDbEntity
  8
本体
  6
CONTINUOUS
 62
     6
100
AcDbLine
 10
732.059622
 20
2176.781904
 30
0.0
 11
725.765981
 21
2170.488263
 31
0.0
  0
LINE
  5
2F6
100
AcDbEntity
  8
本体
  6
CONTINUOUS
 62
     6
100
AcDbLine
 10
737.009369
 20
2171.832157
 30
0.0
 11
736.313416
 21
2171.136203
 31
0.0
  0
ARC
  5
2F7
100
AcDbEntity
  8
本体
  6
CONTINUOUS
 62
     6
100
AcDbCircle
 10
734.534496
 20
2128.669496
 30
0.0
 40
3.5
100
AcDbArc
 50
225.0
 51
45.0
  0
LINE
  5
2F8
100
AcDbEntity
  8
本体
  6
CONTINUOUS
 62
     6
100
AcDbLine
 10
737.009369
 20
2131.14437
 30
0.0
 11
736.313416
 21
2131.840324
 31
0.0
  0
LINE
  5
2F9
100
AcDbEntity
  8
本体
  6
CONTINUOUS
 62
     6
100
AcDbLine
 10
732.059622
 20
2126.194623
 30
0.0
 11
725.765981
 21
2132.488263
 31
0.0
  0
LINE
  5
2FA
100
AcDbEntity
  8
本体
  6
CONTINUOUS
 62
     6
100
AcDbLine
 10
730.770793
 20
2123.240811
 30
0.0
 11
721.523341
 21
2132.488263
 31
0.0
  0
ARC
  5
2FB
100
AcDbEntity
  8
本体
  6
CONTINUOUS
 62
     6
100
AcDbCircle
 10
718.04286
 20
2131.018996
 30
0.0
 40
3.5
100
AcDbArc
 50
155.178633
 51
225.0
  0
LINE
  5
2FC
100
AcDbEntity
  8
本体
  6
CONTINUOUS
 62
     6
100
AcDbLine
 10
747.5
 20
1389.0
 30
0.0
 11
747.5
 21
1386.891025
 31
0.0
  0
ARC
  5
2FD
100
AcDbEntity
  8
本体
  6
CONTINUOUS
 62
     6
100
AcDbCircle
 10
748.5
 20
1386.891025
 30
0.0
 40
1.0
100
AcDbArc
 50
180.0
 51
268.833333
  0
LINE
  5
2FE
100
AcDbEntity
  8
本体
  6
CONTINUOUS
 62
     6
100
AcDbLine
 10
727.5
 20
1392.0
 30
0.0
 11
748.218906
 21
1385.931345
 31
0.0
  0
ARC
  5
2FF
100
AcDbEntity
  8
本体
  6
CONTINUOUS
 62
     6
100
AcDbCircle
 10
744.5
 20
1389.0
 30
0.0
 40
3.0
100
AcDbArc
 50
0.0
 51
90.0
  0
LINE
  5
300
100
AcDbEntity
  8
本体
  6
CONTINUOUS
 62
     6
100
AcDbLine
 10
748.479639
 20
1385.891232
 30
0.0
 11
796.305802
 21
1384.917253
 31
0.0
  0
LINE
  5
301
100
AcDbEntity
  8
本体
  6
CONTINUOUS
 62
     6
100
AcDbLine
 10
796.815878
 20
1385.406969
 30
0.0
 11
797.5
 21
1419.0
 31
0.0
  0
LINE
  5
302
100
AcDbEntity
  8
本体
  6
CONTINUOUS
 62
     6
100
AcDbLine
 10
798.184122
 20
1452.593037
 30
0.0
 11
797.5
 21
1419.0
 31
0.0
  0
ARC
  5
303
100
AcDbEntity
  8
本体
  6
CONTINUOUS
 62
     6
100
AcDbCircle
 10
797.684225
 20
1452.603217
 30
0.0
 40
0.5
100
AcDbArc
 50
358.833333
 51
88.833333
  0
LINE
  5
304
100
AcDbEntity
  8
本体
  6
CONTINUOUS
 62
     6
100
AcDbLine
 10
665.586332
 20
1392.0
 30
0.0
 11
697.5
 21
1392.0
 31
0.0
  0
LINE
  5
305
100
AcDbEntity
  8
本体
  6
CONTINUOUS
 62
     6
100
AcDbLine
 10
650.595557
 20
1406.474008
 30
0.0
 11
649.876083
 21
1426.979024
 31
0.0
  0
LINE
  5
306
100
AcDbEntity
  8
本体
  6
CONTINUOUS
 62
     6
100
AcDbLine
 10
640.428188
 20
1438.442928
 30
0.0
 11
640.052039
 21
1459.992526
 31
0.0
  0
ARC
  5
307
100
AcDbEntity
  8
本体
  6
CONTINUOUS
 62
     6
100
AcDbCircle
 10
649.426818
 20
1438.6
 30
0.0
 40
9.0
100
AcDbArc
 50
181.0
 51
257.736526
  0
ARC
  5
308
100
AcDbEntity
  8
本体
  6
CONTINUOUS
 62
     6
100
AcDbCircle
 10
637.052496
 20
1459.940169
 30
0.0
 40
3.0
100
AcDbArc
 50
1.0
 51
49.571333
  0
ARC
  5
309
100
AcDbEntity
  8
本体
  6
CONTINUOUS
 62
     6
100
AcDbCircle
 10
665.586332
 20
1407.0
 30
0.0
 40
15.0
100
AcDbArc
 50
182.009554
 51
270.0
  0
ARC
  5
30A
100
AcDbEntity
  8
本体
  6
CONTINUOUS
 62
     6
100
AcDbCircle
 10
646.877928
 20
1426.873826
 30
0.0
 40
3.0
100
AcDbArc
 50
2.009554
 51
77.736526
  0
LINE
  5
30B
100
AcDbEntity
  8
本体
  6
CONTINUOUS
 62
     6
100
AcDbLine
 10
697.5
 20
1392.0
 30
0.0
 11
744.5
 21
1392.0
 31
0.0
  0
LINE
  5
30C
100
AcDbEntity
  8
本体
  6
EXLTYPE7
 62
     6
100
AcDbLine
 10
750.683584
 20
1419.0
 30
0.0
 11
799.631007
 21
1419.0
 31
0.0
  0
ARC
  5
30D
100
AcDbEntity
  8
本体
  6
CONTINUOUS
 62
     6
100
AcDbCircle
 10
796.315982
 20
1385.41715
 30
0.0
 40
0.5
100
AcDbArc
 50
268.833333
 51
358.833333
  0
ARC
  5
30E
100
AcDbEntity
  8
本体
  6
EXLTYPE4
 62
     6
100
AcDbCircle
 10
1054.734415
 20
1428.763039
 30
0.0
 40
24.94499
100
AcDbArc
 50
321.868279
 51
35.797721
  0
ARC
  5
30F
100
AcDbEntity
  8
本体
  6
EXLTYPE4
 62
     6
100
AcDbCircle
 10
1054.123418
 20
1398.769261
 30
0.0
 40
24.94499
100
AcDbArc
 50
321.868279
 51
35.797721
  0
ARC
  5
310
100
AcDbEntity
  8
本体
  6
EXLTYPE4
 62
     6
100
AcDbCircle
 10
1093.977539
 20
1397.957401
 30
0.0
 40
24.94499
100
AcDbArc
 50
141.868279
 51
215.797721
  0
LINE
  5
311
100
AcDbEntity
  8
本体
  6
EXLTYPE4
 62
     6
100
AcDbLine
 10
796.889177
 20
1389.006219
 30
0.0
 11
1073.74498
 21
1383.366442
 31
0.0
  0
LINE
  5
312
100
AcDbEntity
  8
本体
  6
EXLTYPE4
 62
     6
100
AcDbLine
 10
798.110823
 20
1448.993781
 30
0.0
 11
1074.966975
 21
1443.353997
 31
0.0
  0
LINE
  5
313
100
AcDbEntity
  8
本体
  6
EXLTYPE4
 62
     6
100
AcDbLine
 10
800.054335
 20
1418.947966
 30
0.0
 11
1118.1
 21
1418.947966
 31
0.0
  0
LINE
  5
314
100
AcDbEntity
  8
本体
  6
EXLTYPE3
 62
     6
100
AcDbLine
 10
750.558275
 20
1419.956241
 30
0.0
 11
1118.18184
 21
1412.467451
 31
0.0
  0
LINE
  5
315
100
AcDbEntity
  8
本体
  6
CONTINUOUS
 62
     6
100
AcDbLine
 10
641.420514
 20
1434.489147
 30
0.0
 11
683.872535
 21
1448.403129
 31
0.0
  0
LINE
  5
316
100
AcDbEntity
  8
本体
  6
CONTINUOUS
 62
     6
100
AcDbLine
 10
648.884185
 20
1429.104281
 30
0.0
 11
681.7558
 21
1447.47513
 31
0.0
  0
ARC
  5
317
100
AcDbEntity
  8
本体
  6
CONTINUOUS
 62
     6
100
AcDbCircle
 10
687.61
 20
1437.0
 30
0.0
 40
12.0
100
AcDbArc
 50
21.429881
 51
119.199367
  0
LINE
  5
318
100
AcDbEntity
  8
本体
  6
CONTINUOUS
 62
     6
100
AcDbLine
 10
763.767168
 20
1453.794041
 30
0.0
 11
797.694406
 21
1453.103113
 31
0.0
  0
ARC
  5
319
100
AcDbEntity
  8
本体
  6
CONTINUOUS
 62
     6
100
AcDbCircle
 10
763.897425
 20
1460.19014
 30
0.0
 40
6.397425
100
AcDbArc
 50
180.0
 51
268.833333
  0
ARC
  5
31A
100
AcDbEntity
  8
本体
  6
CONTINUOUS
 62
     6
100
AcDbCircle
 10
775.366266
 20
1465.483538
 30
0.0
 40
80.26307
100
AcDbArc
 50
197.982163
 51
244.831224
  0
ARC
  5
31B
100
AcDbEntity
  8
本体
  6
CONTINUOUS
 62
     6
100
AcDbCircle
 10
745.436551
 20
1401.78958
 30
0.0
 40
9.887591
100
AcDbArc
 50
244.831224
 51
268.942759
  0
ARC
  5
31C
100
AcDbEntity
  8
本体
  6
CONTINUOUS
 62
     6
100
AcDbCircle
 10
848.737049
 20
1404.640928
 30
0.0
 40
102.404166
100
AcDbArc
 50
152.466741
 51
187.19765
  0
LINE
  5
31D
100
AcDbEntity
  8
本体
  6
CONTINUOUS
 62
     6
100
AcDbLine
 10
768.5
 20
1482.0
 30
0.0
 11
768.5
 21
1478.957292
 31
0.0
  0
ARC
  5
31E
100
AcDbEntity
  8
本体
  6
CONTINUOUS
 62
     6
100
AcDbCircle
 10
767.5
 20
1478.957292
 30
0.0
 40
1.0
100
AcDbArc
 50
272.5
 51
0.0
  0
LINE
  5
31F
100
AcDbEntity
  8
本体
  6
CONTINUOUS
 62
     6
100
AcDbLine
 10
635.587239
 20
1477.603243
 30
0.0
 11
627.456381
 21
1477.958244
 31
0.0
  0
LINE
  5
320
100
AcDbEntity
  8
本体
  6
CONTINUOUS
 62
     6
100
AcDbLine
 10
626.5
 20
1482.0
 30
0.0
 11
626.5
 21
1478.957292
 31
0.0
  0
LINE
  5
321
100
AcDbEntity
  8
本体
  6
CONTINUOUS
 62
     6
100
AcDbLine
 10
637.5
 20
1475.605146
 30
0.0
 11
637.5
 21
1463.961761
 31
0.0
  0
LINE
  5
322
100
AcDbEntity
  8
本体
  6
CONTINUOUS
 62
     6
100
AcDbLine
 10
696.5
 20
1477.607453
 30
0.0
 11
696.5
 21
1470.818687
 31
0.0
  0
ARC
  5
323
100
AcDbEntity
  8
本体
  6
CONTINUOUS
 62
     6
100
AcDbCircle
 10
635.5
 20
1475.605146
 30
0.0
 40
2.0
100
AcDbArc
 50
0.0
 51
87.5
  0
ARC
  5
324
100
AcDbEntity
  8
本体
  6
CONTINUOUS
 62
     6
100
AcDbCircle
 10
627.5
 20
1478.957292
 30
0.0
 40
1.0
100
AcDbArc
 50
180.0
 51
267.5
  0
ARC
  5
325
100
AcDbEntity
  8
本体
  6
CONTINUOUS
 62
     6
100
AcDbCircle
 10
630.5
 20
1470.818687
 30
0.0
 40
7.0
100
AcDbArc
 50
0.0
 51
87.5
  0
ARC
  5
326
100
AcDbEntity
  8
本体
  6
CONTINUOUS
 62
     6
100
AcDbCircle
 10
696.0
 20
1477.607453
 30
0.0
 40
0.5
100
AcDbArc
 50
0.0
 51
90.125603
  0
ARC
  5
327
100
AcDbEntity
  8
本体
  6
CONTINUOUS
 62
     6
100
AcDbCircle
 10
764.5
 20
1470.818687
 30
0.0
 40
7.0
100
AcDbArc
 50
92.5
 51
180.0
  0
LINE
  5
328
100
AcDbEntity
  8
本体
  6
CONTINUOUS
 62
     6
100
AcDbLine
 10
757.5
 20
1470.818687
 30
0.0
 11
757.5
 21
1468.619307
 31
0.0
  0
LINE
  5
329
100
AcDbEntity
  8
本体
  6
CONTINUOUS
 62
     6
100
AcDbLine
 10
759.412761
 20
1477.603243
 30
0.0
 11
767.543619
 21
1477.958244
 31
0.0
  0
LINE
  5
32A
100
AcDbEntity
  8
本体
  6
CONTINUOUS
 62
     6
100
AcDbLine
 10
768.5
 20
1482.0
 30
0.0
 11
768.5
 21
1478.957292
 31
0.0
  0
ARC
  5
32B
100
AcDbEntity
  8
本体
  6
CONTINUOUS
 62
     6
100
AcDbCircle
 10
759.5
 20
1475.605146
 30
0.0
 40
2.0
100
AcDbArc
 50
92.5
 51
180.0
  0
ARC
  5
32C
100
AcDbEntity
  8
本体
  6
CONTINUOUS
 62
     6
100
AcDbCircle
 10
767.5
 20
1478.957292
 30
0.0
 40
1.0
100
AcDbArc
 50
272.5
 51
0.0
  0
LINE
  5
32D
100
AcDbEntity
  8
本体
  6
CONTINUOUS
 62
     6
100
AcDbLine
 10
768.5
 20
1482.0
 30
0.0
 11
626.5
 21
1482.0
 31
0.0
  0
LINE
  5
32E
100
AcDbEntity
  8
本体
  6
CONTINUOUS
 62
     6
100
AcDbLine
 10
768.222364
 20
1478.265779
 30
0.0
 11
627.502192
 21
1477.957294
 31
0.0
  0
LINE
  5
32F
100
AcDbEntity
  8
本体
  6
CONTINUOUS
 62
     6
100
AcDbLine
 10
698.5
 20
1477.607453
 30
0.0
 11
698.5
 21
1470.818687
 31
0.0
  0
ARC
  5
330
100
AcDbEntity
  8
本体
  6
CONTINUOUS
 62
     6
100
AcDbCircle
 10
699.0
 20
1477.607453
 30
0.0
 40
0.5
100
AcDbArc
 50
89.874397
 51
180.0
  0
LINE
  5
331
100
AcDbEntity
  8
本体
  6
CONTINUOUS
 62
     6
100
AcDbLine
 10
635.587239
 20
1477.603243
 30
0.0
 11
696.5
 21
1477.603243
 31
0.0
  0
LINE
  5
332
100
AcDbEntity
  8
本体
  6
CONTINUOUS
 62
     6
100
AcDbLine
 10
698.5
 20
1477.603243
 30
0.0
 11
759.412762
 21
1477.603243
 31
0.0
  0
ARC
  5
333
100
AcDbEntity
  8
本体
  6
CONTINUOUS
 62
     6
100
AcDbCircle
 10
772.5
 20
1468.619307
 30
0.0
 40
15.0
100
AcDbArc
 50
180.0
 51
268.833333
  0
LINE
  5
334
100
AcDbEntity
  8
本体
  6
CONTINUOUS
 62
     6
100
AcDbLine
 10
757.5
 20
1475.605146
 30
0.0
 11
757.5
 21
1460.19014
 31
0.0
  0
LINE
  5
335
100
AcDbEntity
  8
本体
  6
CONTINUOUS
 62
     6
100
AcDbLine
 10
637.5
 20
1463.5
 30
0.0
 11
757.6
 21
1463.5
 31
0.0
  0
LINE
  5
336
100
AcDbEntity
  8
本体
  6
CONTINUOUS
 62
     6
100
AcDbLine
 10
639.859052
 20
1461.0
 30
0.0
 11
757.194782
 21
1461.0
 31
0.0
  0
LINE
  5
337
100
AcDbEntity
  8
本体
  6
CONTINUOUS
 62
     2
100
AcDbLine
 10
627.0
 20
1484.0
 30
0.0
 11
768.0
 21
1484.0
 31
0.0
  0
ARC
  5
338
100
AcDbEntity
  8
本体
  6
CONTINUOUS
 62
     6
100
AcDbCircle
 10
637.5
 20
1484.5
 30
0.0
 40
2.5
100
AcDbArc
 50
263.383262
 51
270.0
  0
LINE
  5
339
100
AcDbEntity
  8
本体
  6
CONTINUOUS
 62
     6
100
AcDbLine
 10
637.211932
 20
1482.016652
 30
0.0
 11
627.384773
 21
1483.156603
 31
0.0
  0
ARC
  5
33A
100
AcDbEntity
  8
本体
  6
CONTINUOUS
 62
     6
100
AcDbCircle
 10
627.5
 20
1484.149942
 30
0.0
 40
1.0
100
AcDbArc
 50
187.219409
 51
263.383262
  0
LINE
  5
33B
100
AcDbEntity
  8
本体
  6
CONTINUOUS
 62
     6
100
AcDbLine
 10
627.5
 20
1483.149942
 30
0.0
 11
697.5
 21
1483.149942
 31
0.0
  0
ARC
  5
33C
100
AcDbEntity
  8
本体
  6
CONTINUOUS
 62
     6
100
AcDbCircle
 10
767.5
 20
1484.149942
 30
0.0
 40
1.0
100
AcDbArc
 50
276.616738
 51
352.780591
  0
LINE
  5
33D
100
AcDbEntity
  8
本体
  6
CONTINUOUS
 62
     6
100
AcDbLine
 10
757.788068
 20
1482.016652
 30
0.0
 11
767.615227
 21
1483.156603
 31
0.0
  0
DIMENSION
  5
349
100
AcDbEntity
  8
本体
  6
CONTINUOUS
 62
     2
100
AcDbDimension
  2
*D18
 10
1167.0
 20
1419.0
 30
0.0
 11
1143.5
 21
1454.0
 31
0.0
 70
   160
  1
74
  3
STANDARD
100
AcDbAlignedDimension
 13
1214.5
 23
1489.0
 33
0.0
 14
1093.8
 24
1419.0
 34
0.0
 50
90.0
100
AcDbRotatedDimension
1001
ACAD
1000
DSTYLE
1002
{
1070
     6
1000
_EX_NORM
1070
     7
1000
_EX_NORM
1070
    41
1040
30.0
1070
    42
1040
5.0
1070
    44
1040
10.0
1070
    73
1070
     0
1070
    74
1070
     0
1070
    75
1070
     0
1070
    76
1070
     0
1070
    77
1070
     1
1070
    78
1070
     8
1070
   140
1040
40.0
1070
   147
1040
3.5
1070
   173
1070
     1
1070
   176
1070
     3
1070
   177
1070
     3
1070
   178
1070
     2
1070
   271
1070
     2
1070
   279
1070
     2
1070
   280
1070
     0
1070
   287
1070
     5
1070
   340
1005
CD
1002
}
  0
LINE
  5
34A
100
AcDbEntity
  8
本体
  6
EXLTYPE7
 62
     6
100
AcDbLine
 10
697.5
 20
1501.0
 30
0.0
 11
697.5
 21
1387.8
 31
0.0
  0
ARC
  5
34B
100
AcDbEntity
  8
本体
  6
CONTINUOUS
 62
     6
100
AcDbCircle
 10
1510.4
 20
824.445172
 30
0.0
 40
42.556707
100
AcDbArc
 50
41.241478
 51
138.758522
  0
LINE
  5
34C
100
AcDbEntity
  8
本体
  6
CONTINUOUS
 62
     2
100
AcDbLine
 10
450.0
 20
1489.0
 30
0.0
 11
1476.0
 21
1489.0
 31
0.0
  0
CIRCLE
  5
34D
100
AcDbEntity
  8
本体
  6
CONTINUOUS
 62
     2
100
AcDbCircle
 10
597.0
 20
2448.988263
 30
0.0
 40
12.1
  0
ARC
  5
34E
100
AcDbEntity
  8
本体
  6
CONTINUOUS
 62
     2
100
AcDbCircle
 10
621.874686
 20
2446.488263
 30
0.0
 40
5.0
100
AcDbArc
 50
90.0
 51
174.26083
  0
ARC
  5
34F
100
AcDbEntity
  8
本体
  6
CONTINUOUS
 62
     2
100
AcDbCircle
 10
599.5
 20
2424.113577
 30
0.0
 40
5.0
100
AcDbArc
 50
95.73917
 51
180.0
  0
LINE
  5
350
100
AcDbEntity
  8
本体
  6
CONTINUOUS
 62
     6
100
AcDbLine
 10
611.1
 20
2448.988263
 30
0.0
 11
582.9
 21
2448.988263
 31
0.0
  0
ARC
  5
351
100
AcDbEntity
  8
本体
  6
CONTINUOUS
 62
     2
100
AcDbCircle
 10
774.5
 20
2441.488263
 30
0.0
 40
10.0
100
AcDbArc
 50
90.0
 51
180.0
  0
ARC
  5
352
100
AcDbEntity
  8
本体
  6
CONTINUOUS
 62
     2
100
AcDbCircle
 10
809.5
 20
2436.488263
 30
0.0
 40
10.0
100
AcDbArc
 50
90.0
 51
180.0
  0
ARC
  5
353
100
AcDbEntity
  8
本体
  6
CONTINUOUS
 62
     2
100
AcDbCircle
 10
609.5
 20
2236.488263
 30
0.0
 40
10.0
100
AcDbArc
 50
90.0
 51
180.0
  0
ARC
  5
354
100
AcDbEntity
  8
本体
  6
CONTINUOUS
 62
     2
100
AcDbCircle
 10
604.5
 20
2271.488263
 30
0.0
 40
10.0
100
AcDbArc
 50
90.0
 51
180.0
  0
ARC
  5
355
100
AcDbEntity
  8
本体
  6
CONTINUOUS
 62
     2
100
AcDbCircle
 10
754.5
 20
2291.488263
 30
0.0
 40
45.0
100
AcDbArc
 50
270.0
 51
0.0
  0
LINE
  5
356
100
AcDbEntity
  8
本体
  6
CONTINUOUS
 62
     2
100
AcDbLine
 10
609.5
 20
2246.488263
 30
0.0
 11
754.5
 21
2246.488263
 31
0.0
  0
LINE
  5
357
100
AcDbEntity
  8
本体
  6
CONTINUOUS
 62
     2
100
AcDbLine
 10
799.5
 20
2291.488263
 30
0.0
 11
799.5
 21
2436.488263
 31
0.0
  0
ARC
  5
358
100
AcDbEntity
  8
本体
  6
CONTINUOUS
 62
     2
100
AcDbCircle
 10
597.0
 20
2448.988263
 30
0.0
 40
20.0
100
AcDbArc
 50
275.73917
 51
354.26083
  0
ARC
  5
359
100
AcDbEntity
  8
本体
  6
CONTINUOUS
 62
     2
100
AcDbCircle
 10
754.5
 20
2291.488263
 30
0.0
 40
10.0
100
AcDbArc
 50
270.0
 51
0.0
  0
LINE
  5
35A
100
AcDbEntity
  8
本体
  6
CONTINUOUS
 62
     2
100
AcDbLine
 10
604.5
 20
2281.488263
 30
0.0
 11
754.5
 21
2281.488263
 31
0.0
  0
LINE
  5
35B
100
AcDbEntity
  8
本体
  6
CONTINUOUS
 62
     2
100
AcDbLine
 10
764.5
 20
2441.488263
 30
0.0
 11
764.5
 21
2291.488263
 31
0.0
  0
ARC
  5
35C
100
AcDbEntity
  8
本体
  6
CONTINUOUS
 62
     2
100
AcDbCircle
 10
639.5
 20
2406.488263
 30
0.0
 40
37.75
100
AcDbArc
 50
90.0
 51
153.969539
  0
ARC
  5
35D
100
AcDbEntity
  8
本体
  6
CONTINUOUS
 62
     2
100
AcDbCircle
 10
608.27501
 20
2421.738263
 30
0.0
 40
3.0
100
AcDbArc
 50
153.969539
 51
270.0
  0
LINE
  5
35E
100
AcDbEntity
  8
本体
  6
CONTINUOUS
 62
     2
100
AcDbLine
 10
608.27501
 20
2418.738263
 30
0.0
 11
749.25
 21
2418.738263
 31
0.0
  0
ARC
  5
35F
100
AcDbEntity
  8
本体
  6
CONTINUOUS
 62
     2
100
AcDbCircle
 10
749.25
 20
2421.738263
 30
0.0
 40
3.0
100
AcDbArc
 50
270.0
 51
0.0
  0
LINE
  5
360
100
AcDbEntity
  8
本体
  6
CONTINUOUS
 62
     2
100
AcDbLine
 10
749.25
 20
2444.238263
 30
0.0
 11
639.5
 21
2444.238263
 31
0.0
  0
LINE
  5
361
100
AcDbEntity
  8
本体
  6
CONTINUOUS
 62
     2
100
AcDbLine
 10
752.25
 20
2421.738263
 30
0.0
 11
752.25
 21
2441.238263
 31
0.0
  0
ARC
  5
362
100
AcDbEntity
  8
本体
  6
CONTINUOUS
 62
     2
100
AcDbCircle
 10
749.25
 20
2441.238263
 30
0.0
 40
3.0
100
AcDbArc
 50
0.0
 51
90.0
  0
ARC
  5
363
100
AcDbEntity
  8
本体
  6
CONTINUOUS
 62
     2
100
AcDbCircle
 10
749.25
 20
2411.238263
 30
0.0
 40
3.0
100
AcDbArc
 50
0.0
 51
90.0
  0
LINE
  5
364
100
AcDbEntity
  8
本体
  6
CONTINUOUS
 62
     2
100
AcDbLine
 10
752.25
 20
2396.738263
 30
0.0
 11
752.25
 21
2411.238263
 31
0.0
  0
ARC
  5
365
100
AcDbEntity
  8
本体
  6
CONTINUOUS
 62
     2
100
AcDbCircle
 10
749.25
 20
2396.738263
 30
0.0
 40
3.0
100
AcDbArc
 50
270.0
 51
0.0
  0
LINE
  5
366
100
AcDbEntity
  8
本体
  6
CONTINUOUS
 62
     2
100
AcDbLine
 10
604.75
 20
2414.238263
 30
0.0
 11
749.25
 21
2414.238263
 31
0.0
  0
ARC
  5
367
100
AcDbEntity
  8
本体
  6
CONTINUOUS
 62
     2
100
AcDbCircle
 10
604.75
 20
2411.238263
 30
0.0
 40
3.0
100
AcDbArc
 50
90.0
 51
180.0
  0
LINE
  5
368
100
AcDbEntity
  8
本体
  6
CONTINUOUS
 62
     2
100
AcDbLine
 10
604.75
 20
2393.738263
 30
0.0
 11
749.25
 21
2393.738263
 31
0.0
  0
LINE
  5
369
100
AcDbEntity
  8
本体
  6
CONTINUOUS
 62
     2
100
AcDbLine
 10
601.75
 20
2411.238263
 30
0.0
 11
601.75
 21
2396.738263
 31
0.0
  0
ARC
  5
36A
100
AcDbEntity
  8
本体
  6
CONTINUOUS
 62
     2
100
AcDbCircle
 10
604.75
 20
2396.738263
 30
0.0
 40
3.0
100
AcDbArc
 50
180.0
 51
270.0
  0
ARC
  5
36B
100
AcDbEntity
  8
本体
  6
CONTINUOUS
 62
     2
100
AcDbCircle
 10
604.75
 20
2386.238263
 30
0.0
 40
3.0
100
AcDbArc
 50
90.0
 51
180.0
  0
LINE
  5
36C
100
AcDbEntity
  8
本体
  6
CONTINUOUS
 62
     2
100
AcDbLine
 10
601.75
 20
2386.238263
 30
0.0
 11
601.75
 21
2371.738263
 31
0.0
  0
ARC
  5
36D
100
AcDbEntity
  8
本体
  6
CONTINUOUS
 62
     2
100
AcDbCircle
 10
604.75
 20
2371.738263
 30
0.0
 40
3.0
100
AcDbArc
 50
180.0
 51
270.0
  0
LINE
  5
36E
100
AcDbEntity
  8
本体
  6
CONTINUOUS
 62
     2
100
AcDbLine
 10
604.75
 20
2368.738263
 30
0.0
 11
749.25
 21
2368.738263
 31
0.0
  0
ARC
  5
36F
100
AcDbEntity
  8
本体
  6
CONTINUOUS
 62
     2
100
AcDbCircle
 10
749.25
 20
2371.738263
 30
0.0
 40
3.0
100
AcDbArc
 50
270.0
 51
0.0
  0
LINE
  5
370
100
AcDbEntity
  8
本体
  6
CONTINUOUS
 62
     2
100
AcDbLine
 10
604.75
 20
2389.238263
 30
0.0
 11
749.25
 21
2389.238263
 31
0.0
  0
LINE
  5
371
100
AcDbEntity
  8
本体
  6
CONTINUOUS
 62
     2
100
AcDbLine
 10
752.25
 20
2371.738263
 30
0.0
 11
752.25
 21
2386.238263
 31
0.0
  0
ARC
  5
372
100
AcDbEntity
  8
本体
  6
CONTINUOUS
 62
     2
100
AcDbCircle
 10
749.25
 20
2386.238263
 30
0.0
 40
3.0
100
AcDbArc
 50
0.0
 51
90.0
  0
ARC
  5
373
100
AcDbEntity
  8
本体
  6
CONTINUOUS
 62
     2
100
AcDbCircle
 10
604.75
 20
2361.238263
 30
0.0
 40
3.0
100
AcDbArc
 50
90.0
 51
180.0
  0
LINE
  5
374
100
AcDbEntity
  8
本体
  6
CONTINUOUS
 62
     2
100
AcDbLine
 10
601.75
 20
2361.238263
 30
0.0
 11
601.75
 21
2346.738263
 31
0.0
  0
ARC
  5
375
100
AcDbEntity
  8
本体
  6
CONTINUOUS
 62
     2
100
AcDbCircle
 10
604.75
 20
2346.738263
 30
0.0
 40
3.0
100
AcDbArc
 50
180.0
 51
270.0
  0
LINE
  5
376
100
AcDbEntity
  8
本体
  6
CONTINUOUS
 62
     2
100
AcDbLine
 10
604.75
 20
2343.738263
 30
0.0
 11
749.25
 21
2343.738263
 31
0.0
  0
ARC
  5
377
100
AcDbEntity
  8
本体
  6
CONTINUOUS
 62
     2
100
AcDbCircle
 10
749.25
 20
2346.738263
 30
0.0
 40
3.0
100
AcDbArc
 50
270.0
 51
0.0
  0
LINE
  5
378
100
AcDbEntity
  8
本体
  6
CONTINUOUS
 62
     2
100
AcDbLine
 10
604.75
 20
2364.238263
 30
0.0
 11
749.25
 21
2364.238263
 31
0.0
  0
LINE
  5
379
100
AcDbEntity
  8
本体
  6
CONTINUOUS
 62
     2
100
AcDbLine
 10
752.25
 20
2346.738263
 30
0.0
 11
752.25
 21
2361.238263
 31
0.0
  0
ARC
  5
37A
100
AcDbEntity
  8
本体
  6
CONTINUOUS
 62
     2
100
AcDbCircle
 10
749.25
 20
2361.238263
 30
0.0
 40
3.0
100
AcDbArc
 50
0.0
 51
90.0
  0
ARC
  5
37B
100
AcDbEntity
  8
本体
  6
CONTINUOUS
 62
     2
100
AcDbCircle
 10
604.75
 20
2336.238263
 30
0.0
 40
3.0
100
AcDbArc
 50
90.0
 51
180.0
  0
LINE
  5
37C
100
AcDbEntity
  8
本体
  6
CONTINUOUS
 62
     2
100
AcDbLine
 10
601.75
 20
2336.238263
 30
0.0
 11
601.75
 21
2321.738263
 31
0.0
  0
ARC
  5
37D
100
AcDbEntity
  8
本体
  6
CONTINUOUS
 62
     2
100
AcDbCircle
 10
604.75
 20
2321.738263
 30
0.0
 40
3.0
100
AcDbArc
 50
180.0
 51
270.0
  0
LINE
  5
37E
100
AcDbEntity
  8
本体
  6
CONTINUOUS
 62
     2
100
AcDbLine
 10
604.75
 20
2318.738263
 30
0.0
 11
749.25
 21
2318.738263
 31
0.0
  0
ARC
  5
37F
100
AcDbEntity
  8
本体
  6
CONTINUOUS
 62
     2
100
AcDbCircle
 10
749.25
 20
2321.738263
 30
0.0
 40
3.0
100
AcDbArc
 50
270.0
 51
0.0
  0
LINE
  5
380
100
AcDbEntity
  8
本体
  6
CONTINUOUS
 62
     2
100
AcDbLine
 10
604.75
 20
2339.238263
 30
0.0
 11
749.25
 21
2339.238263
 31
0.0
  0
LINE
  5
381
100
AcDbEntity
  8
本体
  6
CONTINUOUS
 62
     2
100
AcDbLine
 10
752.25
 20
2321.738263
 30
0.0
 11
752.25
 21
2336.238263
 31
0.0
  0
ARC
  5
382
100
AcDbEntity
  8
本体
  6
CONTINUOUS
 62
     2
100
AcDbCircle
 10
749.25
 20
2336.238263
 30
0.0
 40
3.0
100
AcDbArc
 50
0.0
 51
90.0
  0
ARC
  5
383
100
AcDbEntity
  8
本体
  6
CONTINUOUS
 62
     2
100
AcDbCircle
 10
749.25
 20
2296.738263
 30
0.0
 40
3.0
100
AcDbArc
 50
270.0
 51
0.0
  0
LINE
  5
384
100
AcDbEntity
  8
本体
  6
CONTINUOUS
 62
     2
100
AcDbLine
 10
752.25
 20
2296.738263
 30
0.0
 11
752.25
 21
2311.238263
 31
0.0
  0
ARC
  5
385
100
AcDbEntity
  8
本体
  6
CONTINUOUS
 62
     2
100
AcDbCircle
 10
749.25
 20
2311.238263
 30
0.0
 40
3.0
100
AcDbArc
 50
0.0
 51
90.0
  0
LINE
  5
386
100
AcDbEntity
  8
本体
  6
CONTINUOUS
 62
     2
100
AcDbLine
 10
604.75
 20
2314.238263
 30
0.0
 11
749.25
 21
2314.238263
 31
0.0
  0
ARC
  5
387
100
AcDbEntity
  8
本体
  6
CONTINUOUS
 62
     2
100
AcDbCircle
 10
604.75
 20
2311.238263
 30
0.0
 40
3.0
100
AcDbArc
 50
90.0
 51
180.0
  0
LINE
  5
388
100
AcDbEntity
  8
本体
  6
CONTINUOUS
 62
     2
100
AcDbLine
 10
604.75
 20
2293.738263
 30
0.0
 11
749.25
 21
2293.738263
 31
0.0
  0
LINE
  5
389
100
AcDbEntity
  8
本体
  6
CONTINUOUS
 62
     2
100
AcDbLine
 10
601.75
 20
2311.238263
 30
0.0
 11
601.75
 21
2296.738263
 31
0.0
  0
ARC
  5
38A
100
AcDbEntity
  8
本体
  6
CONTINUOUS
 62
     2
100
AcDbCircle
 10
604.75
 20
2296.738263
 30
0.0
 40
3.0
100
AcDbArc
 50
180.0
 51
270.0
  0
LINE
  5
38B
100
AcDbEntity
  8
本体
  6
CONTINUOUS
 62
     2
100
AcDbLine
 10
621.874686
 20
2451.488263
 30
0.0
 11
1167.125314
 21
2451.488263
 31
0.0
  0
LINE
  5
38C
100
AcDbEntity
  8
本体
  6
CONTINUOUS
 62
     2
100
AcDbLine
 10
594.5
 20
1878.862949
 30
0.0
 11
594.5
 21
2424.113577
 31
0.0
  0
ARC
  5
38D
100
AcDbEntity
  8
本体
  6
CONTINUOUS
 62
     2
100
AcDbCircle
 10
599.5
 20
1878.862949
 30
0.0
 40
5.0
100
AcDbArc
 50
180.0
 51
264.26083
  0
ARC
  5
38E
100
AcDbEntity
  8
本体
  6
CONTINUOUS
 62
     2
100
AcDbCircle
 10
621.874686
 20
1856.488263
 30
0.0
 40
5.0
100
AcDbArc
 50
185.73917
 51
270.0
  0
LINE
  5
38F
100
AcDbEntity
  8
本体
  6
CONTINUOUS
 62
     6
100
AcDbLine
 10
582.9
 20
1853.988263
 30
0.0
 11
611.1
 21
1853.988263
 31
0.0
  0
ARC
  5
390
100
AcDbEntity
  8
本体
  6
CONTINUOUS
 62
     2
100
AcDbCircle
 10
774.5
 20
1861.488263
 30
0.0
 40
10.0
100
AcDbArc
 50
180.0
 51
270.0
  0
ARC
  5
391
100
AcDbEntity
  8
本体
  6
CONTINUOUS
 62
     2
100
AcDbCircle
 10
809.5
 20
1866.488263
 30
0.0
 40
10.0
100
AcDbArc
 50
180.0
 51
270.0
  0
ARC
  5
392
100
AcDbEntity
  8
本体
  6
CONTINUOUS
 62
     2
100
AcDbCircle
 10
609.5
 20
2066.488263
 30
0.0
 40
10.0
100
AcDbArc
 50
180.0
 51
270.0
  0
ARC
  5
393
100
AcDbEntity
  8
本体
  6
CONTINUOUS
 62
     2
100
AcDbCircle
 10
754.5
 20
2011.488263
 30
0.0
 40
45.0
100
AcDbArc
 50
0.0
 51
90.0
  0
LINE
  5
394
100
AcDbEntity
  8
本体
  6
CONTINUOUS
 62
     2
100
AcDbLine
 10
609.5
 20
2056.488263
 30
0.0
 11
754.5
 21
2056.488263
 31
0.0
  0
LINE
  5
395
100
AcDbEntity
  8
本体
  6
CONTINUOUS
 62
     2
100
AcDbLine
 10
764.5
 20
1861.488263
 30
0.0
 11
764.5
 21
2011.488263
 31
0.0
  0
LINE
  5
396
100
AcDbEntity
  8
本体
  6
CONTINUOUS
 62
     2
100
AcDbLine
 10
799.5
 20
2011.488263
 30
0.0
 11
799.5
 21
1866.488263
 31
0.0
  0
ARC
  5
397
100
AcDbEntity
  8
本体
  6
CONTINUOUS
 62
     2
100
AcDbCircle
 10
604.5
 20
2031.488263
 30
0.0
 40
10.0
100
AcDbArc
 50
180.0
 51
270.0
  0
ARC
  5
398
100
AcDbEntity
  8
本体
  6
CONTINUOUS
 62
     2
100
AcDbCircle
 10
754.5
 20
2011.488263
 30
0.0
 40
10.0
100
AcDbArc
 50
0.0
 51
90.0
  0
LINE
  5
399
100
AcDbEntity
  8
本体
  6
CONTINUOUS
 62
     2
100
AcDbLine
 10
604.5
 20
2021.488263
 30
0.0
 11
754.5
 21
2021.488263
 31
0.0
  0
LINE
  5
39A
100
AcDbEntity
  8
本体
  6
CONTINUOUS
 62
     2
100
AcDbLine
 10
601.75
 20
1916.738263
 30
0.0
 11
601.75
 21
1931.238263
 31
0.0
  0
ARC
  5
39B
100
AcDbEntity
  8
本体
  6
CONTINUOUS
 62
     2
100
AcDbCircle
 10
604.75
 20
1931.238263
 30
0.0
 40
3.0
100
AcDbArc
 50
90.0
 51
180.0
  0
LINE
  5
39C
100
AcDbEntity
  8
本体
  6
CONTINUOUS
 62
     2
100
AcDbLine
 10
604.75
 20
1934.238263
 30
0.0
 11
749.25
 21
1934.238263
 31
0.0
  0
ARC
  5
39D
100
AcDbEntity
  8
本体
  6
CONTINUOUS
 62
     2
100
AcDbCircle
 10
749.25
 20
1931.238263
 30
0.0
 40
3.0
100
AcDbArc
 50
0.0
 51
90.0
  0
LINE
  5
39E
100
AcDbEntity
  8
本体
  6
CONTINUOUS
 62
     2
100
AcDbLine
 10
752.25
 20
1931.238263
 30
0.0
 11
752.25
 21
1916.738263
 31
0.0
  0
ARC
  5
39F
100
AcDbEntity
  8
本体
  6
CONTINUOUS
 62
     2
100
AcDbCircle
 10
604.75
 20
1941.738263
 30
0.0
 40
3.0
100
AcDbArc
 50
180.0
 51
270.0
  0
LINE
  5
3A0
100
AcDbEntity
  8
本体
  6
CONTINUOUS
 62
     2
100
AcDbLine
 10
601.75
 20
1941.738263
 30
0.0
 11
601.75
 21
1956.238263
 31
0.0
  0
ARC
  5
3A1
100
AcDbEntity
  8
本体
  6
CONTINUOUS
 62
     2
100
AcDbCircle
 10
604.75
 20
1956.238263
 30
0.0
 40
3.0
100
AcDbArc
 50
90.0
 51
180.0
  0
LINE
  5
3A2
100
AcDbEntity
  8
本体
  6
CONTINUOUS
 62
     2
100
AcDbLine
 10
604.75
 20
1959.238263
 30
0.0
 11
749.25
 21
1959.238263
 31
0.0
  0
ARC
  5
3A3
100
AcDbEntity
  8
本体
  6
CONTINUOUS
 62
     2
100
AcDbCircle
 10
749.25
 20
1956.238263
 30
0.0
 40
3.0
100
AcDbArc
 50
0.0
 51
90.0
  0
LINE
  5
3A4
100
AcDbEntity
  8
本体
  6
CONTINUOUS
 62
     2
100
AcDbLine
 10
604.75
 20
1938.738263
 30
0.0
 11
749.25
 21
1938.738263
 31
0.0
  0
LINE
  5
3A5
100
AcDbEntity
  8
本体
  6
CONTINUOUS
 62
     2
100
AcDbLine
 10
752.25
 20
1956.238263
 30
0.0
 11
752.25
 21
1941.738263
 31
0.0
  0
ARC
  5
3A6
100
AcDbEntity
  8
本体
  6
CONTINUOUS
 62
     2
100
AcDbCircle
 10
749.25
 20
1941.738263
 30
0.0
 40
3.0
100
AcDbArc
 50
270.0
 51
0.0
  0
ARC
  5
3A7
100
AcDbEntity
  8
本体
  6
CONTINUOUS
 62
     2
100
AcDbCircle
 10
604.75
 20
1966.738263
 30
0.0
 40
3.0
100
AcDbArc
 50
180.0
 51
270.0
  0
LINE
  5
3A8
100
AcDbEntity
  8
本体
  6
CONTINUOUS
 62
     2
100
AcDbLine
 10
601.75
 20
1966.738263
 30
0.0
 11
601.75
 21
1981.238263
 31
0.0
  0
ARC
  5
3A9
100
AcDbEntity
  8
本体
  6
CONTINUOUS
 62
     2
100
AcDbCircle
 10
604.75
 20
1981.238263
 30
0.0
 40
3.0
100
AcDbArc
 50
90.0
 51
180.0
  0
LINE
  5
3AA
100
AcDbEntity
  8
本体
  6
CONTINUOUS
 62
     2
100
AcDbLine
 10
604.75
 20
1984.238263
 30
0.0
 11
749.25
 21
1984.238263
 31
0.0
  0
ARC
  5
3AB
100
AcDbEntity
  8
本体
  6
CONTINUOUS
 62
     2
100
AcDbCircle
 10
749.25
 20
1981.238263
 30
0.0
 40
3.0
100
AcDbArc
 50
0.0
 51
90.0
  0
LINE
  5
3AC
100
AcDbEntity
  8
本体
  6
CONTINUOUS
 62
     2
100
AcDbLine
 10
604.75
 20
1963.738263
 30
0.0
 11
749.25
 21
1963.738263
 31
0.0
  0
LINE
  5
3AD
100
AcDbEntity
  8
本体
  6
CONTINUOUS
 62
     2
100
AcDbLine
 10
752.25
 20
1981.238263
 30
0.0
 11
752.25
 21
1966.738263
 31
0.0
  0
ARC
  5
3AE
100
AcDbEntity
  8
本体
  6
CONTINUOUS
 62
     2
100
AcDbCircle
 10
749.25
 20
1966.738263
 30
0.0
 40
3.0
100
AcDbArc
 50
270.0
 51
0.0
  0
ARC
  5
3AF
100
AcDbEntity
  8
本体
  6
CONTINUOUS
 62
     2
100
AcDbCircle
 10
749.25
 20
2006.238263
 30
0.0
 40
3.0
100
AcDbArc
 50
0.0
 51
90.0
  0
LINE
  5
3B0
100
AcDbEntity
  8
本体
  6
CONTINUOUS
 62
     2
100
AcDbLine
 10
752.25
 20
2006.238263
 30
0.0
 11
752.25
 21
1991.738263
 31
0.0
  0
ARC
  5
3B1
100
AcDbEntity
  8
本体
  6
CONTINUOUS
 62
     2
100
AcDbCircle
 10
749.25
 20
1991.738263
 30
0.0
 40
3.0
100
AcDbArc
 50
270.0
 51
0.0
  0
LINE
  5
3B2
100
AcDbEntity
  8
本体
  6
CONTINUOUS
 62
     2
100
AcDbLine
 10
604.75
 20
1988.738263
 30
0.0
 11
749.25
 21
1988.738263
 31
0.0
  0
ARC
  5
3B3
100
AcDbEntity
  8
本体
  6
CONTINUOUS
 62
     2
100
AcDbCircle
 10
604.75
 20
1991.738263
 30
0.0
 40
3.0
100
AcDbArc
 50
180.0
 51
270.0
  0
LINE
  5
3B4
100
AcDbEntity
  8
本体
  6
CONTINUOUS
 62
     2
100
AcDbLine
 10
604.75
 20
2009.238263
 30
0.0
 11
749.25
 21
2009.238263
 31
0.0
  0
LINE
  5
3B5
100
AcDbEntity
  8
本体
  6
CONTINUOUS
 62
     2
100
AcDbLine
 10
601.75
 20
1991.738263
 30
0.0
 11
601.75
 21
2006.238263
 31
0.0
  0
ARC
  5
3B6
100
AcDbEntity
  8
本体
  6
CONTINUOUS
 62
     2
100
AcDbCircle
 10
604.75
 20
2006.238263
 30
0.0
 40
3.0
100
AcDbArc
 50
90.0
 51
180.0
  0
LINE
  5
3B7
100
AcDbEntity
  8
本体
  6
CONTINUOUS
 62
     2
100
AcDbLine
 10
752.25
 20
1906.238263
 30
0.0
 11
752.25
 21
1891.738263
 31
0.0
  0
ARC
  5
3B8
100
AcDbEntity
  8
本体
  6
CONTINUOUS
 62
     2
100
AcDbCircle
 10
749.25
 20
1906.238263
 30
0.0
 40
3.0
100
AcDbArc
 50
0.0
 51
90.0
  0
LINE
  5
3B9
100
AcDbEntity
  8
本体
  6
CONTINUOUS
 62
     2
100
AcDbLine
 10
604.75
 20
1909.238263
 30
0.0
 11
749.25
 21
1909.238263
 31
0.0
  0
LINE
  5
3BA
100
AcDbEntity
  8
本体
  6
CONTINUOUS
 62
     2
100
AcDbLine
 10
601.75
 20
1891.738263
 30
0.0
 11
601.75
 21
1906.238263
 31
0.0
  0
ARC
  5
3BB
100
AcDbEntity
  8
本体
  6
CONTINUOUS
 62
     2
100
AcDbCircle
 10
604.75
 20
1906.238263
 30
0.0
 40
3.0
100
AcDbArc
 50
90.0
 51
180.0
  0
ARC
  5
3BC
100
AcDbEntity
  8
本体
  6
CONTINUOUS
 62
     2
100
AcDbCircle
 10
604.75
 20
1916.738263
 30
0.0
 40
3.0
100
AcDbArc
 50
180.0
 51
270.0
  0
LINE
  5
3BD
100
AcDbEntity
  8
本体
  6
CONTINUOUS
 62
     2
100
AcDbLine
 10
604.75
 20
1913.738263
 30
0.0
 11
749.25
 21
1913.738263
 31
0.0
  0
ARC
  5
3BE
100
AcDbEntity
  8
本体
  6
CONTINUOUS
 62
     2
100
AcDbCircle
 10
749.25
 20
1916.738263
 30
0.0
 40
3.0
100
AcDbArc
 50
270.0
 51
0.0
  0
ARC
  5
3BF
100
AcDbEntity
  8
本体
  6
CONTINUOUS
 62
     2
100
AcDbCircle
 10
597.0
 20
1853.988263
 30
0.0
 40
20.0
100
AcDbArc
 50
5.73917
 51
84.26083
  0
ARC
  5
3C0
100
AcDbEntity
  8
本体
  6
CONTINUOUS
 62
     2
100
AcDbCircle
 10
639.5
 20
1896.488263
 30
0.0
 40
37.75
100
AcDbArc
 50
206.030461
 51
270.0
  0
ARC
  5
3C1
100
AcDbEntity
  8
本体
  6
CONTINUOUS
 62
     2
100
AcDbCircle
 10
608.27501
 20
1881.238263
 30
0.0
 40
3.0
100
AcDbArc
 50
90.0
 51
206.030461
  0
LINE
  5
3C2
100
AcDbEntity
  8
本体
  6
CONTINUOUS
 62
     2
100
AcDbLine
 10
608.27501
 20
1884.238263
 30
0.0
 11
749.25
 21
1884.238263
 31
0.0
  0
ARC
  5
3C3
100
AcDbEntity
  8
本体
  6
CONTINUOUS
 62
     2
100
AcDbCircle
 10
749.25
 20
1881.238263
 30
0.0
 40
3.0
100
AcDbArc
 50
0.0
 51
90.0
  0
LINE
  5
3C4
100
AcDbEntity
  8
本体
  6
CONTINUOUS
 62
     2
100
AcDbLine
 10
749.25
 20
1858.738263
 30
0.0
 11
639.5
 21
1858.738263
 31
0.0
  0
LINE
  5
3C5
100
AcDbEntity
  8
本体
  6
CONTINUOUS
 62
     2
100
AcDbLine
 10
752.25
 20
1881.238263
 30
0.0
 11
752.25
 21
1861.738263
 31
0.0
  0
ARC
  5
3C6
100
AcDbEntity
  8
本体
  6
CONTINUOUS
 62
     2
100
AcDbCircle
 10
749.25
 20
1861.738263
 30
0.0
 40
3.0
100
AcDbArc
 50
270.0
 51
0.0
  0
ARC
  5
3C7
100
AcDbEntity
  8
本体
  6
CONTINUOUS
 62
     2
100
AcDbCircle
 10
749.25
 20
1891.738263
 30
0.0
 40
3.0
100
AcDbArc
 50
270.0
 51
0.0
  0
LINE
  5
3C8
100
AcDbEntity
  8
本体
  6
CONTINUOUS
 62
     2
100
AcDbLine
 10
604.75
 20
1888.738263
 30
0.0
 11
749.25
 21
1888.738263
 31
0.0
  0
ARC
  5
3C9
100
AcDbEntity
  8
本体
  6
CONTINUOUS
 62
     2
100
AcDbCircle
 10
604.75
 20
1891.738263
 30
0.0
 40
3.0
100
AcDbArc
 50
180.0
 51
270.0
  0
CIRCLE
  5
3CA
100
AcDbEntity
  8
本体
  6
CONTINUOUS
 62
     2
100
AcDbCircle
 10
597.0
 20
1853.988263
 30
0.0
 40
12.1
  0
LINE
  5
3CB
100
AcDbEntity
  8
本体
  6
CONTINUOUS
 62
     2
100
AcDbLine
 10
1167.125314
 20
1851.488263
 30
0.0
 11
621.874686
 21
1851.488263
 31
0.0
  0
ARC
  5
3CC
100
AcDbEntity
  8
本体
  6
CONTINUOUS
 62
     2
100
AcDbCircle
 10
1189.5
 20
1878.862949
 30
0.0
 40
5.0
100
AcDbArc
 50
275.73917
 51
0.0
  0
LINE
  5
3CD
100
AcDbEntity
  8
本体
  6
CONTINUOUS
 62
     6
100
AcDbLine
 10
1177.9
 20
1853.988263
 30
0.0
 11
1206.1
 21
1853.988263
 31
0.0
  0
ARC
  5
3CE
100
AcDbEntity
  8
本体
  6
CONTINUOUS
 62
     2
100
AcDbCircle
 10
1184.5
 20
2031.488263
 30
0.0
 40
10.0
100
AcDbArc
 50
270.0
 51
0.0
  0
ARC
  5
3CF
100
AcDbEntity
  8
本体
  6
CONTINUOUS
 62
     2
100
AcDbCircle
 10
1167.125314
 20
1856.488263
 30
0.0
 40
5.0
100
AcDbArc
 50
270.0
 51
354.26083
  0
ARC
  5
3D0
100
AcDbEntity
  8
本体
  6
CONTINUOUS
 62
     2
100
AcDbCircle
 10
1192.0
 20
1853.988263
 30
0.0
 40
20.0
100
AcDbArc
 50
95.73917
 51
174.26083
  0
ARC
  5
3D1
100
AcDbEntity
  8
本体
  6
CONTINUOUS
 62
     2
100
AcDbCircle
 10
1014.5
 20
1861.488263
 30
0.0
 40
10.0
100
AcDbArc
 50
270.0
 51
0.0
  0
ARC
  5
3D2
100
AcDbEntity
  8
本体
  6
CONTINUOUS
 62
     2
100
AcDbCircle
 10
979.5
 20
1866.488263
 30
0.0
 40
10.0
100
AcDbArc
 50
270.0
 51
0.0
  0
ARC
  5
3D3
100
AcDbEntity
  8
本体
  6
CONTINUOUS
 62
     2
100
AcDbCircle
 10
1179.5
 20
2066.488263
 30
0.0
 40
10.0
100
AcDbArc
 50
270.0
 51
0.0
  0
ARC
  5
3D4
100
AcDbEntity
  8
本体
  6
CONTINUOUS
 62
     2
100
AcDbCircle
 10
1034.5
 20
2011.488263
 30
0.0
 40
10.0
100
AcDbArc
 50
90.0
 51
180.0
  0
ARC
  5
3D5
100
AcDbEntity
  8
本体
  6
CONTINUOUS
 62
     2
100
AcDbCircle
 10
1034.5
 20
2011.488263
 30
0.0
 40
45.0
100
AcDbArc
 50
90.0
 51
180.0
  0
LINE
  5
3D6
100
AcDbEntity
  8
本体
  6
CONTINUOUS
 62
     2
100
AcDbLine
 10
1184.5
 20
2021.488263
 30
0.0
 11
1034.5
 21
2021.488263
 31
0.0
  0
LINE
  5
3D7
100
AcDbEntity
  8
本体
  6
CONTINUOUS
 62
     2
100
AcDbLine
 10
1179.5
 20
2056.488263
 30
0.0
 11
1034.5
 21
2056.488263
 31
0.0
  0
LINE
  5
3D8
100
AcDbEntity
  8
本体
  6
CONTINUOUS
 62
     2
100
AcDbLine
 10
1024.5
 20
1861.488263
 30
0.0
 11
1024.5
 21
2011.488263
 31
0.0
  0
LINE
  5
3D9
100
AcDbEntity
  8
本体
  6
CONTINUOUS
 62
     2
100
AcDbLine
 10
989.5
 20
2011.488263
 30
0.0
 11
989.5
 21
1866.488263
 31
0.0
  0
ARC
  5
3DA
100
AcDbEntity
  8
本体
  6
CONTINUOUS
 62
     2
100
AcDbCircle
 10
1149.5
 20
1896.488263
 30
0.0
 40
37.75
100
AcDbArc
 50
270.0
 51
333.969539
  0
ARC
  5
3DB
100
AcDbEntity
  8
本体
  6
CONTINUOUS
 62
     2
100
AcDbCircle
 10
1180.72499
 20
1881.238263
 30
0.0
 40
3.0
100
AcDbArc
 50
333.969539
 51
90.0
  0
LINE
  5
3DC
100
AcDbEntity
  8
本体
  6
CONTINUOUS
 62
     2
100
AcDbLine
 10
1180.72499
 20
1884.238263
 30
0.0
 11
1039.75
 21
1884.238263
 31
0.0
  0
ARC
  5
3DD
100
AcDbEntity
  8
本体
  6
CONTINUOUS
 62
     2
100
AcDbCircle
 10
1039.75
 20
1881.238263
 30
0.0
 40
3.0
100
AcDbArc
 50
90.0
 51
180.0
  0
LINE
  5
3DE
100
AcDbEntity
  8
本体
  6
CONTINUOUS
 62
     2
100
AcDbLine
 10
1039.75
 20
1858.738263
 30
0.0
 11
1149.5
 21
1858.738263
 31
0.0
  0
LINE
  5
3DF
100
AcDbEntity
  8
本体
  6
CONTINUOUS
 62
     2
100
AcDbLine
 10
1036.75
 20
1881.238263
 30
0.0
 11
1036.75
 21
1861.738263
 31
0.0
  0
ARC
  5
3E0
100
AcDbEntity
  8
本体
  6
CONTINUOUS
 62
     2
100
AcDbCircle
 10
1039.75
 20
1861.738263
 30
0.0
 40
3.0
100
AcDbArc
 50
180.0
 51
270.0
  0
ARC
  5
3E1
100
AcDbEntity
  8
本体
  6
CONTINUOUS
 62
     2
100
AcDbCircle
 10
1039.75
 20
1891.738263
 30
0.0
 40
3.0
100
AcDbArc
 50
180.0
 51
270.0
  0
LINE
  5
3E2
100
AcDbEntity
  8
本体
  6
CONTINUOUS
 62
     2
100
AcDbLine
 10
1036.75
 20
1906.238263
 30
0.0
 11
1036.75
 21
1891.738263
 31
0.0
  0
ARC
  5
3E3
100
AcDbEntity
  8
本体
  6
CONTINUOUS
 62
     2
100
AcDbCircle
 10
1039.75
 20
1906.238263
 30
0.0
 40
3.0
100
AcDbArc
 50
90.0
 51
180.0
  0
LINE
  5
3E4
100
AcDbEntity
  8
本体
  6
CONTINUOUS
 62
     2
100
AcDbLine
 10
1184.25
 20
1888.738263
 30
0.0
 11
1039.75
 21
1888.738263
 31
0.0
  0
ARC
  5
3E5
100
AcDbEntity
  8
本体
  6
CONTINUOUS
 62
     2
100
AcDbCircle
 10
1184.25
 20
1891.738263
 30
0.0
 40
3.0
100
AcDbArc
 50
270.0
 51
0.0
  0
LINE
  5
3E6
100
AcDbEntity
  8
本体
  6
CONTINUOUS
 62
     2
100
AcDbLine
 10
1184.25
 20
1909.238263
 30
0.0
 11
1039.75
 21
1909.238263
 31
0.0
  0
LINE
  5
3E7
100
AcDbEntity
  8
本体
  6
CONTINUOUS
 62
     2
100
AcDbLine
 10
1187.25
 20
1891.738263
 30
0.0
 11
1187.25
 21
1906.238263
 31
0.0
  0
ARC
  5
3E8
100
AcDbEntity
  8
本体
  6
CONTINUOUS
 62
     2
100
AcDbCircle
 10
1184.25
 20
1906.238263
 30
0.0
 40
3.0
100
AcDbArc
 50
0.0
 51
90.0
  0
ARC
  5
3E9
100
AcDbEntity
  8
本体
  6
CONTINUOUS
 62
     2
100
AcDbCircle
 10
1184.25
 20
1916.738263
 30
0.0
 40
3.0
100
AcDbArc
 50
270.0
 51
0.0
  0
LINE
  5
3EA
100
AcDbEntity
  8
本体
  6
CONTINUOUS
 62
     2
100
AcDbLine
 10
1187.25
 20
1916.738263
 30
0.0
 11
1187.25
 21
1931.238263
 31
0.0
  0
ARC
  5
3EB
100
AcDbEntity
  8
本体
  6
CONTINUOUS
 62
     2
100
AcDbCircle
 10
1184.25
 20
1931.238263
 30
0.0
 40
3.0
100
AcDbArc
 50
0.0
 51
90.0
  0
LINE
  5
3EC
100
AcDbEntity
  8
本体
  6
CONTINUOUS
 62
     2
100
AcDbLine
 10
1184.25
 20
1934.238263
 30
0.0
 11
1039.75
 21
1934.238263
 31
0.0
  0
ARC
  5
3ED
100
AcDbEntity
  8
本体
  6
CONTINUOUS
 62
     2
100
AcDbCircle
 10
1039.75
 20
1931.238263
 30
0.0
 40
3.0
100
AcDbArc
 50
90.0
 51
180.0
  0
LINE
  5
3EE
100
AcDbEntity
  8
本体
  6
CONTINUOUS
 62
     2
100
AcDbLine
 10
1184.25
 20
1913.738263
 30
0.0
 11
1039.75
 21
1913.738263
 31
0.0
  0
LINE
  5
3EF
100
AcDbEntity
  8
本体
  6
CONTINUOUS
 62
     2
100
AcDbLine
 10
1036.75
 20
1931.238263
 30
0.0
 11
1036.75
 21
1916.738263
 31
0.0
  0
ARC
  5
3F0
100
AcDbEntity
  8
本体
  6
CONTINUOUS
 62
     2
100
AcDbCircle
 10
1039.75
 20
1916.738263
 30
0.0
 40
3.0
100
AcDbArc
 50
180.0
 51
270.0
  0
ARC
  5
3F1
100
AcDbEntity
  8
本体
  6
CONTINUOUS
 62
     2
100
AcDbCircle
 10
1184.25
 20
1941.738263
 30
0.0
 40
3.0
100
AcDbArc
 50
270.0
 51
0.0
  0
LINE
  5
3F2
100
AcDbEntity
  8
本体
  6
CONTINUOUS
 62
     2
100
AcDbLine
 10
1187.25
 20
1941.738263
 30
0.0
 11
1187.25
 21
1956.238263
 31
0.0
  0
ARC
  5
3F3
100
AcDbEntity
  8
本体
  6
CONTINUOUS
 62
     2
100
AcDbCircle
 10
1184.25
 20
1956.238263
 30
0.0
 40
3.0
100
AcDbArc
 50
0.0
 51
90.0
  0
LINE
  5
3F4
100
AcDbEntity
  8
本体
  6
CONTINUOUS
 62
     2
100
AcDbLine
 10
1184.25
 20
1959.238263
 30
0.0
 11
1039.75
 21
1959.238263
 31
0.0
  0
ARC
  5
3F5
100
AcDbEntity
  8
本体
  6
CONTINUOUS
 62
     2
100
AcDbCircle
 10
1039.75
 20
1956.238263
 30
0.0
 40
3.0
100
AcDbArc
 50
90.0
 51
180.0
  0
LINE
  5
3F6
100
AcDbEntity
  8
本体
  6
CONTINUOUS
 62
     2
100
AcDbLine
 10
1184.25
 20
1938.738263
 30
0.0
 11
1039.75
 21
1938.738263
 31
0.0
  0
LINE
  5
3F7
100
AcDbEntity
  8
本体
  6
CONTINUOUS
 62
     2
100
AcDbLine
 10
1036.75
 20
1956.238263
 30
0.0
 11
1036.75
 21
1941.738263
 31
0.0
  0
ARC
  5
3F8
100
AcDbEntity
  8
本体
  6
CONTINUOUS
 62
     2
100
AcDbCircle
 10
1039.75
 20
1941.738263
 30
0.0
 40
3.0
100
AcDbArc
 50
180.0
 51
270.0
  0
ARC
  5
3F9
100
AcDbEntity
  8
本体
  6
CONTINUOUS
 62
     2
100
AcDbCircle
 10
1184.25
 20
1966.738263
 30
0.0
 40
3.0
100
AcDbArc
 50
270.0
 51
0.0
  0
LINE
  5
3FA
100
AcDbEntity
  8
本体
  6
CONTINUOUS
 62
     2
100
AcDbLine
 10
1187.25
 20
1966.738263
 30
0.0
 11
1187.25
 21
1981.238263
 31
0.0
  0
ARC
  5
3FB
100
AcDbEntity
  8
本体
  6
CONTINUOUS
 62
     2
100
AcDbCircle
 10
1184.25
 20
1981.238263
 30
0.0
 40
3.0
100
AcDbArc
 50
0.0
 51
90.0
  0
LINE
  5
3FC
100
AcDbEntity
  8
本体
  6
CONTINUOUS
 62
     2
100
AcDbLine
 10
1184.25
 20
1984.238263
 30
0.0
 11
1039.75
 21
1984.238263
 31
0.0
  0
ARC
  5
3FD
100
AcDbEntity
  8
本体
  6
CONTINUOUS
 62
     2
100
AcDbCircle
 10
1039.75
 20
1981.238263
 30
0.0
 40
3.0
100
AcDbArc
 50
90.0
 51
180.0
  0
LINE
  5
3FE
100
AcDbEntity
  8
本体
  6
CONTINUOUS
 62
     2
100
AcDbLine
 10
1184.25
 20
1963.738263
 30
0.0
 11
1039.75
 21
1963.738263
 31
0.0
  0
LINE
  5
3FF
100
AcDbEntity
  8
本体
  6
CONTINUOUS
 62
     2
100
AcDbLine
 10
1036.75
 20
1981.238263
 30
0.0
 11
1036.75
 21
1966.738263
 31
0.0
  0
ARC
  5
400
100
AcDbEntity
  8
本体
  6
CONTINUOUS
 62
     2
100
AcDbCircle
 10
1039.75
 20
1966.738263
 30
0.0
 40
3.0
100
AcDbArc
 50
180.0
 51
270.0
  0
ARC
  5
401
100
AcDbEntity
  8
本体
  6
CONTINUOUS
 62
     2
100
AcDbCircle
 10
1039.75
 20
2006.238263
 30
0.0
 40
3.0
100
AcDbArc
 50
90.0
 51
180.0
  0
LINE
  5
402
100
AcDbEntity
  8
本体
  6
CONTINUOUS
 62
     2
100
AcDbLine
 10
1036.75
 20
2006.238263
 30
0.0
 11
1036.75
 21
1991.738263
 31
0.0
  0
ARC
  5
403
100
AcDbEntity
  8
本体
  6
CONTINUOUS
 62
     2
100
AcDbCircle
 10
1039.75
 20
1991.738263
 30
0.0
 40
3.0
100
AcDbArc
 50
180.0
 51
270.0
  0
LINE
  5
404
100
AcDbEntity
  8
本体
  6
CONTINUOUS
 62
     2
100
AcDbLine
 10
1184.25
 20
1988.738263
 30
0.0
 11
1039.75
 21
1988.738263
 31
0.0
  0
ARC
  5
405
100
AcDbEntity
  8
本体
  6
CONTINUOUS
 62
     2
100
AcDbCircle
 10
1184.25
 20
1991.738263
 30
0.0
 40
3.0
100
AcDbArc
 50
270.0
 51
0.0
  0
LINE
  5
406
100
AcDbEntity
  8
本体
  6
CONTINUOUS
 62
     2
100
AcDbLine
 10
1184.25
 20
2009.238263
 30
0.0
 11
1039.75
 21
2009.238263
 31
0.0
  0
LINE
  5
407
100
AcDbEntity
  8
本体
  6
CONTINUOUS
 62
     2
100
AcDbLine
 10
1187.25
 20
1991.738263
 30
0.0
 11
1187.25
 21
2006.238263
 31
0.0
  0
ARC
  5
408
100
AcDbEntity
  8
本体
  6
CONTINUOUS
 62
     2
100
AcDbCircle
 10
1184.25
 20
2006.238263
 30
0.0
 40
3.0
100
AcDbArc
 50
0.0
 51
90.0
  0
CIRCLE
  5
409
100
AcDbEntity
  8
本体
  6
CONTINUOUS
 62
     2
100
AcDbCircle
 10
1192.0
 20
1853.988263
 30
0.0
 40
12.1
  0
LINE
  5
40A
100
AcDbEntity
  8
本体
  6
CONTINUOUS
 62
     2
100
AcDbLine
 10
1194.5
 20
2424.113577
 30
0.0
 11
1194.5
 21
1878.862949
 31
0.0
  0
ARC
  5
40B
100
AcDbEntity
  8
本体
  6
CONTINUOUS
 62
     2
100
AcDbCircle
 10
979.5
 20
2436.488263
 30
0.0
 40
10.0
100
AcDbArc
 50
0.0
 51
90.0
  0
ARC
  5
40C
100
AcDbEntity
  8
本体
  6
CONTINUOUS
 62
     2
100
AcDbCircle
 10
1034.5
 20
2291.488263
 30
0.0
 40
45.0
100
AcDbArc
 50
180.0
 51
270.0
  0
LINE
  5
40D
100
AcDbEntity
  8
本体
  6
CONTINUOUS
 62
     2
100
AcDbLine
 10
1179.5
 20
2246.488263
 30
0.0
 11
1034.5
 21
2246.488263
 31
0.0
  0
LINE
  5
40E
100
AcDbEntity
  8
本体
  6
CONTINUOUS
 62
     2
100
AcDbLine
 10
989.5
 20
2291.488263
 30
0.0
 11
989.5
 21
2436.488263
 31
0.0
  0
ARC
  5
40F
100
AcDbEntity
  8
本体
  6
CONTINUOUS
 62
     2
100
AcDbCircle
 10
1189.5
 20
2424.113577
 30
0.0
 40
5.0
100
AcDbArc
 50
0.0
 51
84.26083
  0
ARC
  5
410
100
AcDbEntity
  8
本体
  6
CONTINUOUS
 62
     2
100
AcDbCircle
 10
1192.0
 20
2448.988263
 30
0.0
 40
20.0
100
AcDbArc
 50
185.73917
 51
264.26083
  0
ARC
  5
411
100
AcDbEntity
  8
本体
  6
CONTINUOUS
 62
     2
100
AcDbCircle
 10
1167.125314
 20
2446.488263
 30
0.0
 40
5.0
100
AcDbArc
 50
5.73917
 51
90.0
  0
LINE
  5
412
100
AcDbEntity
  8
本体
  6
CONTINUOUS
 62
     2
100
AcDbLine
 10
1192.0
 20
2434.888263
 30
0.0
 11
1192.0
 21
2463.088263
 31
0.0
  0
ARC
  5
413
100
AcDbEntity
  8
本体
  6
CONTINUOUS
 62
     2
100
AcDbCircle
 10
1014.5
 20
2441.488263
 30
0.0
 40
10.0
100
AcDbArc
 50
0.0
 51
90.0
  0
ARC
  5
414
100
AcDbEntity
  8
本体
  6
CONTINUOUS
 62
     2
100
AcDbCircle
 10
1184.5
 20
2271.488263
 30
0.0
 40
10.0
100
AcDbArc
 50
0.0
 51
90.0
  0
ARC
  5
415
100
AcDbEntity
  8
本体
  6
CONTINUOUS
 62
     2
100
AcDbCircle
 10
1034.5
 20
2291.488263
 30
0.0
 40
10.0
100
AcDbArc
 50
180.0
 51
270.0
  0
LINE
  5
416
100
AcDbEntity
  8
本体
  6
CONTINUOUS
 62
     2
100
AcDbLine
 10
1184.5
 20
2281.488263
 30
0.0
 11
1034.5
 21
2281.488263
 31
0.0
  0
LINE
  5
417
100
AcDbEntity
  8
本体
  6
CONTINUOUS
 62
     2
100
AcDbLine
 10
1024.5
 20
2441.488263
 30
0.0
 11
1024.5
 21
2291.488263
 31
0.0
  0
ARC
  5
418
100
AcDbEntity
  8
本体
  6
CONTINUOUS
 62
     2
100
AcDbCircle
 10
1149.5
 20
2406.488263
 30
0.0
 40
37.75
100
AcDbArc
 50
26.030461
 51
90.0
  0
ARC
  5
419
100
AcDbEntity
  8
本体
  6
CONTINUOUS
 62
     2
100
AcDbCircle
 10
1180.72499
 20
2421.738263
 30
0.0
 40
3.0
100
AcDbArc
 50
270.0
 51
26.030461
  0
LINE
  5
41A
100
AcDbEntity
  8
本体
  6
CONTINUOUS
 62
     2
100
AcDbLine
 10
1180.72499
 20
2418.738263
 30
0.0
 11
1039.75
 21
2418.738263
 31
0.0
  0
ARC
  5
41B
100
AcDbEntity
  8
本体
  6
CONTINUOUS
 62
     2
100
AcDbCircle
 10
1039.75
 20
2421.738263
 30
0.0
 40
3.0
100
AcDbArc
 50
180.0
 51
270.0
  0
LINE
  5
41C
100
AcDbEntity
  8
本体
  6
CONTINUOUS
 62
     2
100
AcDbLine
 10
1039.75
 20
2444.238263
 30
0.0
 11
1149.5
 21
2444.238263
 31
0.0
  0
LINE
  5
41D
100
AcDbEntity
  8
本体
  6
CONTINUOUS
 62
     2
100
AcDbLine
 10
1036.75
 20
2421.738263
 30
0.0
 11
1036.75
 21
2441.238263
 31
0.0
  0
ARC
  5
41E
100
AcDbEntity
  8
本体
  6
CONTINUOUS
 62
     2
100
AcDbCircle
 10
1039.75
 20
2441.238263
 30
0.0
 40
3.0
100
AcDbArc
 50
90.0
 51
180.0
  0
ARC
  5
41F
100
AcDbEntity
  8
本体
  6
CONTINUOUS
 62
     2
100
AcDbCircle
 10
1039.75
 20
2411.238263
 30
0.0
 40
3.0
100
AcDbArc
 50
90.0
 51
180.0
  0
LINE
  5
420
100
AcDbEntity
  8
本体
  6
CONTINUOUS
 62
     2
100
AcDbLine
 10
1036.75
 20
2396.738263
 30
0.0
 11
1036.75
 21
2411.238263
 31
0.0
  0
ARC
  5
421
100
AcDbEntity
  8
本体
  6
CONTINUOUS
 62
     2
100
AcDbCircle
 10
1039.75
 20
2396.738263
 30
0.0
 40
3.0
100
AcDbArc
 50
180.0
 51
270.0
  0
LINE
  5
422
100
AcDbEntity
  8
本体
  6
CONTINUOUS
 62
     2
100
AcDbLine
 10
1184.25
 20
2414.238263
 30
0.0
 11
1039.75
 21
2414.238263
 31
0.0
  0
ARC
  5
423
100
AcDbEntity
  8
本体
  6
CONTINUOUS
 62
     2
100
AcDbCircle
 10
1184.25
 20
2411.238263
 30
0.0
 40
3.0
100
AcDbArc
 50
0.0
 51
90.0
  0
LINE
  5
424
100
AcDbEntity
  8
本体
  6
CONTINUOUS
 62
     2
100
AcDbLine
 10
1184.25
 20
2393.738263
 30
0.0
 11
1039.75
 21
2393.738263
 31
0.0
  0
LINE
  5
425
100
AcDbEntity
  8
本体
  6
CONTINUOUS
 62
     2
100
AcDbLine
 10
1187.25
 20
2411.238263
 30
0.0
 11
1187.25
 21
2396.738263
 31
0.0
  0
ARC
  5
426
100
AcDbEntity
  8
本体
  6
CONTINUOUS
 62
     2
100
AcDbCircle
 10
1184.25
 20
2396.738263
 30
0.0
 40
3.0
100
AcDbArc
 50
270.0
 51
0.0
  0
ARC
  5
427
100
AcDbEntity
  8
本体
  6
CONTINUOUS
 62
     2
100
AcDbCircle
 10
1184.25
 20
2386.238263
 30
0.0
 40
3.0
100
AcDbArc
 50
0.0
 51
90.0
  0
LINE
  5
428
100
AcDbEntity
  8
本体
  6
CONTINUOUS
 62
     2
100
AcDbLine
 10
1187.25
 20
2386.238263
 30
0.0
 11
1187.25
 21
2371.738263
 31
0.0
  0
ARC
  5
429
100
AcDbEntity
  8
本体
  6
CONTINUOUS
 62
     2
100
AcDbCircle
 10
1184.25
 20
2371.738263
 30
0.0
 40
3.0
100
AcDbArc
 50
270.0
 51
0.0
  0
LINE
  5
42A
100
AcDbEntity
  8
本体
  6
CONTINUOUS
 62
     2
100
AcDbLine
 10
1184.25
 20
2368.738263
 30
0.0
 11
1039.75
 21
2368.738263
 31
0.0
  0
ARC
  5
42B
100
AcDbEntity
  8
本体
  6
CONTINUOUS
 62
     2
100
AcDbCircle
 10
1039.75
 20
2371.738263
 30
0.0
 40
3.0
100
AcDbArc
 50
180.0
 51
270.0
  0
LINE
  5
42C
100
AcDbEntity
  8
本体
  6
CONTINUOUS
 62
     2
100
AcDbLine
 10
1184.25
 20
2389.238263
 30
0.0
 11
1039.75
 21
2389.238263
 31
0.0
  0
LINE
  5
42D
100
AcDbEntity
  8
本体
  6
CONTINUOUS
 62
     2
100
AcDbLine
 10
1036.75
 20
2371.738263
 30
0.0
 11
1036.75
 21
2386.238263
 31
0.0
  0
ARC
  5
42E
100
AcDbEntity
  8
本体
  6
CONTINUOUS
 62
     2
100
AcDbCircle
 10
1039.75
 20
2386.238263
 30
0.0
 40
3.0
100
AcDbArc
 50
90.0
 51
180.0
  0
ARC
  5
42F
100
AcDbEntity
  8
本体
  6
CONTINUOUS
 62
     2
100
AcDbCircle
 10
1184.25
 20
2361.238263
 30
0.0
 40
3.0
100
AcDbArc
 50
0.0
 51
90.0
  0
LINE
  5
430
100
AcDbEntity
  8
本体
  6
CONTINUOUS
 62
     2
100
AcDbLine
 10
1187.25
 20
2361.238263
 30
0.0
 11
1187.25
 21
2346.738263
 31
0.0
  0
ARC
  5
431
100
AcDbEntity
  8
本体
  6
CONTINUOUS
 62
     2
100
AcDbCircle
 10
1184.25
 20
2346.738263
 30
0.0
 40
3.0
100
AcDbArc
 50
270.0
 51
0.0
  0
LINE
  5
432
100
AcDbEntity
  8
本体
  6
CONTINUOUS
 62
     2
100
AcDbLine
 10
1184.25
 20
2343.738263
 30
0.0
 11
1039.75
 21
2343.738263
 31
0.0
  0
ARC
  5
433
100
AcDbEntity
  8
本体
  6
CONTINUOUS
 62
     2
100
AcDbCircle
 10
1039.75
 20
2346.738263
 30
0.0
 40
3.0
100
AcDbArc
 50
180.0
 51
270.0
  0
LINE
  5
434
100
AcDbEntity
  8
本体
  6
CONTINUOUS
 62
     2
100
AcDbLine
 10
1184.25
 20
2364.238263
 30
0.0
 11
1039.75
 21
2364.238263
 31
0.0
  0
LINE
  5
435
100
AcDbEntity
  8
本体
  6
CONTINUOUS
 62
     2
100
AcDbLine
 10
1036.75
 20
2346.738263
 30
0.0
 11
1036.75
 21
2361.238263
 31
0.0
  0
ARC
  5
436
100
AcDbEntity
  8
本体
  6
CONTINUOUS
 62
     2
100
AcDbCircle
 10
1039.75
 20
2361.238263
 30
0.0
 40
3.0
100
AcDbArc
 50
90.0
 51
180.0
  0
ARC
  5
437
100
AcDbEntity
  8
本体
  6
CONTINUOUS
 62
     2
100
AcDbCircle
 10
1184.25
 20
2336.238263
 30
0.0
 40
3.0
100
AcDbArc
 50
0.0
 51
90.0
  0
LINE
  5
438
100
AcDbEntity
  8
本体
  6
CONTINUOUS
 62
     2
100
AcDbLine
 10
1187.25
 20
2336.238263
 30
0.0
 11
1187.25
 21
2321.738263
 31
0.0
  0
ARC
  5
439
100
AcDbEntity
  8
本体
  6
CONTINUOUS
 62
     2
100
AcDbCircle
 10
1184.25
 20
2321.738263
 30
0.0
 40
3.0
100
AcDbArc
 50
270.0
 51
0.0
  0
LINE
  5
43A
100
AcDbEntity
  8
本体
  6
CONTINUOUS
 62
     2
100
AcDbLine
 10
1184.25
 20
2318.738263
 30
0.0
 11
1039.75
 21
2318.738263
 31
0.0
  0
ARC
  5
43B
100
AcDbEntity
  8
本体
  6
CONTINUOUS
 62
     2
100
AcDbCircle
 10
1039.75
 20
2321.738263
 30
0.0
 40
3.0
100
AcDbArc
 50
180.0
 51
270.0
  0
LINE
  5
43C
100
AcDbEntity
  8
本体
  6
CONTINUOUS
 62
     2
100
AcDbLine
 10
1184.25
 20
2339.238263
 30
0.0
 11
1039.75
 21
2339.238263
 31
0.0
  0
LINE
  5
43D
100
AcDbEntity
  8
本体
  6
CONTINUOUS
 62
     2
100
AcDbLine
 10
1036.75
 20
2321.738263
 30
0.0
 11
1036.75
 21
2336.238263
 31
0.0
  0
ARC
  5
43E
100
AcDbEntity
  8
本体
  6
CONTINUOUS
 62
     2
100
AcDbCircle
 10
1039.75
 20
2336.238263
 30
0.0
 40
3.0
100
AcDbArc
 50
90.0
 51
180.0
  0
ARC
  5
43F
100
AcDbEntity
  8
本体
  6
CONTINUOUS
 62
     2
100
AcDbCircle
 10
1039.75
 20
2296.738263
 30
0.0
 40
3.0
100
AcDbArc
 50
180.0
 51
270.0
  0
LINE
  5
440
100
AcDbEntity
  8
本体
  6
CONTINUOUS
 62
     2
100
AcDbLine
 10
1036.75
 20
2296.738263
 30
0.0
 11
1036.75
 21
2311.238263
 31
0.0
  0
ARC
  5
441
100
AcDbEntity
  8
本体
  6
CONTINUOUS
 62
     2
100
AcDbCircle
 10
1039.75
 20
2311.238263
 30
0.0
 40
3.0
100
AcDbArc
 50
90.0
 51
180.0
  0
LINE
  5
442
100
AcDbEntity
  8
本体
  6
CONTINUOUS
 62
     2
100
AcDbLine
 10
1184.25
 20
2314.238263
 30
0.0
 11
1039.75
 21
2314.238263
 31
0.0
  0
ARC
  5
443
100
AcDbEntity
  8
本体
  6
CONTINUOUS
 62
     2
100
AcDbCircle
 10
1184.25
 20
2311.238263
 30
0.0
 40
3.0
100
AcDbArc
 50
0.0
 51
90.0
  0
LINE
  5
444
100
AcDbEntity
  8
本体
  6
CONTINUOUS
 62
     2
100
AcDbLine
 10
1184.25
 20
2293.738263
 30
0.0
 11
1039.75
 21
2293.738263
 31
0.0
  0
LINE
  5
445
100
AcDbEntity
  8
本体
  6
CONTINUOUS
 62
     2
100
AcDbLine
 10
1187.25
 20
2311.238263
 30
0.0
 11
1187.25
 21
2296.738263
 31
0.0
  0
ARC
  5
446
100
AcDbEntity
  8
本体
  6
CONTINUOUS
 62
     2
100
AcDbCircle
 10
1184.25
 20
2296.738263
 30
0.0
 40
3.0
100
AcDbArc
 50
270.0
 51
0.0
  0
CIRCLE
  5
447
100
AcDbEntity
  8
本体
  6
CONTINUOUS
 62
     2
100
AcDbCircle
 10
1192.0
 20
2448.988263
 30
0.0
 40
12.1
  0
ARC
  5
448
100
AcDbEntity
  8
本体
  6
CONTINUOUS
 62
     2
100
AcDbCircle
 10
1179.5
 20
2236.488263
 30
0.0
 40
10.0
100
AcDbArc
 50
0.0
 51
90.0
  0
LINE
  5
449
100
AcDbEntity
  8
本体
  6
CONTINUOUS
 62
     6
100
AcDbLine
 10
1206.1
 20
2448.988263
 30
0.0
 11
1177.9
 21
2448.988263
 31
0.0
  0
LINE
  5
44A
100
AcDbEntity
  8
本体
  6
CONTINUOUS
 62
     6
100
AcDbLine
 10
1192.0
 20
1839.888263
 30
0.0
 11
1192.0
 21
1868.088263
 31
0.0
  0
LINE
  5
44B
100
AcDbEntity
  8
本体
  6
CONTINUOUS
 62
     6
100
AcDbLine
 10
1192.0
 20
1469.532367
 30
0.0
 11
1190.97036
 21
1473.209654
 31
0.0
  0
LINE
  5
44C
100
AcDbEntity
  8
本体
  6
CONTINUOUS
 62
     6
100
AcDbLine
 10
1193.02964
 20
1473.209654
 30
0.0
 11
1192.0
 21
1469.532367
 31
0.0
  0
ARC
  5
44D
100
AcDbEntity
  8
本体
  6
CONTINUOUS
 62
     6
100
AcDbCircle
 10
1200.6
 20
1475.905953
 30
0.0
 40
10.0
100
AcDbArc
 50
180.0
 51
195.642246
  0
ARC
  5
44E
100
AcDbEntity
  8
本体
  6
CONTINUOUS
 62
     6
100
AcDbCircle
 10
1183.4
 20
1475.905953
 30
0.0
 40
10.0
100
AcDbArc
 50
344.357754
 51
0.0
  0
LINE
  5
44F
100
AcDbEntity
  8
本体
  6
CONTINUOUS
 62
     6
100
AcDbLine
 10
1190.0
 20
1487.712081
 30
0.0
 11
1194.0
 21
1488.417389
 31
0.0
  0
LINE
  5
450
100
AcDbEntity
  8
本体
  6
CONTINUOUS
 62
     6
100
AcDbLine
 10
1194.0
 20
1486.667389
 30
0.0
 11
1190.0
 21
1485.962081
 31
0.0
  0
LINE
  5
451
100
AcDbEntity
  8
本体
  6
CONTINUOUS
 62
     6
100
AcDbLine
 10
1190.0
 20
1484.212081
 30
0.0
 11
1194.0
 21
1484.917389
 31
0.0
  0
LINE
  5
452
100
AcDbEntity
  8
本体
  6
CONTINUOUS
 62
     6
100
AcDbLine
 10
1194.0
 20
1483.167389
 30
0.0
 11
1190.0
 21
1482.462081
 31
0.0
  0
LINE
  5
453
100
AcDbEntity
  8
本体
  6
CONTINUOUS
 62
     6
100
AcDbLine
 10
1190.0
 20
1480.712081
 30
0.0
 11
1194.0
 21
1481.417389
 31
0.0
  0
LINE
  5
454
100
AcDbEntity
  8
本体
  6
CONTINUOUS
 62
     6
100
AcDbLine
 10
1194.0
 20
1479.667389
 30
0.0
 11
1190.0
 21
1478.962081
 31
0.0
  0
LINE
  5
455
100
AcDbEntity
  8
本体
  6
CONTINUOUS
 62
     6
100
AcDbLine
 10
1190.0
 20
1477.212081
 30
0.0
 11
1194.0
 21
1477.917389
 31
0.0
  0
LINE
  5
456
100
AcDbEntity
  8
本体
  6
CONTINUOUS
 62
     6
100
AcDbLine
 10
1190.0
 20
1475.462081
 30
0.0
 11
1194.0
 21
1476.167389
 31
0.0
  0
LINE
  5
457
100
AcDbEntity
  8
本体
  6
CONTINUOUS
 62
     6
100
AcDbLine
 10
1190.0
 20
1473.712081
 30
0.0
 11
1194.0
 21
1474.417389
 31
0.0
  0
LINE
  5
458
100
AcDbEntity
  8
本体
  6
CONTINUOUS
 62
     6
100
AcDbLine
 10
1193.47496
 20
1472.57481
 30
0.0
 11
1190.66383
 21
1472.079132
 31
0.0
  0
LINE
  5
459
100
AcDbEntity
  8
本体
  6
CONTINUOUS
 62
     6
100
AcDbLine
 10
1192.959512
 20
1470.733922
 30
0.0
 11
1191.130776
 21
1470.411467
 31
0.0
  0
LINE
  5
45A
100
AcDbEntity
  8
本体
  6
CONTINUOUS
 62
     6
100
AcDbLine
 10
1190.6
 20
1489.0
 30
0.0
 11
1190.6
 21
1475.905953
 31
0.0
  0
LINE
  5
45B
100
AcDbEntity
  8
本体
  6
CONTINUOUS
 62
     6
100
AcDbLine
 10
1193.4
 20
1489.0
 30
0.0
 11
1193.4
 21
1475.905953
 31
0.0
  0
LINE
  5
45C
100
AcDbEntity
  8
本体
  6
CONTINUOUS
 62
     6
100
AcDbLine
 10
597.0
 20
1469.532367
 30
0.0
 11
595.97036
 21
1473.209654
 31
0.0
  0
LINE
  5
45D
100
AcDbEntity
  8
本体
  6
CONTINUOUS
 62
     6
100
AcDbLine
 10
598.02964
 20
1473.209654
 30
0.0
 11
597.0
 21
1469.532367
 31
0.0
  0
ARC
  5
45E
100
AcDbEntity
  8
本体
  6
CONTINUOUS
 62
     6
100
AcDbCircle
 10
605.6
 20
1475.905953
 30
0.0
 40
10.0
100
AcDbArc
 50
180.0
 51
195.642246
  0
ARC
  5
45F
100
AcDbEntity
  8
本体
  6
CONTINUOUS
 62
     6
100
AcDbCircle
 10
588.4
 20
1475.905953
 30
0.0
 40
10.0
100
AcDbArc
 50
344.357754
 51
0.0
  0
LINE
  5
460
100
AcDbEntity
  8
本体
  6
CONTINUOUS
 62
     6
100
AcDbLine
 10
595.0
 20
1487.712081
 30
0.0
 11
599.0
 21
1488.417389
 31
0.0
  0
LINE
  5
461
100
AcDbEntity
  8
本体
  6
CONTINUOUS
 62
     6
100
AcDbLine
 10
599.0
 20
1486.667389
 30
0.0
 11
595.0
 21
1485.962081
 31
0.0
  0
LINE
  5
462
100
AcDbEntity
  8
本体
  6
CONTINUOUS
 62
     6
100
AcDbLine
 10
595.0
 20
1484.212081
 30
0.0
 11
599.0
 21
1484.917389
 31
0.0
  0
LINE
  5
463
100
AcDbEntity
  8
本体
  6
CONTINUOUS
 62
     6
100
AcDbLine
 10
599.0
 20
1483.167389
 30
0.0
 11
595.0
 21
1482.462081
 31
0.0
  0
LINE
  5
464
100
AcDbEntity
  8
本体
  6
CONTINUOUS
 62
     6
100
AcDbLine
 10
595.0
 20
1480.712081
 30
0.0
 11
599.0
 21
1481.417389
 31
0.0
  0
LINE
  5
465
100
AcDbEntity
  8
本体
  6
CONTINUOUS
 62
     6
100
AcDbLine
 10
599.0
 20
1479.667389
 30
0.0
 11
595.0
 21
1478.962081
 31
0.0
  0
LINE
  5
466
100
AcDbEntity
  8
本体
  6
CONTINUOUS
 62
     6
100
AcDbLine
 10
595.0
 20
1477.212081
 30
0.0
 11
599.0
 21
1477.917389
 31
0.0
  0
LINE
  5
467
100
AcDbEntity
  8
本体
  6
CONTINUOUS
 62
     6
100
AcDbLine
 10
595.0
 20
1475.462081
 30
0.0
 11
599.0
 21
1476.167389
 31
0.0
  0
LINE
  5
468
100
AcDbEntity
  8
本体
  6
CONTINUOUS
 62
     6
100
AcDbLine
 10
595.0
 20
1473.712081
 30
0.0
 11
599.0
 21
1474.417389
 31
0.0
  0
LINE
  5
469
100
AcDbEntity
  8
本体
  6
CONTINUOUS
 62
     6
100
AcDbLine
 10
598.47496
 20
1472.57481
 30
0.0
 11
595.66383
 21
1472.079132
 31
0.0
  0
LINE
  5
46A
100
AcDbEntity
  8
本体
  6
CONTINUOUS
 62
     6
100
AcDbLine
 10
597.959512
 20
1470.733922
 30
0.0
 11
596.130776
 21
1470.411467
 31
0.0
  0
LINE
  5
46B
100
AcDbEntity
  8
本体
  6
CONTINUOUS
 62
     6
100
AcDbLine
 10
595.6
 20
1489.0
 30
0.0
 11
595.6
 21
1475.905953
 31
0.0
  0
LINE
  5
46C
100
AcDbEntity
  8
本体
  6
CONTINUOUS
 62
     6
100
AcDbLine
 10
598.4
 20
1489.0
 30
0.0
 11
598.4
 21
1475.905953
 31
0.0
  0
ARC
  5
46D
100
AcDbEntity
  8
本体
  6
CONTINUOUS
 62
     6
100
AcDbCircle
 10
1510.0
 20
491.113054
 30
0.0
 40
500.0
100
AcDbArc
 50
83.62063
 51
96.37937
  0
ARC
  5
46E
100
AcDbEntity
  8
本体
  6
CONTINUOUS
 62
     6
100
AcDbCircle
 10
1565.0
 20
983.048009
 30
0.0
 40
5.0
100
AcDbArc
 50
0.0
 51
83.62063
  0
LINE
  5
46F
100
AcDbEntity
  8
本体
  6
CONTINUOUS
 62
     6
100
AcDbLine
 10
1570.0
 20
983.048009
 30
0.0
 11
1570.0
 21
980.0
 31
0.0
  0
LINE
  5
470
100
AcDbEntity
  8
本体
  6
CONTINUOUS
 62
     6
100
AcDbLine
 10
1554.663382
 20
980.0
 30
0.0
 11
1570.0
 21
980.0
 31
0.0
  0
LINE
  5
471
100
AcDbEntity
  8
本体
  6
CONTINUOUS
 62
     6
100
AcDbLine
 10
1565.0
 20
982.5
 30
0.0
 11
1565.0
 21
980.0
 31
0.0
  0
LINE
  5
472
100
AcDbEntity
  8
本体
  6
CONTINUOUS
 62
     6
100
AcDbLine
 10
1554.73914
 20
982.5
 30
0.0
 11
1565.0
 21
982.5
 31
0.0
  0
LINE
  5
473
100
AcDbEntity
  8
本体
  6
CONTINUOUS
 62
     6
100
AcDbLine
 10
1554.73914
 20
982.5
 30
0.0
 11
1553.487624
 21
941.2
 31
0.0
  0
LINE
  5
474
100
AcDbEntity
  8
本体
  6
CONTINUOUS
 62
     6
100
AcDbLine
 10
1544.966412
 20
975.0
 30
0.0
 11
1475.033588
 21
975.0
 31
0.0
  0
LINE
  5
475
100
AcDbEntity
  8
本体
  6
CONTINUOUS
 62
     6
100
AcDbLine
 10
1475.26086
 20
982.5
 30
0.0
 11
1544.73914
 21
982.5
 31
0.0
  0
LINE
  5
476
100
AcDbEntity
  8
本体
  6
CONTINUOUS
 62
     6
100
AcDbLine
 10
1455.0
 20
982.5
 30
0.0
 11
1465.26086
 21
982.5
 31
0.0
  0
LINE
  5
477
100
AcDbEntity
  8
本体
  6
CONTINUOUS
 62
     6
100
AcDbLine
 10
1455.0
 20
982.5
 30
0.0
 11
1455.0
 21
980.0
 31
0.0
  0
LINE
  5
478
100
AcDbEntity
  8
本体
  6
CONTINUOUS
 62
     6
100
AcDbLine
 10
1465.26086
 20
982.5
 30
0.0
 11
1466.512376
 21
941.2
 31
0.0
  0
LINE
  5
479
100
AcDbEntity
  8
本体
  6
CONTINUOUS
 62
     6
100
AcDbLine
 10
1450.0
 20
980.0
 30
0.0
 11
1465.336618
 21
980.0
 31
0.0
  0
ARC
  5
47A
100
AcDbEntity
  8
本体
  6
CONTINUOUS
 62
     6
100
AcDbCircle
 10
1455.0
 20
983.048009
 30
0.0
 40
5.0
100
AcDbArc
 50
96.37937
 51
180.0
  0
LINE
  5
47B
100
AcDbEntity
  8
本体
  6
CONTINUOUS
 62
     6
100
AcDbLine
 10
1450.0
 20
983.048009
 30
0.0
 11
1450.0
 21
980.0
 31
0.0
  0
LINE
  5
47C
100
AcDbEntity
  8
本体
  6
CONTINUOUS
 62
     6
100
AcDbLine
 10
1475.26086
 20
982.5
 30
0.0
 11
1473.236618
 21
915.7
 31
0.0
  0
LINE
  5
47D
100
AcDbEntity
  8
本体
  6
CONTINUOUS
 62
     6
100
AcDbLine
 10
1544.73914
 20
982.5
 30
0.0
 11
1546.763382
 21
915.7
 31
0.0
  0
LINE
  5
47E
100
AcDbEntity
  8
本体
  6
CONTINUOUS
 62
     6
100
AcDbLine
 10
1546.763382
 20
915.7
 30
0.0
 11
1552.478229
 21
915.7
 31
0.0
  0
LINE
  5
47F
100
AcDbEntity
  8
本体
  6
CONTINUOUS
 62
     6
100
AcDbLine
 10
1467.521771
 20
915.7
 30
0.0
 11
1473.236618
 21
915.7
 31
0.0
  0
DIMENSION
  5
48A
100
AcDbEntity
  8
寸法
  6
CONTINUOUS
 62
     3
100
AcDbDimension
  2
*D19
 10
1307.0
 20
1549.0
 30
0.0
 11
1283.5
 21
1614.0
 31
0.0
 70
   160
  3
STANDARD
100
AcDbAlignedDimension
 13
1419.0
 23
1489.0
 33
0.0
 14
1204.0
 24
1549.0
 34
0.0
 50
90.0
100
AcDbRotatedDimension
1001
ACAD
1000
DSTYLE
1002
{
1070
     6
1000
_EX_NORM
1070
     7
1000
_EX_NORM
1070
    41
1040
30.0
1070
    42
1040
8.2
1070
    44
1040
10.0
1070
    73
1070
     0
1070
    74
1070
     0
1070
    75
1070
     1
1070
    76
1070
     0
1070
    77
1070
     1
1070
    78
1070
     8
1070
   140
1040
40.0
1070
   147
1040
3.5
1070
   173
1070
     1
1070
   176
1070
     3
1070
   177
1070
     3
1070
   178
1070
     2
1070
   271
1070
     2
1070
   279
1070
     2
1070
   280
1070
     2
1070
   287
1070
     5
1070
   340
1005
CD
1002
}
  0
DIMENSION
  5
495
100
AcDbEntity
  8
寸法
  6
CONTINUOUS
 62
     3
100
AcDbDimension
  2
*D20
 10
574.5
 20
2040.0
 30
0.0
 11
851.5
 21
2063.5
 31
0.0
 70
   160
  3
STANDARD
100
AcDbAlignedDimension
 13
697.5
 23
2151.488263
 33
0.0
 14
574.5
 24
2081.0
 34
0.0
100
AcDbRotatedDimension
1001
ACAD
1000
DSTYLE
1002
{
1070
     6
1000
_EX_NORM
1070
     7
1000
_EX_NORM
1070
    41
1040
30.0
1070
    42
1040
77.488265
1070
    44
1040
10.0
1070
    73
1070
     0
1070
    74
1070
     0
1070
    75
1070
     0
1070
    76
1070
     1
1070
    77
1070
     1
1070
    78
1070
     8
1070
   140
1040
40.0
1070
   147
1040
3.5
1070
   173
1070
     1
1070
   176
1070
     3
1070
   177
1070
     3
1070
   178
1070
     2
1070
   271
1070
     2
1070
   279
1070
     2
1070
   280
1070
     0
1070
   287
1070
     5
1070
   340
1005
CD
1002
}
  0
DIMENSION
  5
4A0
100
AcDbEntity
  8
寸法
  6
CONTINUOUS
 62
     3
100
AcDbDimension
  2
*D21
 10
-473.0
 20
1313.0
 30
0.0
 11
-496.5
 21
1378.0
 31
0.0
 70
   160
  3
STANDARD
100
AcDbAlignedDimension
 13
-361.0
 23
1253.0
 33
0.0
 14
-576.0
 24
1313.0
 34
0.0
 50
90.0
100
AcDbRotatedDimension
1001
ACAD
1000
DSTYLE
1002
{
1070
     6
1000
_EX_NORM
1070
     7
1000
_EX_NORM
1070
    41
1040
30.0
1070
    42
1040
8.2
1070
    44
1040
10.0
1070
    73
1070
     0
1070
    74
1070
     0
1070
    75
1070
     1
1070
    76
1070
     0
1070
    77
1070
     1
1070
    78
1070
     8
1070
   140
1040
40.0
1070
   147
1040
3.5
1070
   173
1070
     1
1070
   176
1070
     3
1070
   177
1070
     3
1070
   178
1070
     2
1070
   271
1070
     2
1070
   279
1070
     2
1070
   280
1070
     2
1070
   287
1070
     5
1070
   340
1005
CD
1002
}
  0
TEXT
  5
4A1
100
AcDbEntity
  8
寸法
  6
CONTINUOUS
 62
     2
100
AcDbText
 10
-412.133333
 20
1256.5
 30
0.0
 40
40.0
  1
Ｆ．Ｌ
 41
0.833
  7
EXCADSTD
 72
     5
 11
-293.133334
 21
1256.5
 31
0.0
100
AcDbText
  0
TEXT
  5
4A2
100
AcDbEntity
  8
寸法
  6
CONTINUOUS
 62
     2
100
AcDbText
 10
1367.866667
 20
1492.5
 30
0.0
 40
40.0
  1
Ｆ．Ｌ
 41
0.833
  7
EXCADSTD
 72
     5
 11
1486.866666
 21
1492.5
 31
0.0
100
AcDbText
  0
DIMENSION
  5
4AD
100
AcDbEntity
  8
寸法
  6
CONTINUOUS
 62
     2
100
AcDbDimension
  2
*D22
 10
514.0
 20
1392.0
 30
0.0
 11
490.5
 21
1440.5
 31
0.0
 70
   160
  1
101
  3
STANDARD
100
AcDbAlignedDimension
 13
488.0
 23
1489.0
 33
0.0
 14
665.586332
 24
1392.0
 34
0.0
 50
90.0
100
AcDbRotatedDimension
1001
ACAD
1000
DSTYLE
1002
{
1070
     6
1000
_EX_NORM
1070
     7
1000
_EX_NORM
1070
    41
1040
30.0
1070
    42
1040
5.0
1070
    44
1040
10.0
1070
    73
1070
     0
1070
    74
1070
     0
1070
    75
1070
     1
1070
    76
1070
     0
1070
    77
1070
     1
1070
    78
1070
     8
1070
   140
1040
40.0
1070
   147
1040
3.5
1070
   173
1070
     1
1070
   176
1070
     3
1070
   177
1070
     3
1070
   178
1070
     2
1070
   271
1070
     2
1070
   279
1070
     2
1070
   280
1070
     0
1070
   287
1070
     5
1070
   340
1005
CD
1002
}
  0
DIMENSION
  5
4B9
100
AcDbEntity
  8
寸法
  6
CONTINUOUS
 62
     3
100
AcDbDimension
  2
*D23
 10
1192.0
 20
2551.488263
 30
0.0
 11
894.5
 21
2574.988263
 31
0.0
 70
   160
  3
STANDARD
100
AcDbAlignedDimension
 13
597.0
 23
2448.988263
 33
0.0
 14
1192.0
 24
2448.988263
 34
0.0
100
AcDbRotatedDimension
1001
ACAD
1000
DSTYLE
1002
{
1070
     6
1000
_EX_NORM
1070
     7
1000
_EX_NORM
1070
    41
1040
35.0
1070
    42
1040
0.0
1070
    44
1040
0.0
1070
    73
1070
     0
1070
    74
1070
     0
1070
    75
1070
     0
1070
    76
1070
     0
1070
    77
1070
     1
1070
    78
1070
     0
1070
   140
1040
40.0
1070
   147
1040
3.5
1070
   173
1070
     1
1070
   176
1070
     3
1070
   177
1070
     3
1070
   178
1070
     2
1070
   271
1070
     0
1070
   279
1070
     2
1070
   280
1070
     0
1070
   287
1070
     5
1070
   340
1005
CD
1002
}
  0
DIMENSION
  5
4C5
100
AcDbEntity
  8
寸法
  6
CONTINUOUS
 62
     3
100
AcDbDimension
  2
*D24
 10
494.5
 20
1853.988263
 30
0.0
 11
471.0
 21
2151.488263
 31
0.0
 70
   160
  3
STANDARD
100
AcDbAlignedDimension
 13
597.0
 23
2448.988263
 33
0.0
 14
597.0
 24
1853.988263
 34
0.0
 50
90.0
100
AcDbRotatedDimension
1001
ACAD
1000
DSTYLE
1002
{
1070
     6
1000
_EX_NORM
1070
     7
1000
_EX_NORM
1070
    41
1040
35.0
1070
    42
1040
0.0
1070
    44
1040
0.0
1070
    73
1070
     0
1070
    74
1070
     0
1070
    75
1070
     0
1070
    76
1070
     0
1070
    77
1070
     1
1070
    78
1070
     0
1070
   140
1040
40.0
1070
   147
1040
3.5
1070
   173
1070
     1
1070
   176
1070
     3
1070
   177
1070
     3
1070
   178
1070
     2
1070
   271
1070
     0
1070
   279
1070
     2
1070
   280
1070
     0
1070
   287
1070
     5
1070
   340
1005
CD
1002
}
  0
DIMENSION
  5
4D1
100
AcDbEntity
  8
寸法
  6
CONTINUOUS
 62
     3
100
AcDbDimension
  2
*D25
 10
1214.5
 20
1695.0
 30
0.0
 11
894.5
 21
1718.5
 31
0.0
 70
   160
  3
STANDARD
100
AcDbAlignedDimension
 13
574.5
 23
1841.488263
 33
0.0
 14
1214.5
 24
1841.488263
 34
0.0
100
AcDbRotatedDimension
1001
ACAD
1000
DSTYLE
1002
{
1070
     6
1000
_EX_NORM
1070
     7
1000
_EX_NORM
1070
    41
1040
30.0
1070
    42
1040
5.0
1070
    44
1040
10.0
1070
    73
1070
     0
1070
    74
1070
     0
1070
    75
1070
     0
1070
    76
1070
     0
1070
    77
1070
     1
1070
    78
1070
     8
1070
   140
1040
40.0
1070
   147
1040
3.5
1070
   173
1070
     1
1070
   176
1070
     3
1070
   177
1070
     3
1070
   178
1070
     2
1070
   271
1070
     2
1070
   279
1070
     2
1070
   280
1070
     0
1070
   287
1070
     5
1070
   340
1005
CD
1002
}
  0
DIMENSION
  5
4DD
100
AcDbEntity
  8
寸法
  6
CONTINUOUS
 62
     3
100
AcDbDimension
  2
*D26
 10
599.5
 20
1754.0
 30
0.0
 11
894.5
 21
1777.5
 31
0.0
 70
   160
  1
590（内寸）
  3
STANDARD
100
AcDbAlignedDimension
 13
1189.5
 23
1873.831398
 33
0.0
 14
599.5
 24
1873.831398
 34
0.0
100
AcDbRotatedDimension
1001
ACAD
1000
DSTYLE
1002
{
1070
     6
1000
_EX_NORM
1070
     7
1000
_EX_NORM
1070
    41
1040
30.0
1070
    42
1040
5.0
1070
    44
1040
10.0
1070
    73
1070
     0
1070
    74
1070
     0
1070
    75
1070
     0
1070
    76
1070
     0
1070
    77
1070
     1
1070
    78
1070
     8
1070
   140
1040
40.0
1070
   147
1040
3.5
1070
   173
1070
     1
1070
   176
1070
     3
1070
   177
1070
     3
1070
   178
1070
     2
1070
   271
1070
     2
1070
   279
1070
     2
1070
   280
1070
     0
1070
   287
1070
     5
1070
   340
1005
CD
1002
}
  0
DIMENSION
  5
4E9
100
AcDbEntity
  8
寸法
  6
CONTINUOUS
 62
     3
100
AcDbDimension
  2
*D27
 10
1308.0
 20
1856.488263
 30
0.0
 11
1284.5
 21
2151.488263
 31
0.0
 70
   160
  1
590（内寸）
  3
STANDARD
100
AcDbAlignedDimension
 13
1172.156865
 23
2446.488263
 33
0.0
 14
1172.156865
 24
1856.488263
 34
0.0
 50
90.0
100
AcDbRotatedDimension
1001
ACAD
1000
DSTYLE
1002
{
1070
     6
1000
_EX_NORM
1070
     7
1000
_EX_NORM
1070
    41
1040
30.0
1070
    42
1040
5.0
1070
    44
1040
10.0
1070
    73
1070
     0
1070
    74
1070
     0
1070
    75
1070
     0
1070
    76
1070
     0
1070
    77
1070
     1
1070
    78
1070
     8
1070
   140
1040
40.0
1070
   147
1040
3.5
1070
   173
1070
     1
1070
   176
1070
     3
1070
   177
1070
     3
1070
   178
1070
     2
1070
   271
1070
     2
1070
   279
1070
     2
1070
   280
1070
     0
1070
   287
1070
     5
1070
   340
1005
CD
1002
}
  0
DIMENSION
  5
4F5
100
AcDbEntity
  8
寸法
  6
CONTINUOUS
 62
     3
100
AcDbDimension
  2
*D28
 10
1366.0
 20
1831.488263
 30
0.0
 11
1342.5
 21
2151.488263
 31
0.0
 70
   160
  3
STANDARD
100
AcDbAlignedDimension
 13
1204.5
 23
2471.488263
 33
0.0
 14
1204.5
 24
1831.488263
 34
0.0
 50
90.0
100
AcDbRotatedDimension
1001
ACAD
1000
DSTYLE
1002
{
1070
     6
1000
_EX_NORM
1070
     7
1000
_EX_NORM
1070
    41
1040
30.0
1070
    42
1040
5.0
1070
    44
1040
10.0
1070
    73
1070
     0
1070
    74
1070
     0
1070
    75
1070
     0
1070
    76
1070
     0
1070
    77
1070
     1
1070
    78
1070
     8
1070
   140
1040
40.0
1070
   147
1040
3.5
1070
   173
1070
     1
1070
   176
1070
     3
1070
   177
1070
     3
1070
   178
1070
     2
1070
   271
1070
     2
1070
   279
1070
     2
1070
   280
1070
     0
1070
   287
1070
     5
1070
   340
1005
CD
1002
}
  0
LINE
  5
4F6
100
AcDbEntity
  8
詳細図
  6
CONTINUOUS
 62
     2
100
AcDbLine
 10
1371.611652
 20
687.5
 30
0.0
 11
1378.829917
 21
963.154424
 31
0.0
  0
ARC
  5
4F7
100
AcDbEntity
  8
詳細図
  6
CONTINUOUS
 62
     2
100
AcDbCircle
 10
1634.08461
 20
952.5
 30
0.0
 40
25.0
100
AcDbArc
 50
184.411726
 51
270.0
  0
ARC
  5
4F8
100
AcDbEntity
  8
詳細図
  6
CONTINUOUS
 62
     2
100
AcDbCircle
 10
1569.277203
 20
947.5
 30
0.0
 40
40.0
100
AcDbArc
 50
4.411726
 51
90.0
  0
ARC
  5
4F9
100
AcDbEntity
  8
詳細図
  6
CONTINUOUS
 62
     2
100
AcDbCircle
 10
1403.821351
 20
962.5
 30
0.0
 40
25.0
100
AcDbArc
 50
90.0
 51
178.5
  0
ARC
  5
4FA
100
AcDbEntity
  8
詳細図
  6
CONTINUOUS
 62
     2
100
AcDbCircle
 10
1403.821351
 20
962.5
 30
0.0
 40
10.0
100
AcDbArc
 50
90.0
 51
178.5
  0
LINE
  5
4FB
100
AcDbEntity
  8
詳細図
  6
CONTINUOUS
 62
     2
100
AcDbLine
 10
1393.824777
 20
962.761769
 30
0.0
 11
1386.606512
 21
687.107346
 31
0.0
  0
ARC
  5
4FC
100
AcDbEntity
  8
詳細図
  6
CONTINUOUS
 62
     2
100
AcDbCircle
 10
1636.730891
 20
950.0
 30
0.0
 40
42.5
100
AcDbArc
 50
182.122551
 51
270.0
  0
LINE
  5
4FD
100
AcDbEntity
  8
詳細図
  6
CONTINUOUS
 62
     2
100
AcDbLine
 10
1634.08461
 20
927.5
 30
0.0
 11
1747.657288
 21
927.5
 31
0.0
  0
LINE
  5
4FE
100
AcDbEntity
  8
詳細図
  6
CONTINUOUS
 62
     2
100
AcDbLine
 10
1634.08461
 20
907.5
 30
0.0
 11
1747.657288
 21
907.5
 31
0.0
  0
LINE
  5
4FF
100
AcDbEntity
  8
詳細図
  6
CONTINUOUS
 62
     2
100
AcDbLine
 10
1535.0
 20
792.5
 30
0.0
 11
1535.0
 21
687.5
 31
0.0
  0
LINE
  5
500
100
AcDbEntity
  8
詳細図
  6
CONTINUOUS
 62
     2
100
AcDbLine
 10
1485.0
 20
792.5
 30
0.0
 11
1485.0
 21
687.5
 31
0.0
  0
ARC
  5
501
100
AcDbEntity
  8
詳細図
  6
CONTINUOUS
 62
     2
100
AcDbCircle
 10
1569.277203
 20
947.5
 30
0.0
 40
25.0
100
AcDbArc
 50
2.122551
 51
82.375922
  0
LINE
  5
502
100
AcDbEntity
  8
詳細図
  6
CONTINUOUS
 62
     2
100
AcDbLine
 10
1448.064287
 20
972.5
 30
0.0
 11
1403.821351
 21
972.5
 31
0.0
  0
ARC
  5
503
100
AcDbEntity
  8
詳細図
  6
CONTINUOUS
 62
     2
100
AcDbCircle
 10
1448.064287
 20
967.5
 30
0.0
 40
5.0
100
AcDbArc
 50
1.636577
 51
90.0
  0
ARC
  5
504
100
AcDbEntity
  8
詳細図
  6
CONTINUOUS
 62
     2
100
AcDbCircle
 10
1571.930661
 20
967.323197
 30
0.0
 40
5.0
100
AcDbArc
 50
82.375922
 51
178.363423
  0
LINE
  5
505
100
AcDbEntity
  8
詳細図
  6
CONTINUOUS
 62
     2
100
AcDbLine
 10
1449.5
 20
987.5
 30
0.0
 11
1449.5
 21
980.0
 31
0.0
  0
ARC
  5
506
100
AcDbEntity
  8
詳細図
  6
CONTINUOUS
 62
     2
100
AcDbCircle
 10
1462.573513
 20
977.5
 30
0.0
 40
2.5
100
AcDbArc
 50
1.709814
 51
90.0
  0
LINE
  5
507
100
AcDbEntity
  8
詳細図
  6
CONTINUOUS
 62
     2
100
AcDbLine
 10
1570.5
 20
987.5
 30
0.0
 11
1570.5
 21
980.0
 31
0.0
  0
LINE
  5
508
100
AcDbEntity
  8
詳細図
  6
CONTINUOUS
 62
     2
100
AcDbLine
 10
1403.821351
 20
987.5
 30
0.0
 11
1452.724087
 21
987.5
 31
0.0
  0
LINE
  5
509
100
AcDbEntity
  8
詳細図
  6
CONTINUOUS
 62
     2
100
AcDbLine
 10
1567.275913
 20
987.5
 30
0.0
 11
1747.657288
 21
987.5
 31
0.0
  0
LINE
  5
50A
100
AcDbEntity
  8
詳細図
  6
CONTINUOUS
 62
     2
100
AcDbLine
 10
1449.5
 20
980.0
 30
0.0
 11
1450.0
 21
980.0
 31
0.0
  0
LINE
  5
50B
100
AcDbEntity
  8
詳細図
  6
CONTINUOUS
 62
     2
100
AcDbLine
 10
1570.0
 20
980.0
 30
0.0
 11
1570.5
 21
980.0
 31
0.0
  0
LINE
  5
50C
100
AcDbEntity
  8
詳細図
  6
CONTINUOUS
 62
     6
100
AcDbLine
 10
1593.188276
 20
627.5
 30
0.0
 11
1653.188276
 21
687.5
 31
0.0
  0
LINE
  5
50D
100
AcDbEntity
  8
詳細図
  6
CONTINUOUS
 62
     6
100
AcDbLine
 10
1586.117208
 20
627.5
 30
0.0
 11
1646.117208
 21
687.5
 31
0.0
  0
LINE
  5
50E
100
AcDbEntity
  8
詳細図
  6
CONTINUOUS
 62
     6
100
AcDbLine
 10
1600.259344
 20
627.5
 30
0.0
 11
1660.259344
 21
687.5
 31
0.0
  0
LINE
  5
50F
100
AcDbEntity
  8
詳細図
  6
CONTINUOUS
 62
     6
100
AcDbLine
 10
1405.859344
 20
627.5
 30
0.0
 11
1465.859344
 21
687.5
 31
0.0
  0
LINE
  5
510
100
AcDbEntity
  8
詳細図
  6
CONTINUOUS
 62
     6
100
AcDbLine
 10
1391.717208
 20
627.5
 30
0.0
 11
1451.717208
 21
687.5
 31
0.0
  0
LINE
  5
511
100
AcDbEntity
  8
詳細図
  6
CONTINUOUS
 62
     6
100
AcDbLine
 10
1398.788276
 20
627.5
 30
0.0
 11
1458.788276
 21
687.5
 31
0.0
  0
LINE
  5
512
100
AcDbEntity
  8
詳細図
  6
CONTINUOUS
 62
     6
100
AcDbLine
 10
1535.459344
 20
627.5
 30
0.0
 11
1595.459344
 21
687.5
 31
0.0
  0
LINE
  5
513
100
AcDbEntity
  8
詳細図
  6
CONTINUOUS
 62
     6
100
AcDbLine
 10
1528.388276
 20
627.5
 30
0.0
 11
1588.388276
 21
687.5
 31
0.0
  0
LINE
  5
514
100
AcDbEntity
  8
詳細図
  6
CONTINUOUS
 62
     6
100
AcDbLine
 10
1521.317208
 20
627.5
 30
0.0
 11
1581.317208
 21
687.5
 31
0.0
  0
LINE
  5
515
100
AcDbEntity
  8
詳細図
  6
CONTINUOUS
 62
     6
100
AcDbLine
 10
1470.659344
 20
627.5
 30
0.0
 11
1502.5
 21
659.340656
 31
0.0
  0
LINE
  5
516
100
AcDbEntity
  8
詳細図
  6
CONTINUOUS
 62
     6
100
AcDbLine
 10
1517.5
 20
674.340656
 30
0.0
 11
1530.659344
 21
687.5
 31
0.0
  0
LINE
  5
517
100
AcDbEntity
  8
詳細図
  6
CONTINUOUS
 62
     2
100
AcDbLine
 10
1200.0
 20
687.5
 30
0.0
 11
1502.5
 21
687.5
 31
0.0
  0
LINE
  5
518
100
AcDbEntity
  8
詳細図
  6
CONTINUOUS
 62
     2
100
AcDbLine
 10
1517.5
 20
687.5
 30
0.0
 11
1686.7
 21
687.5
 31
0.0
  0
LINE
  5
519
100
AcDbEntity
  8
詳細図
  6
CONTINUOUS
 62
     6
100
AcDbLine
 10
1326.917208
 20
627.5
 30
0.0
 11
1386.917208
 21
687.5
 31
0.0
  0
LINE
  5
51A
100
AcDbEntity
  8
詳細図
  6
CONTINUOUS
 62
     6
100
AcDbLine
 10
1333.988276
 20
627.5
 30
0.0
 11
1393.988276
 21
687.5
 31
0.0
  0
LINE
  5
51B
100
AcDbEntity
  8
詳細図
  6
CONTINUOUS
 62
     6
100
AcDbLine
 10
1341.059344
 20
627.5
 30
0.0
 11
1401.059344
 21
687.5
 31
0.0
  0
LINE
  5
51C
100
AcDbEntity
  8
詳細図
  6
CONTINUOUS
 62
     6
100
AcDbLine
 10
1261.816794
 20
627.5
 30
0.0
 11
1321.816794
 21
687.5
 31
0.0
  0
LINE
  5
51D
100
AcDbEntity
  8
詳細図
  6
CONTINUOUS
 62
     6
100
AcDbLine
 10
1268.887862
 20
627.5
 30
0.0
 11
1328.887862
 21
687.5
 31
0.0
  0
LINE
  5
51E
100
AcDbEntity
  8
詳細図
  6
CONTINUOUS
 62
     6
100
AcDbLine
 10
1275.95893
 20
627.5
 30
0.0
 11
1335.95893
 21
687.5
 31
0.0
  0
LINE
  5
51F
100
AcDbEntity
  8
詳細図
  6
CONTINUOUS
 62
     6
100
AcDbLine
 10
1197.016794
 20
627.5
 30
0.0
 11
1257.016794
 21
687.5
 31
0.0
  0
LINE
  5
520
100
AcDbEntity
  8
詳細図
  6
CONTINUOUS
 62
     6
100
AcDbLine
 10
1204.087862
 20
627.5
 30
0.0
 11
1264.087862
 21
687.5
 31
0.0
  0
LINE
  5
521
100
AcDbEntity
  8
詳細図
  6
CONTINUOUS
 62
     6
100
AcDbLine
 10
1211.15893
 20
627.5
 30
0.0
 11
1271.15893
 21
687.5
 31
0.0
  0
LINE
  5
522
100
AcDbEntity
  8
詳細図
  6
CONTINUOUS
 62
     6
100
AcDbLine
 10
1520.0
 20
845.5
 30
0.0
 11
1500.0
 21
841.5
 31
0.0
  0
LINE
  5
523
100
AcDbEntity
  8
詳細図
  6
CONTINUOUS
 62
     6
100
AcDbLine
 10
1520.0
 20
837.5
 30
0.0
 11
1500.0
 21
833.5
 31
0.0
  0
LINE
  5
524
100
AcDbEntity
  8
詳細図
  6
CONTINUOUS
 62
     6
100
AcDbLine
 10
1520.0
 20
829.5
 30
0.0
 11
1500.0
 21
825.5
 31
0.0
  0
LINE
  5
525
100
AcDbEntity
  8
詳細図
  6
CONTINUOUS
 62
     6
100
AcDbLine
 10
1520.0
 20
821.5
 30
0.0
 11
1500.0
 21
817.5
 31
0.0
  0
LINE
  5
526
100
AcDbEntity
  8
詳細図
  6
CONTINUOUS
 62
     6
100
AcDbLine
 10
1520.0
 20
813.5
 30
0.0
 11
1500.0
 21
809.5
 31
0.0
  0
LINE
  5
527
100
AcDbEntity
  8
詳細図
  6
CONTINUOUS
 62
     6
100
AcDbLine
 10
1520.0
 20
805.5
 30
0.0
 11
1500.0
 21
801.5
 31
0.0
  0
LINE
  5
528
100
AcDbEntity
  8
詳細図
  6
CONTINUOUS
 62
     6
100
AcDbLine
 10
1520.0
 20
797.5
 30
0.0
 11
1500.0
 21
793.5
 31
0.0
  0
LINE
  5
529
100
AcDbEntity
  8
詳細図
  6
CONTINUOUS
 62
     6
100
AcDbLine
 10
1520.0
 20
789.5
 30
0.0
 11
1500.0
 21
785.5
 31
0.0
  0
LINE
  5
52A
100
AcDbEntity
  8
詳細図
  6
CONTINUOUS
 62
     6
100
AcDbLine
 10
1520.0
 20
781.5
 30
0.0
 11
1500.0
 21
777.5
 31
0.0
  0
LINE
  5
52B
100
AcDbEntity
  8
詳細図
  6
CONTINUOUS
 62
     6
100
AcDbLine
 10
1520.0
 20
773.5
 30
0.0
 11
1500.0
 21
769.5
 31
0.0
  0
LINE
  5
52C
100
AcDbEntity
  8
詳細図
  6
CONTINUOUS
 62
     6
100
AcDbLine
 10
1520.0
 20
757.5
 30
0.0
 11
1500.0
 21
753.5
 31
0.0
  0
LINE
  5
52D
100
AcDbEntity
  8
詳細図
  6
CONTINUOUS
 62
     6
100
AcDbLine
 10
1520.0
 20
749.5
 30
0.0
 11
1500.0
 21
745.5
 31
0.0
  0
LINE
  5
52E
100
AcDbEntity
  8
詳細図
  6
CONTINUOUS
 62
     6
100
AcDbLine
 10
1520.0
 20
741.5
 30
0.0
 11
1500.0
 21
737.5
 31
0.0
  0
LINE
  5
52F
100
AcDbEntity
  8
詳細図
  6
CONTINUOUS
 62
     6
100
AcDbLine
 10
1520.0
 20
733.5
 30
0.0
 11
1500.0
 21
729.5
 31
0.0
  0
LINE
  5
530
100
AcDbEntity
  8
詳細図
  6
CONTINUOUS
 62
     6
100
AcDbLine
 10
1520.0
 20
725.5
 30
0.0
 11
1500.0
 21
721.5
 31
0.0
  0
LINE
  5
531
100
AcDbEntity
  8
詳細図
  6
CONTINUOUS
 62
     6
100
AcDbLine
 10
1520.0
 20
717.5
 30
0.0
 11
1500.0
 21
713.5
 31
0.0
  0
LINE
  5
532
100
AcDbEntity
  8
詳細図
  6
CONTINUOUS
 62
     6
100
AcDbLine
 10
1520.0
 20
709.5
 30
0.0
 11
1500.0
 21
705.5
 31
0.0
  0
LINE
  5
533
100
AcDbEntity
  8
詳細図
  6
CONTINUOUS
 62
     6
100
AcDbLine
 10
1520.0
 20
701.5
 30
0.0
 11
1500.0
 21
697.5
 31
0.0
  0
LINE
  5
534
100
AcDbEntity
  8
詳細図
  6
CONTINUOUS
 62
     6
100
AcDbLine
 10
1520.0
 20
765.5
 30
0.0
 11
1500.0
 21
761.5
 31
0.0
  0
LINE
  5
535
100
AcDbEntity
  8
詳細図
  6
CONTINUOUS
 62
     2
100
AcDbLine
 10
1472.426487
 20
852.5
 30
0.0
 11
1547.573513
 21
852.5
 31
0.0
  0
ARC
  5
536
100
AcDbEntity
  8
詳細図
  6
CONTINUOUS
 62
     2
100
AcDbCircle
 10
1472.426487
 20
855.0
 30
0.0
 40
2.5
100
AcDbArc
 50
181.709814
 51
270.0
  0
ARC
  5
537
100
AcDbEntity
  8
詳細図
  6
CONTINUOUS
 62
     2
100
AcDbCircle
 10
1547.573513
 20
855.0
 30
0.0
 40
2.5
100
AcDbArc
 50
270.0
 51
358.290186
  0
LINE
  5
538
100
AcDbEntity
  8
詳細図
  6
CONTINUOUS
 62
     2
100
AcDbLine
 10
1497.5
 20
852.5
 30
0.0
 11
1497.5
 21
687.5
 31
0.0
  0
LINE
  5
539
100
AcDbEntity
  8
詳細図
  6
CONTINUOUS
 62
     2
100
AcDbLine
 10
1522.5
 20
852.5
 30
0.0
 11
1522.5
 21
687.5
 31
0.0
  0
LINE
  5
53A
100
AcDbEntity
  8
詳細図
  6
CONTINUOUS
 62
     2
100
AcDbLine
 10
1459.995125
 20
792.5
 30
0.0
 11
1485.0
 21
792.5
 31
0.0
  0
LINE
  5
53B
100
AcDbEntity
  8
詳細図
  6
CONTINUOUS
 62
     2
100
AcDbLine
 10
1560.004875
 20
792.5
 30
0.0
 11
1535.0
 21
792.5
 31
0.0
  0
ARC
  5
53C
100
AcDbEntity
  8
詳細図
  6
CONTINUOUS
 62
     2
100
AcDbCircle
 10
1557.426487
 20
977.5
 30
0.0
 40
2.5
100
AcDbArc
 50
90.0
 51
177.733179
  0
LINE
  5
53D
100
AcDbEntity
  8
詳細図
  6
CONTINUOUS
 62
     2
100
AcDbLine
 10
1459.995125
 20
792.5
 30
0.0
 11
1453.062248
 21
967.642799
 31
0.0
  0
LINE
  5
53E
100
AcDbEntity
  8
詳細図
  6
CONTINUOUS
 62
     2
100
AcDbLine
 10
1469.928443
 20
854.901117
 30
0.0
 11
1465.071557
 21
977.598883
 31
0.0
  0
LINE
  5
53F
100
AcDbEntity
  8
詳細図
  6
CONTINUOUS
 62
     2
100
AcDbLine
 10
1550.071557
 20
854.901117
 30
0.0
 11
1554.928443
 21
977.598883
 31
0.0
  0
LINE
  5
540
100
AcDbEntity
  8
詳細図
  6
CONTINUOUS
 62
     2
100
AcDbLine
 10
1560.004875
 20
792.5
 30
0.0
 11
1566.937752
 21
967.642799
 31
0.0
  0
ARC
  5
541
100
AcDbEntity
  8
詳細図
  6
CONTINUOUS
 62
     6
100
AcDbCircle
 10
1577.5
 20
635.191742
 30
0.0
 40
75.0
100
AcDbArc
 50
180.0
 51
205.841933
  0
ARC
  5
542
100
AcDbEntity
  8
詳細図
  6
CONTINUOUS
 62
     6
100
AcDbCircle
 10
1442.5
 20
635.191742
 30
0.0
 40
75.0
100
AcDbArc
 50
334.158067
 51
0.0
  0
LINE
  5
543
100
AcDbEntity
  8
詳細図
  6
CONTINUOUS
 62
     6
100
AcDbLine
 10
1520.0
 20
688.5
 30
0.0
 11
1500.0
 21
684.5
 31
0.0
  0
LINE
  5
544
100
AcDbEntity
  8
詳細図
  6
CONTINUOUS
 62
     6
100
AcDbLine
 10
1520.0
 20
680.5
 30
0.0
 11
1500.0
 21
676.5
 31
0.0
  0
LINE
  5
545
100
AcDbEntity
  8
詳細図
  6
CONTINUOUS
 62
     6
100
AcDbLine
 10
1520.0
 20
672.5
 30
0.0
 11
1500.0
 21
668.5
 31
0.0
  0
LINE
  5
546
100
AcDbEntity
  8
詳細図
  6
CONTINUOUS
 62
     6
100
AcDbLine
 10
1520.0
 20
664.5
 30
0.0
 11
1500.0
 21
660.5
 31
0.0
  0
LINE
  5
547
100
AcDbEntity
  8
詳細図
  6
CONTINUOUS
 62
     6
100
AcDbLine
 10
1520.0
 20
656.5
 30
0.0
 11
1500.0
 21
652.5
 31
0.0
  0
LINE
  5
548
100
AcDbEntity
  8
詳細図
  6
CONTINUOUS
 62
     6
100
AcDbLine
 10
1520.0
 20
648.5
 30
0.0
 11
1500.0
 21
644.5
 31
0.0
  0
LINE
  5
549
100
AcDbEntity
  8
詳細図
  6
CONTINUOUS
 62
     6
100
AcDbLine
 10
1520.0
 20
640.5
 30
0.0
 11
1500.0
 21
636.5
 31
0.0
  0
LINE
  5
54A
100
AcDbEntity
  8
詳細図
  6
CONTINUOUS
 62
     6
100
AcDbLine
 10
1520.0
 20
632.5
 30
0.0
 11
1500.0
 21
628.5
 31
0.0
  0
LINE
  5
54B
100
AcDbEntity
  8
詳細図
  6
CONTINUOUS
 62
     6
100
AcDbLine
 10
1517.590768
 20
616.018154
 30
0.0
 11
1503.203299
 21
613.14066
 31
0.0
  0
LINE
  5
54C
100
AcDbEntity
  8
詳細図
  6
CONTINUOUS
 62
     6
100
AcDbLine
 10
1519.237557
 20
624.347511
 30
0.0
 11
1501.353537
 21
620.770707
 31
0.0
  0
LINE
  5
54D
100
AcDbEntity
  8
詳細図
  6
CONTINUOUS
 62
     6
100
AcDbLine
 10
1502.5
 20
852.5
 30
0.0
 11
1502.5
 21
635.191742
 31
0.0
  0
LINE
  5
54E
100
AcDbEntity
  8
詳細図
  6
CONTINUOUS
 62
     6
100
AcDbLine
 10
1517.5
 20
852.5
 30
0.0
 11
1517.5
 21
635.191742
 31
0.0
  0
LINE
  5
54F
100
AcDbEntity
  8
詳細図
  6
EXLTYPE3
 62
     6
100
AcDbLine
 10
1510.0
 20
1006.113054
 30
0.0
 11
1510.0
 21
593.7
 31
0.0
  0
LINE
  5
550
100
AcDbEntity
  8
詳細図
  6
CONTINUOUS
 62
     6
100
AcDbLine
 10
1520.0
 20
694.9
 30
0.0
 11
1500.0
 21
690.9
 31
0.0
  0
LINE
  5
551
100
AcDbEntity
  8
詳細図
  6
CONTINUOUS
 62
     6
100
AcDbLine
 10
1456.517208
 20
627.5
 30
0.0
 11
1502.5
 21
673.482792
 31
0.0
  0
LINE
  5
552
100
AcDbEntity
  8
詳細図
  6
CONTINUOUS
 62
     6
100
AcDbLine
 10
1463.588276
 20
627.5
 30
0.0
 11
1502.5
 21
666.411724
 31
0.0
  0
LINE
  5
553
100
AcDbEntity
  8
詳細図
  6
CONTINUOUS
 62
     6
100
AcDbLine
 10
1517.5
 20
681.411724
 30
0.0
 11
1523.588276
 21
687.5
 31
0.0
  0
TEXT
  5
554
100
AcDbEntity
  8
詳細図寸法
  6
CONTINUOUS
 62
     2
100
AcDbText
 10
1617.029221
 20
832.75
 30
0.0
 40
40.0
  1
トラスねじ
 41
0.8106
  7
EXCADSTD
 72
     5
 11
1810.02922
 21
832.75
 31
0.0
100
AcDbText
  0
LEADER
  5
555
100
AcDbEntity
  8
詳細図寸法
  6
CONTINUOUS
 62
     6
100
AcDbLeader
  3
STANDARD
 73
     3
 74
     1
 75
     0
 40
0.0
 76
     3
 10
1517.5
 20
752.0
 30
0.0
 10
1609.5
 20
829.5
 30
0.0
 10
1810.0
 20
829.5
 30
0.0
 77
     6
1001
ACAD
1000
DSTYLE
1002
{
1070
    41
1040
35.0
1070
     5
1000
_EX_NORM
1070
     6
1000
_EX_NORM
1070
     7
1000
_EX_NORM
1070
   341
1005
2C
1002
}
  0
TEXT
  5
556
100
AcDbEntity
  8
詳細図寸法
  6
CONTINUOUS
 62
     2
100
AcDbText
 10
1716.404221
 20
1084.431527
 30
0.0
 40
40.0
  1
キャップ
 41
0.819
  7
EXCADSTD
 72
     5
 11
1872.40422
 21
1084.431527
 31
0.0
100
AcDbText
  0
LEADER
  5
557
100
AcDbEntity
  8
詳細図寸法
  6
CONTINUOUS
 62
     6
100
AcDbLeader
  3
STANDARD
 73
     3
 74
     1
 75
     0
 40
0.0
 76
     3
 10
1526.478285
 20
990.841447
 30
0.0
 10
1711.533554
 20
1076.961982
 30
0.0
 10
1872.5
 20
1076.961982
 30
0.0
 77
     6
1001
ACAD
1000
DSTYLE
1002
{
1070
    41
1040
35.0
1070
     5
1000
_EX_NORM
1070
     6
1000
_EX_NORM
1070
     7
1000
_EX_NORM
1070
   341
1005
2C
1002
}
  0
TEXT
  5
558
100
AcDbEntity
  8
詳細図寸法
  6
CONTINUOUS
 62
     2
100
AcDbText
 10
1155.093247
 20
1089.25
 30
0.0
 40
40.0
  1
パン本体
 41
0.819
  7
EXCADSTD
 72
     5
 11
1311.093247
 21
1089.25
 31
0.0
100
AcDbText
  0
LEADER
  5
559
100
AcDbEntity
  8
詳細図寸法
  6
CONTINUOUS
 62
     6
100
AcDbLeader
  3
STANDARD
 73
     3
 74
     1
 75
     0
 40
0.0
 76
     3
 10
1421.0
 20
987.5
 30
0.0
 10
1313.941559
 20
1081.5
 30
0.0
 10
1146.0
 20
1081.5
 30
0.0
 77
     6
1001
ACAD
1000
DSTYLE
1002
{
1070
    41
1040
35.0
1070
     5
1000
_EX_NORM
1070
     6
1000
_EX_NORM
1070
     7
1000
_EX_NORM
1070
   341
1005
2C
1002
}
  0
TEXT
  5
55A
100
AcDbEntity
  8
詳細図寸法
  6
CONTINUOUS
 62
     2
100
AcDbText
 10
1202.0
 20
687.5
 30
0.0
 40
40.0
  1
仕上床
 41
0.833
  7
EXCADSTD
 72
     5
 11
1321.0
 21
687.5
 31
0.0
100
AcDbText
  0
TEXT
  5
55B
100
AcDbEntity
  8
詳細図寸法
  6
CONTINUOUS
 62
     2
100
AcDbText
 10
1306.535343
 20
455.0
 30
0.0
 40
45.0
  1
防水パン固定部詳細図
 41
0.798933
  7
EXCADSTD
 72
     5
 11
1734.535347
 21
455.0
 31
0.0
100
AcDbText
  0
LINE
  5
55C
100
AcDbEntity
  8
詳細図寸法
  6
CONTINUOUS
 62
     6
100
AcDbLine
 10
1287.0
 20
449.75
 30
0.0
 11
1747.0
 21
449.75
 31
0.0
  0
ENDSEC
  0
SECTION
  2
OBJECTS
  0
DICTIONARY
  5
19
100
AcDbDictionary
  3
ACAD_GROUP
350
1A
  3
ACAD_MLINESTYLE
350
1B
  0
DICTIONARY
  5
1A
102
{ACAD_REACTORS
330
19
102
}
100
AcDbDictionary
  0
DICTIONARY
  5
1B
102
{ACAD_REACTORS
330
19
102
}
100
AcDbDictionary
  3
STANDARD
350
1C
  0
MLINESTYLE
  5
1C
102
{ACAD_REACTORS
330
1B
102
}
100
AcDbMlineStyle
  2
Standard
 70
     0
  3

 62
     0
 51
90.0
 52
90.0
 71
     2
 49
0.5
 62
   256
  6
ByLayer
 49
-0.5
 62
   256
  6
ByLayer
  0
ENDSEC
  0
EOF
