  0
SECTION
  2
HEADER
  9
$ACADVER
  1
AC1014
  9
$ACADMAINTVER
 70
     0
  9
$DWGCODEPAGE
  3
ANSI_932
  9
$INSBASE
 10
0.0
 20
0.0
 30
0.0
  9
$EXTMIN
 10
1.5
 20
10.5
 30
0.0
  9
$EXTMAX
 10
202.9
 20
290.5
 30
0.0
  9
$LIMMIN
 10
0.0
 20
0.0
  9
$LIMMAX
 10
210.0
 20
297.0
  9
$ORTHOMODE
 70
     0
  9
$REGENMODE
 70
     1
  9
$FILLMODE
 70
     1
  9
$QTEXTMODE
 70
     0
  9
$MIRRTEXT
 70
     1
  9
$DRAGMODE
 70
     2
  9
$LTSCALE
 40
1.0
  9
$OSMODE
 70
     0
  9
$ATTMODE
 70
     1
  9
$TEXTSIZE
 40
0.2
  9
$TRACEWID
 40
0.05
  9
$TEXTSTYLE
  7
STANDARD
  9
$CLAYER
  8
本体
  9
$CELTYPE
  6
CONTINUOUS
  9
$CECOLOR
 62
   256
  9
$CELTSCALE
 40
1.0
  9
$DELOBJ
 70
     1
  9
$DISPSILH
 70
     0
  9
$DIMSCALE
 40
1.0
  9
$DIMASZ
 40
0.18
  9
$DIMEXO
 40
0.0625
  9
$DIMDLI
 40
0.38
  9
$DIMRND
 40
0.0
  9
$DIMDLE
 40
0.0
  9
$DIMEXE
 40
0.18
  9
$DIMTP
 40
0.0
  9
$DIMTM
 40
0.0
  9
$DIMTXT
 40
0.18
  9
$DIMCEN
 40
0.09
  9
$DIMTSZ
 40
0.0
  9
$DIMTOL
 70
     0
  9
$DIMLIM
 70
     0
  9
$DIMTIH
 70
     1
  9
$DIMTOH
 70
     1
  9
$DIMSE1
 70
     0
  9
$DIMSE2
 70
     0
  9
$DIMTAD
 70
     0
  9
$DIMZIN
 70
     0
  9
$DIMBLK
  1

  9
$DIMASO
 70
     1
  9
$DIMSHO
 70
     1
  9
$DIMPOST
  1

  9
$DIMAPOST
  1

  9
$DIMALT
 70
     0
  9
$DIMALTD
 70
     2
  9
$DIMALTF
 40
25.4
  9
$DIMLFAC
 40
1.0
  9
$DIMTOFL
 70
     0
  9
$DIMTVP
 40
0.0
  9
$DIMTIX
 70
     0
  9
$DIMSOXD
 70
     0
  9
$DIMSAH
 70
     0
  9
$DIMBLK1
  1

  9
$DIMBLK2
  1

  9
$DIMSTYLE
  2
STANDARD
  9
$DIMCLRD
 70
     0
  9
$DIMCLRE
 70
     0
  9
$DIMCLRT
 70
     0
  9
$DIMTFAC
 40
1.0
  9
$DIMGAP
 40
0.09
  9
$DIMJUST
 70
     0
  9
$DIMSD1
 70
     0
  9
$DIMSD2
 70
     0
  9
$DIMTOLJ
 70
     1
  9
$DIMTZIN
 70
     0
  9
$DIMALTZ
 70
     0
  9
$DIMALTTZ
 70
     0
  9
$DIMFIT
 70
     3
  9
$DIMUPT
 70
     0
  9
$DIMUNIT
 70
     2
  9
$DIMDEC
 70
     4
  9
$DIMTDEC
 70
     4
  9
$DIMALTU
 70
     2
  9
$DIMALTTD
 70
     2
  9
$DIMTXSTY
  7
STANDARD
  9
$DIMAUNIT
 70
     0
  9
$LUNITS
 70
     2
  9
$LUPREC
 70
     4
  9
$SKETCHINC
 40
0.1
  9
$FILLETRAD
 40
0.0
  9
$AUNITS
 70
     0
  9
$AUPREC
 70
     0
  9
$MENU
  1
acad
  9
$ELEVATION
 40
0.0
  9
$PELEVATION
 40
0.0
  9
$THICKNESS
 40
0.0
  9
$LIMCHECK
 70
     0
  9
$BLIPMODE
 70
     1
  9
$CHAMFERA
 40
0.0
  9
$CHAMFERB
 40
0.0
  9
$CHAMFERC
 40
0.0
  9
$CHAMFERD
 40
0.0
  9
$SKPOLY
 70
     0
  9
$TDCREATE
 40
2455284.819193901
  9
$TDUPDATE
 40
2455284.819193901
  9
$TDINDWG
 40
0.0000000000
  9
$TDUSRTIMER
 40
0.0000000000
  9
$USRTIMER
 70
     1
  9
$ANGBASE
 50
0.0
  9
$ANGDIR
 70
     0
  9
$PDMODE
 70
     0
  9
$PDSIZE
 40
0.0
  9
$PLINEWID
 40
0.0
  9
$COORDS
 70
     1
  9
$SPLFRAME
 70
     0
  9
$SPLINETYPE
 70
     6
  9
$SPLINESEGS
 70
     8
  9
$ATTDIA
 70
     0
  9
$ATTREQ
 70
     1
  9
$HANDLING
 70
     1
  9
$HANDSEED
  5
2F6
  9
$SURFTAB1
 70
     6
  9
$SURFTAB2
 70
     6
  9
$SURFTYPE
 70
     6
  9
$SURFU
 70
     6
  9
$SURFV
 70
     6
  9
$UCSNAME
  2

  9
$UCSORG
 10
0.0
 20
0.0
 30
0.0
  9
$UCSXDIR
 10
1.0
 20
0.0
 30
0.0
  9
$UCSYDIR
 10
0.0
 20
1.0
 30
0.0
  9
$PUCSNAME
  2

  9
$PUCSORG
 10
0.0
 20
0.0
 30
0.0
  9
$PUCSXDIR
 10
1.0
 20
0.0
 30
0.0
  9
$PUCSYDIR
 10
0.0
 20
1.0
 30
0.0
  9
$USERI1
 70
     0
  9
$USERI2
 70
     0
  9
$USERI3
 70
     0
  9
$USERI4
 70
     0
  9
$USERI5
 70
     0
  9
$USERR1
 40
0.0
  9
$USERR2
 40
0.0
  9
$USERR3
 40
0.0
  9
$USERR4
 40
0.0
  9
$USERR5
 40
0.0
  9
$WORLDVIEW
 70
     1
  9
$SHADEDGE
 70
     3
  9
$SHADEDIF
 70
    70
  9
$TILEMODE
 70
     1
  9
$MAXACTVP
 70
    16
  9
$PINSBASE
 10
0.0
 20
0.0
 30
0.0
  9
$PLIMCHECK
 70
     0
  9
$PEXTMIN
 10
1.000000E+20
 20
1.000000E+20
 30
1.000000E+20
  9
$PEXTMAX
 10
-1.000000E+20
 20
-1.000000E+20
 30
-1.000000E+20
  9
$PLIMMIN
 10
0.0
 20
0.0
  9
$PLIMMAX
 10
12.0
 20
9.0
  9
$UNITMODE
 70
     0
  9
$VISRETAIN
 70
     0
  9
$PLINEGEN
 70
     1
  9
$PSLTSCALE
 70
     0
  9
$TREEDEPTH
 70
  3020
  9
$PICKSTYLE
 70
     1
  9
$CMLSTYLE
  2
Standard
  9
$CMLJUST
 70
     0
  9
$CMLSCALE
 40
1.0
  9
$PROXYGRAPHICS
 70
     0
  9
$MEASUREMENT
 70
     0
  0
ENDSEC
  0
SECTION
  2
CLASSES
  0
CLASS
  1
LWPOLYLINE
  2
AcDbPolyline
  3
"AutoCAD"
 90
        0
280
     0
281
     1
  0
CLASS
  1
IMAGE
  2
AcDbRasterImage
  3
ISM
 90
      127
280
     0
281
     1
  0
CLASS
  1
OLE2FRAME
  2
AcDbOle2Frame
  3
""
 90
        0
280
     0
281
     1
  0
CLASS
  1
HATCH
  2
AcDbHatch
  3
"ACAD_SEDONA"
 90
        0
280
     0
281
     1
  0
CLASS
  1
DICTIONARYVAR
  2
AcDbDictionaryVar
  3
"AutoCAD"
 90
        0
280
     0
281
     0
  0
CLASS
  1
RASTERVARIABLES
  2
AcDbRasterVariables
  3
ISM
 90
        0
280
     0
281
     0
  0
CLASS
  1
IMAGEDEF
  2
AcDbRasterImageDef
  3
ISM
 90
        0
280
     0
281
     0
  0
CLASS
  1
IMAGEDEF_REACTOR
  2
AcDbRasterImageDefReactor
  3
ISM
 90
        1
280
     0
281
     0
  0
CLASS
  1
IDBUFFER
  2
AcDbIdBuffer
  3
"Acad"
 90
        0
280
     0
281
     0
  0
CLASS
  1
SPATIAL_FILTER
  2
AcDbSpatialFilter
  3
"Acad"
 90
        0
280
     0
281
     0
  0
CLASS
  1
XRECORD
  2
AcDbXrecord
  3
"<Built In>"
 90
        0
280
     0
281
     0
  0
CLASS
  1
SORTENTSTABLE
  2
AcDbSortentsTable
  3
"AutoCAD"
 90
        0
280
     0
281
     0
  0
CLASS
  1
LAYER_INDEX
  2
AcDbLayerIndex
  3
"Acad"
 90
        0
280
     0
281
     0
  0
CLASS
  1
SPATIAL_INDEX
  2
AcDbSpatialIndex
  3
"Acad"
 90
        0
280
     0
281
     0
  0
CLASS
  1
OBJECT_PTR
  2
CAseDLPNTableRecord
  3
"ASE-LPNTableRecord"
 90
        1
280
     0
281
     0
  0
CLASS
  1
LAYOUT
  2
AcDbLayout
  3
"AutoCAD 2000"
 90
        1
280
     0
281
     0
  0
CLASS
  1
PLOTSETTINGS
  2
AcDbPlotSettings
  3
"AutoCAD 2000"
 90
        1
280
     0
281
     0
  0
CLASS
  1
ACDBDICTIONARYWDFLT
  2
AcDbDictionaryWithDefault
  3
"AutoCAD 2000"
 90
        1
280
     0
281
     0
  0
CLASS
  1
ACDBPLACEHOLDER
  2
AcDbPlaceHolder
  3
"AutoCAD 2000"
 90
        1
280
     0
281
     0
  0
CLASS
  1
VBA_PROJECT
  2
AcDbVbaProject
  3
"acadvba"
 90
        1
280
     0
281
     0
  0
CLASS
  1
WIPEOUT
  2
AcDbWipeout
  3
WipeOut|AutoCAD Express Tool|expresstools@autodesk.com
 90
      127
280
     0
281
     1
  0
CLASS
  1
WIPEOUTVARIABLES
  2
AcDbWipeoutVariables
  3
WipeOut|AutoCAD Express Tool|expresstools@autodesk.com
 90
        0
280
     0
281
     0
  0
CLASS
  1
RTEXT
  2
RText
  3
RText|AutoCAD Express Tool|expresstools@autodesk.com
 90
        0
280
     0
281
     1
  0
CLASS
  1
ARCALIGNEDTEXT
  2
AcDbArcAlignedText
  3
ATEXT|AutoCAD Express Tool|expresstools@autodesk.com
 90
        0
280
     0
281
     1
  0
ENDSEC
  0
SECTION
  2
TABLES
  0
TABLE
  2
VPORT
  5
7
100
AcDbSymbolTable
 70
     1
  0
VPORT
  5
15
100
AcDbSymbolTableRecord
100
AcDbViewportTableRecord
  2
*ACTIVE
 70
     0
 10
0.0
 20
0.0
 11
1.0
 21
1.0
 12
1022.0
 22
1505.0
 13
0.0
 23
0.0
 14
1.0
 24
1.0
 15
0.0
 25
0.0
 16
0.0
 26
0.0
 36
1.0
 17
0.0
 27
0.0
 37
0.0
 40
2800.0
 41
1.722533
 42
50.0
 43
0.0
 44
0.0
 50
0.0
 51
0.0
 71
     0
 72
   100
 73
     1
 74
     1
 75
     0
 76
     0
 77
     0
 78
     0
  0
ENDTAB
  0
TABLE
  2
LTYPE
  5
4
100
AcDbSymbolTable
 70
    10
  0
LTYPE
  5
11
100
AcDbSymbolTableRecord
100
AcDbLinetypeTableRecord
  2
BYBLOCK
 70
    64
  3

 72
    65
 73
     0
 40
0.0
  0
LTYPE
  5
12
100
AcDbSymbolTableRecord
100
AcDbLinetypeTableRecord
  2
BYLAYER
 70
    64
  3

 72
    65
 73
     0
 40
0.0
  0
LTYPE
  5
13
100
AcDbSymbolTableRecord
100
AcDbLinetypeTableRecord
  2
CONTINUOUS
 70
    64
  3
実線
 72
    65
 73
     0
 40
0.0
  0
LTYPE
  5
1D
100
AcDbSymbolTableRecord
100
AcDbLinetypeTableRecord
  2
EXLTYPE1
 70
    64
  3
破線
 72
    65
 73
     2
 40
3.0
 49
2.0
 74
     0
 49
-1.0
 74
     0
  0
LTYPE
  5
1E
100
AcDbSymbolTableRecord
100
AcDbLinetypeTableRecord
  2
EXLTYPE2
 70
    64
  3
点線
 72
    65
 73
     2
 40
2.0
 49
1.0
 74
     0
 49
-1.0
 74
     0
  0
LTYPE
  5
1F
100
AcDbSymbolTableRecord
100
AcDbLinetypeTableRecord
  2
EXLTYPE3
 70
    64
  3
一点鎖線
 72
    65
 73
     4
 40
10.0
 49
7.0
 74
     0
 49
-1.0
 74
     0
 49
1.0
 74
     0
 49
-1.0
 74
     0
  0
LTYPE
  5
20
100
AcDbSymbolTableRecord
100
AcDbLinetypeTableRecord
  2
EXLTYPE4
 70
    64
  3
二点鎖線
 72
    65
 73
     6
 40
12.0
 49
7.0
 74
     0
 49
-1.0
 74
     0
 49
1.0
 74
     0
 49
-1.0
 74
     0
 49
1.0
 74
     0
 49
-1.0
 74
     0
  0
LTYPE
  5
21
100
AcDbSymbolTableRecord
100
AcDbLinetypeTableRecord
  2
EXLTYPE5
 70
    64
  3
三点鎖線
 72
    65
 73
     8
 40
37.0
 49
30.0
 74
     0
 49
-1.0
 74
     0
 49
1.0
 74
     0
 49
-1.0
 74
     0
 49
1.0
 74
     0
 49
-1.0
 74
     0
 49
1.0
 74
     0
 49
-1.0
 74
     0
  0
LTYPE
  5
22
100
AcDbSymbolTableRecord
100
AcDbLinetypeTableRecord
  2
EXLTYPE6
 70
    64
  3
四点鎖線
 72
    65
 73
    10
 40
39.0
 49
30.0
 74
     0
 49
-1.0
 74
     0
 49
1.0
 74
     0
 49
-1.0
 74
     0
 49
1.0
 74
     0
 49
-1.0
 74
     0
 49
1.0
 74
     0
 49
-1.0
 74
     0
 49
1.0
 74
     0
 49
-1.0
 74
     0
  0
LTYPE
  5
23
100
AcDbSymbolTableRecord
100
AcDbLinetypeTableRecord
  2
EXLTYPE7
 70
    64
  3
一点鎖線2
 72
    65
 73
     4
 40
9.011873
 49
3.918206
 74
     0
 49
-1.959103
 74
     0
 49
1.175462
 74
     0
 49
-1.959103
 74
     0
  0
ENDTAB
  0
TABLE
  2
LAYER
  5
2
100
AcDbSymbolTable
 70
     6
  0
LAYER
  5
14
100
AcDbSymbolTableRecord
100
AcDbLayerTableRecord
  2
0
 70
     0
 62
     7
  6
CONTINUOUS
  0
LAYER
  5
26
100
AcDbSymbolTableRecord
100
AcDbLayerTableRecord
  2
枠
 70
    64
 62
     7
  6
CONTINUOUS
  0
LAYER
  5
27
100
AcDbSymbolTableRecord
100
AcDbLayerTableRecord
  2
本体
 70
    64
 62
     7
  6
CONTINUOUS
  0
LAYER
  5
28
100
AcDbSymbolTableRecord
100
AcDbLayerTableRecord
  2
寸法
 70
    64
 62
     7
  6
CONTINUOUS
  0
LAYER
  5
29
100
AcDbSymbolTableRecord
100
AcDbLayerTableRecord
  2
詳細図
 70
    64
 62
     7
  6
CONTINUOUS
  0
LAYER
  5
2A
100
AcDbSymbolTableRecord
100
AcDbLayerTableRecord
  2
詳細図寸法
 70
    64
 62
     7
  6
CONTINUOUS
  0
ENDTAB
  0
TABLE
  2
STYLE
  5
3
100
AcDbSymbolTable
 70
     5
  0
STYLE
  5
17
100
AcDbSymbolTableRecord
100
AcDbTextStyleTableRecord
  2
STANDARD
 70
     0
 40
0.0
 41
1.0
 50
0.0
 71
     0
 42
0.0
  3
monotxt
  4
extfont
  0
STYLE
  5
24
100
AcDbSymbolTableRecord
100
AcDbTextStyleTableRecord
  2
EXCADSTD
 70
    64
 40
0.0
 41
1.0
 50
0.0
 71
     0
 42
0.2
  3
monotxt
  4
extfont
  0
STYLE
  5
25
100
AcDbSymbolTableRecord
100
AcDbTextStyleTableRecord
  2
EXCADVERT
 70
    68
 40
0.0
 41
1.0
 50
0.0
 71
     0
 42
0.286885
  3
monotxt
  4
extfont
  0
STYLE
  5
BC
100
AcDbSymbolTableRecord
100
AcDbTextStyleTableRecord
  2
EXCADTTF1
 70
    64
 40
0.0
 41
1.0
 50
0.0
 71
     0
 42
0.2
  3
MS Gothic.ttf
  4

1001
ACAD
1000
MS Gothic
1071
    32817
  0
STYLE
  5
1B8
100
AcDbSymbolTableRecord
100
AcDbTextStyleTableRecord
  2
EXCADDIM1
 70
    64
 40
0.0
 41
0.84
 50
0.0
 71
     0
 42
0.2
  3
monotxt
  4
extfont
  0
ENDTAB
  0
TABLE
  2
VIEW
  5
5
100
AcDbSymbolTable
 70
     0
  0
ENDTAB
  0
TABLE
  2
UCS
  5
6
100
AcDbSymbolTable
 70
     0
  0
ENDTAB
  0
TABLE
  2
APPID
  5
8
100
AcDbSymbolTable
 70
     1
  0
APPID
  5
16
100
AcDbSymbolTableRecord
100
AcDbRegAppTableRecord
  2
ACAD
 70
     0
  0
ENDTAB
  0
TABLE
  2
DIMSTYLE
  5
9
100
AcDbSymbolTable
 70
     1
  0
DIMSTYLE
105
18
100
AcDbSymbolTableRecord
100
AcDbDimStyleTableRecord
  2
STANDARD
 70
     0
  3

  4

  5

  6

  7

 40
1.0
 41
0.18
 42
0.0625
 43
0.38
 44
0.18
 45
0.0
 46
0.0
 47
0.0
 48
0.0
 71
     0
 72
     0
 73
     1
 74
     1
 75
     0
 76
     0
 77
     0
 78
     0
140
0.18
141
0.09
142
0.0
143
25.4
144
1.0
145
0.0
146
1.0
147
0.09
170
     0
171
     2
172
     1
173
     0
174
     0
175
     0
176
     0
177
     0
178
     0
270
     2
271
     4
272
     4
273
     2
274
     2
275
     0
280
     0
281
     0
282
     0
283
     1
284
     0
285
     0
286
     0
287
     0
288
     0
340
17
  0
ENDTAB
  0
TABLE
  2
BLOCK_RECORD
  5
1
100
AcDbSymbolTable
 70
    24
  0
BLOCK_RECORD
  5
A
100
AcDbSymbolTableRecord
100
AcDbBlockTableRecord
  2
*MODEL_SPACE
  0
BLOCK_RECORD
  5
B
100
AcDbSymbolTableRecord
100
AcDbBlockTableRecord
  2
*PAPER_SPACE
  0
BLOCK_RECORD
  5
2B
100
AcDbSymbolTableRecord
100
AcDbBlockTableRecord
  2
_EX_NORM
  0
BLOCK_RECORD
  5
2C
100
AcDbSymbolTableRecord
100
AcDbBlockTableRecord
  2
_EX_BNORM
  0
BLOCK_RECORD
  5
2D
100
AcDbSymbolTableRecord
100
AcDbBlockTableRecord
  2
_EX_BCIR
  0
BLOCK_RECORD
  5
2E
100
AcDbSymbolTableRecord
100
AcDbBlockTableRecord
  2
_EX_RCIVIL
  0
BLOCK_RECORD
  5
2F
100
AcDbSymbolTableRecord
100
AcDbBlockTableRecord
  2
_EX_SLANT
  0
BLOCK_RECORD
  5
30
100
AcDbSymbolTableRecord
100
AcDbBlockTableRecord
  2
_EX_NONE
  0
BLOCK_RECORD
  5
31
100
AcDbSymbolTableRecord
100
AcDbBlockTableRecord
  2
_EX_CIVIL
  0
BLOCK_RECORD
  5
32
100
AcDbSymbolTableRecord
100
AcDbBlockTableRecord
  2
_EX_WCIR
  0
BLOCK_RECORD
  5
33
100
AcDbSymbolTableRecord
100
AcDbBlockTableRecord
  2
_EX_WCIR2
  0
BLOCK_RECORD
  5
34
100
AcDbSymbolTableRecord
100
AcDbBlockTableRecord
  2
_EX_WNORM
  0
BLOCK_RECORD
  5
35
100
AcDbSymbolTableRecord
100
AcDbBlockTableRecord
  2
_EX_NNORM
  0
BLOCK_RECORD
  5
36
100
AcDbSymbolTableRecord
100
AcDbBlockTableRecord
  2
_EX_BBOX
  0
BLOCK_RECORD
  5
37
100
AcDbSymbolTableRecord
100
AcDbBlockTableRecord
  2
_EX_WBOX
  0
BLOCK_RECORD
  5
38
100
AcDbSymbolTableRecord
100
AcDbBlockTableRecord
  2
_EX_INTEGRAL
  0
BLOCK_RECORD
  5
1AE
100
AcDbSymbolTableRecord
100
AcDbBlockTableRecord
  2
*D14
  0
BLOCK_RECORD
  5
224
100
AcDbSymbolTableRecord
100
AcDbBlockTableRecord
  2
*D15
  0
BLOCK_RECORD
  5
230
100
AcDbSymbolTableRecord
100
AcDbBlockTableRecord
  2
*D16
  0
BLOCK_RECORD
  5
23C
100
AcDbSymbolTableRecord
100
AcDbBlockTableRecord
  2
*D17
  0
BLOCK_RECORD
  5
248
100
AcDbSymbolTableRecord
100
AcDbBlockTableRecord
  2
*D18
  0
BLOCK_RECORD
  5
254
100
AcDbSymbolTableRecord
100
AcDbBlockTableRecord
  2
*D19
  0
BLOCK_RECORD
  5
260
100
AcDbSymbolTableRecord
100
AcDbBlockTableRecord
  2
*D20
  0
BLOCK_RECORD
  5
26C
100
AcDbSymbolTableRecord
100
AcDbBlockTableRecord
  2
*D21
  0
BLOCK_RECORD
  5
278
100
AcDbSymbolTableRecord
100
AcDbBlockTableRecord
  2
*D22
  0
BLOCK_RECORD
  5
283
100
AcDbSymbolTableRecord
100
AcDbBlockTableRecord
  2
*D23
  0
ENDTAB
  0
ENDSEC
  0
SECTION
  2
BLOCKS
  0
BLOCK
  5
D
100
AcDbEntity
  8
0
100
AcDbBlockBegin
  2
*MODEL_SPACE
 70
     0
 10
0.0
 20
0.0
 30
0.0
  3
*MODEL_SPACE
  1

  0
ENDBLK
  5
E
100
AcDbEntity
  8
0
100
AcDbBlockEnd
  0
BLOCK
  5
F
100
AcDbEntity
 67
     1
  8
0
100
AcDbBlockBegin
  2
*PAPER_SPACE
 70
     0
 10
0.0
 20
0.0
 30
0.0
  3
*PAPER_SPACE
  1

  0
ENDBLK
  5
10
100
AcDbEntity
 67
     1
  8
0
100
AcDbBlockEnd
  0
BLOCK
  5
39
100
AcDbEntity
  8
0
100
AcDbBlockBegin
  2
_EX_NORM
 70
     0
 10
0.0
 20
0.0
 30
0.0
  3
_EX_NORM
  1

  0
LINE
  5
3A
100
AcDbEntity
  8
0
  6
CONTINUOUS
 62
     0
100
AcDbLine
 10
0.0
 20
0.0
 30
0.0
 11
-1.0
 21
0.0
 31
0.0
  0
LINE
  5
3B
100
AcDbEntity
  8
0
  6
CONTINUOUS
 62
     0
100
AcDbLine
 10
0.0
 20
0.0
 30
0.0
 11
-1.0
 21
0.166667
 31
0.0
  0
LINE
  5
3C
100
AcDbEntity
  8
0
  6
CONTINUOUS
 62
     0
100
AcDbLine
 10
0.0
 20
0.0
 30
0.0
 11
-1.0
 21
-0.166667
 31
0.0
  0
ENDBLK
  5
3D
100
AcDbEntity
  8
0
100
AcDbBlockEnd
  0
BLOCK
  5
3E
100
AcDbEntity
  8
0
100
AcDbBlockBegin
  2
_EX_BNORM
 70
     0
 10
0.0
 20
0.0
 30
0.0
  3
_EX_BNORM
  1

  0
LINE
  5
3F
100
AcDbEntity
  8
0
  6
CONTINUOUS
 62
     0
100
AcDbLine
 10
0.0
 20
0.0
 30
0.0
 11
-1.0
 21
0.0
 31
0.0
  0
LINE
  5
40
100
AcDbEntity
  8
0
  6
CONTINUOUS
 62
     0
100
AcDbLine
 10
0.0
 20
0.0
 30
0.0
 11
-1.0
 21
0.166667
 31
0.0
  0
LINE
  5
41
100
AcDbEntity
  8
0
  6
CONTINUOUS
 62
     0
100
AcDbLine
 10
0.0
 20
0.0
 30
0.0
 11
-1.0
 21
-0.166667
 31
0.0
  0
LINE
  5
42
100
AcDbEntity
  8
0
  6
CONTINUOUS
 62
     0
100
AcDbLine
 10
0.0
 20
0.0
 30
0.0
 11
-1.0
 21
0.083333
 31
0.0
  0
LINE
  5
43
100
AcDbEntity
  8
0
  6
CONTINUOUS
 62
     0
100
AcDbLine
 10
0.0
 20
0.0
 30
0.0
 11
-1.0
 21
-0.083333
 31
0.0
  0
LINE
  5
44
100
AcDbEntity
  8
0
  6
CONTINUOUS
 62
     0
100
AcDbLine
 10
-1.0
 20
0.166667
 30
0.0
 11
-1.0
 21
-0.166667
 31
0.0
  0
ENDBLK
  5
45
100
AcDbEntity
  8
0
100
AcDbBlockEnd
  0
BLOCK
  5
46
100
AcDbEntity
  8
0
100
AcDbBlockBegin
  2
_EX_BCIR
 70
     0
 10
0.0
 20
0.0
 30
0.0
  3
_EX_BCIR
  1

  0
LINE
  5
47
100
AcDbEntity
  8
0
  6
CONTINUOUS
 62
     0
100
AcDbLine
 10
0.0
 20
0.0
 30
0.0
 11
-1.0
 21
0.0
 31
0.0
  0
CIRCLE
  5
48
100
AcDbEntity
  8
0
  6
CONTINUOUS
 62
     0
100
AcDbCircle
 10
0.0
 20
0.0
 30
0.0
 40
0.5
  0
CIRCLE
  5
49
100
AcDbEntity
  8
0
  6
CONTINUOUS
 62
     0
100
AcDbCircle
 10
0.0
 20
0.0
 30
0.0
 40
0.25
  0
ENDBLK
  5
4A
100
AcDbEntity
  8
0
100
AcDbBlockEnd
  0
BLOCK
  5
4B
100
AcDbEntity
  8
0
100
AcDbBlockBegin
  2
_EX_RCIVIL
 70
     0
 10
0.0
 20
0.0
 30
0.0
  3
_EX_RCIVIL
  1

  0
LINE
  5
4C
100
AcDbEntity
  8
0
  6
CONTINUOUS
 62
     0
100
AcDbLine
 10
0.0
 20
0.0
 30
0.0
 11
-1.0
 21
0.0
 31
0.0
  0
LINE
  5
4D
100
AcDbEntity
  8
0
  6
CONTINUOUS
 62
     0
100
AcDbLine
 10
-1.0
 20
-0.25
 30
0.0
 11
0.0
 21
-0.25
 31
0.0
  0
LINE
  5
4E
100
AcDbEntity
  8
0
  6
CONTINUOUS
 62
     0
100
AcDbLine
 10
-1.0
 20
-0.125
 30
0.0
 11
0.0
 21
-0.125
 31
0.0
  0
ENDBLK
  5
4F
100
AcDbEntity
  8
0
100
AcDbBlockEnd
  0
BLOCK
  5
50
100
AcDbEntity
  8
0
100
AcDbBlockBegin
  2
_EX_SLANT
 70
     0
 10
0.0
 20
0.0
 30
0.0
  3
_EX_SLANT
  1

  0
LINE
  5
51
100
AcDbEntity
  8
0
  6
CONTINUOUS
 62
     0
100
AcDbLine
 10
0.0
 20
0.0
 30
0.0
 11
-1.0
 21
0.0
 31
0.0
  0
LINE
  5
52
100
AcDbEntity
  8
0
  6
CONTINUOUS
 62
     0
100
AcDbLine
 10
0.707107
 20
0.707107
 30
0.0
 11
-0.707107
 21
-0.707107
 31
0.0
  0
ENDBLK
  5
53
100
AcDbEntity
  8
0
100
AcDbBlockEnd
  0
BLOCK
  5
54
100
AcDbEntity
  8
0
100
AcDbBlockBegin
  2
_EX_NONE
 70
     0
 10
0.0
 20
0.0
 30
0.0
  3
_EX_NONE
  1

  0
LINE
  5
55
100
AcDbEntity
  8
0
  6
CONTINUOUS
 62
     0
100
AcDbLine
 10
0.0
 20
0.0
 30
0.0
 11
-1.0
 21
0.0
 31
0.0
  0
ENDBLK
  5
56
100
AcDbEntity
  8
0
100
AcDbBlockEnd
  0
BLOCK
  5
57
100
AcDbEntity
  8
0
100
AcDbBlockBegin
  2
_EX_CIVIL
 70
     0
 10
0.0
 20
0.0
 30
0.0
  3
_EX_CIVIL
  1

  0
LINE
  5
58
100
AcDbEntity
  8
0
  6
CONTINUOUS
 62
     0
100
AcDbLine
 10
0.0
 20
0.0
 30
0.0
 11
-1.0
 21
0.0
 31
0.0
  0
LINE
  5
59
100
AcDbEntity
  8
0
  6
CONTINUOUS
 62
     0
100
AcDbLine
 10
-1.0
 20
0.25
 30
0.0
 11
0.0
 21
0.25
 31
0.0
  0
LINE
  5
5A
100
AcDbEntity
  8
0
  6
CONTINUOUS
 62
     0
100
AcDbLine
 10
-1.0
 20
0.125
 30
0.0
 11
0.0
 21
0.125
 31
0.0
  0
ENDBLK
  5
5B
100
AcDbEntity
  8
0
100
AcDbBlockEnd
  0
BLOCK
  5
5C
100
AcDbEntity
  8
0
100
AcDbBlockBegin
  2
_EX_WCIR
 70
     0
 10
0.0
 20
0.0
 30
0.0
  3
_EX_WCIR
  1

  0
LINE
  5
5D
100
AcDbEntity
  8
0
  6
CONTINUOUS
 62
     0
100
AcDbLine
 10
0.0
 20
0.0
 30
0.0
 11
-1.0
 21
0.0
 31
0.0
  0
CIRCLE
  5
5E
100
AcDbEntity
  8
0
  6
CONTINUOUS
 62
     0
100
AcDbCircle
 10
0.0
 20
0.0
 30
0.0
 40
0.5
  0
ENDBLK
  5
5F
100
AcDbEntity
  8
0
100
AcDbBlockEnd
  0
BLOCK
  5
60
100
AcDbEntity
  8
0
100
AcDbBlockBegin
  2
_EX_WCIR2
 70
     0
 10
0.0
 20
0.0
 30
0.0
  3
_EX_WCIR2
  1

  0
LINE
  5
61
100
AcDbEntity
  8
0
  6
CONTINUOUS
 62
     0
100
AcDbLine
 10
-0.5
 20
0.0
 30
0.0
 11
-1.0
 21
0.0
 31
0.0
  0
CIRCLE
  5
62
100
AcDbEntity
  8
0
  6
CONTINUOUS
 62
     0
100
AcDbCircle
 10
0.0
 20
0.0
 30
0.0
 40
0.5
  0
ENDBLK
  5
63
100
AcDbEntity
  8
0
100
AcDbBlockEnd
  0
BLOCK
  5
64
100
AcDbEntity
  8
0
100
AcDbBlockBegin
  2
_EX_WNORM
 70
     0
 10
0.0
 20
0.0
 30
0.0
  3
_EX_WNORM
  1

  0
LINE
  5
65
100
AcDbEntity
  8
0
  6
CONTINUOUS
 62
     0
100
AcDbLine
 10
-1.0
 20
0.0
 30
0.0
 11
-1.0
 21
0.0
 31
0.0
  0
LINE
  5
66
100
AcDbEntity
  8
0
  6
CONTINUOUS
 62
     0
100
AcDbLine
 10
0.0
 20
0.0
 30
0.0
 11
-1.0
 21
0.166667
 31
0.0
  0
LINE
  5
67
100
AcDbEntity
  8
0
  6
CONTINUOUS
 62
     0
100
AcDbLine
 10
0.0
 20
0.0
 30
0.0
 11
-1.0
 21
-0.166667
 31
0.0
  0
LINE
  5
68
100
AcDbEntity
  8
0
  6
CONTINUOUS
 62
     0
100
AcDbLine
 10
-1.0
 20
0.166667
 30
0.0
 11
-1.0
 21
-0.166667
 31
0.0
  0
ENDBLK
  5
69
100
AcDbEntity
  8
0
100
AcDbBlockEnd
  0
BLOCK
  5
6A
100
AcDbEntity
  8
0
100
AcDbBlockBegin
  2
_EX_NNORM
 70
     0
 10
0.0
 20
0.0
 30
0.0
  3
_EX_NNORM
  1

  0
LINE
  5
6B
100
AcDbEntity
  8
0
  6
CONTINUOUS
 62
     0
100
AcDbLine
 10
0.0
 20
0.0
 30
0.0
 11
-1.0
 21
0.0
 31
0.0
  0
LINE
  5
6C
100
AcDbEntity
  8
0
  6
CONTINUOUS
 62
     0
100
AcDbLine
 10
0.0
 20
0.0
 30
0.0
 11
-1.0
 21
0.166667
 31
0.0
  0
LINE
  5
6D
100
AcDbEntity
  8
0
  6
CONTINUOUS
 62
     0
100
AcDbLine
 10
0.0
 20
0.0
 30
0.0
 11
-1.0
 21
-0.166667
 31
0.0
  0
LINE
  5
6E
100
AcDbEntity
  8
0
  6
CONTINUOUS
 62
     0
100
AcDbLine
 10
-1.0
 20
0.166667
 30
0.0
 11
-1.0
 21
-0.166667
 31
0.0
  0
ENDBLK
  5
6F
100
AcDbEntity
  8
0
100
AcDbBlockEnd
  0
BLOCK
  5
70
100
AcDbEntity
  8
0
100
AcDbBlockBegin
  2
_EX_BBOX
 70
     0
 10
0.0
 20
0.0
 30
0.0
  3
_EX_BBOX
  1

  0
LINE
  5
71
100
AcDbEntity
  8
0
  6
CONTINUOUS
 62
     0
100
AcDbLine
 10
0.0
 20
0.0
 30
0.0
 11
-1.0
 21
0.0
 31
0.0
  0
LINE
  5
72
100
AcDbEntity
  8
0
  6
CONTINUOUS
 62
     0
100
AcDbLine
 10
-0.5
 20
0.5
 30
0.0
 11
0.5
 21
0.5
 31
0.0
  0
LINE
  5
73
100
AcDbEntity
  8
0
  6
CONTINUOUS
 62
     0
100
AcDbLine
 10
0.5
 20
0.5
 30
0.0
 11
0.5
 21
-0.5
 31
0.0
  0
LINE
  5
74
100
AcDbEntity
  8
0
  6
CONTINUOUS
 62
     0
100
AcDbLine
 10
0.5
 20
-0.5
 30
0.0
 11
-0.5
 21
-0.5
 31
0.0
  0
LINE
  5
75
100
AcDbEntity
  8
0
  6
CONTINUOUS
 62
     0
100
AcDbLine
 10
-0.5
 20
-0.5
 30
0.0
 11
-0.5
 21
0.5
 31
0.0
  0
LINE
  5
76
100
AcDbEntity
  8
0
  6
CONTINUOUS
 62
     0
100
AcDbLine
 10
-0.25
 20
0.25
 30
0.0
 11
0.25
 21
0.25
 31
0.0
  0
LINE
  5
77
100
AcDbEntity
  8
0
  6
CONTINUOUS
 62
     0
100
AcDbLine
 10
0.25
 20
0.25
 30
0.0
 11
0.25
 21
-0.25
 31
0.0
  0
LINE
  5
78
100
AcDbEntity
  8
0
  6
CONTINUOUS
 62
     0
100
AcDbLine
 10
0.25
 20
-0.25
 30
0.0
 11
-0.25
 21
-0.25
 31
0.0
  0
LINE
  5
79
100
AcDbEntity
  8
0
  6
CONTINUOUS
 62
     0
100
AcDbLine
 10
-0.25
 20
-0.25
 30
0.0
 11
-0.25
 21
0.25
 31
0.0
  0
ENDBLK
  5
7A
100
AcDbEntity
  8
0
100
AcDbBlockEnd
  0
BLOCK
  5
7B
100
AcDbEntity
  8
0
100
AcDbBlockBegin
  2
_EX_WBOX
 70
     0
 10
0.0
 20
0.0
 30
0.0
  3
_EX_WBOX
  1

  0
LINE
  5
7C
100
AcDbEntity
  8
0
  6
CONTINUOUS
 62
     0
100
AcDbLine
 10
-0.5
 20
0.0
 30
0.0
 11
-1.0
 21
0.0
 31
0.0
  0
LINE
  5
7D
100
AcDbEntity
  8
0
  6
CONTINUOUS
 62
     0
100
AcDbLine
 10
-0.5
 20
0.5
 30
0.0
 11
0.5
 21
0.5
 31
0.0
  0
LINE
  5
7E
100
AcDbEntity
  8
0
  6
CONTINUOUS
 62
     0
100
AcDbLine
 10
0.5
 20
0.5
 30
0.0
 11
0.5
 21
-0.5
 31
0.0
  0
LINE
  5
7F
100
AcDbEntity
  8
0
  6
CONTINUOUS
 62
     0
100
AcDbLine
 10
0.5
 20
-0.5
 30
0.0
 11
-0.5
 21
-0.5
 31
0.0
  0
LINE
  5
80
100
AcDbEntity
  8
0
  6
CONTINUOUS
 62
     0
100
AcDbLine
 10
-0.5
 20
-0.5
 30
0.0
 11
-0.5
 21
0.5
 31
0.0
  0
ENDBLK
  5
81
100
AcDbEntity
  8
0
100
AcDbBlockEnd
  0
BLOCK
  5
82
100
AcDbEntity
  8
0
100
AcDbBlockBegin
  2
_EX_INTEGRAL
 70
     0
 10
0.0
 20
0.0
 30
0.0
  3
_EX_INTEGRAL
  1

  0
LINE
  5
83
100
AcDbEntity
  8
0
  6
CONTINUOUS
 62
     0
100
AcDbLine
 10
0.0
 20
0.0
 30
0.0
 11
-1.0
 21
0.0
 31
0.0
  0
ARC
  5
84
100
AcDbEntity
  8
0
  6
CONTINUOUS
 62
     0
100
AcDbCircle
 10
0.542115
 20
0.164992
 30
0.0
 40
0.56667
100
AcDbArc
 50
73.07249
 51
196.927513
  0
ARC
  5
85
100
AcDbEntity
  8
0
  6
CONTINUOUS
 62
     0
100
AcDbCircle
 10
-0.542115
 20
-0.164992
 30
0.0
 40
0.56667
100
AcDbArc
 50
253.072487
 51
16.927513
  0
ENDBLK
  5
86
100
AcDbEntity
  8
0
100
AcDbBlockEnd
  0
BLOCK
  5
1AF
100
AcDbEntity
  8
0
100
AcDbBlockBegin
  2
*D14
 70
    65
 10
0.0
 20
0.0
 30
0.0
  3
*D14
  1

  0
LINE
  5
1B0
100
AcDbEntity
  8
本体
  6
CONTINUOUS
 62
     3
100
AcDbLine
 10
842.0
 20
1997.0
 30
0.0
 11
842.0
 21
1936.0
 31
0.0
  0
LINE
  5
1B1
100
AcDbEntity
  8
本体
  6
CONTINUOUS
 62
     3
100
AcDbLine
 10
719.0
 20
1946.0
 30
0.0
 11
842.0
 21
1946.0
 31
0.0
  0
LINE
  5
1B2
100
AcDbEntity
  8
本体
  6
CONTINUOUS
 62
     3
100
AcDbLine
 10
749.0
 20
1951.0
 30
0.0
 11
719.0
 21
1946.0
 31
0.0
  0
LINE
  5
1B3
100
AcDbEntity
  8
本体
  6
CONTINUOUS
 62
     3
100
AcDbLine
 10
719.0
 20
1946.0
 30
0.0
 11
749.0
 21
1941.0
 31
0.0
  0
LINE
  5
1B4
100
AcDbEntity
  8
本体
  6
CONTINUOUS
 62
     3
100
AcDbLine
 10
812.0
 20
1941.0
 30
0.0
 11
842.0
 21
1946.0
 31
0.0
  0
LINE
  5
1B5
100
AcDbEntity
  8
本体
  6
CONTINUOUS
 62
     3
100
AcDbLine
 10
842.0
 20
1946.0
 30
0.0
 11
812.0
 21
1951.0
 31
0.0
  0
TEXT
  5
1B6
100
AcDbEntity
  8
本体
  6
CONTINUOUS
 62
     2
100
AcDbText
 10
745.5
 20
1949.5
 30
0.0
 40
40.0
  1
123
 41
0.84
  7
EXCADSTD
 72
     1
 11
787.5
 21
1949.5
 31
0.0
100
AcDbText
  0
ENDBLK
  5
1B7
100
AcDbEntity
  8
0
100
AcDbBlockEnd
  0
BLOCK
  5
225
100
AcDbEntity
  8
0
100
AcDbBlockBegin
  2
*D15
 70
    65
 10
0.0
 20
0.0
 30
0.0
  3
*D15
  1

  0
LINE
  5
226
100
AcDbEntity
  8
寸法
  6
CONTINUOUS
 62
     3
100
AcDbLine
 10
1683.0
 20
2385.0
 30
0.0
 11
1683.0
 21
1785.0
 31
0.0
  0
LINE
  5
227
100
AcDbEntity
  8
寸法
  6
CONTINUOUS
 62
     3
100
AcDbLine
 10
1688.833333
 20
2350.0
 30
0.0
 11
1683.0
 21
2385.0
 31
0.0
  0
LINE
  5
228
100
AcDbEntity
  8
寸法
  6
CONTINUOUS
 62
     3
100
AcDbLine
 10
1683.0
 20
2385.0
 30
0.0
 11
1677.166667
 21
2350.0
 31
0.0
  0
LINE
  5
229
100
AcDbEntity
  8
寸法
  6
CONTINUOUS
 62
     3
100
AcDbLine
 10
1677.166667
 20
1820.0
 30
0.0
 11
1683.0
 21
1785.0
 31
0.0
  0
LINE
  5
22A
100
AcDbEntity
  8
寸法
  6
CONTINUOUS
 62
     3
100
AcDbLine
 10
1683.0
 20
1785.0
 30
0.0
 11
1688.833333
 21
1820.0
 31
0.0
  0
TEXT
  5
22B
100
AcDbEntity
  8
寸法
  6
CONTINUOUS
 62
     2
100
AcDbText
 10
1679.5
 20
2041.32
 30
0.0
 40
40.0
  1
600
 50
90.0
 41
0.84
  7
EXCADSTD
 72
     1
 11
1679.5
 21
2085.0
 31
0.0
100
AcDbText
  0
LINE
  5
22C
100
AcDbEntity
  8
寸法
  6
CONTINUOUS
 62
     3
100
AcDbLine
 10
1518.1
 20
2385.0
 30
0.0
 11
1703.0
 21
2385.0
 31
0.0
  0
LINE
  5
22D
100
AcDbEntity
  8
寸法
  6
CONTINUOUS
 62
     3
100
AcDbLine
 10
1520.1
 20
1785.0
 30
0.0
 11
1703.0
 21
1785.0
 31
0.0
  0
ENDBLK
  5
22E
100
AcDbEntity
  8
0
100
AcDbBlockEnd
  0
BLOCK
  5
231
100
AcDbEntity
  8
0
100
AcDbBlockBegin
  2
*D16
 70
    65
 10
0.0
 20
0.0
 30
0.0
  3
*D16
  1

  0
LINE
  5
232
100
AcDbEntity
  8
寸法
  6
CONTINUOUS
 62
     3
100
AcDbLine
 10
722.0
 20
2405.0
 30
0.0
 11
619.0
 21
2405.0
 31
0.0
  0
LINE
  5
233
100
AcDbEntity
  8
寸法
  6
CONTINUOUS
 62
     3
100
AcDbLine
 10
722.0
 20
1765.0
 30
0.0
 11
619.0
 21
1765.0
 31
0.0
  0
TEXT
  5
234
100
AcDbEntity
  8
寸法
  6
CONTINUOUS
 62
     2
100
AcDbText
 10
635.5
 20
2041.32
 30
0.0
 40
40.0
  1
640
 50
90.0
 41
0.84
  7
EXCADSTD
 72
     1
 11
635.5
 21
2085.0
 31
0.0
100
AcDbText
  0
LINE
  5
235
100
AcDbEntity
  8
寸法
  6
CONTINUOUS
 62
     3
100
AcDbLine
 10
639.0
 20
2405.0
 30
0.0
 11
639.0
 21
1765.0
 31
0.0
  0
LINE
  5
236
100
AcDbEntity
  8
寸法
  6
CONTINUOUS
 62
     3
100
AcDbLine
 10
644.833333
 20
2370.0
 30
0.0
 11
639.0
 21
2405.0
 31
0.0
  0
LINE
  5
237
100
AcDbEntity
  8
寸法
  6
CONTINUOUS
 62
     3
100
AcDbLine
 10
639.0
 20
2405.0
 30
0.0
 11
633.166667
 21
2370.0
 31
0.0
  0
LINE
  5
238
100
AcDbEntity
  8
寸法
  6
CONTINUOUS
 62
     3
100
AcDbLine
 10
633.166667
 20
1800.0
 30
0.0
 11
639.0
 21
1765.0
 31
0.0
  0
LINE
  5
239
100
AcDbEntity
  8
寸法
  6
CONTINUOUS
 62
     3
100
AcDbLine
 10
639.0
 20
1765.0
 30
0.0
 11
644.833333
 21
1800.0
 31
0.0
  0
ENDBLK
  5
23A
100
AcDbEntity
  8
0
100
AcDbBlockEnd
  0
BLOCK
  5
23D
100
AcDbEntity
  8
0
100
AcDbBlockBegin
  2
*D17
 70
    65
 10
0.0
 20
0.0
 30
0.0
  3
*D17
  1

  0
LINE
  5
23E
100
AcDbEntity
  8
寸法
  6
CONTINUOUS
 62
     3
100
AcDbLine
 10
1519.0
 20
2480.0
 30
0.0
 11
719.0
 21
2480.0
 31
0.0
  0
LINE
  5
23F
100
AcDbEntity
  8
寸法
  6
CONTINUOUS
 62
     3
100
AcDbLine
 10
1489.0
 20
2475.0
 30
0.0
 11
1519.0
 21
2480.0
 31
0.0
  0
LINE
  5
240
100
AcDbEntity
  8
寸法
  6
CONTINUOUS
 62
     3
100
AcDbLine
 10
1519.0
 20
2480.0
 30
0.0
 11
1489.0
 21
2485.0
 31
0.0
  0
LINE
  5
241
100
AcDbEntity
  8
寸法
  6
CONTINUOUS
 62
     3
100
AcDbLine
 10
749.0
 20
2485.0
 30
0.0
 11
719.0
 21
2480.0
 31
0.0
  0
LINE
  5
242
100
AcDbEntity
  8
寸法
  6
CONTINUOUS
 62
     3
100
AcDbLine
 10
719.0
 20
2480.0
 30
0.0
 11
749.0
 21
2475.0
 31
0.0
  0
TEXT
  5
243
100
AcDbEntity
  8
寸法
  6
CONTINUOUS
 62
     2
100
AcDbText
 10
1077.0
 20
2483.5
 30
0.0
 40
40.0
  1
800
 41
0.84
  7
EXCADSTD
 72
     1
 11
1119.0
 21
2483.5
 31
0.0
100
AcDbText
  0
LINE
  5
244
100
AcDbEntity
  8
寸法
  6
CONTINUOUS
 62
     3
100
AcDbLine
 10
1519.0
 20
2402.0
 30
0.0
 11
1519.0
 21
2490.0
 31
0.0
  0
LINE
  5
245
100
AcDbEntity
  8
寸法
  6
CONTINUOUS
 62
     3
100
AcDbLine
 10
719.0
 20
2402.0
 30
0.0
 11
719.0
 21
2490.0
 31
0.0
  0
ENDBLK
  5
246
100
AcDbEntity
  8
0
100
AcDbBlockEnd
  0
BLOCK
  5
249
100
AcDbEntity
  8
0
100
AcDbBlockBegin
  2
*D18
 70
    65
 10
0.0
 20
0.0
 30
0.0
  3
*D18
  1

  0
LINE
  5
24A
100
AcDbEntity
  8
寸法
  6
CONTINUOUS
 62
     3
100
AcDbLine
 10
1499.0
 20
1608.0
 30
0.0
 11
739.0
 21
1608.0
 31
0.0
  0
LINE
  5
24B
100
AcDbEntity
  8
寸法
  6
CONTINUOUS
 62
     3
100
AcDbLine
 10
1469.0
 20
1603.0
 30
0.0
 11
1499.0
 21
1608.0
 31
0.0
  0
LINE
  5
24C
100
AcDbEntity
  8
寸法
  6
CONTINUOUS
 62
     3
100
AcDbLine
 10
1499.0
 20
1608.0
 30
0.0
 11
1469.0
 21
1613.0
 31
0.0
  0
LINE
  5
24D
100
AcDbEntity
  8
寸法
  6
CONTINUOUS
 62
     3
100
AcDbLine
 10
769.0
 20
1613.0
 30
0.0
 11
739.0
 21
1608.0
 31
0.0
  0
LINE
  5
24E
100
AcDbEntity
  8
寸法
  6
CONTINUOUS
 62
     3
100
AcDbLine
 10
739.0
 20
1608.0
 30
0.0
 11
769.0
 21
1603.0
 31
0.0
  0
TEXT
  5
24F
100
AcDbEntity
  8
寸法
  6
CONTINUOUS
 62
     2
100
AcDbText
 10
1077.0
 20
1611.5
 30
0.0
 40
40.0
  1
760
 41
0.84
  7
EXCADSTD
 72
     1
 11
1119.0
 21
1611.5
 31
0.0
100
AcDbText
  0
LINE
  5
250
100
AcDbEntity
  8
寸法
  6
CONTINUOUS
 62
     3
100
AcDbLine
 10
1499.0
 20
1768.9
 30
0.0
 11
1499.0
 21
1598.0
 31
0.0
  0
LINE
  5
251
100
AcDbEntity
  8
寸法
  6
CONTINUOUS
 62
     3
100
AcDbLine
 10
739.0
 20
1768.9
 30
0.0
 11
739.0
 21
1598.0
 31
0.0
  0
ENDBLK
  5
252
100
AcDbEntity
  8
0
100
AcDbBlockEnd
  0
BLOCK
  5
255
100
AcDbEntity
  8
0
100
AcDbBlockBegin
  2
*D19
 70
    65
 10
0.0
 20
0.0
 30
0.0
  3
*D19
  1

  0
LINE
  5
256
100
AcDbEntity
  8
寸法
  6
CONTINUOUS
 62
     3
100
AcDbLine
 10
1622.0
 20
2362.5
 30
0.0
 11
1622.0
 21
1807.5
 31
0.0
  0
LINE
  5
257
100
AcDbEntity
  8
寸法
  6
CONTINUOUS
 62
     3
100
AcDbLine
 10
1627.0
 20
2332.5
 30
0.0
 11
1622.0
 21
2362.5
 31
0.0
  0
LINE
  5
258
100
AcDbEntity
  8
寸法
  6
CONTINUOUS
 62
     3
100
AcDbLine
 10
1622.0
 20
2362.5
 30
0.0
 11
1617.0
 21
2332.5
 31
0.0
  0
LINE
  5
259
100
AcDbEntity
  8
寸法
  6
CONTINUOUS
 62
     3
100
AcDbLine
 10
1617.0
 20
1837.5
 30
0.0
 11
1622.0
 21
1807.5
 31
0.0
  0
LINE
  5
25A
100
AcDbEntity
  8
寸法
  6
CONTINUOUS
 62
     3
100
AcDbLine
 10
1622.0
 20
1807.5
 30
0.0
 11
1627.0
 21
1837.5
 31
0.0
  0
TEXT
  5
25B
100
AcDbEntity
  8
寸法
  6
CONTINUOUS
 62
     2
100
AcDbText
 10
1618.5
 20
1992.6
 30
0.0
 40
40.0
  1
555（内寸）
 50
90.0
 41
0.84
  7
EXCADSTD
 72
     1
 11
1618.5
 21
2085.0
 31
0.0
100
AcDbText
  0
LINE
  5
25C
100
AcDbEntity
  8
寸法
  6
CONTINUOUS
 62
     3
100
AcDbLine
 10
1470.137116
 20
1807.5
 30
0.0
 11
1632.0
 21
1807.5
 31
0.0
  0
LINE
  5
25D
100
AcDbEntity
  8
寸法
  6
CONTINUOUS
 62
     3
100
AcDbLine
 10
1470.137116
 20
2362.5
 30
0.0
 11
1632.0
 21
2362.5
 31
0.0
  0
ENDBLK
  5
25E
100
AcDbEntity
  8
0
100
AcDbBlockEnd
  0
BLOCK
  5
261
100
AcDbEntity
  8
0
100
AcDbBlockBegin
  2
*D20
 70
    65
 10
0.0
 20
0.0
 30
0.0
  3
*D20
  1

  0
LINE
  5
262
100
AcDbEntity
  8
寸法
  6
CONTINUOUS
 62
     3
100
AcDbLine
 10
761.5
 20
1672.0
 30
0.0
 11
1476.5
 21
1672.0
 31
0.0
  0
LINE
  5
263
100
AcDbEntity
  8
寸法
  6
CONTINUOUS
 62
     3
100
AcDbLine
 10
791.5
 20
1677.0
 30
0.0
 11
761.5
 21
1672.0
 31
0.0
  0
LINE
  5
264
100
AcDbEntity
  8
寸法
  6
CONTINUOUS
 62
     3
100
AcDbLine
 10
761.5
 20
1672.0
 30
0.0
 11
791.5
 21
1667.0
 31
0.0
  0
LINE
  5
265
100
AcDbEntity
  8
寸法
  6
CONTINUOUS
 62
     3
100
AcDbLine
 10
1446.5
 20
1667.0
 30
0.0
 11
1476.5
 21
1672.0
 31
0.0
  0
LINE
  5
266
100
AcDbEntity
  8
寸法
  6
CONTINUOUS
 62
     3
100
AcDbLine
 10
1476.5
 20
1672.0
 30
0.0
 11
1446.5
 21
1677.0
 31
0.0
  0
TEXT
  5
267
100
AcDbEntity
  8
寸法
  6
CONTINUOUS
 62
     2
100
AcDbText
 10
1026.6
 20
1675.5
 30
0.0
 40
40.0
  1
715（内寸）
 41
0.84
  7
EXCADSTD
 72
     1
 11
1119.0
 21
1675.5
 31
0.0
100
AcDbText
  0
LINE
  5
268
100
AcDbEntity
  8
寸法
  6
CONTINUOUS
 62
     3
100
AcDbLine
 10
1476.5
 20
1816.431082
 30
0.0
 11
1476.5
 21
1662.0
 31
0.0
  0
LINE
  5
269
100
AcDbEntity
  8
寸法
  6
CONTINUOUS
 62
     3
100
AcDbLine
 10
761.5
 20
1816.431082
 30
0.0
 11
761.5
 21
1662.0
 31
0.0
  0
ENDBLK
  5
26A
100
AcDbEntity
  8
0
100
AcDbBlockEnd
  0
BLOCK
  5
26D
100
AcDbEntity
  8
0
100
AcDbBlockBegin
  2
*D21
 70
    65
 10
0.0
 20
0.0
 30
0.0
  3
*D21
  1

  0
LINE
  5
26E
100
AcDbEntity
  8
寸法
  6
CONTINUOUS
 62
     3
100
AcDbLine
 10
802.23851
 20
1267.998679
 30
0.0
 11
731.5
 21
1267.998679
 31
0.0
  0
LINE
  5
26F
100
AcDbEntity
  8
寸法
  6
CONTINUOUS
 62
     3
100
AcDbLine
 10
803.8
 20
1232.998679
 30
0.0
 11
731.5
 21
1232.998679
 31
0.0
  0
TEXT
  5
270
100
AcDbEntity
  8
寸法
  6
CONTINUOUS
 62
     2
100
AcDbText
 10
738.0
 20
1293.598679
 30
0.0
 40
40.0
  1
35
 50
90.0
 41
0.84
  7
EXCADSTD
 72
     1
 11
738.0
 21
1322.998679
 31
0.0
100
AcDbText
  0
LINE
  5
271
100
AcDbEntity
  8
寸法
  6
CONTINUOUS
 62
     3
100
AcDbLine
 10
741.5
 20
1343.999999
 30
0.0
 11
741.5
 21
1202.998679
 31
0.0
  0
LINE
  5
272
100
AcDbEntity
  8
寸法
  6
CONTINUOUS
 62
     3
100
AcDbLine
 10
736.5
 20
1297.998679
 30
0.0
 11
741.5
 21
1267.998679
 31
0.0
  0
LINE
  5
273
100
AcDbEntity
  8
寸法
  6
CONTINUOUS
 62
     3
100
AcDbLine
 10
741.5
 20
1267.998679
 30
0.0
 11
746.5
 21
1297.998679
 31
0.0
  0
LINE
  5
274
100
AcDbEntity
  8
寸法
  6
CONTINUOUS
 62
     3
100
AcDbLine
 10
746.5
 20
1202.998679
 30
0.0
 11
741.5
 21
1232.998679
 31
0.0
  0
LINE
  5
275
100
AcDbEntity
  8
寸法
  6
CONTINUOUS
 62
     3
100
AcDbLine
 10
741.5
 20
1232.998679
 30
0.0
 11
736.5
 21
1202.998679
 31
0.0
  0
ENDBLK
  5
276
100
AcDbEntity
  8
0
100
AcDbBlockEnd
  0
BLOCK
  5
279
100
AcDbEntity
  8
0
100
AcDbBlockBegin
  2
*D22
 70
    65
 10
0.0
 20
0.0
 30
0.0
  3
*D22
  1

  0
LINE
  5
27A
100
AcDbEntity
  8
寸法
  6
CONTINUOUS
 62
     3
100
AcDbLine
 10
736.5
 20
1232.998679
 30
0.0
 11
667.5
 21
1232.998679
 31
0.0
  0
TEXT
  5
27B
100
AcDbEntity
  8
寸法
  6
CONTINUOUS
 62
     2
100
AcDbText
 10
674.0
 20
1268.499339
 30
0.0
 40
40.0
  1
159
 50
90.0
 41
0.84
  7
EXCADSTD
 72
     1
 11
674.0
 21
1310.499339
 31
0.0
100
AcDbText
  0
LINE
  5
27C
100
AcDbEntity
  8
寸法
  6
CONTINUOUS
 62
     3
100
AcDbLine
 10
677.5
 20
1388.0
 30
0.0
 11
677.5
 21
1232.998679
 31
0.0
  0
LINE
  5
27D
100
AcDbEntity
  8
寸法
  6
CONTINUOUS
 62
     3
100
AcDbLine
 10
682.5
 20
1358.0
 30
0.0
 11
677.5
 21
1388.0
 31
0.0
  0
LINE
  5
27E
100
AcDbEntity
  8
寸法
  6
CONTINUOUS
 62
     3
100
AcDbLine
 10
677.5
 20
1388.0
 30
0.0
 11
672.5
 21
1358.0
 31
0.0
  0
LINE
  5
27F
100
AcDbEntity
  8
寸法
  6
CONTINUOUS
 62
     3
100
AcDbLine
 10
672.5
 20
1262.998679
 30
0.0
 11
677.5
 21
1232.998679
 31
0.0
  0
LINE
  5
280
100
AcDbEntity
  8
寸法
  6
CONTINUOUS
 62
     3
100
AcDbLine
 10
677.5
 20
1232.998679
 30
0.0
 11
682.5
 21
1262.998679
 31
0.0
  0
ENDBLK
  5
281
100
AcDbEntity
  8
0
100
AcDbBlockEnd
  0
BLOCK
  5
284
100
AcDbEntity
  8
0
100
AcDbBlockBegin
  2
*D23
 70
    65
 10
0.0
 20
0.0
 30
0.0
  3
*D23
  1

  0
LINE
  5
285
100
AcDbEntity
  8
寸法
  6
CONTINUOUS
 62
     3
100
AcDbLine
 10
1516.7
 20
1448.0
 30
0.0
 11
1621.5
 21
1448.0
 31
0.0
  0
TEXT
  5
286
100
AcDbEntity
  8
寸法
  6
CONTINUOUS
 62
     2
100
AcDbText
 10
1608.0
 20
1483.6
 30
0.0
 40
40.0
  1
60
 50
90.0
 41
0.84
  7
EXCADSTD
 72
     1
 11
1608.0
 21
1513.0
 31
0.0
100
AcDbText
  0
LINE
  5
287
100
AcDbEntity
  8
寸法
  6
CONTINUOUS
 62
     3
100
AcDbLine
 10
1611.5
 20
1358.0
 30
0.0
 11
1611.5
 21
1551.500004
 31
0.0
  0
LINE
  5
288
100
AcDbEntity
  8
寸法
  6
CONTINUOUS
 62
     3
100
AcDbLine
 10
1616.5
 20
1358.0
 30
0.0
 11
1611.5
 21
1388.0
 31
0.0
  0
LINE
  5
289
100
AcDbEntity
  8
寸法
  6
CONTINUOUS
 62
     3
100
AcDbLine
 10
1611.5
 20
1388.0
 30
0.0
 11
1606.5
 21
1358.0
 31
0.0
  0
LINE
  5
28A
100
AcDbEntity
  8
寸法
  6
CONTINUOUS
 62
     3
100
AcDbLine
 10
1606.5
 20
1478.0
 30
0.0
 11
1611.5
 21
1448.0
 31
0.0
  0
LINE
  5
28B
100
AcDbEntity
  8
寸法
  6
CONTINUOUS
 62
     3
100
AcDbLine
 10
1611.5
 20
1448.0
 30
0.0
 11
1616.5
 21
1478.0
 31
0.0
  0
ENDBLK
  5
28C
100
AcDbEntity
  8
0
100
AcDbBlockEnd
  0
ENDSEC
  0
SECTION
  2
ENTITIES
  0
TEXT
  5
87
100
AcDbEntity
  8
枠
  6
CONTINUOUS
 62
     2
100
AcDbText
 10
231.5
 20
277.5
 30
0.0
 40
45.0
  1
製図
 41
1.026667
  7
EXCADSTD
 72
     5
 11
332.326
 21
277.5
 31
0.0
100
AcDbText
  0
TEXT
  5
88
100
AcDbEntity
  8
枠
  6
CONTINUOUS
 62
     2
100
AcDbText
 10
386.5
 20
277.5
 30
0.0
 40
45.0
  1
写図
 41
1.026667
  7
EXCADSTD
 72
     5
 11
487.326
 21
277.5
 31
0.0
100
AcDbText
  0
TEXT
  5
89
100
AcDbEntity
  8
枠
  6
CONTINUOUS
 62
     2
100
AcDbText
 10
534.0
 20
277.5
 30
0.0
 40
45.0
  1
検図
 41
0.933333
  7
EXCADSTD
 72
     5
 11
625.66
 21
277.5
 31
0.0
100
AcDbText
  0
TEXT
  5
8A
100
AcDbEntity
  8
枠
  6
CONTINUOUS
 62
     2
100
AcDbText
 10
664.0
 20
277.5
 30
0.0
 40
45.0
  1
承認
 41
0.933333
  7
EXCADSTD
 72
     5
 11
755.66
 21
277.5
 31
0.0
100
AcDbText
  0
TEXT
  5
8B
100
AcDbEntity
  8
枠
  6
CONTINUOUS
 62
     2
100
AcDbText
 10
804.0
 20
315.0
 30
0.0
 40
45.0
  1
品名
  7
EXCADVERT
 72
     3
 11
804.0
 21
215.0
 31
0.0
100
AcDbText
  0
TEXT
  5
8C
100
AcDbEntity
  8
枠
  6
CONTINUOUS
 62
     2
100
AcDbText
 10
1444.0
 20
315.0
 30
0.0
 40
45.0
  1
品番
  7
EXCADVERT
 72
     3
 11
1444.0
 21
215.0
 31
0.0
100
AcDbText
  0
TEXT
  5
8D
100
AcDbEntity
  8
枠
  6
CONTINUOUS
 62
     2
100
AcDbText
 10
1864.0
 20
315.0
 30
0.0
 40
45.0
  1
尺度
  7
EXCADVERT
 72
     3
 11
1864.0
 21
215.0
 31
0.0
100
AcDbText
  0
TEXT
  5
8E
100
AcDbEntity
  8
枠
  6
CONTINUOUS
 62
     2
100
AcDbText
 10
1444.0
 20
200.0
 30
0.0
 40
45.0
  1
図番
  7
EXCADVERT
 72
     3
 11
1444.0
 21
110.0
 31
0.0
100
AcDbText
  0
TEXT
  5
8F
100
AcDbEntity
  8
枠
  6
CONTINUOUS
 62
     2
100
AcDbText
 10
1926.0
 20
306.5
 30
0.0
 40
35.0
  1
１
 41
0.785714
  7
EXCADVERT
 72
     3
 11
1926.0
 21
271.5
 31
0.0
100
AcDbText
  0
LINE
  5
90
100
AcDbEntity
  8
枠
  6
CONTINUOUS
 62
     7
100
AcDbLine
 10
209.0
 20
105.0
 30
0.0
 11
2029.0
 21
105.0
 31
0.0
  0
LINE
  5
91
100
AcDbEntity
  8
枠
  6
CONTINUOUS
 62
     7
100
AcDbLine
 10
2029.0
 20
105.0
 30
0.0
 11
2029.0
 21
2905.0
 31
0.0
  0
LINE
  5
92
100
AcDbEntity
  8
枠
  6
CONTINUOUS
 62
     7
100
AcDbLine
 10
209.0
 20
105.0
 30
0.0
 11
209.0
 21
2905.0
 31
0.0
  0
LINE
  5
93
100
AcDbEntity
  8
枠
  6
CONTINUOUS
 62
     7
100
AcDbLine
 10
209.0
 20
2905.0
 30
0.0
 11
2029.0
 21
2905.0
 31
0.0
  0
LINE
  5
94
100
AcDbEntity
  8
枠
  6
CONTINUOUS
 62
     7
100
AcDbLine
 10
209.0
 20
325.0
 30
0.0
 11
2029.0
 21
325.0
 31
0.0
  0
LINE
  5
95
100
AcDbEntity
  8
枠
  6
CONTINUOUS
 62
     6
100
AcDbLine
 10
1889.0
 20
325.0
 30
0.0
 11
1889.0
 21
205.0
 31
0.0
  0
LINE
  5
96
100
AcDbEntity
  8
枠
  6
CONTINUOUS
 62
     6
100
AcDbLine
 10
1839.0
 20
325.0
 30
0.0
 11
1839.0
 21
205.0
 31
0.0
  0
LINE
  5
97
100
AcDbEntity
  8
枠
  6
CONTINUOUS
 62
     6
100
AcDbLine
 10
1469.0
 20
325.0
 30
0.0
 11
1469.0
 21
105.0
 31
0.0
  0
LINE
  5
98
100
AcDbEntity
  8
枠
  6
CONTINUOUS
 62
     6
100
AcDbLine
 10
1419.0
 20
325.0
 30
0.0
 11
1419.0
 21
105.0
 31
0.0
  0
LINE
  5
99
100
AcDbEntity
  8
枠
  6
CONTINUOUS
 62
     6
100
AcDbLine
 10
829.0
 20
325.0
 30
0.0
 11
829.0
 21
205.0
 31
0.0
  0
LINE
  5
9A
100
AcDbEntity
  8
枠
  6
CONTINUOUS
 62
     6
100
AcDbLine
 10
779.0
 20
325.0
 30
0.0
 11
779.0
 21
105.0
 31
0.0
  0
LINE
  5
9B
100
AcDbEntity
  8
枠
  6
CONTINUOUS
 62
     6
100
AcDbLine
 10
649.0
 20
325.0
 30
0.0
 11
649.0
 21
105.0
 31
0.0
  0
LINE
  5
9C
100
AcDbEntity
  8
枠
  6
CONTINUOUS
 62
     6
100
AcDbLine
 10
519.0
 20
325.0
 30
0.0
 11
519.0
 21
105.0
 31
0.0
  0
LINE
  5
9D
100
AcDbEntity
  8
枠
  6
CONTINUOUS
 62
     6
100
AcDbLine
 10
364.0
 20
325.0
 30
0.0
 11
364.0
 21
105.0
 31
0.0
  0
LINE
  5
9E
100
AcDbEntity
  8
枠
  6
CONTINUOUS
 62
     6
100
AcDbLine
 10
209.0
 20
275.0
 30
0.0
 11
779.0
 21
275.0
 31
0.0
  0
LINE
  5
9F
100
AcDbEntity
  8
枠
  6
CONTINUOUS
 62
     6
100
AcDbLine
 10
1921.654114
 20
228.00293
 30
0.0
 11
1998.993897
 21
306.699829
 31
0.0
  0
LINE
  5
A0
100
AcDbEntity
  8
枠
  6
EXLTYPE2
 62
     6
100
AcDbLine
 10
209.0
 20
155.0
 30
0.0
 11
519.0
 21
155.0
 31
0.0
  0
CIRCLE
  5
A1
100
AcDbEntity
  8
枠
  6
CONTINUOUS
 62
     6
100
AcDbCircle
 10
259.0
 20
130.0
 30
0.0
 40
1.0
  0
CIRCLE
  5
A2
100
AcDbEntity
  8
枠
  6
CONTINUOUS
 62
     6
100
AcDbCircle
 10
309.0
 20
130.0
 30
0.0
 40
1.0
  0
CIRCLE
  5
A3
100
AcDbEntity
  8
枠
  6
CONTINUOUS
 62
     6
100
AcDbCircle
 10
414.0
 20
130.0
 30
0.0
 40
1.0
  0
CIRCLE
  5
A4
100
AcDbEntity
  8
枠
  6
CONTINUOUS
 62
     6
100
AcDbCircle
 10
464.0
 20
130.0
 30
0.0
 40
1.0
  0
LINE
  5
A5
100
AcDbEntity
  8
枠
  6
CONTINUOUS
 62
     6
100
AcDbLine
 10
2029.0
 20
205.0
 30
0.0
 11
779.0
 21
205.0
 31
0.0
  0
TEXT
  5
A6
100
AcDbEntity
  8
枠
  6
CONTINUOUS
 62
     2
100
AcDbText
 10
912.000003
 20
207.5
 30
0.0
 40
65.0
  1
洗濯機用防水パン
 41
0.684923
  7
EXCADSTD
 72
     5
 11
1335.999997
 21
207.5
 31
0.0
100
AcDbText
  0
TEXT
  5
A7
100
AcDbEntity
  8
枠
  6
CONTINUOUS
 62
     2
100
AcDbText
 10
837.0
 20
271.5
 30
0.0
 40
50.0
  1
８００×６４０
 41
0.684
  7
EXCADSTD
 72
     5
 11
1122.0
 21
271.5
 31
0.0
100
AcDbText
  0
TEXT
  5
A8
100
AcDbEntity
  8
枠
  6
CONTINUOUS
 62
     2
100
AcDbText
 10
1968.5
 20
225.5
 30
0.0
 40
35.0
  1
１０
 41
0.564
  7
EXCADSTD
 72
     5
 11
2011.5802
 21
225.5
 31
0.0
100
AcDbText
  0
TEXT
  5
A9
100
AcDbEntity
  8
枠
  6
CONTINUOUS
 62
     2
100
AcDbText
 10
1888.0
 20
2757.5
 30
0.0
 40
40.0
  1
個数
 41
0.861
  7
EXCADSTD
 72
     5
 11
1963.1612
 21
2757.5
 31
0.0
100
AcDbText
  0
TEXT
  5
AA
100
AcDbEntity
  8
枠
  6
CONTINUOUS
 62
     2
100
AcDbText
 10
1906.5
 20
2702.5
 30
0.0
 40
40.0
  1
１
 41
0.945
  7
EXCADSTD
 72
     5
 11
1942.5
 21
2702.5
 31
0.0
100
AcDbText
  0
TEXT
  5
AB
100
AcDbEntity
  8
枠
  6
CONTINUOUS
 62
     2
100
AcDbText
 10
1906.5
 20
2647.5
 30
0.0
 40
40.0
  1
１
 41
0.945
  7
EXCADSTD
 72
     5
 11
1942.5
 21
2647.5
 31
0.0
100
AcDbText
  0
LINE
  5
AC
100
AcDbEntity
  8
枠
  6
CONTINUOUS
 62
     6
100
AcDbLine
 10
1879.0
 20
2640.0
 30
0.0
 11
1879.0
 21
2805.0
 31
0.0
  0
LINE
  5
AD
100
AcDbEntity
  8
枠
  6
CONTINUOUS
 62
     6
100
AcDbLine
 10
1979.0
 20
2640.0
 30
0.0
 11
1979.0
 21
2805.0
 31
0.0
  0
LINE
  5
AE
100
AcDbEntity
  8
枠
  6
CONTINUOUS
 62
     6
100
AcDbLine
 10
1379.0
 20
2640.0
 30
0.0
 11
1379.0
 21
2805.0
 31
0.0
  0
TEXT
  5
AF
100
AcDbEntity
  8
枠
  6
CONTINUOUS
 62
     2
100
AcDbText
 10
1379.0
 20
2815.0
 30
0.0
 40
50.0
  1
器具明細
 41
0.924
  7
EXCADSTD
 72
     5
 11
1599.0
 21
2815.0
 31
0.0
100
AcDbText
  0
LINE
  5
B0
100
AcDbEntity
  8
枠
  6
CONTINUOUS
 62
     6
100
AcDbLine
 10
1379.0
 20
2805.0
 30
0.0
 11
1979.0
 21
2805.0
 31
0.0
  0
LINE
  5
B1
100
AcDbEntity
  8
枠
  6
CONTINUOUS
 62
     6
100
AcDbLine
 10
1379.0
 20
2750.0
 30
0.0
 11
1979.0
 21
2750.0
 31
0.0
  0
LINE
  5
B2
100
AcDbEntity
  8
枠
  6
CONTINUOUS
 62
     6
100
AcDbLine
 10
1379.0
 20
2695.0
 30
0.0
 11
1979.0
 21
2695.0
 31
0.0
  0
LINE
  5
B3
100
AcDbEntity
  8
枠
  6
CONTINUOUS
 62
     6
100
AcDbLine
 10
1379.0
 20
2640.0
 30
0.0
 11
1979.0
 21
2640.0
 31
0.0
  0
TEXT
  5
B4
100
AcDbEntity
  8
枠
  6
CONTINUOUS
 62
     2
100
AcDbText
 10
1534.0
 20
2757.5
 30
0.0
 40
40.0
  1
品名
 41
1.995
  7
EXCADSTD
 72
     5
 11
1708.154
 21
2757.5
 31
0.0
100
AcDbText
  0
TEXT
  5
B5
100
AcDbEntity
  8
枠
  6
CONTINUOUS
 62
     2
100
AcDbText
 10
1389.0
 20
2702.5
 30
0.0
 40
40.0
  1
防水パン（ＰＰ製）
 41
0.795667
  7
EXCADSTD
 72
     5
 11
1729.999999
 21
2702.5
 31
0.0
100
AcDbText
  0
TEXT
  5
B6
100
AcDbEntity
  8
枠
  6
CONTINUOUS
 62
     6
100
AcDbText
 10
235.5
 20
190.0
 30
0.0
 40
50.0
  1
間瀬
 41
0.8568
  7
EXCADSTD
 72
     5
 11
328.9932
 21
190.0
 31
0.0
100
AcDbText
  0
TEXT
  5
B7
100
AcDbEntity
  8
枠
  6
CONTINUOUS
 62
     6
100
AcDbText
 10
213.5
 20
116.5
 30
0.0
 40
25.0
  1
２１
 41
0.756
  7
EXCADSTD
 72
     5
 11
254.747
 21
116.5
 31
0.0
100
AcDbText
  0
TEXT
  5
B8
100
AcDbEntity
  8
枠
  6
CONTINUOUS
 62
     6
100
AcDbText
 10
272.2
 20
116.5
 30
0.0
 40
25.0
  1
９
 41
0.84
  7
EXCADSTD
 72
     5
 11
292.2
 21
116.5
 31
0.0
100
AcDbText
  0
TEXT
  5
B9
100
AcDbEntity
  8
枠
  6
CONTINUOUS
 62
     6
100
AcDbText
 10
316.5
 20
116.5
 30
0.0
 40
25.0
  1
１８
 41
0.756
  7
EXCADSTD
 72
     5
 11
357.747
 21
116.5
 31
0.0
100
AcDbText
  0
TEXT
  5
BA
100
AcDbEntity
  8
枠
  6
CONTINUOUS
 62
     6
100
AcDbText
 10
535.5
 20
190.0
 30
0.0
 40
50.0
  1
中村
 41
0.8568
  7
EXCADSTD
 72
     5
 11
628.9932
 21
190.0
 31
0.0
100
AcDbText
  0
TEXT
  5
BB
100
AcDbEntity
  8
枠
  6
CONTINUOUS
 62
     6
100
AcDbText
 10
665.5
 20
190.0
 30
0.0
 40
50.0
  1
古林
 41
0.8568
  7
EXCADSTD
 72
     5
 11
758.9932
 21
190.0
 31
0.0
100
AcDbText
  0
TEXT
  5
BD
100
AcDbEntity
  8
枠
  6
CONTINUOUS
 62
     2
100
AcDbText
 10
799.0
 20
125.0
 30
0.0
 40
45.0
  1
ジャニス工業株式会社
  7
EXCADTTF1
 72
     5
 11
1399.0
 21
125.0
 31
0.0
100
AcDbText
  0
TEXT
  5
BE
100
AcDbEntity
  8
枠
  6
CONTINUOUS
 62
     7
100
AcDbText
 10
1481.000002
 20
121.5
 30
0.0
 40
70.0
  1
Ｐ０１０２０１０
 41
0.804
  7
EXCADSTD
 72
     5
 11
2016.999998
 21
121.5
 31
0.0
100
AcDbText
  0
TEXT
  5
BF
100
AcDbEntity
  8
枠
  6
CONTINUOUS
 62
     2
100
AcDbText
 10
1389.0
 20
2647.5
 30
0.0
 40
40.0
  1
縦形トラップ（樹脂製）
 41
0.792273
  7
EXCADSTD
 72
     5
 11
1803.999999
 21
2647.5
 31
0.0
100
AcDbText
  0
TEXT
  5
C0
100
AcDbEntity
  8
枠
  6
CONTINUOUS
 62
     2
100
AcDbText
 10
1485.0
 20
265.0
 30
0.0
 40
50.0
  1
ＳＰ８６４１Ｇ
 41
0.6408
  7
EXCADSTD
 72
     5
 11
1751.999999
 21
265.0
 31
0.0
100
AcDbText
  0
TEXT
  5
C1
100
AcDbEntity
  8
枠
  6
CONTINUOUS
 62
     2
100
AcDbText
 10
1485.0
 20
215.0
 30
0.0
 40
50.0
  1
ＳＰ２－Ｍ
 41
0.64848
  7
EXCADSTD
 72
     5
 11
1678.0
 21
215.0
 31
0.0
100
AcDbText
  0
ARC
  5
C2
100
AcDbEntity
  8
本体
  6
CONTINUOUS
 62
     2
100
AcDbCircle
 10
729.0
 20
1775.0
 30
0.0
 40
10.0
100
AcDbArc
 50
180.0
 51
270.0
  0
LINE
  5
C3
100
AcDbEntity
  8
本体
  6
CONTINUOUS
 62
     2
100
AcDbLine
 10
719.0
 20
1775.0
 30
0.0
 11
719.0
 21
2395.0
 31
0.0
  0
ARC
  5
C4
100
AcDbEntity
  8
本体
  6
CONTINUOUS
 62
     2
100
AcDbCircle
 10
729.0
 20
2395.0
 30
0.0
 40
10.0
100
AcDbArc
 50
90.0
 51
180.0
  0
LINE
  5
C5
100
AcDbEntity
  8
本体
  6
CONTINUOUS
 62
     6
100
AcDbLine
 10
739.0
 20
2399.1
 30
0.0
 11
739.0
 21
2370.9
 31
0.0
  0
LINE
  5
C6
100
AcDbEntity
  8
本体
  6
CONTINUOUS
 62
     6
100
AcDbLine
 10
753.1
 20
2385.0
 30
0.0
 11
724.9
 21
2385.0
 31
0.0
  0
LINE
  5
C7
100
AcDbEntity
  8
本体
  6
CONTINUOUS
 62
     6
100
AcDbLine
 10
739.0
 20
1770.9
 30
0.0
 11
739.0
 21
1799.1
 31
0.0
  0
LINE
  5
C8
100
AcDbEntity
  8
本体
  6
CONTINUOUS
 62
     6
100
AcDbLine
 10
753.1
 20
1785.0
 30
0.0
 11
724.9
 21
1785.0
 31
0.0
  0
LINE
  5
C9
100
AcDbEntity
  8
本体
  6
CONTINUOUS
 62
     6
100
AcDbLine
 10
1484.9
 20
1785.0
 30
0.0
 11
1513.1
 21
1785.0
 31
0.0
  0
LINE
  5
CA
100
AcDbEntity
  8
本体
  6
CONTINUOUS
 62
     6
100
AcDbLine
 10
1499.0
 20
1770.9
 30
0.0
 11
1499.0
 21
1799.1
 31
0.0
  0
LINE
  5
CB
100
AcDbEntity
  8
本体
  6
CONTINUOUS
 62
     6
100
AcDbLine
 10
1484.9
 20
2385.0
 30
0.0
 11
1513.1
 21
2385.0
 31
0.0
  0
LINE
  5
CC
100
AcDbEntity
  8
本体
  6
CONTINUOUS
 62
     6
100
AcDbLine
 10
1499.0
 20
2399.1
 30
0.0
 11
1499.0
 21
2370.9
 31
0.0
  0
LINE
  5
CD
100
AcDbEntity
  8
本体
  6
CONTINUOUS
 62
     2
100
AcDbLine
 10
729.0
 20
1765.0
 30
0.0
 11
1509.0
 21
1765.0
 31
0.0
  0
ARC
  5
CE
100
AcDbEntity
  8
本体
  6
CONTINUOUS
 62
     2
100
AcDbCircle
 10
1509.0
 20
1775.0
 30
0.0
 40
10.0
100
AcDbArc
 50
270.0
 51
0.0
  0
LINE
  5
CF
100
AcDbEntity
  8
本体
  6
CONTINUOUS
 62
     2
100
AcDbLine
 10
729.0
 20
2405.0
 30
0.0
 11
1509.0
 21
2405.0
 31
0.0
  0
LINE
  5
D0
100
AcDbEntity
  8
本体
  6
CONTINUOUS
 62
     2
100
AcDbLine
 10
1519.0
 20
1775.0
 30
0.0
 11
1519.0
 21
2395.0
 31
0.0
  0
ARC
  5
D1
100
AcDbEntity
  8
本体
  6
CONTINUOUS
 62
     2
100
AcDbCircle
 10
1509.0
 20
2395.0
 30
0.0
 40
10.0
100
AcDbArc
 50
0.0
 51
90.0
  0
LINE
  5
D2
100
AcDbEntity
  8
本体
  6
CONTINUOUS
 62
     2
100
AcDbLine
 10
1494.0
 20
1825.0
 30
0.0
 11
1494.0
 21
2345.0
 31
0.0
  0
LINE
  5
D3
100
AcDbEntity
  8
本体
  6
CONTINUOUS
 62
     2
100
AcDbLine
 10
779.0
 20
2380.0
 30
0.0
 11
1459.0
 21
2380.0
 31
0.0
  0
LINE
  5
D4
100
AcDbEntity
  8
本体
  6
CONTINUOUS
 62
     2
100
AcDbLine
 10
744.0
 20
1825.0
 30
0.0
 11
744.0
 21
2345.0
 31
0.0
  0
LINE
  5
D5
100
AcDbEntity
  8
本体
  6
CONTINUOUS
 62
     2
100
AcDbLine
 10
779.0
 20
1790.0
 30
0.0
 11
1459.0
 21
1790.0
 31
0.0
  0
ARC
  5
D6
100
AcDbEntity
  8
本体
  6
CONTINUOUS
 62
     2
100
AcDbCircle
 10
779.0
 20
1825.0
 30
0.0
 40
35.0
100
AcDbArc
 50
180.0
 51
270.0
  0
ARC
  5
D7
100
AcDbEntity
  8
本体
  6
CONTINUOUS
 62
     2
100
AcDbCircle
 10
779.0
 20
2345.0
 30
0.0
 40
35.0
100
AcDbArc
 50
90.0
 51
180.0
  0
ARC
  5
D8
100
AcDbEntity
  8
本体
  6
CONTINUOUS
 62
     2
100
AcDbCircle
 10
1459.0
 20
2345.0
 30
0.0
 40
35.0
100
AcDbArc
 50
0.0
 51
90.0
  0
ARC
  5
D9
100
AcDbEntity
  8
本体
  6
CONTINUOUS
 62
     2
100
AcDbCircle
 10
1459.0
 20
1825.0
 30
0.0
 40
35.0
100
AcDbArc
 50
270.0
 51
0.0
  0
LINE
  5
DA
100
AcDbEntity
  8
本体
  6
CONTINUOUS
 62
     6
100
AcDbLine
 10
930.0
 20
2087.3
 30
0.0
 11
930.0
 21
2107.7
 31
0.0
  0
LINE
  5
DB
100
AcDbEntity
  8
本体
  6
CONTINUOUS
 62
     6
100
AcDbLine
 10
1477.695805
 20
2087.3
 30
0.0
 11
930.0
 21
2087.3
 31
0.0
  0
LINE
  5
DC
100
AcDbEntity
  8
本体
  6
CONTINUOUS
 62
     6
100
AcDbLine
 10
930.0
 20
2107.7
 30
0.0
 11
1477.695805
 21
2107.7
 31
0.0
  0
LINE
  5
DD
100
AcDbEntity
  8
本体
  6
CONTINUOUS
 62
     6
100
AcDbLine
 10
1477.695805
 20
2107.7
 30
0.0
 11
1477.695805
 21
2087.3
 31
0.0
  0
LINE
  5
DE
100
AcDbEntity
  8
本体
  6
CONTINUOUS
 62
     6
100
AcDbLine
 10
930.0
 20
2112.3
 30
0.0
 11
930.0
 21
2132.7
 31
0.0
  0
LINE
  5
DF
100
AcDbEntity
  8
本体
  6
CONTINUOUS
 62
     6
100
AcDbLine
 10
1477.695805
 20
2112.3
 30
0.0
 11
930.0
 21
2112.3
 31
0.0
  0
LINE
  5
E0
100
AcDbEntity
  8
本体
  6
CONTINUOUS
 62
     6
100
AcDbLine
 10
930.0
 20
2132.7
 30
0.0
 11
1477.695805
 21
2132.7
 31
0.0
  0
LINE
  5
E1
100
AcDbEntity
  8
本体
  6
CONTINUOUS
 62
     6
100
AcDbLine
 10
1477.695805
 20
2132.7
 30
0.0
 11
1477.695805
 21
2112.3
 31
0.0
  0
LINE
  5
E2
100
AcDbEntity
  8
本体
  6
CONTINUOUS
 62
     6
100
AcDbLine
 10
930.0
 20
2137.3
 30
0.0
 11
930.0
 21
2157.7
 31
0.0
  0
LINE
  5
E3
100
AcDbEntity
  8
本体
  6
CONTINUOUS
 62
     6
100
AcDbLine
 10
1477.695805
 20
2137.3
 30
0.0
 11
930.0
 21
2137.3
 31
0.0
  0
LINE
  5
E4
100
AcDbEntity
  8
本体
  6
CONTINUOUS
 62
     6
100
AcDbLine
 10
930.0
 20
2157.7
 30
0.0
 11
1477.695805
 21
2157.7
 31
0.0
  0
LINE
  5
E5
100
AcDbEntity
  8
本体
  6
CONTINUOUS
 62
     6
100
AcDbLine
 10
1477.695805
 20
2157.7
 30
0.0
 11
1477.695805
 21
2137.3
 31
0.0
  0
LINE
  5
E6
100
AcDbEntity
  8
本体
  6
CONTINUOUS
 62
     6
100
AcDbLine
 10
930.0
 20
2162.3
 30
0.0
 11
930.0
 21
2182.7
 31
0.0
  0
LINE
  5
E7
100
AcDbEntity
  8
本体
  6
CONTINUOUS
 62
     6
100
AcDbLine
 10
1477.695805
 20
2162.3
 30
0.0
 11
930.0
 21
2162.3
 31
0.0
  0
LINE
  5
E8
100
AcDbEntity
  8
本体
  6
CONTINUOUS
 62
     6
100
AcDbLine
 10
930.0
 20
2182.7
 30
0.0
 11
1477.695805
 21
2182.7
 31
0.0
  0
LINE
  5
E9
100
AcDbEntity
  8
本体
  6
CONTINUOUS
 62
     6
100
AcDbLine
 10
1477.695805
 20
2182.7
 30
0.0
 11
1477.695805
 21
2162.3
 31
0.0
  0
LINE
  5
EA
100
AcDbEntity
  8
本体
  6
CONTINUOUS
 62
     6
100
AcDbLine
 10
930.0
 20
2187.3
 30
0.0
 11
930.0
 21
2207.7
 31
0.0
  0
LINE
  5
EB
100
AcDbEntity
  8
本体
  6
CONTINUOUS
 62
     6
100
AcDbLine
 10
1477.695805
 20
2187.3
 30
0.0
 11
930.0
 21
2187.3
 31
0.0
  0
LINE
  5
EC
100
AcDbEntity
  8
本体
  6
CONTINUOUS
 62
     6
100
AcDbLine
 10
930.0
 20
2207.7
 30
0.0
 11
1477.695805
 21
2207.7
 31
0.0
  0
LINE
  5
ED
100
AcDbEntity
  8
本体
  6
CONTINUOUS
 62
     6
100
AcDbLine
 10
1477.695805
 20
2207.7
 30
0.0
 11
1477.695805
 21
2187.3
 31
0.0
  0
LINE
  5
EE
100
AcDbEntity
  8
本体
  6
CONTINUOUS
 62
     6
100
AcDbLine
 10
930.0
 20
2212.3
 30
0.0
 11
930.0
 21
2232.7
 31
0.0
  0
LINE
  5
EF
100
AcDbEntity
  8
本体
  6
CONTINUOUS
 62
     6
100
AcDbLine
 10
1477.695805
 20
2212.3
 30
0.0
 11
930.0
 21
2212.3
 31
0.0
  0
LINE
  5
F0
100
AcDbEntity
  8
本体
  6
CONTINUOUS
 62
     6
100
AcDbLine
 10
930.0
 20
2232.7
 30
0.0
 11
1477.695805
 21
2232.7
 31
0.0
  0
LINE
  5
F1
100
AcDbEntity
  8
本体
  6
CONTINUOUS
 62
     6
100
AcDbLine
 10
1477.695805
 20
2232.7
 30
0.0
 11
1477.695805
 21
2212.3
 31
0.0
  0
LINE
  5
F2
100
AcDbEntity
  8
本体
  6
CONTINUOUS
 62
     6
100
AcDbLine
 10
930.0
 20
2237.3
 30
0.0
 11
930.0
 21
2257.7
 31
0.0
  0
LINE
  5
F3
100
AcDbEntity
  8
本体
  6
CONTINUOUS
 62
     6
100
AcDbLine
 10
1477.695805
 20
2237.3
 30
0.0
 11
930.0
 21
2237.3
 31
0.0
  0
LINE
  5
F4
100
AcDbEntity
  8
本体
  6
CONTINUOUS
 62
     6
100
AcDbLine
 10
930.0
 20
2257.7
 30
0.0
 11
1477.695805
 21
2257.7
 31
0.0
  0
LINE
  5
F5
100
AcDbEntity
  8
本体
  6
CONTINUOUS
 62
     6
100
AcDbLine
 10
1477.695805
 20
2257.7
 30
0.0
 11
1477.695805
 21
2237.3
 31
0.0
  0
LINE
  5
F6
100
AcDbEntity
  8
本体
  6
CONTINUOUS
 62
     6
100
AcDbLine
 10
930.0
 20
2262.3
 30
0.0
 11
930.0
 21
2282.7
 31
0.0
  0
LINE
  5
F7
100
AcDbEntity
  8
本体
  6
CONTINUOUS
 62
     6
100
AcDbLine
 10
1477.695805
 20
2262.3
 30
0.0
 11
930.0
 21
2262.3
 31
0.0
  0
LINE
  5
F8
100
AcDbEntity
  8
本体
  6
CONTINUOUS
 62
     6
100
AcDbLine
 10
930.0
 20
2282.7
 30
0.0
 11
1477.695805
 21
2282.7
 31
0.0
  0
LINE
  5
F9
100
AcDbEntity
  8
本体
  6
CONTINUOUS
 62
     6
100
AcDbLine
 10
1477.695805
 20
2282.7
 30
0.0
 11
1477.695805
 21
2262.3
 31
0.0
  0
LINE
  5
FA
100
AcDbEntity
  8
本体
  6
CONTINUOUS
 62
     6
100
AcDbLine
 10
930.0
 20
2287.3
 30
0.0
 11
930.0
 21
2307.7
 31
0.0
  0
LINE
  5
FB
100
AcDbEntity
  8
本体
  6
CONTINUOUS
 62
     6
100
AcDbLine
 10
1477.695805
 20
2287.3
 30
0.0
 11
930.0
 21
2287.3
 31
0.0
  0
LINE
  5
FC
100
AcDbEntity
  8
本体
  6
CONTINUOUS
 62
     6
100
AcDbLine
 10
930.0
 20
2307.7
 30
0.0
 11
1477.695805
 21
2307.7
 31
0.0
  0
LINE
  5
FD
100
AcDbEntity
  8
本体
  6
CONTINUOUS
 62
     6
100
AcDbLine
 10
1477.695805
 20
2307.7
 30
0.0
 11
1477.695805
 21
2287.3
 31
0.0
  0
LINE
  5
FE
100
AcDbEntity
  8
本体
  6
CONTINUOUS
 62
     6
100
AcDbLine
 10
930.0
 20
2312.3
 30
0.0
 11
930.0
 21
2332.7
 31
0.0
  0
LINE
  5
FF
100
AcDbEntity
  8
本体
  6
CONTINUOUS
 62
     6
100
AcDbLine
 10
1477.695805
 20
2312.3
 30
0.0
 11
930.0
 21
2312.3
 31
0.0
  0
LINE
  5
100
100
AcDbEntity
  8
本体
  6
CONTINUOUS
 62
     6
100
AcDbLine
 10
1477.695805
 20
2332.7
 30
0.0
 11
1477.695805
 21
2312.3
 31
0.0
  0
LINE
  5
101
100
AcDbEntity
  8
本体
  6
CONTINUOUS
 62
     6
100
AcDbLine
 10
930.0
 20
2332.7
 30
0.0
 11
1477.695805
 21
2332.7
 31
0.0
  0
LINE
  5
102
100
AcDbEntity
  8
本体
  6
CONTINUOUS
 62
     6
100
AcDbLine
 10
930.0
 20
2337.3
 30
0.0
 11
930.0
 21
2362.7
 31
0.0
  0
LINE
  5
103
100
AcDbEntity
  8
本体
  6
CONTINUOUS
 62
     6
100
AcDbLine
 10
930.0
 20
2337.3
 30
0.0
 11
1477.695805
 21
2337.3
 31
0.0
  0
ARC
  5
104
100
AcDbEntity
  8
本体
  6
CONTINUOUS
 62
     6
100
AcDbCircle
 10
1462.695805
 20
2347.7
 30
0.0
 40
15.0
100
AcDbArc
 50
0.0
 51
90.0
  0
LINE
  5
105
100
AcDbEntity
  8
本体
  6
CONTINUOUS
 62
     6
100
AcDbLine
 10
1477.695805
 20
2337.3
 30
0.0
 11
1477.695805
 21
2347.7
 31
0.0
  0
LINE
  5
106
100
AcDbEntity
  8
本体
  6
CONTINUOUS
 62
     6
100
AcDbLine
 10
930.0
 20
2362.7
 30
0.0
 11
1462.695805
 21
2362.7
 31
0.0
  0
LINE
  5
107
100
AcDbEntity
  8
本体
  6
CONTINUOUS
 62
     6
100
AcDbLine
 10
930.0
 20
2082.7
 30
0.0
 11
930.0
 21
2062.3
 31
0.0
  0
LINE
  5
108
100
AcDbEntity
  8
本体
  6
CONTINUOUS
 62
     6
100
AcDbLine
 10
1477.695805
 20
2082.7
 30
0.0
 11
930.0
 21
2082.7
 31
0.0
  0
LINE
  5
109
100
AcDbEntity
  8
本体
  6
CONTINUOUS
 62
     6
100
AcDbLine
 10
930.0
 20
2062.3
 30
0.0
 11
1477.695805
 21
2062.3
 31
0.0
  0
LINE
  5
10A
100
AcDbEntity
  8
本体
  6
CONTINUOUS
 62
     6
100
AcDbLine
 10
1477.695805
 20
2062.3
 30
0.0
 11
1477.695805
 21
2082.7
 31
0.0
  0
LINE
  5
10B
100
AcDbEntity
  8
本体
  6
CONTINUOUS
 62
     6
100
AcDbLine
 10
930.0
 20
2057.7
 30
0.0
 11
930.0
 21
2037.3
 31
0.0
  0
LINE
  5
10C
100
AcDbEntity
  8
本体
  6
CONTINUOUS
 62
     6
100
AcDbLine
 10
1477.695805
 20
2057.7
 30
0.0
 11
930.0
 21
2057.7
 31
0.0
  0
LINE
  5
10D
100
AcDbEntity
  8
本体
  6
CONTINUOUS
 62
     6
100
AcDbLine
 10
930.0
 20
2037.3
 30
0.0
 11
1477.695805
 21
2037.3
 31
0.0
  0
LINE
  5
10E
100
AcDbEntity
  8
本体
  6
CONTINUOUS
 62
     6
100
AcDbLine
 10
1477.695805
 20
2037.3
 30
0.0
 11
1477.695805
 21
2057.7
 31
0.0
  0
LINE
  5
10F
100
AcDbEntity
  8
本体
  6
CONTINUOUS
 62
     6
100
AcDbLine
 10
930.0
 20
2032.7
 30
0.0
 11
930.0
 21
2012.3
 31
0.0
  0
LINE
  5
110
100
AcDbEntity
  8
本体
  6
CONTINUOUS
 62
     6
100
AcDbLine
 10
1477.695805
 20
2032.7
 30
0.0
 11
930.0
 21
2032.7
 31
0.0
  0
LINE
  5
111
100
AcDbEntity
  8
本体
  6
CONTINUOUS
 62
     6
100
AcDbLine
 10
930.0
 20
2012.3
 30
0.0
 11
1477.695805
 21
2012.3
 31
0.0
  0
LINE
  5
112
100
AcDbEntity
  8
本体
  6
CONTINUOUS
 62
     6
100
AcDbLine
 10
1477.695805
 20
2012.3
 30
0.0
 11
1477.695805
 21
2032.7
 31
0.0
  0
LINE
  5
113
100
AcDbEntity
  8
本体
  6
CONTINUOUS
 62
     6
100
AcDbLine
 10
930.0
 20
2007.7
 30
0.0
 11
930.0
 21
1987.3
 31
0.0
  0
LINE
  5
114
100
AcDbEntity
  8
本体
  6
CONTINUOUS
 62
     6
100
AcDbLine
 10
1477.695805
 20
2007.7
 30
0.0
 11
930.0
 21
2007.7
 31
0.0
  0
LINE
  5
115
100
AcDbEntity
  8
本体
  6
CONTINUOUS
 62
     6
100
AcDbLine
 10
930.0
 20
1987.3
 30
0.0
 11
1477.695805
 21
1987.3
 31
0.0
  0
LINE
  5
116
100
AcDbEntity
  8
本体
  6
CONTINUOUS
 62
     6
100
AcDbLine
 10
1477.695805
 20
1987.3
 30
0.0
 11
1477.695805
 21
2007.7
 31
0.0
  0
LINE
  5
117
100
AcDbEntity
  8
本体
  6
CONTINUOUS
 62
     6
100
AcDbLine
 10
930.0
 20
1982.7
 30
0.0
 11
930.0
 21
1962.3
 31
0.0
  0
LINE
  5
118
100
AcDbEntity
  8
本体
  6
CONTINUOUS
 62
     6
100
AcDbLine
 10
1477.695805
 20
1982.7
 30
0.0
 11
930.0
 21
1982.7
 31
0.0
  0
LINE
  5
119
100
AcDbEntity
  8
本体
  6
CONTINUOUS
 62
     6
100
AcDbLine
 10
930.0
 20
1962.3
 30
0.0
 11
1477.695805
 21
1962.3
 31
0.0
  0
LINE
  5
11A
100
AcDbEntity
  8
本体
  6
CONTINUOUS
 62
     6
100
AcDbLine
 10
1477.695805
 20
1962.3
 30
0.0
 11
1477.695805
 21
1982.7
 31
0.0
  0
LINE
  5
11B
100
AcDbEntity
  8
本体
  6
CONTINUOUS
 62
     6
100
AcDbLine
 10
930.0
 20
1957.7
 30
0.0
 11
930.0
 21
1937.3
 31
0.0
  0
LINE
  5
11C
100
AcDbEntity
  8
本体
  6
CONTINUOUS
 62
     6
100
AcDbLine
 10
1477.695805
 20
1957.7
 30
0.0
 11
930.0
 21
1957.7
 31
0.0
  0
LINE
  5
11D
100
AcDbEntity
  8
本体
  6
CONTINUOUS
 62
     6
100
AcDbLine
 10
930.0
 20
1937.3
 30
0.0
 11
1477.695805
 21
1937.3
 31
0.0
  0
LINE
  5
11E
100
AcDbEntity
  8
本体
  6
CONTINUOUS
 62
     6
100
AcDbLine
 10
1477.695805
 20
1937.3
 30
0.0
 11
1477.695805
 21
1957.7
 31
0.0
  0
LINE
  5
11F
100
AcDbEntity
  8
本体
  6
CONTINUOUS
 62
     6
100
AcDbLine
 10
930.0
 20
1932.7
 30
0.0
 11
930.0
 21
1912.3
 31
0.0
  0
LINE
  5
120
100
AcDbEntity
  8
本体
  6
CONTINUOUS
 62
     6
100
AcDbLine
 10
1477.695805
 20
1932.7
 30
0.0
 11
930.0
 21
1932.7
 31
0.0
  0
LINE
  5
121
100
AcDbEntity
  8
本体
  6
CONTINUOUS
 62
     6
100
AcDbLine
 10
930.0
 20
1912.3
 30
0.0
 11
1477.695805
 21
1912.3
 31
0.0
  0
LINE
  5
122
100
AcDbEntity
  8
本体
  6
CONTINUOUS
 62
     6
100
AcDbLine
 10
1477.695805
 20
1912.3
 30
0.0
 11
1477.695805
 21
1932.7
 31
0.0
  0
LINE
  5
123
100
AcDbEntity
  8
本体
  6
CONTINUOUS
 62
     6
100
AcDbLine
 10
930.0
 20
1907.7
 30
0.0
 11
930.0
 21
1887.3
 31
0.0
  0
LINE
  5
124
100
AcDbEntity
  8
本体
  6
CONTINUOUS
 62
     6
100
AcDbLine
 10
1477.695805
 20
1907.7
 30
0.0
 11
930.0
 21
1907.7
 31
0.0
  0
LINE
  5
125
100
AcDbEntity
  8
本体
  6
CONTINUOUS
 62
     6
100
AcDbLine
 10
930.0
 20
1887.3
 30
0.0
 11
1477.695805
 21
1887.3
 31
0.0
  0
LINE
  5
126
100
AcDbEntity
  8
本体
  6
CONTINUOUS
 62
     6
100
AcDbLine
 10
1477.695805
 20
1887.3
 30
0.0
 11
1477.695805
 21
1907.7
 31
0.0
  0
LINE
  5
127
100
AcDbEntity
  8
本体
  6
CONTINUOUS
 62
     6
100
AcDbLine
 10
930.0
 20
1882.7
 30
0.0
 11
930.0
 21
1862.3
 31
0.0
  0
LINE
  5
128
100
AcDbEntity
  8
本体
  6
CONTINUOUS
 62
     6
100
AcDbLine
 10
1477.695805
 20
1882.7
 30
0.0
 11
930.0
 21
1882.7
 31
0.0
  0
LINE
  5
129
100
AcDbEntity
  8
本体
  6
CONTINUOUS
 62
     6
100
AcDbLine
 10
930.0
 20
1862.3
 30
0.0
 11
1477.695805
 21
1862.3
 31
0.0
  0
LINE
  5
12A
100
AcDbEntity
  8
本体
  6
CONTINUOUS
 62
     6
100
AcDbLine
 10
1477.695805
 20
1862.3
 30
0.0
 11
1477.695805
 21
1882.7
 31
0.0
  0
LINE
  5
12B
100
AcDbEntity
  8
本体
  6
CONTINUOUS
 62
     6
100
AcDbLine
 10
930.0
 20
1857.7
 30
0.0
 11
930.0
 21
1837.3
 31
0.0
  0
LINE
  5
12C
100
AcDbEntity
  8
本体
  6
CONTINUOUS
 62
     6
100
AcDbLine
 10
1477.695805
 20
1857.7
 30
0.0
 11
930.0
 21
1857.7
 31
0.0
  0
LINE
  5
12D
100
AcDbEntity
  8
本体
  6
CONTINUOUS
 62
     6
100
AcDbLine
 10
1477.695805
 20
1837.3
 30
0.0
 11
1477.695805
 21
1857.7
 31
0.0
  0
LINE
  5
12E
100
AcDbEntity
  8
本体
  6
CONTINUOUS
 62
     6
100
AcDbLine
 10
930.0
 20
1837.3
 30
0.0
 11
1477.695805
 21
1837.3
 31
0.0
  0
LINE
  5
12F
100
AcDbEntity
  8
本体
  6
CONTINUOUS
 62
     6
100
AcDbLine
 10
930.0
 20
1832.7
 30
0.0
 11
930.0
 21
1807.3
 31
0.0
  0
LINE
  5
130
100
AcDbEntity
  8
本体
  6
CONTINUOUS
 62
     6
100
AcDbLine
 10
930.0
 20
1832.7
 30
0.0
 11
1477.695805
 21
1832.7
 31
0.0
  0
ARC
  5
131
100
AcDbEntity
  8
本体
  6
CONTINUOUS
 62
     6
100
AcDbCircle
 10
1462.695805
 20
1822.3
 30
0.0
 40
15.0
100
AcDbArc
 50
270.0
 51
0.0
  0
LINE
  5
132
100
AcDbEntity
  8
本体
  6
CONTINUOUS
 62
     6
100
AcDbLine
 10
1477.695805
 20
1832.7
 30
0.0
 11
1477.695805
 21
1822.3
 31
0.0
  0
LINE
  5
133
100
AcDbEntity
  8
本体
  6
CONTINUOUS
 62
     6
100
AcDbLine
 10
930.0
 20
1807.3
 30
0.0
 11
1462.695805
 21
1807.3
 31
0.0
  0
CIRCLE
  5
134
100
AcDbEntity
  8
本体
  6
CONTINUOUS
 62
     2
100
AcDbCircle
 10
1499.0
 20
1785.0
 30
0.0
 40
12.1
  0
CIRCLE
  5
135
100
AcDbEntity
  8
本体
  6
CONTINUOUS
 62
     2
100
AcDbCircle
 10
1499.0
 20
2385.0
 30
0.0
 40
12.1
  0
CIRCLE
  5
136
100
AcDbEntity
  8
本体
  6
CONTINUOUS
 62
     2
100
AcDbCircle
 10
739.0
 20
2385.0
 30
0.0
 40
12.1
  0
CIRCLE
  5
137
100
AcDbEntity
  8
本体
  6
CONTINUOUS
 62
     2
100
AcDbCircle
 10
739.0
 20
1785.0
 30
0.0
 40
12.1
  0
ARC
  5
138
100
AcDbEntity
  8
本体
  6
CONTINUOUS
 62
     6
100
AcDbCircle
 10
1600.4
 20
756.445172
 30
0.0
 40
42.556707
100
AcDbArc
 50
41.241478
 51
138.758522
  0
ARC
  5
139
100
AcDbEntity
  8
本体
  6
CONTINUOUS
 62
     6
100
AcDbCircle
 10
1600.0
 20
423.113054
 30
0.0
 40
500.0
100
AcDbArc
 50
83.62063
 51
96.37937
  0
ARC
  5
13A
100
AcDbEntity
  8
本体
  6
CONTINUOUS
 62
     6
100
AcDbCircle
 10
1655.0
 20
915.048009
 30
0.0
 40
5.0
100
AcDbArc
 50
0.0
 51
83.62063
  0
LINE
  5
13B
100
AcDbEntity
  8
本体
  6
CONTINUOUS
 62
     6
100
AcDbLine
 10
1660.0
 20
915.048009
 30
0.0
 11
1660.0
 21
912.0
 31
0.0
  0
LINE
  5
13C
100
AcDbEntity
  8
本体
  6
CONTINUOUS
 62
     6
100
AcDbLine
 10
1644.663382
 20
912.0
 30
0.0
 11
1660.0
 21
912.0
 31
0.0
  0
LINE
  5
13D
100
AcDbEntity
  8
本体
  6
CONTINUOUS
 62
     6
100
AcDbLine
 10
1655.0
 20
914.5
 30
0.0
 11
1655.0
 21
912.0
 31
0.0
  0
LINE
  5
13E
100
AcDbEntity
  8
本体
  6
CONTINUOUS
 62
     6
100
AcDbLine
 10
1644.73914
 20
914.5
 30
0.0
 11
1655.0
 21
914.5
 31
0.0
  0
LINE
  5
13F
100
AcDbEntity
  8
本体
  6
CONTINUOUS
 62
     6
100
AcDbLine
 10
1644.73914
 20
914.5
 30
0.0
 11
1643.487624
 21
873.2
 31
0.0
  0
LINE
  5
140
100
AcDbEntity
  8
本体
  6
CONTINUOUS
 62
     6
100
AcDbLine
 10
1634.966412
 20
907.0
 30
0.0
 11
1565.033588
 21
907.0
 31
0.0
  0
LINE
  5
141
100
AcDbEntity
  8
本体
  6
CONTINUOUS
 62
     6
100
AcDbLine
 10
1565.26086
 20
914.5
 30
0.0
 11
1634.73914
 21
914.5
 31
0.0
  0
LINE
  5
142
100
AcDbEntity
  8
本体
  6
CONTINUOUS
 62
     6
100
AcDbLine
 10
1545.0
 20
914.5
 30
0.0
 11
1555.26086
 21
914.5
 31
0.0
  0
LINE
  5
143
100
AcDbEntity
  8
本体
  6
CONTINUOUS
 62
     6
100
AcDbLine
 10
1545.0
 20
914.5
 30
0.0
 11
1545.0
 21
912.0
 31
0.0
  0
LINE
  5
144
100
AcDbEntity
  8
本体
  6
CONTINUOUS
 62
     6
100
AcDbLine
 10
1555.26086
 20
914.5
 30
0.0
 11
1556.512376
 21
873.2
 31
0.0
  0
LINE
  5
145
100
AcDbEntity
  8
本体
  6
CONTINUOUS
 62
     6
100
AcDbLine
 10
1540.0
 20
912.0
 30
0.0
 11
1555.336618
 21
912.0
 31
0.0
  0
ARC
  5
146
100
AcDbEntity
  8
本体
  6
CONTINUOUS
 62
     6
100
AcDbCircle
 10
1545.0
 20
915.048009
 30
0.0
 40
5.0
100
AcDbArc
 50
96.37937
 51
180.0
  0
LINE
  5
147
100
AcDbEntity
  8
本体
  6
CONTINUOUS
 62
     6
100
AcDbLine
 10
1540.0
 20
915.048009
 30
0.0
 11
1540.0
 21
912.0
 31
0.0
  0
LINE
  5
148
100
AcDbEntity
  8
本体
  6
CONTINUOUS
 62
     6
100
AcDbLine
 10
1565.26086
 20
914.5
 30
0.0
 11
1563.236618
 21
847.7
 31
0.0
  0
LINE
  5
149
100
AcDbEntity
  8
本体
  6
CONTINUOUS
 62
     6
100
AcDbLine
 10
1634.73914
 20
914.5
 30
0.0
 11
1636.763382
 21
847.7
 31
0.0
  0
CIRCLE
  5
14A
100
AcDbEntity
  8
本体
  6
CONTINUOUS
 62
     6
100
AcDbCircle
 10
842.0
 20
2085.0
 30
0.0
 40
72.0
  0
CIRCLE
  5
14B
100
AcDbEntity
  8
本体
  6
CONTINUOUS
 62
     6
100
AcDbCircle
 10
842.0
 20
2085.0
 30
0.0
 40
71.000003
  0
ELLIPSE
  5
14C
100
AcDbEntity
  8
本体
  6
CONTINUOUS
 62
     6
100
AcDbEllipse
 10
890.134936
 20
2085.0
 30
0.0
 11
0.0000000000000137
 21
-19.499999999999993
 31
0.0
210
0.0
220
0.0
230
1.0
 40
0.258819
 41
0.0
 42
6.2831853071796004
  0
LINE
  5
14D
100
AcDbEntity
  8
本体
  6
CONTINUOUS
 62
     6
100
AcDbLine
 10
854.913214
 20
2088.0
 30
0.0
 11
854.913214
 21
2082.0
 31
0.0
  0
LINE
  5
14E
100
AcDbEntity
  8
本体
  6
CONTINUOUS
 62
     6
100
AcDbLine
 10
854.913214
 20
2088.0
 30
0.0
 11
872.591014
 21
2088.0
 31
0.0
  0
LINE
  5
14F
100
AcDbEntity
  8
本体
  6
CONTINUOUS
 62
     6
100
AcDbLine
 10
854.913214
 20
2082.0
 30
0.0
 11
872.591014
 21
2082.0
 31
0.0
  0
ELLIPSE
  5
150
100
AcDbEntity
  8
本体
  6
CONTINUOUS
 62
     6
100
AcDbEllipse
 10
874.680123
 20
2085.0
 30
0.0
 11
0.0000000000000137
 21
-19.499999999999993
 31
0.0
210
0.0
220
0.0
230
1.0
 40
0.258819
 41
3.1415926535897931
 42
4.5579293819006477
  0
LINE
  5
151
100
AcDbEntity
  8
本体
  6
CONTINUOUS
 62
     6
100
AcDbLine
 10
887.237158
 20
2104.5
 30
0.0
 11
890.134936
 21
2104.5
 31
0.0
  0
ELLIPSE
  5
152
100
AcDbEntity
  8
本体
  6
CONTINUOUS
 62
     6
100
AcDbEllipse
 10
887.237158
 20
2085.0
 30
0.0
 11
0.0000000000000137
 21
-19.499999999999993
 31
0.0
210
0.0
220
0.0
230
1.0
 40
0.258819
 41
3.1415926535897931
 42
0.0
  0
LINE
  5
153
100
AcDbEntity
  8
本体
  6
CONTINUOUS
 62
     6
100
AcDbLine
 10
878.907529
 20
2104.647939
 30
0.0
 11
885.907529
 21
2104.647939
 31
0.0
  0
ELLIPSE
  5
154
100
AcDbEntity
  8
本体
  6
CONTINUOUS
 62
     6
100
AcDbEllipse
 10
890.134936
 20
2085.0
 30
0.0
 11
0.0000000000000116
 21
-16.500000000000004
 31
0.0
210
0.0
220
0.0
230
1.0
 40
0.258819
 41
0.0
 42
6.2831853071796004
  0
LINE
  5
155
100
AcDbEntity
  8
本体
  6
CONTINUOUS
 62
     6
100
AcDbLine
 10
874.680123
 20
2104.5
 30
0.0
 11
877.5779
 21
2104.5
 31
0.0
  0
LINE
  5
156
100
AcDbEntity
  8
本体
  6
CONTINUOUS
 62
     6
100
AcDbLine
 10
877.19479
 20
2103.5
 30
0.0
 11
875.982432
 21
2103.5
 31
0.0
  0
LINE
  5
157
100
AcDbEntity
  8
本体
  6
CONTINUOUS
 62
     6
100
AcDbLine
 10
864.530929
 20
2082.0
 30
0.0
 11
864.530929
 21
2088.0
 31
0.0
  0
LINE
  5
158
100
AcDbEntity
  8
本体
  6
CONTINUOUS
 62
     6
100
AcDbLine
 10
885.641691
 20
2103.5
 30
0.0
 11
884.94309
 21
2103.5
 31
0.0
  0
LINE
  5
159
100
AcDbEntity
  8
本体
  6
CONTINUOUS
 62
     6
100
AcDbLine
 10
887.237158
 20
2065.5
 30
0.0
 11
890.134936
 21
2065.5
 31
0.0
  0
LINE
  5
15A
100
AcDbEntity
  8
本体
  6
CONTINUOUS
 62
     6
100
AcDbLine
 10
877.19479
 20
2066.5
 30
0.0
 11
875.982432
 21
2066.5
 31
0.0
  0
LINE
  5
15B
100
AcDbEntity
  8
本体
  6
CONTINUOUS
 62
     6
100
AcDbLine
 10
885.641691
 20
2066.5
 30
0.0
 11
884.94309
 21
2066.5
 31
0.0
  0
ARC
  5
15C
100
AcDbEntity
  8
本体
  6
CONTINUOUS
 62
     6
100
AcDbCircle
 10
842.0
 20
2085.0
 30
0.0
 40
17.0
100
AcDbArc
 50
120.139088
 51
239.860912
  0
ARC
  5
15D
100
AcDbEntity
  8
本体
  6
CONTINUOUS
 62
     6
100
AcDbCircle
 10
842.0
 20
2085.0
 30
0.0
 40
19.0
100
AcDbArc
 50
84.715267
 51
275.284733
  0
ARC
  5
15E
100
AcDbEntity
  8
本体
  6
CONTINUOUS
 62
     6
100
AcDbCircle
 10
842.0
 20
2085.0
 30
0.0
 40
19.5
100
AcDbArc
 50
76.997176
 51
283.342364
  0
ELLIPSE
  5
15F
100
AcDbEntity
  8
本体
  6
CONTINUOUS
 62
     6
100
AcDbEllipse
 10
878.907529
 20
2085.0
 30
0.0
 11
0.0000000000000012
 21
19.647939461319989
 31
0.0
210
0.0
220
0.0
230
1.0
 40
0.258819
 41
0.0000000000000007
 42
3.1722900573009816
  0
LINE
  5
160
100
AcDbEntity
  8
本体
  6
CONTINUOUS
 62
     6
100
AcDbLine
 10
878.907529
 20
2065.352061
 30
0.0
 11
885.907529
 21
2065.352061
 31
0.0
  0
LINE
  5
161
100
AcDbEntity
  8
本体
  6
CONTINUOUS
 62
     6
100
AcDbLine
 10
874.680123
 20
2065.5
 30
0.0
 11
878.284666
 21
2065.5
 31
0.0
  0
ELLIPSE
  5
162
100
AcDbEntity
  8
本体
  6
CONTINUOUS
 62
     6
100
AcDbEllipse
 10
877.5779
 20
2085.0
 30
0.0
 11
0.0000000000000012
 21
19.499999999999993
 31
0.0
210
0.0
220
0.0
230
1.0
 40
0.258819
 41
6.1801842312692976
 42
3.1415926535897958
  0
ELLIPSE
  5
163
100
AcDbEntity
  8
本体
  6
CONTINUOUS
 62
     6
100
AcDbEllipse
 10
874.680123
 20
2085.0
 30
0.0
 11
0.0000000000000012
 21
19.499999999999993
 31
0.0
210
0.0
220
0.0
230
1.0
 40
0.258819
 41
1.7252559252789581
 42
3.1415926535897958
  0
LINE
  5
164
100
AcDbEntity
  8
本体
  6
CONTINUOUS
 62
     6
100
AcDbLine
 10
887.237158
 20
2065.5
 30
0.0
 11
890.134936
 21
2065.5
 31
0.0
  0
ELLIPSE
  5
165
100
AcDbEntity
  8
本体
  6
CONTINUOUS
 62
     6
100
AcDbEllipse
 10
885.907529
 20
2085.0
 30
0.0
 11
0.0000000000000012
 21
19.647939461319989
 31
0.0
210
0.0
220
0.0
230
1.0
 40
0.258819
 41
6.1230797949452587
 42
3.2643850253334796
  0
LINE
  5
166
100
AcDbEntity
  8
本体
  6
CONTINUOUS
 62
     6
100
AcDbLine
 10
845.5
 20
2104.0
 30
0.0
 11
873.544559
 21
2104.0
 31
0.0
  0
LINE
  5
167
100
AcDbEntity
  8
本体
  6
CONTINUOUS
 62
     6
100
AcDbLine
 10
845.5
 20
2066.0
 30
0.0
 11
873.544559
 21
2066.0
 31
0.0
  0
ARC
  5
168
100
AcDbEntity
  8
本体
  6
CONTINUOUS
 62
     6
100
AcDbCircle
 10
845.5
 20
2085.0
 30
0.0
 40
19.0
100
AcDbArc
 50
90.0
 51
270.0
  0
CIRCLE
  5
169
100
AcDbEntity
  8
本体
  6
CONTINUOUS
 62
     6
100
AcDbCircle
 10
799.5
 20
2085.0
 30
0.0
 40
3.5
  0
ARC
  5
16A
100
AcDbEntity
  8
本体
  6
CONTINUOUS
 62
     6
100
AcDbCircle
 10
815.657317
 20
2097.126955
 30
0.0
 40
3.5
100
AcDbArc
 50
225.0
 51
45.0
  0
ARC
  5
16B
100
AcDbEntity
  8
本体
  6
CONTINUOUS
 62
     6
100
AcDbCircle
 10
804.965504
 20
2107.818767
 30
0.0
 40
3.5
100
AcDbArc
 50
45.0
 51
225.0
  0
ARC
  5
16C
100
AcDbEntity
  8
本体
  6
CONTINUOUS
 62
     6
100
AcDbCircle
 10
807.142136
 20
2091.5
 30
0.0
 40
3.5
100
AcDbArc
 50
225.0
 51
45.0
  0
ARC
  5
16D
100
AcDbEntity
  8
本体
  6
CONTINUOUS
 62
     6
100
AcDbCircle
 10
800.524861
 20
2098.117274
 30
0.0
 40
3.5
100
AcDbArc
 50
45.0
 51
225.0
  0
LINE
  5
16E
100
AcDbEntity
  8
本体
  6
CONTINUOUS
 62
     6
100
AcDbLine
 10
802.490631
 20
2105.343893
 30
0.0
 11
813.182443
 21
2094.652081
 31
0.0
  0
LINE
  5
16F
100
AcDbEntity
  8
本体
  6
CONTINUOUS
 62
     6
100
AcDbLine
 10
802.999735
 20
2100.592148
 30
0.0
 11
809.617009
 21
2093.974874
 31
0.0
  0
LINE
  5
170
100
AcDbEntity
  8
本体
  6
CONTINUOUS
 62
     6
100
AcDbLine
 10
798.049988
 20
2095.6424
 30
0.0
 11
804.667262
 21
2089.025126
 31
0.0
  0
ARC
  5
171
100
AcDbEntity
  8
本体
  6
CONTINUOUS
 62
     6
100
AcDbCircle
 10
829.772417
 20
2058.703875
 30
0.0
 40
3.5
100
AcDbArc
 50
315.0
 51
135.0
  0
ARC
  5
172
100
AcDbEntity
  8
本体
  6
CONTINUOUS
 62
     6
100
AcDbCircle
 10
819.090256
 20
2048.021714
 30
0.0
 40
3.5
100
AcDbArc
 50
135.0
 51
315.0
  0
ARC
  5
173
100
AcDbEntity
  8
本体
  6
CONTINUOUS
 62
     6
100
AcDbCircle
 10
821.45714
 20
2064.530733
 30
0.0
 40
3.5
100
AcDbArc
 50
315.0
 51
135.0
  0
ARC
  5
174
100
AcDbEntity
  8
本体
  6
CONTINUOUS
 62
     6
100
AcDbCircle
 10
811.20408
 20
2054.277674
 30
0.0
 40
3.5
100
AcDbArc
 50
135.0
 51
315.0
  0
ARC
  5
175
100
AcDbEntity
  8
本体
  6
CONTINUOUS
 62
     6
100
AcDbCircle
 10
815.657317
 20
2072.873045
 30
0.0
 40
3.5
100
AcDbArc
 50
315.0
 51
135.0
  0
ARC
  5
176
100
AcDbEntity
  8
本体
  6
CONTINUOUS
 62
     6
100
AcDbCircle
 10
804.965504
 20
2062.181233
 30
0.0
 40
3.5
100
AcDbArc
 50
135.0
 51
315.0
  0
ARC
  5
177
100
AcDbEntity
  8
本体
  6
CONTINUOUS
 62
     6
100
AcDbCircle
 10
807.142136
 20
2078.5
 30
0.0
 40
3.5
100
AcDbArc
 50
315.0
 51
135.0
  0
ARC
  5
178
100
AcDbEntity
  8
本体
  6
CONTINUOUS
 62
     6
100
AcDbCircle
 10
800.524861
 20
2071.882726
 30
0.0
 40
3.5
100
AcDbArc
 50
135.0
 51
315.0
  0
LINE
  5
179
100
AcDbEntity
  8
本体
  6
CONTINUOUS
 62
     6
100
AcDbLine
 10
821.56513
 20
2045.54684
 30
0.0
 11
832.247291
 21
2056.229001
 31
0.0
  0
LINE
  5
17A
100
AcDbEntity
  8
本体
  6
CONTINUOUS
 62
     6
100
AcDbLine
 10
816.615383
 20
2050.496588
 30
0.0
 11
827.297543
 21
2061.178748
 31
0.0
  0
LINE
  5
17B
100
AcDbEntity
  8
本体
  6
CONTINUOUS
 62
     6
100
AcDbLine
 10
813.678954
 20
2051.8028
 30
0.0
 11
823.932014
 21
2062.055859
 31
0.0
  0
LINE
  5
17C
100
AcDbEntity
  8
本体
  6
CONTINUOUS
 62
     6
100
AcDbLine
 10
808.729207
 20
2056.752547
 30
0.0
 11
818.982266
 21
2067.005607
 31
0.0
  0
LINE
  5
17D
100
AcDbEntity
  8
本体
  6
CONTINUOUS
 62
     6
100
AcDbLine
 10
807.440378
 20
2059.706359
 30
0.0
 11
818.13219
 21
2070.398172
 31
0.0
  0
LINE
  5
17E
100
AcDbEntity
  8
本体
  6
CONTINUOUS
 62
     6
100
AcDbLine
 10
802.490631
 20
2064.656107
 30
0.0
 11
813.182443
 21
2075.347919
 31
0.0
  0
LINE
  5
17F
100
AcDbEntity
  8
本体
  6
CONTINUOUS
 62
     6
100
AcDbLine
 10
802.999735
 20
2069.407852
 30
0.0
 11
809.617009
 21
2076.025126
 31
0.0
  0
LINE
  5
180
100
AcDbEntity
  8
本体
  6
CONTINUOUS
 62
     6
100
AcDbLine
 10
798.049988
 20
2074.3576
 30
0.0
 11
804.667262
 21
2080.974874
 31
0.0
  0
CIRCLE
  5
181
100
AcDbEntity
  8
本体
  6
CONTINUOUS
 62
     6
100
AcDbCircle
 10
842.0
 20
2122.5
 30
0.0
 40
7.5
  0
CIRCLE
  5
182
100
AcDbEntity
  8
本体
  6
CONTINUOUS
 62
     6
100
AcDbCircle
 10
854.430757
 20
2125.641435
 30
0.0
 40
3.5
  0
ARC
  5
183
100
AcDbEntity
  8
本体
  6
CONTINUOUS
 62
     6
100
AcDbCircle
 10
854.227583
 20
2111.296125
 30
0.0
 40
3.5
100
AcDbArc
 50
135.0
 51
315.0
  0
ARC
  5
184
100
AcDbEntity
  8
本体
  6
CONTINUOUS
 62
     6
100
AcDbCircle
 10
864.909744
 20
2121.978286
 30
0.0
 40
3.5
100
AcDbArc
 50
315.0
 51
135.0
  0
ARC
  5
185
100
AcDbEntity
  8
本体
  6
CONTINUOUS
 62
     6
100
AcDbCircle
 10
872.79592
 20
2115.722326
 30
0.0
 40
3.5
100
AcDbArc
 50
315.0
 51
135.0
  0
ARC
  5
186
100
AcDbEntity
  8
本体
  6
CONTINUOUS
 62
     6
100
AcDbCircle
 10
879.034496
 20
2107.818767
 30
0.0
 40
3.5
100
AcDbArc
 50
315.0
 51
135.0
  0
LINE
  5
187
100
AcDbEntity
  8
本体
  6
CONTINUOUS
 62
     6
100
AcDbLine
 10
862.43487
 20
2124.45316
 30
0.0
 11
851.752709
 21
2113.770999
 31
0.0
  0
LINE
  5
188
100
AcDbEntity
  8
本体
  6
CONTINUOUS
 62
     6
100
AcDbLine
 10
867.384617
 20
2119.503412
 30
0.0
 11
856.702457
 21
2108.821252
 31
0.0
  0
LINE
  5
189
100
AcDbEntity
  8
本体
  6
CONTINUOUS
 62
     6
100
AcDbLine
 10
870.321046
 20
2118.1972
 30
0.0
 11
860.067986
 21
2107.944141
 31
0.0
  0
CIRCLE
  5
18A
100
AcDbEntity
  8
本体
  6
CONTINUOUS
 62
     6
100
AcDbCircle
 10
829.569243
 20
2125.641435
 30
0.0
 40
3.5
  0
ARC
  5
18B
100
AcDbEntity
  8
本体
  6
CONTINUOUS
 62
     6
100
AcDbCircle
 10
829.772417
 20
2111.296125
 30
0.0
 40
3.5
100
AcDbArc
 50
225.0
 51
45.0
  0
ARC
  5
18C
100
AcDbEntity
  8
本体
  6
CONTINUOUS
 62
     6
100
AcDbCircle
 10
819.090256
 20
2121.978286
 30
0.0
 40
3.5
100
AcDbArc
 50
45.0
 51
225.0
  0
ARC
  5
18D
100
AcDbEntity
  8
本体
  6
CONTINUOUS
 62
     6
100
AcDbCircle
 10
821.45714
 20
2105.469267
 30
0.0
 40
3.5
100
AcDbArc
 50
225.0
 51
45.0
  0
ARC
  5
18E
100
AcDbEntity
  8
本体
  6
CONTINUOUS
 62
     6
100
AcDbCircle
 10
811.20408
 20
2115.722326
 30
0.0
 40
3.5
100
AcDbArc
 50
45.0
 51
225.0
  0
LINE
  5
18F
100
AcDbEntity
  8
本体
  6
CONTINUOUS
 62
     6
100
AcDbLine
 10
821.56513
 20
2124.45316
 30
0.0
 11
832.247291
 21
2113.770999
 31
0.0
  0
LINE
  5
190
100
AcDbEntity
  8
本体
  6
CONTINUOUS
 62
     6
100
AcDbLine
 10
816.615383
 20
2119.503412
 30
0.0
 11
827.297543
 21
2108.821252
 31
0.0
  0
LINE
  5
191
100
AcDbEntity
  8
本体
  6
CONTINUOUS
 62
     6
100
AcDbLine
 10
813.678954
 20
2118.1972
 30
0.0
 11
823.932014
 21
2107.944141
 31
0.0
  0
LINE
  5
192
100
AcDbEntity
  8
本体
  6
CONTINUOUS
 62
     6
100
AcDbLine
 10
808.729207
 20
2113.247453
 30
0.0
 11
818.982266
 21
2102.994393
 31
0.0
  0
LINE
  5
193
100
AcDbEntity
  8
本体
  6
CONTINUOUS
 62
     6
100
AcDbLine
 10
807.440378
 20
2110.293641
 30
0.0
 11
818.13219
 21
2099.601828
 31
0.0
  0
LINE
  5
194
100
AcDbEntity
  8
本体
  6
CONTINUOUS
 62
     6
100
AcDbLine
 10
843.5
 20
2129.848469
 30
0.0
 11
843.5
 21
2115.151531
 31
0.0
  0
LINE
  5
195
100
AcDbEntity
  8
本体
  6
CONTINUOUS
 62
     6
100
AcDbLine
 10
840.5
 20
2129.848469
 30
0.0
 11
840.5
 21
2115.151531
 31
0.0
  0
CIRCLE
  5
196
100
AcDbEntity
  8
本体
  6
CONTINUOUS
 62
     6
100
AcDbCircle
 10
842.0
 20
2047.5
 30
0.0
 40
7.5
  0
CIRCLE
  5
197
100
AcDbEntity
  8
本体
  6
CONTINUOUS
 62
     6
100
AcDbCircle
 10
829.569243
 20
2044.358565
 30
0.0
 40
3.5
  0
LINE
  5
198
100
AcDbEntity
  8
本体
  6
CONTINUOUS
 62
     6
100
AcDbLine
 10
843.5
 20
2040.151531
 30
0.0
 11
843.5
 21
2054.848469
 31
0.0
  0
LINE
  5
199
100
AcDbEntity
  8
本体
  6
CONTINUOUS
 62
     6
100
AcDbLine
 10
840.5
 20
2040.151531
 30
0.0
 11
840.5
 21
2054.848469
 31
0.0
  0
ARC
  5
19A
100
AcDbEntity
  8
本体
  6
CONTINUOUS
 62
     6
100
AcDbCircle
 10
854.227583
 20
2058.703875
 30
0.0
 40
3.5
100
AcDbArc
 50
45.0
 51
225.0
  0
ARC
  5
19B
100
AcDbEntity
  8
本体
  6
CONTINUOUS
 62
     6
100
AcDbCircle
 10
872.79592
 20
2054.277674
 30
0.0
 40
3.5
100
AcDbArc
 50
225.0
 51
45.0
  0
LINE
  5
19C
100
AcDbEntity
  8
本体
  6
CONTINUOUS
 62
     6
100
AcDbLine
 10
867.384617
 20
2050.496588
 30
0.0
 11
856.702457
 21
2061.178748
 31
0.0
  0
LINE
  5
19D
100
AcDbEntity
  8
本体
  6
CONTINUOUS
 62
     6
100
AcDbLine
 10
870.321046
 20
2051.8028
 30
0.0
 11
860.067986
 21
2062.055859
 31
0.0
  0
CIRCLE
  5
19E
100
AcDbEntity
  8
本体
  6
CONTINUOUS
 62
     6
100
AcDbCircle
 10
854.430757
 20
2044.358565
 30
0.0
 40
3.5
  0
ARC
  5
19F
100
AcDbEntity
  8
本体
  6
CONTINUOUS
 62
     6
100
AcDbCircle
 10
864.909744
 20
2048.021714
 30
0.0
 40
3.5
100
AcDbArc
 50
225.0
 51
45.0
  0
LINE
  5
1A0
100
AcDbEntity
  8
本体
  6
CONTINUOUS
 62
     6
100
AcDbLine
 10
862.43487
 20
2045.54684
 30
0.0
 11
851.752709
 21
2056.229001
 31
0.0
  0
ARC
  5
1A1
100
AcDbEntity
  8
本体
  6
CONTINUOUS
 62
     6
100
AcDbCircle
 10
842.0
 20
2085.0
 30
0.0
 40
53.0
100
AcDbArc
 50
21.759772
 51
337.946581
  0
ARC
  5
1A2
100
AcDbEntity
  8
本体
  6
CONTINUOUS
 62
     6
100
AcDbCircle
 10
862.54286
 20
2105.469267
 30
0.0
 40
3.5
100
AcDbArc
 50
135.0
 51
204.821367
  0
LINE
  5
1A3
100
AcDbEntity
  8
本体
  6
CONTINUOUS
 62
     6
100
AcDbLine
 10
875.270793
 20
2113.247453
 30
0.0
 11
866.023341
 21
2104.0
 31
0.0
  0
LINE
  5
1A4
100
AcDbEntity
  8
本体
  6
CONTINUOUS
 62
     6
100
AcDbLine
 10
876.559622
 20
2110.293641
 30
0.0
 11
870.265981
 21
2104.0
 31
0.0
  0
LINE
  5
1A5
100
AcDbEntity
  8
本体
  6
CONTINUOUS
 62
     6
100
AcDbLine
 10
881.509369
 20
2105.343893
 30
0.0
 11
880.813416
 21
2104.647939
 31
0.0
  0
ARC
  5
1A6
100
AcDbEntity
  8
本体
  6
CONTINUOUS
 62
     6
100
AcDbCircle
 10
879.034496
 20
2062.181233
 30
0.0
 40
3.5
100
AcDbArc
 50
225.0
 51
45.0
  0
LINE
  5
1A7
100
AcDbEntity
  8
本体
  6
CONTINUOUS
 62
     6
100
AcDbLine
 10
881.509369
 20
2064.656107
 30
0.0
 11
880.813416
 21
2065.352061
 31
0.0
  0
LINE
  5
1A8
100
AcDbEntity
  8
本体
  6
CONTINUOUS
 62
     6
100
AcDbLine
 10
876.559622
 20
2059.706359
 30
0.0
 11
870.265981
 21
2066.0
 31
0.0
  0
LINE
  5
1A9
100
AcDbEntity
  8
本体
  6
CONTINUOUS
 62
     6
100
AcDbLine
 10
875.270793
 20
2056.752547
 30
0.0
 11
866.023341
 21
2066.0
 31
0.0
  0
ARC
  5
1AA
100
AcDbEntity
  8
本体
  6
CONTINUOUS
 62
     6
100
AcDbCircle
 10
862.54286
 20
2064.530733
 30
0.0
 40
3.5
100
AcDbArc
 50
155.178633
 51
225.0
  0
LINE
  5
1AB
100
AcDbEntity
  8
本体
  6
EXLTYPE3
 62
     6
100
AcDbLine
 10
842.0
 20
2164.0
 30
0.0
 11
842.0
 21
2002.0
 31
0.0
  0
LINE
  5
1AC
100
AcDbEntity
  8
本体
  6
CONTINUOUS
 62
     6
100
AcDbLine
 10
1557.521771
 20
847.7
 30
0.0
 11
1563.236618
 21
847.7
 31
0.0
  0
LINE
  5
1AD
100
AcDbEntity
  8
本体
  6
CONTINUOUS
 62
     6
100
AcDbLine
 10
1636.763382
 20
847.7
 30
0.0
 11
1642.478229
 21
847.7
 31
0.0
  0
DIMENSION
  5
1B9
100
AcDbEntity
  8
本体
  6
CONTINUOUS
 62
     2
100
AcDbDimension
  2
*D14
 10
842.0
 20
1946.0
 30
0.0
 11
787.5
 21
1969.5
 31
0.0
 70
   160
  3
STANDARD
100
AcDbAlignedDimension
 13
719.0
 23
2085.0
 33
0.0
 14
842.0
 24
2002.0
 34
0.0
100
AcDbRotatedDimension
1001
ACAD
1000
DSTYLE
1002
{
1070
     6
1000
_EX_NORM
1070
     7
1000
_EX_NORM
1070
    41
1040
30.0
1070
    42
1040
5.0
1070
    44
1040
10.0
1070
    73
1070
     0
1070
    74
1070
     0
1070
    75
1070
     1
1070
    76
1070
     0
1070
    77
1070
     1
1070
    78
1070
     8
1070
   140
1040
40.0
1070
   147
1040
3.5
1070
   173
1070
     1
1070
   176
1070
     3
1070
   177
1070
     3
1070
   178
1070
     2
1070
   271
1070
     2
1070
   279
1070
     2
1070
   280
1070
     0
1070
   287
1070
     5
1070
   340
1005
1B8
1002
}
  0
LINE
  5
1BA
100
AcDbEntity
  8
本体
  6
EXLTYPE3
 62
     6
100
AcDbLine
 10
709.0
 20
2085.0
 30
0.0
 11
1533.0
 21
2085.0
 31
0.0
  0
LINE
  5
1BB
100
AcDbEntity
  8
本体
  6
EXLTYPE3
 62
     6
100
AcDbLine
 10
1119.0
 20
1754.0
 30
0.0
 11
1119.0
 21
2416.0
 31
0.0
  0
LINE
  5
1BC
100
AcDbEntity
  8
本体
  6
EXLTYPE2
 62
     6
100
AcDbLine
 10
209.0
 20
1505.0
 30
0.0
 11
15.0
 21
1505.0
 31
0.0
  0
TEXT
  5
1BD
100
AcDbEntity
  8
本体
  6
CONTINUOUS
 62
     2
100
AcDbText
 10
931.383677
 20
1099.552136
 30
0.0
 40
40.0
  1
ＶＰ・ＶＵ５０
 41
0.801
  7
EXCADSTD
 72
     5
 11
1198.383676
 21
1099.552136
 31
0.0
100
AcDbText
  0
LEADER
  5
1BE
100
AcDbEntity
  8
本体
  6
CONTINUOUS
 62
     6
100
AcDbLeader
  3
STANDARD
 73
     3
 74
     1
 75
     0
 40
0.0
 76
     3
 10
872.0
 20
1206.0
 30
0.0
 10
934.383677
 20
1096.052136
 30
0.0
 10
1193.114713
 20
1096.052136
 30
0.0
 77
     6
1001
ACAD
1000
DSTYLE
1002
{
1070
    41
1040
35.0
1070
     5
1000
_EX_NORM
1070
     6
1000
_EX_NORM
1070
     7
1000
_EX_NORM
1070
   341
1005
2B
1002
}
  0
LINE
  5
1BF
100
AcDbEntity
  8
本体
  6
CONTINUOUS
 62
     2
100
AcDbLine
 10
719.961552
 20
1443.087262
 30
0.0
 11
719.0
 21
1388.0
 31
0.0
  0
ARC
  5
1C0
100
AcDbEntity
  8
本体
  6
CONTINUOUS
 62
     2
100
AcDbCircle
 10
724.96079
 20
1443.0
 30
0.0
 40
5.0
100
AcDbArc
 50
90.0
 51
179.0
  0
ARC
  5
1C1
100
AcDbEntity
  8
本体
  6
CONTINUOUS
 62
     2
100
AcDbCircle
 10
771.5
 20
1388.0
 30
0.0
 40
5.0
100
AcDbArc
 50
180.0
 51
270.0
  0
ARC
  5
1C2
100
AcDbEntity
  8
本体
  6
CONTINUOUS
 62
     2
100
AcDbCircle
 10
912.5
 20
1388.0
 30
0.0
 40
5.0
100
AcDbArc
 50
270.0
 51
0.0
  0
LINE
  5
1C3
100
AcDbEntity
  8
本体
  6
CONTINUOUS
 62
     2
100
AcDbLine
 10
771.5
 20
1383.0
 30
0.0
 11
912.5
 21
1383.0
 31
0.0
  0
LINE
  5
1C4
100
AcDbEntity
  8
本体
  6
CONTINUOUS
 62
     2
100
AcDbLine
 10
807.5
 20
1255.13935
 30
0.0
 11
807.5
 21
1236.877051
 31
0.0
  0
LINE
  5
1C5
100
AcDbEntity
  8
本体
  6
CONTINUOUS
 62
     2
100
AcDbLine
 10
808.8
 20
1265.351309
 30
0.0
 11
808.8
 21
1232.998679
 31
0.0
  0
LINE
  5
1C6
100
AcDbEntity
  8
本体
  6
CONTINUOUS
 62
     2
100
AcDbLine
 10
782.500002
 20
1372.998679
 30
0.0
 11
782.500002
 21
1363.498679
 31
0.0
  0
LINE
  5
1C7
100
AcDbEntity
  8
本体
  6
CONTINUOUS
 62
     2
100
AcDbLine
 10
808.845016
 20
1256.49868
 30
0.0
 11
807.500001
 21
1255.153665
 31
0.0
  0
LINE
  5
1C8
100
AcDbEntity
  8
本体
  6
CONTINUOUS
 62
     2
100
AcDbLine
 10
807.500001
 20
1236.877053
 30
0.0
 11
808.878374
 21
1235.498679
 31
0.0
  0
LINE
  5
1C9
100
AcDbEntity
  8
本体
  6
CONTINUOUS
 62
     2
100
AcDbLine
 10
784.9
 20
1360.998679
 30
0.0
 11
785.755383
 21
1284.014192
 31
0.0
  0
LINE
  5
1CA
100
AcDbEntity
  8
本体
  6
CONTINUOUS
 62
     2
100
AcDbLine
 10
782.500002
 20
1363.498679
 30
0.0
 11
784.9
 21
1360.998679
 31
0.0
  0
LINE
  5
1CB
100
AcDbEntity
  8
本体
  6
CONTINUOUS
 62
     2
100
AcDbLine
 10
798.80604
 20
1269.307931
 30
0.0
 11
806.189685
 21
1268.340642
 31
0.0
  0
ARC
  5
1CC
100
AcDbEntity
  8
本体
  6
CONTINUOUS
 62
     2
100
AcDbCircle
 10
805.800001
 20
1265.366058
 30
0.0
 40
3.0
100
AcDbArc
 50
0.0
 51
82.536506
  0
ARC
  5
1CD
100
AcDbEntity
  8
本体
  6
CONTINUOUS
 62
     2
100
AcDbCircle
 10
800.754457
 20
1284.180849
 30
0.0
 40
15.0
100
AcDbArc
 50
180.636594
 51
262.536506
  0
ARC
  5
1CE
100
AcDbEntity
  8
本体
  6
CONTINUOUS
 62
     2
100
AcDbCircle
 10
779.500002
 20
1372.998679
 30
0.0
 40
3.0
100
AcDbArc
 50
0.000003
 51
90.000005
  0
LINE
  5
1CF
100
AcDbEntity
  8
本体
  6
CONTINUOUS
 62
     2
100
AcDbLine
 10
771.000002
 20
1380.998679
 30
0.0
 11
771.000002
 21
1377.998679
 31
0.0
  0
ARC
  5
1D0
100
AcDbEntity
  8
本体
  6
CONTINUOUS
 62
     2
100
AcDbCircle
 10
773.000002
 20
1377.998679
 30
0.0
 40
2.0
100
AcDbArc
 50
179.999997
 51
270.0
  0
ARC
  5
1D1
100
AcDbEntity
  8
本体
  6
CONTINUOUS
 62
     2
100
AcDbCircle
 10
805.800001
 20
1265.366058
 30
0.0
 40
3.0
100
AcDbArc
 50
1.988579
 51
82.536506
  0
ARC
  5
1D2
100
AcDbEntity
  8
本体
  6
CONTINUOUS
 62
     2
100
AcDbCircle
 10
772.521285
 20
1382.04862
 30
0.0
 40
1.0
100
AcDbArc
 50
180.0
 51
263.383262
  0
LINE
  5
1D3
100
AcDbEntity
  8
本体
  6
CONTINUOUS
 62
     2
100
AcDbLine
 10
771.521285
 20
1382.04862
 30
0.0
 11
771.521285
 21
1382.652644
 31
0.0
  0
ARC
  5
1D4
100
AcDbEntity
  8
本体
  6
CONTINUOUS
 62
     2
100
AcDbCircle
 10
772.521285
 20
1382.652644
 30
0.0
 40
1.0
100
AcDbArc
 50
159.674307
 51
180.0
  0
ARC
  5
1D5
100
AcDbEntity
  8
本体
  6
EXLTYPE4
 62
     6
100
AcDbCircle
 10
827.0
 20
1167.248679
 30
0.0
 40
21.75
100
AcDbArc
 50
46.397181
 51
133.602819
  0
ARC
  5
1D6
100
AcDbEntity
  8
本体
  6
EXLTYPE4
 62
     6
100
AcDbCircle
 10
827.0
 20
1198.748679
 30
0.0
 40
21.75
100
AcDbArc
 50
226.397181
 51
313.602819
  0
ARC
  5
1D7
100
AcDbEntity
  8
本体
  6
EXLTYPE4
 62
     6
100
AcDbCircle
 10
857.0
 20
1198.748679
 30
0.0
 40
21.75
100
AcDbArc
 50
226.397181
 51
313.602819
  0
LINE
  5
1D8
100
AcDbEntity
  8
本体
  6
EXLTYPE4
 62
     6
100
AcDbLine
 10
872.0
 20
1182.998679
 30
0.0
 11
872.0
 21
1255.582012
 31
0.0
  0
LINE
  5
1D9
100
AcDbEntity
  8
本体
  6
EXLTYPE4
 62
     6
100
AcDbLine
 10
812.0
 20
1182.998679
 30
0.0
 11
812.0
 21
1255.582012
 31
0.0
  0
LINE
  5
1DA
100
AcDbEntity
  8
本体
  6
CONTINUOUS
 62
     2
100
AcDbLine
 10
901.499998
 20
1372.998679
 30
0.0
 11
901.499998
 21
1363.498679
 31
0.0
  0
LINE
  5
1DB
100
AcDbEntity
  8
本体
  6
CONTINUOUS
 62
     2
100
AcDbLine
 10
901.499998
 20
1363.498679
 30
0.0
 11
899.1
 21
1360.998679
 31
0.0
  0
ARC
  5
1DC
100
AcDbEntity
  8
本体
  6
CONTINUOUS
 62
     2
100
AcDbCircle
 10
904.499998
 20
1372.998679
 30
0.0
 40
3.0
100
AcDbArc
 50
89.999995
 51
179.999997
  0
LINE
  5
1DD
100
AcDbEntity
  8
本体
  6
CONTINUOUS
 62
     2
100
AcDbLine
 10
912.999998
 20
1380.998679
 30
0.0
 11
912.999998
 21
1377.998679
 31
0.0
  0
ARC
  5
1DE
100
AcDbEntity
  8
本体
  6
CONTINUOUS
 62
     2
100
AcDbCircle
 10
910.999998
 20
1377.998679
 30
0.0
 40
2.0
100
AcDbArc
 50
270.0
 51
0.000003
  0
ARC
  5
1DF
100
AcDbEntity
  8
本体
  6
CONTINUOUS
 62
     2
100
AcDbCircle
 10
911.478715
 20
1382.04862
 30
0.0
 40
1.0
100
AcDbArc
 50
276.616738
 51
0.0
  0
LINE
  5
1E0
100
AcDbEntity
  8
本体
  6
CONTINUOUS
 62
     2
100
AcDbLine
 10
912.478715
 20
1382.04862
 30
0.0
 11
912.478715
 21
1382.652644
 31
0.0
  0
ARC
  5
1E1
100
AcDbEntity
  8
本体
  6
CONTINUOUS
 62
     2
100
AcDbCircle
 10
911.478715
 20
1382.652644
 30
0.0
 40
1.0
100
AcDbArc
 50
0.0
 51
20.325693
  0
LINE
  5
1E2
100
AcDbEntity
  8
本体
  6
CONTINUOUS
 62
     2
100
AcDbLine
 10
899.1
 20
1360.998679
 30
0.0
 11
898.244617
 21
1284.014192
 31
0.0
  0
ARC
  5
1E3
100
AcDbEntity
  8
本体
  6
CONTINUOUS
 62
     2
100
AcDbCircle
 10
883.245543
 20
1284.180849
 30
0.0
 40
15.0
100
AcDbArc
 50
277.463494
 51
359.363406
  0
ARC
  5
1E4
100
AcDbEntity
  8
本体
  6
CONTINUOUS
 62
     2
100
AcDbCircle
 10
878.199999
 20
1265.366058
 30
0.0
 40
3.0
100
AcDbArc
 50
97.463494
 51
180.0
  0
ARC
  5
1E5
100
AcDbEntity
  8
本体
  6
CONTINUOUS
 62
     2
100
AcDbCircle
 10
878.199999
 20
1265.366058
 30
0.0
 40
3.0
100
AcDbArc
 50
97.463494
 51
178.011421
  0
LINE
  5
1E6
100
AcDbEntity
  8
本体
  6
CONTINUOUS
 62
     2
100
AcDbLine
 10
875.2
 20
1265.351309
 30
0.0
 11
875.2
 21
1232.998679
 31
0.0
  0
LINE
  5
1E7
100
AcDbEntity
  8
本体
  6
CONTINUOUS
 62
     2
100
AcDbLine
 10
876.5
 20
1255.13935
 30
0.0
 11
876.5
 21
1236.877051
 31
0.0
  0
LINE
  5
1E8
100
AcDbEntity
  8
本体
  6
CONTINUOUS
 62
     2
100
AcDbLine
 10
875.154984
 20
1256.49868
 30
0.0
 11
876.499999
 21
1255.153665
 31
0.0
  0
LINE
  5
1E9
100
AcDbEntity
  8
本体
  6
CONTINUOUS
 62
     2
100
AcDbLine
 10
876.499999
 20
1236.877053
 30
0.0
 11
875.121626
 21
1235.498679
 31
0.0
  0
LINE
  5
1EA
100
AcDbEntity
  8
本体
  6
CONTINUOUS
 62
     2
100
AcDbLine
 10
876.5
 20
1236.862532
 30
0.0
 11
807.485557
 21
1236.862532
 31
0.0
  0
LINE
  5
1EB
100
AcDbEntity
  8
本体
  6
CONTINUOUS
 62
     2
100
AcDbLine
 10
875.2
 20
1235.498679
 30
0.0
 11
808.8
 21
1235.498679
 31
0.0
  0
LINE
  5
1EC
100
AcDbEntity
  8
本体
  6
CONTINUOUS
 62
     2
100
AcDbLine
 10
875.2
 20
1232.998679
 30
0.0
 11
808.8
 21
1232.998679
 31
0.0
  0
LINE
  5
1ED
100
AcDbEntity
  8
本体
  6
CONTINUOUS
 62
     2
100
AcDbLine
 10
876.5
 20
1255.13935
 30
0.0
 11
807.513916
 21
1255.13935
 31
0.0
  0
LINE
  5
1EE
100
AcDbEntity
  8
本体
  6
CONTINUOUS
 62
     2
100
AcDbLine
 10
875.2
 20
1256.498679
 30
0.0
 11
808.8
 21
1256.498679
 31
0.0
  0
LINE
  5
1EF
100
AcDbEntity
  8
本体
  6
CONTINUOUS
 62
     2
100
AcDbLine
 10
876.76149
 20
1267.998679
 30
0.0
 11
807.23851
 21
1267.998679
 31
0.0
  0
LINE
  5
1F0
100
AcDbEntity
  8
本体
  6
CONTINUOUS
 62
     2
100
AcDbLine
 10
885.19396
 20
1269.307931
 30
0.0
 11
877.810315
 21
1268.340642
 31
0.0
  0
LINE
  5
1F1
100
AcDbEntity
  8
本体
  6
CONTINUOUS
 62
     2
100
AcDbLine
 10
772.0
 20
1382.14862
 30
0.0
 11
912.0
 21
1382.14862
 31
0.0
  0
LINE
  5
1F2
100
AcDbEntity
  8
本体
  6
CONTINUOUS
 62
     2
100
AcDbLine
 10
911.593942
 20
1380.998679
 30
0.0
 11
771.000002
 21
1380.998679
 31
0.0
  0
LINE
  5
1F3
100
AcDbEntity
  8
本体
  6
CONTINUOUS
 62
     2
100
AcDbLine
 10
910.999998
 20
1375.998679
 30
0.0
 11
773.000002
 21
1375.998679
 31
0.0
  0
LINE
  5
1F4
100
AcDbEntity
  8
本体
  6
CONTINUOUS
 62
     2
100
AcDbLine
 10
901.499998
 20
1363.498679
 30
0.0
 11
782.500002
 21
1363.498679
 31
0.0
  0
LINE
  5
1F5
100
AcDbEntity
  8
本体
  6
CONTINUOUS
 62
     2
100
AcDbLine
 10
899.1
 20
1360.998679
 30
0.0
 11
784.9
 21
1360.998679
 31
0.0
  0
LINE
  5
1F6
100
AcDbEntity
  8
本体
  6
EXLTYPE7
 62
     6
100
AcDbLine
 10
842.0
 20
1400.0
 30
0.0
 11
842.0
 21
1175.833343
 31
0.0
  0
LINE
  5
1F7
100
AcDbEntity
  8
本体
  6
CONTINUOUS
 62
     6
100
AcDbLine
 10
739.0
 20
1368.532367
 30
0.0
 11
737.97036
 21
1372.209654
 31
0.0
  0
LINE
  5
1F8
100
AcDbEntity
  8
本体
  6
CONTINUOUS
 62
     6
100
AcDbLine
 10
740.02964
 20
1372.209654
 30
0.0
 11
739.0
 21
1368.532367
 31
0.0
  0
ARC
  5
1F9
100
AcDbEntity
  8
本体
  6
CONTINUOUS
 62
     6
100
AcDbCircle
 10
747.6
 20
1374.905953
 30
0.0
 40
10.0
100
AcDbArc
 50
180.0
 51
195.642246
  0
ARC
  5
1FA
100
AcDbEntity
  8
本体
  6
CONTINUOUS
 62
     6
100
AcDbCircle
 10
730.4
 20
1374.905953
 30
0.0
 40
10.0
100
AcDbArc
 50
344.357754
 51
0.0
  0
LINE
  5
1FB
100
AcDbEntity
  8
本体
  6
CONTINUOUS
 62
     6
100
AcDbLine
 10
737.0
 20
1386.712081
 30
0.0
 11
741.0
 21
1387.417389
 31
0.0
  0
LINE
  5
1FC
100
AcDbEntity
  8
本体
  6
CONTINUOUS
 62
     6
100
AcDbLine
 10
741.0
 20
1385.667389
 30
0.0
 11
737.0
 21
1384.962081
 31
0.0
  0
LINE
  5
1FD
100
AcDbEntity
  8
本体
  6
CONTINUOUS
 62
     6
100
AcDbLine
 10
737.0
 20
1383.212081
 30
0.0
 11
741.0
 21
1383.917389
 31
0.0
  0
LINE
  5
1FE
100
AcDbEntity
  8
本体
  6
CONTINUOUS
 62
     6
100
AcDbLine
 10
741.0
 20
1382.167389
 30
0.0
 11
737.0
 21
1381.462081
 31
0.0
  0
LINE
  5
1FF
100
AcDbEntity
  8
本体
  6
CONTINUOUS
 62
     6
100
AcDbLine
 10
737.0
 20
1379.712081
 30
0.0
 11
741.0
 21
1380.417389
 31
0.0
  0
LINE
  5
200
100
AcDbEntity
  8
本体
  6
CONTINUOUS
 62
     6
100
AcDbLine
 10
741.0
 20
1378.667389
 30
0.0
 11
737.0
 21
1377.962081
 31
0.0
  0
LINE
  5
201
100
AcDbEntity
  8
本体
  6
CONTINUOUS
 62
     6
100
AcDbLine
 10
737.0
 20
1376.212081
 30
0.0
 11
741.0
 21
1376.917389
 31
0.0
  0
LINE
  5
202
100
AcDbEntity
  8
本体
  6
CONTINUOUS
 62
     6
100
AcDbLine
 10
737.0
 20
1374.462081
 30
0.0
 11
741.0
 21
1375.167389
 31
0.0
  0
LINE
  5
203
100
AcDbEntity
  8
本体
  6
CONTINUOUS
 62
     6
100
AcDbLine
 10
737.0
 20
1372.712081
 30
0.0
 11
741.0
 21
1373.417389
 31
0.0
  0
LINE
  5
204
100
AcDbEntity
  8
本体
  6
CONTINUOUS
 62
     6
100
AcDbLine
 10
740.47496
 20
1371.57481
 30
0.0
 11
737.66383
 21
1371.079132
 31
0.0
  0
LINE
  5
205
100
AcDbEntity
  8
本体
  6
CONTINUOUS
 62
     6
100
AcDbLine
 10
739.959512
 20
1369.733922
 30
0.0
 11
738.130776
 21
1369.411467
 31
0.0
  0
LINE
  5
206
100
AcDbEntity
  8
本体
  6
CONTINUOUS
 62
     6
100
AcDbLine
 10
737.6
 20
1388.0
 30
0.0
 11
737.6
 21
1374.905953
 31
0.0
  0
LINE
  5
207
100
AcDbEntity
  8
本体
  6
CONTINUOUS
 62
     6
100
AcDbLine
 10
740.4
 20
1388.0
 30
0.0
 11
740.4
 21
1374.905953
 31
0.0
  0
LINE
  5
208
100
AcDbEntity
  8
本体
  6
CONTINUOUS
 62
     6
100
AcDbLine
 10
573.0
 20
1388.0
 30
0.0
 11
573.0
 21
1188.0
 31
0.0
  0
LINE
  5
209
100
AcDbEntity
  8
本体
  6
CONTINUOUS
 62
     6
100
AcDbLine
 10
493.0
 20
1388.0
 30
0.0
 11
493.0
 21
1188.0
 31
0.0
  0
LINE
  5
20A
100
AcDbEntity
  8
本体
  6
CONTINUOUS
 62
     6
100
AcDbLine
 10
493.0
 20
1188.0
 30
0.0
 11
573.0
 21
1188.0
 31
0.0
  0
LINE
  5
20B
100
AcDbEntity
  8
本体
  6
CONTINUOUS
 62
     6
100
AcDbLine
 10
493.0
 20
1388.0
 30
0.0
 11
573.0
 21
1188.0
 31
0.0
  0
LINE
  5
20C
100
AcDbEntity
  8
本体
  6
CONTINUOUS
 62
     6
100
AcDbLine
 10
493.0
 20
1188.0
 30
0.0
 11
573.0
 21
1388.0
 31
0.0
  0
TEXT
  5
20D
100
AcDbEntity
  8
本体
  6
CONTINUOUS
 62
     2
100
AcDbText
 10
466.5
 20
1367.0
 30
0.0
 40
40.0
  1
根太
 41
1.125
  7
EXCADVERT
 72
     3
 11
466.5
 21
1277.0
 31
0.0
100
AcDbText
  0
LINE
  5
20E
100
AcDbEntity
  8
本体
  6
CONTINUOUS
 62
     2
100
AcDbLine
 10
397.5
 20
1388.0
 30
0.0
 11
1620.5
 21
1388.0
 31
0.0
  0
LINE
  5
20F
100
AcDbEntity
  8
本体
  6
CONTINUOUS
 62
     2
100
AcDbLine
 10
1518.038448
 20
1443.087262
 30
0.0
 11
1519.0
 21
1388.0
 31
0.0
  0
ARC
  5
210
100
AcDbEntity
  8
本体
  6
CONTINUOUS
 62
     2
100
AcDbCircle
 10
1513.03921
 20
1443.0
 30
0.0
 40
5.0
100
AcDbArc
 50
1.0
 51
90.0
  0
LINE
  5
211
100
AcDbEntity
  8
本体
  6
CONTINUOUS
 62
     6
100
AcDbLine
 10
1499.0
 20
1368.532367
 30
0.0
 11
1500.02964
 21
1372.209654
 31
0.0
  0
LINE
  5
212
100
AcDbEntity
  8
本体
  6
CONTINUOUS
 62
     6
100
AcDbLine
 10
1497.97036
 20
1372.209654
 30
0.0
 11
1499.0
 21
1368.532367
 31
0.0
  0
ARC
  5
213
100
AcDbEntity
  8
本体
  6
CONTINUOUS
 62
     6
100
AcDbCircle
 10
1490.4
 20
1374.905953
 30
0.0
 40
10.0
100
AcDbArc
 50
344.357754
 51
0.0
  0
ARC
  5
214
100
AcDbEntity
  8
本体
  6
CONTINUOUS
 62
     6
100
AcDbCircle
 10
1507.6
 20
1374.905953
 30
0.0
 40
10.0
100
AcDbArc
 50
180.0
 51
195.642246
  0
LINE
  5
215
100
AcDbEntity
  8
本体
  6
CONTINUOUS
 62
     6
100
AcDbLine
 10
1501.0
 20
1386.712081
 30
0.0
 11
1497.0
 21
1387.417389
 31
0.0
  0
LINE
  5
216
100
AcDbEntity
  8
本体
  6
CONTINUOUS
 62
     6
100
AcDbLine
 10
1497.0
 20
1385.667389
 30
0.0
 11
1501.0
 21
1384.962081
 31
0.0
  0
LINE
  5
217
100
AcDbEntity
  8
本体
  6
CONTINUOUS
 62
     6
100
AcDbLine
 10
1501.0
 20
1383.212081
 30
0.0
 11
1497.0
 21
1383.917389
 31
0.0
  0
LINE
  5
218
100
AcDbEntity
  8
本体
  6
CONTINUOUS
 62
     6
100
AcDbLine
 10
1497.0
 20
1382.167389
 30
0.0
 11
1501.0
 21
1381.462081
 31
0.0
  0
LINE
  5
219
100
AcDbEntity
  8
本体
  6
CONTINUOUS
 62
     6
100
AcDbLine
 10
1501.0
 20
1379.712081
 30
0.0
 11
1497.0
 21
1380.417389
 31
0.0
  0
LINE
  5
21A
100
AcDbEntity
  8
本体
  6
CONTINUOUS
 62
     6
100
AcDbLine
 10
1497.0
 20
1378.667389
 30
0.0
 11
1501.0
 21
1377.962081
 31
0.0
  0
LINE
  5
21B
100
AcDbEntity
  8
本体
  6
CONTINUOUS
 62
     6
100
AcDbLine
 10
1501.0
 20
1376.212081
 30
0.0
 11
1497.0
 21
1376.917389
 31
0.0
  0
LINE
  5
21C
100
AcDbEntity
  8
本体
  6
CONTINUOUS
 62
     6
100
AcDbLine
 10
1501.0
 20
1374.462081
 30
0.0
 11
1497.0
 21
1375.167389
 31
0.0
  0
LINE
  5
21D
100
AcDbEntity
  8
本体
  6
CONTINUOUS
 62
     6
100
AcDbLine
 10
1501.0
 20
1372.712081
 30
0.0
 11
1497.0
 21
1373.417389
 31
0.0
  0
LINE
  5
21E
100
AcDbEntity
  8
本体
  6
CONTINUOUS
 62
     6
100
AcDbLine
 10
1497.52504
 20
1371.57481
 30
0.0
 11
1500.33617
 21
1371.079132
 31
0.0
  0
LINE
  5
21F
100
AcDbEntity
  8
本体
  6
CONTINUOUS
 62
     6
100
AcDbLine
 10
1498.040488
 20
1369.733922
 30
0.0
 11
1499.869224
 21
1369.411467
 31
0.0
  0
LINE
  5
220
100
AcDbEntity
  8
本体
  6
CONTINUOUS
 62
     6
100
AcDbLine
 10
1500.4
 20
1388.0
 30
0.0
 11
1500.4
 21
1374.905953
 31
0.0
  0
LINE
  5
221
100
AcDbEntity
  8
本体
  6
CONTINUOUS
 62
     6
100
AcDbLine
 10
1497.6
 20
1388.0
 30
0.0
 11
1497.6
 21
1374.905953
 31
0.0
  0
LINE
  5
222
100
AcDbEntity
  8
本体
  6
CONTINUOUS
 62
     2
100
AcDbLine
 10
724.96079
 20
1448.0
 30
0.0
 11
1513.03921
 21
1448.0
 31
0.0
  0
LINE
  5
223
100
AcDbEntity
  8
本体
  6
CONTINUOUS
 62
     2
100
AcDbLine
 10
452.0
 20
1388.0
 30
0.0
 11
1822.0
 21
1388.0
 31
0.0
  0
DIMENSION
  5
22F
100
AcDbEntity
  8
寸法
  6
CONTINUOUS
 62
     3
100
AcDbDimension
  2
*D15
 10
1683.0
 20
1785.0
 30
0.0
 11
1659.5
 21
2085.0
 31
0.0
 70
   160
  1
600
  3
STANDARD
100
AcDbAlignedDimension
 13
1511.1
 23
2385.0
 33
0.0
 14
1513.1
 24
1785.0
 34
0.0
 50
90.0
100
AcDbRotatedDimension
1001
ACAD
1000
DSTYLE
1002
{
1070
     6
1000
_EX_NORM
1070
     7
1000
_EX_NORM
1070
    41
1040
35.0
1070
    42
1040
7.0
1070
    44
1040
20.0
1070
    73
1070
     0
1070
    74
1070
     0
1070
    75
1070
     0
1070
    76
1070
     0
1070
    77
1070
     1
1070
    78
1070
     0
1070
   140
1040
40.0
1070
   147
1040
3.5
1070
   173
1070
     1
1070
   176
1070
     3
1070
   177
1070
     3
1070
   178
1070
     2
1070
   271
1070
     0
1070
   279
1070
     2
1070
   280
1070
     0
1070
   287
1070
     5
1070
   340
1005
1B8
1002
}
  0
DIMENSION
  5
23B
100
AcDbEntity
  8
寸法
  6
CONTINUOUS
 62
     3
100
AcDbDimension
  2
*D16
 10
639.0
 20
1765.0
 30
0.0
 11
615.5
 21
2085.0
 31
0.0
 70
   160
  1
640
  3
STANDARD
100
AcDbAlignedDimension
 13
729.0
 23
2405.0
 33
0.0
 14
729.0
 24
1765.0
 34
0.0
 50
90.0
100
AcDbRotatedDimension
1001
ACAD
1000
DSTYLE
1002
{
1070
     6
1000
_EX_NORM
1070
     7
1000
_EX_NORM
1070
    41
1040
35.0
1070
    42
1040
7.0
1070
    44
1040
20.0
1070
    73
1070
     0
1070
    74
1070
     0
1070
    75
1070
     0
1070
    76
1070
     0
1070
    77
1070
     1
1070
    78
1070
     0
1070
   140
1040
40.0
1070
   147
1040
3.5
1070
   173
1070
     1
1070
   176
1070
     3
1070
   177
1070
     3
1070
   178
1070
     2
1070
   271
1070
     0
1070
   279
1070
     2
1070
   280
1070
     0
1070
   287
1070
     5
1070
   340
1005
1B8
1002
}
  0
DIMENSION
  5
247
100
AcDbEntity
  8
寸法
  6
CONTINUOUS
 62
     3
100
AcDbDimension
  2
*D17
 10
719.0
 20
2480.0
 30
0.0
 11
1119.0
 21
2503.5
 31
0.0
 70
   160
  1
800
  3
STANDARD
100
AcDbAlignedDimension
 13
1519.0
 23
2395.0
 33
0.0
 14
719.0
 24
2395.0
 34
0.0
100
AcDbRotatedDimension
1001
ACAD
1000
DSTYLE
1002
{
1070
     6
1000
_EX_NORM
1070
     7
1000
_EX_NORM
1070
    41
1040
30.0
1070
    42
1040
7.0
1070
    44
1040
10.0
1070
    73
1070
     0
1070
    74
1070
     0
1070
    75
1070
     0
1070
    76
1070
     0
1070
    77
1070
     1
1070
    78
1070
     8
1070
   140
1040
40.0
1070
   147
1040
3.5
1070
   173
1070
     1
1070
   176
1070
     3
1070
   177
1070
     3
1070
   178
1070
     2
1070
   271
1070
     2
1070
   279
1070
     2
1070
   280
1070
     0
1070
   287
1070
     5
1070
   340
1005
1B8
1002
}
  0
DIMENSION
  5
253
100
AcDbEntity
  8
寸法
  6
CONTINUOUS
 62
     3
100
AcDbDimension
  2
*D18
 10
739.0
 20
1608.0
 30
0.0
 11
1119.0
 21
1631.5
 31
0.0
 70
   160
  3
STANDARD
100
AcDbAlignedDimension
 13
1499.0
 23
1775.9
 33
0.0
 14
739.0
 24
1775.9
 34
0.0
100
AcDbRotatedDimension
1001
ACAD
1000
DSTYLE
1002
{
1070
     6
1000
_EX_NORM
1070
     7
1000
_EX_NORM
1070
    41
1040
30.0
1070
    42
1040
7.0
1070
    44
1040
10.0
1070
    73
1070
     0
1070
    74
1070
     0
1070
    75
1070
     0
1070
    76
1070
     0
1070
    77
1070
     1
1070
    78
1070
     8
1070
   140
1040
40.0
1070
   147
1040
3.5
1070
   173
1070
     1
1070
   176
1070
     3
1070
   177
1070
     3
1070
   178
1070
     2
1070
   271
1070
     2
1070
   279
1070
     2
1070
   280
1070
     0
1070
   287
1070
     5
1070
   340
1005
1B8
1002
}
  0
DIMENSION
  5
25F
100
AcDbEntity
  8
寸法
  6
CONTINUOUS
 62
     3
100
AcDbDimension
  2
*D19
 10
1622.0
 20
1807.5
 30
0.0
 11
1598.5
 21
2085.0
 31
0.0
 70
   160
  1
555（内寸）
  3
STANDARD
100
AcDbAlignedDimension
 13
1519.0
 23
2362.5
 33
0.0
 14
1465.137116
 24
1807.5
 34
0.0
 50
90.0
100
AcDbRotatedDimension
1001
ACAD
1000
DSTYLE
1002
{
1070
     6
1000
_EX_NORM
1070
     7
1000
_EX_NORM
1070
    41
1040
30.0
1070
    42
1040
5.0
1070
    44
1040
10.0
1070
    73
1070
     0
1070
    74
1070
     0
1070
    75
1070
     0
1070
    76
1070
     0
1070
    77
1070
     1
1070
    78
1070
     8
1070
   140
1040
40.0
1070
   147
1040
3.5
1070
   173
1070
     1
1070
   176
1070
     3
1070
   177
1070
     3
1070
   178
1070
     2
1070
   271
1070
     2
1070
   279
1070
     2
1070
   280
1070
     0
1070
   287
1070
     5
1070
   340
1005
1B8
1002
}
  0
DIMENSION
  5
26B
100
AcDbEntity
  8
寸法
  6
CONTINUOUS
 62
     3
100
AcDbDimension
  2
*D20
 10
1476.5
 20
1672.0
 30
0.0
 11
1119.0
 21
1695.5
 31
0.0
 70
   160
  1
715（内寸）
  3
STANDARD
100
AcDbAlignedDimension
 13
761.5
 23
1765.0
 33
0.0
 14
1476.5
 24
1765.0
 34
0.0
100
AcDbRotatedDimension
1001
ACAD
1000
DSTYLE
1002
{
1070
     6
1000
_EX_NORM
1070
     7
1000
_EX_NORM
1070
    41
1040
30.0
1070
    42
1040
0.0
1070
    44
1040
0.0
1070
    73
1070
     0
1070
    74
1070
     0
1070
    75
1070
     0
1070
    76
1070
     0
1070
    77
1070
     1
1070
    78
1070
     8
1070
   140
1040
40.0
1070
   147
1040
3.5
1070
   173
1070
     1
1070
   176
1070
     3
1070
   177
1070
     3
1070
   178
1070
     2
1070
   271
1070
     2
1070
   279
1070
     2
1070
   280
1070
     0
1070
   287
1070
     5
1070
   340
1005
1B8
1002
}
  0
DIMENSION
  5
277
100
AcDbEntity
  8
寸法
  6
CONTINUOUS
 62
     3
100
AcDbDimension
  2
*D21
 10
741.5
 20
1232.998679
 30
0.0
 11
718.0
 21
1322.998679
 31
0.0
 70
   160
  3
STANDARD
100
AcDbAlignedDimension
 13
807.23851
 23
1267.998679
 33
0.0
 14
808.8
 24
1232.998679
 34
0.0
 50
90.0
100
AcDbRotatedDimension
1001
ACAD
1000
DSTYLE
1002
{
1070
     6
1000
_EX_NORM
1070
     7
1000
_EX_NORM
1070
    41
1040
30.0
1070
    42
1040
5.0
1070
    44
1040
10.0
1070
    73
1070
     0
1070
    74
1070
     0
1070
    75
1070
     0
1070
    76
1070
     0
1070
    77
1070
     1
1070
    78
1070
     8
1070
   140
1040
40.0
1070
   147
1040
3.5
1070
   173
1070
     1
1070
   176
1070
     3
1070
   177
1070
     3
1070
   178
1070
     2
1070
   271
1070
     2
1070
   279
1070
     2
1070
   280
1070
     0
1070
   287
1070
     5
1070
   340
1005
1B8
1002
}
  0
DIMENSION
  5
282
100
AcDbEntity
  8
寸法
  6
CONTINUOUS
 62
     3
100
AcDbDimension
  2
*D22
 10
677.5
 20
1232.998679
 30
0.0
 11
654.0
 21
1310.499339
 31
0.0
 70
   160
  1
159
  3
STANDARD
100
AcDbAlignedDimension
 13
719.0
 23
1388.0
 33
0.0
 14
741.5
 24
1232.998679
 34
0.0
 50
90.0
100
AcDbRotatedDimension
1001
ACAD
1000
DSTYLE
1002
{
1070
     6
1000
_EX_NORM
1070
     7
1000
_EX_NORM
1070
    41
1040
30.0
1070
    42
1040
5.0
1070
    44
1040
10.0
1070
    73
1070
     0
1070
    74
1070
     0
1070
    75
1070
     1
1070
    76
1070
     0
1070
    77
1070
     1
1070
    78
1070
     8
1070
   140
1040
40.0
1070
   147
1040
3.5
1070
   173
1070
     1
1070
   176
1070
     3
1070
   177
1070
     3
1070
   178
1070
     2
1070
   271
1070
     2
1070
   279
1070
     2
1070
   280
1070
     0
1070
   287
1070
     5
1070
   340
1005
1B8
1002
}
  0
DIMENSION
  5
28D
100
AcDbEntity
  8
寸法
  6
CONTINUOUS
 62
     3
100
AcDbDimension
  2
*D23
 10
1611.5
 20
1448.0
 30
0.0
 11
1588.0
 21
1513.0
 31
0.0
 70
   160
  3
STANDARD
100
AcDbAlignedDimension
 13
1723.5
 23
1388.0
 33
0.0
 14
1508.5
 24
1448.0
 34
0.0
 50
90.0
100
AcDbRotatedDimension
1001
ACAD
1000
DSTYLE
1002
{
1070
     6
1000
_EX_NORM
1070
     7
1000
_EX_NORM
1070
    41
1040
30.0
1070
    42
1040
8.2
1070
    44
1040
10.0
1070
    73
1070
     0
1070
    74
1070
     0
1070
    75
1070
     1
1070
    76
1070
     0
1070
    77
1070
     1
1070
    78
1070
     8
1070
   140
1040
40.0
1070
   147
1040
3.5
1070
   173
1070
     1
1070
   176
1070
     3
1070
   177
1070
     3
1070
   178
1070
     2
1070
   271
1070
     2
1070
   279
1070
     2
1070
   280
1070
     2
1070
   287
1070
     5
1070
   340
1005
1B8
1002
}
  0
TEXT
  5
28E
100
AcDbEntity
  8
寸法
  6
CONTINUOUS
 62
     2
100
AcDbText
 10
1686.366667
 20
1391.5
 30
0.0
 40
40.0
  1
Ｆ．Ｌ
 41
0.833
  7
EXCADSTD
 72
     5
 11
1805.366666
 21
1391.5
 31
0.0
100
AcDbText
  0
LINE
  5
28F
100
AcDbEntity
  8
詳細図
  6
CONTINUOUS
 62
     2
100
AcDbLine
 10
1549.995125
 20
724.5
 30
0.0
 11
1543.062248
 21
899.642799
 31
0.0
  0
LINE
  5
290
100
AcDbEntity
  8
詳細図
  6
CONTINUOUS
 62
     2
100
AcDbLine
 10
1559.928443
 20
786.901117
 30
0.0
 11
1555.071557
 21
909.598883
 31
0.0
  0
LINE
  5
291
100
AcDbEntity
  8
詳細図
  6
CONTINUOUS
 62
     2
100
AcDbLine
 10
1650.004875
 20
724.5
 30
0.0
 11
1656.937752
 21
899.642799
 31
0.0
  0
LINE
  5
292
100
AcDbEntity
  8
詳細図
  6
CONTINUOUS
 62
     2
100
AcDbLine
 10
1461.611652
 20
619.5
 30
0.0
 11
1468.829917
 21
895.154424
 31
0.0
  0
ARC
  5
293
100
AcDbEntity
  8
詳細図
  6
CONTINUOUS
 62
     2
100
AcDbCircle
 10
1724.08461
 20
884.5
 30
0.0
 40
25.0
100
AcDbArc
 50
184.411726
 51
270.0
  0
ARC
  5
294
100
AcDbEntity
  8
詳細図
  6
CONTINUOUS
 62
     2
100
AcDbCircle
 10
1659.277203
 20
879.5
 30
0.0
 40
40.0
100
AcDbArc
 50
4.411726
 51
90.0
  0
ARC
  5
295
100
AcDbEntity
  8
詳細図
  6
CONTINUOUS
 62
     2
100
AcDbCircle
 10
1493.821351
 20
894.5
 30
0.0
 40
25.0
100
AcDbArc
 50
90.0
 51
178.5
  0
ARC
  5
296
100
AcDbEntity
  8
詳細図
  6
CONTINUOUS
 62
     2
100
AcDbCircle
 10
1493.821351
 20
894.5
 30
0.0
 40
10.0
100
AcDbArc
 50
90.0
 51
178.5
  0
LINE
  5
297
100
AcDbEntity
  8
詳細図
  6
CONTINUOUS
 62
     2
100
AcDbLine
 10
1483.824777
 20
894.761769
 30
0.0
 11
1476.606512
 21
619.107346
 31
0.0
  0
ARC
  5
298
100
AcDbEntity
  8
詳細図
  6
CONTINUOUS
 62
     2
100
AcDbCircle
 10
1726.730891
 20
882.0
 30
0.0
 40
42.5
100
AcDbArc
 50
182.122551
 51
270.0
  0
LINE
  5
299
100
AcDbEntity
  8
詳細図
  6
CONTINUOUS
 62
     2
100
AcDbLine
 10
1724.08461
 20
859.5
 30
0.0
 11
1837.657288
 21
859.5
 31
0.0
  0
LINE
  5
29A
100
AcDbEntity
  8
詳細図
  6
CONTINUOUS
 62
     2
100
AcDbLine
 10
1724.08461
 20
839.5
 30
0.0
 11
1837.657288
 21
839.5
 31
0.0
  0
LINE
  5
29B
100
AcDbEntity
  8
詳細図
  6
CONTINUOUS
 62
     2
100
AcDbLine
 10
1625.0
 20
724.5
 30
0.0
 11
1625.0
 21
619.5
 31
0.0
  0
LINE
  5
29C
100
AcDbEntity
  8
詳細図
  6
CONTINUOUS
 62
     2
100
AcDbLine
 10
1575.0
 20
724.5
 30
0.0
 11
1575.0
 21
619.5
 31
0.0
  0
ARC
  5
29D
100
AcDbEntity
  8
詳細図
  6
CONTINUOUS
 62
     2
100
AcDbCircle
 10
1659.277203
 20
879.5
 30
0.0
 40
25.0
100
AcDbArc
 50
2.122551
 51
82.375922
  0
LINE
  5
29E
100
AcDbEntity
  8
詳細図
  6
CONTINUOUS
 62
     2
100
AcDbLine
 10
1538.064287
 20
904.5
 30
0.0
 11
1493.821351
 21
904.5
 31
0.0
  0
ARC
  5
29F
100
AcDbEntity
  8
詳細図
  6
CONTINUOUS
 62
     2
100
AcDbCircle
 10
1538.064287
 20
899.5
 30
0.0
 40
5.0
100
AcDbArc
 50
1.636577
 51
90.0
  0
ARC
  5
2A0
100
AcDbEntity
  8
詳細図
  6
CONTINUOUS
 62
     2
100
AcDbCircle
 10
1661.930661
 20
899.323197
 30
0.0
 40
5.0
100
AcDbArc
 50
82.375922
 51
178.363423
  0
LINE
  5
2A1
100
AcDbEntity
  8
詳細図
  6
CONTINUOUS
 62
     2
100
AcDbLine
 10
1539.5
 20
919.5
 30
0.0
 11
1539.5
 21
912.0
 31
0.0
  0
ARC
  5
2A2
100
AcDbEntity
  8
詳細図
  6
CONTINUOUS
 62
     2
100
AcDbCircle
 10
1552.573513
 20
909.5
 30
0.0
 40
2.5
100
AcDbArc
 50
1.709814
 51
90.0
  0
LINE
  5
2A3
100
AcDbEntity
  8
詳細図
  6
CONTINUOUS
 62
     2
100
AcDbLine
 10
1660.5
 20
919.5
 30
0.0
 11
1660.5
 21
912.0
 31
0.0
  0
LINE
  5
2A4
100
AcDbEntity
  8
詳細図
  6
CONTINUOUS
 62
     2
100
AcDbLine
 10
1493.821351
 20
919.5
 30
0.0
 11
1542.724087
 21
919.5
 31
0.0
  0
LINE
  5
2A5
100
AcDbEntity
  8
詳細図
  6
CONTINUOUS
 62
     2
100
AcDbLine
 10
1657.275913
 20
919.5
 30
0.0
 11
1837.657288
 21
919.5
 31
0.0
  0
LINE
  5
2A6
100
AcDbEntity
  8
詳細図
  6
CONTINUOUS
 62
     2
100
AcDbLine
 10
1539.5
 20
912.0
 30
0.0
 11
1540.0
 21
912.0
 31
0.0
  0
LINE
  5
2A7
100
AcDbEntity
  8
詳細図
  6
CONTINUOUS
 62
     2
100
AcDbLine
 10
1660.0
 20
912.0
 30
0.0
 11
1660.5
 21
912.0
 31
0.0
  0
LINE
  5
2A8
100
AcDbEntity
  8
詳細図
  6
CONTINUOUS
 62
     6
100
AcDbLine
 10
1683.188276
 20
559.5
 30
0.0
 11
1743.188276
 21
619.5
 31
0.0
  0
LINE
  5
2A9
100
AcDbEntity
  8
詳細図
  6
CONTINUOUS
 62
     6
100
AcDbLine
 10
1676.117208
 20
559.5
 30
0.0
 11
1736.117208
 21
619.5
 31
0.0
  0
LINE
  5
2AA
100
AcDbEntity
  8
詳細図
  6
CONTINUOUS
 62
     6
100
AcDbLine
 10
1690.259344
 20
559.5
 30
0.0
 11
1750.259344
 21
619.5
 31
0.0
  0
LINE
  5
2AB
100
AcDbEntity
  8
詳細図
  6
CONTINUOUS
 62
     6
100
AcDbLine
 10
1495.859344
 20
559.5
 30
0.0
 11
1555.859344
 21
619.5
 31
0.0
  0
LINE
  5
2AC
100
AcDbEntity
  8
詳細図
  6
CONTINUOUS
 62
     6
100
AcDbLine
 10
1481.717208
 20
559.5
 30
0.0
 11
1541.717208
 21
619.5
 31
0.0
  0
LINE
  5
2AD
100
AcDbEntity
  8
詳細図
  6
CONTINUOUS
 62
     6
100
AcDbLine
 10
1488.788276
 20
559.5
 30
0.0
 11
1548.788276
 21
619.5
 31
0.0
  0
LINE
  5
2AE
100
AcDbEntity
  8
詳細図
  6
CONTINUOUS
 62
     6
100
AcDbLine
 10
1625.459344
 20
559.5
 30
0.0
 11
1685.459344
 21
619.5
 31
0.0
  0
LINE
  5
2AF
100
AcDbEntity
  8
詳細図
  6
CONTINUOUS
 62
     6
100
AcDbLine
 10
1618.388276
 20
559.5
 30
0.0
 11
1678.388276
 21
619.5
 31
0.0
  0
LINE
  5
2B0
100
AcDbEntity
  8
詳細図
  6
CONTINUOUS
 62
     6
100
AcDbLine
 10
1611.317208
 20
559.5
 30
0.0
 11
1671.317208
 21
619.5
 31
0.0
  0
LINE
  5
2B1
100
AcDbEntity
  8
詳細図
  6
CONTINUOUS
 62
     6
100
AcDbLine
 10
1560.659344
 20
559.5
 30
0.0
 11
1592.5
 21
591.340656
 31
0.0
  0
LINE
  5
2B2
100
AcDbEntity
  8
詳細図
  6
CONTINUOUS
 62
     6
100
AcDbLine
 10
1607.5
 20
606.340656
 30
0.0
 11
1620.659344
 21
619.5
 31
0.0
  0
LINE
  5
2B3
100
AcDbEntity
  8
詳細図
  6
CONTINUOUS
 62
     2
100
AcDbLine
 10
1290.0
 20
619.5
 30
0.0
 11
1592.5
 21
619.5
 31
0.0
  0
LINE
  5
2B4
100
AcDbEntity
  8
詳細図
  6
CONTINUOUS
 62
     2
100
AcDbLine
 10
1607.5
 20
619.5
 30
0.0
 11
1776.7
 21
619.5
 31
0.0
  0
LINE
  5
2B5
100
AcDbEntity
  8
詳細図
  6
CONTINUOUS
 62
     6
100
AcDbLine
 10
1416.917208
 20
559.5
 30
0.0
 11
1476.917208
 21
619.5
 31
0.0
  0
LINE
  5
2B6
100
AcDbEntity
  8
詳細図
  6
CONTINUOUS
 62
     6
100
AcDbLine
 10
1423.988276
 20
559.5
 30
0.0
 11
1483.988276
 21
619.5
 31
0.0
  0
LINE
  5
2B7
100
AcDbEntity
  8
詳細図
  6
CONTINUOUS
 62
     6
100
AcDbLine
 10
1431.059344
 20
559.5
 30
0.0
 11
1491.059344
 21
619.5
 31
0.0
  0
LINE
  5
2B8
100
AcDbEntity
  8
詳細図
  6
CONTINUOUS
 62
     6
100
AcDbLine
 10
1351.816794
 20
559.5
 30
0.0
 11
1411.816794
 21
619.5
 31
0.0
  0
LINE
  5
2B9
100
AcDbEntity
  8
詳細図
  6
CONTINUOUS
 62
     6
100
AcDbLine
 10
1358.887862
 20
559.5
 30
0.0
 11
1418.887862
 21
619.5
 31
0.0
  0
LINE
  5
2BA
100
AcDbEntity
  8
詳細図
  6
CONTINUOUS
 62
     6
100
AcDbLine
 10
1365.95893
 20
559.5
 30
0.0
 11
1425.95893
 21
619.5
 31
0.0
  0
LINE
  5
2BB
100
AcDbEntity
  8
詳細図
  6
CONTINUOUS
 62
     6
100
AcDbLine
 10
1287.016794
 20
559.5
 30
0.0
 11
1347.016794
 21
619.5
 31
0.0
  0
LINE
  5
2BC
100
AcDbEntity
  8
詳細図
  6
CONTINUOUS
 62
     6
100
AcDbLine
 10
1294.087862
 20
559.5
 30
0.0
 11
1354.087862
 21
619.5
 31
0.0
  0
LINE
  5
2BD
100
AcDbEntity
  8
詳細図
  6
CONTINUOUS
 62
     6
100
AcDbLine
 10
1301.15893
 20
559.5
 30
0.0
 11
1361.15893
 21
619.5
 31
0.0
  0
LINE
  5
2BE
100
AcDbEntity
  8
詳細図
  6
CONTINUOUS
 62
     6
100
AcDbLine
 10
1610.0
 20
777.5
 30
0.0
 11
1590.0
 21
773.5
 31
0.0
  0
LINE
  5
2BF
100
AcDbEntity
  8
詳細図
  6
CONTINUOUS
 62
     6
100
AcDbLine
 10
1610.0
 20
769.5
 30
0.0
 11
1590.0
 21
765.5
 31
0.0
  0
LINE
  5
2C0
100
AcDbEntity
  8
詳細図
  6
CONTINUOUS
 62
     6
100
AcDbLine
 10
1610.0
 20
761.5
 30
0.0
 11
1590.0
 21
757.5
 31
0.0
  0
LINE
  5
2C1
100
AcDbEntity
  8
詳細図
  6
CONTINUOUS
 62
     6
100
AcDbLine
 10
1610.0
 20
753.5
 30
0.0
 11
1590.0
 21
749.5
 31
0.0
  0
LINE
  5
2C2
100
AcDbEntity
  8
詳細図
  6
CONTINUOUS
 62
     6
100
AcDbLine
 10
1610.0
 20
745.5
 30
0.0
 11
1590.0
 21
741.5
 31
0.0
  0
LINE
  5
2C3
100
AcDbEntity
  8
詳細図
  6
CONTINUOUS
 62
     6
100
AcDbLine
 10
1610.0
 20
737.5
 30
0.0
 11
1590.0
 21
733.5
 31
0.0
  0
LINE
  5
2C4
100
AcDbEntity
  8
詳細図
  6
CONTINUOUS
 62
     6
100
AcDbLine
 10
1610.0
 20
729.5
 30
0.0
 11
1590.0
 21
725.5
 31
0.0
  0
LINE
  5
2C5
100
AcDbEntity
  8
詳細図
  6
CONTINUOUS
 62
     6
100
AcDbLine
 10
1610.0
 20
721.5
 30
0.0
 11
1590.0
 21
717.5
 31
0.0
  0
LINE
  5
2C6
100
AcDbEntity
  8
詳細図
  6
CONTINUOUS
 62
     6
100
AcDbLine
 10
1610.0
 20
713.5
 30
0.0
 11
1590.0
 21
709.5
 31
0.0
  0
LINE
  5
2C7
100
AcDbEntity
  8
詳細図
  6
CONTINUOUS
 62
     6
100
AcDbLine
 10
1610.0
 20
705.5
 30
0.0
 11
1590.0
 21
701.5
 31
0.0
  0
LINE
  5
2C8
100
AcDbEntity
  8
詳細図
  6
CONTINUOUS
 62
     6
100
AcDbLine
 10
1610.0
 20
689.5
 30
0.0
 11
1590.0
 21
685.5
 31
0.0
  0
LINE
  5
2C9
100
AcDbEntity
  8
詳細図
  6
CONTINUOUS
 62
     6
100
AcDbLine
 10
1610.0
 20
681.5
 30
0.0
 11
1590.0
 21
677.5
 31
0.0
  0
LINE
  5
2CA
100
AcDbEntity
  8
詳細図
  6
CONTINUOUS
 62
     6
100
AcDbLine
 10
1610.0
 20
673.5
 30
0.0
 11
1590.0
 21
669.5
 31
0.0
  0
LINE
  5
2CB
100
AcDbEntity
  8
詳細図
  6
CONTINUOUS
 62
     6
100
AcDbLine
 10
1610.0
 20
665.5
 30
0.0
 11
1590.0
 21
661.5
 31
0.0
  0
LINE
  5
2CC
100
AcDbEntity
  8
詳細図
  6
CONTINUOUS
 62
     6
100
AcDbLine
 10
1610.0
 20
657.5
 30
0.0
 11
1590.0
 21
653.5
 31
0.0
  0
LINE
  5
2CD
100
AcDbEntity
  8
詳細図
  6
CONTINUOUS
 62
     6
100
AcDbLine
 10
1610.0
 20
649.5
 30
0.0
 11
1590.0
 21
645.5
 31
0.0
  0
LINE
  5
2CE
100
AcDbEntity
  8
詳細図
  6
CONTINUOUS
 62
     6
100
AcDbLine
 10
1610.0
 20
641.5
 30
0.0
 11
1590.0
 21
637.5
 31
0.0
  0
LINE
  5
2CF
100
AcDbEntity
  8
詳細図
  6
CONTINUOUS
 62
     6
100
AcDbLine
 10
1610.0
 20
633.5
 30
0.0
 11
1590.0
 21
629.5
 31
0.0
  0
LINE
  5
2D0
100
AcDbEntity
  8
詳細図
  6
CONTINUOUS
 62
     6
100
AcDbLine
 10
1610.0
 20
697.5
 30
0.0
 11
1590.0
 21
693.5
 31
0.0
  0
LINE
  5
2D1
100
AcDbEntity
  8
詳細図
  6
CONTINUOUS
 62
     2
100
AcDbLine
 10
1562.426487
 20
784.5
 30
0.0
 11
1637.573513
 21
784.5
 31
0.0
  0
ARC
  5
2D2
100
AcDbEntity
  8
詳細図
  6
CONTINUOUS
 62
     2
100
AcDbCircle
 10
1562.426487
 20
787.0
 30
0.0
 40
2.5
100
AcDbArc
 50
181.709814
 51
270.0
  0
ARC
  5
2D3
100
AcDbEntity
  8
詳細図
  6
CONTINUOUS
 62
     2
100
AcDbCircle
 10
1637.573513
 20
787.0
 30
0.0
 40
2.5
100
AcDbArc
 50
270.0
 51
358.290186
  0
LINE
  5
2D4
100
AcDbEntity
  8
詳細図
  6
CONTINUOUS
 62
     2
100
AcDbLine
 10
1587.5
 20
784.5
 30
0.0
 11
1587.5
 21
619.5
 31
0.0
  0
LINE
  5
2D5
100
AcDbEntity
  8
詳細図
  6
CONTINUOUS
 62
     2
100
AcDbLine
 10
1612.5
 20
784.5
 30
0.0
 11
1612.5
 21
619.5
 31
0.0
  0
LINE
  5
2D6
100
AcDbEntity
  8
詳細図
  6
CONTINUOUS
 62
     2
100
AcDbLine
 10
1549.995125
 20
724.5
 30
0.0
 11
1575.0
 21
724.5
 31
0.0
  0
LINE
  5
2D7
100
AcDbEntity
  8
詳細図
  6
CONTINUOUS
 62
     2
100
AcDbLine
 10
1650.004875
 20
724.5
 30
0.0
 11
1625.0
 21
724.5
 31
0.0
  0
ARC
  5
2D8
100
AcDbEntity
  8
詳細図
  6
CONTINUOUS
 62
     2
100
AcDbCircle
 10
1647.426487
 20
909.5
 30
0.0
 40
2.5
100
AcDbArc
 50
90.0
 51
177.733179
  0
ARC
  5
2D9
100
AcDbEntity
  8
詳細図
  6
CONTINUOUS
 62
     6
100
AcDbCircle
 10
1667.5
 20
567.191742
 30
0.0
 40
75.0
100
AcDbArc
 50
180.0
 51
205.841933
  0
ARC
  5
2DA
100
AcDbEntity
  8
詳細図
  6
CONTINUOUS
 62
     6
100
AcDbCircle
 10
1532.5
 20
567.191742
 30
0.0
 40
75.0
100
AcDbArc
 50
334.158067
 51
0.0
  0
LINE
  5
2DB
100
AcDbEntity
  8
詳細図
  6
CONTINUOUS
 62
     6
100
AcDbLine
 10
1610.0
 20
620.5
 30
0.0
 11
1590.0
 21
616.5
 31
0.0
  0
LINE
  5
2DC
100
AcDbEntity
  8
詳細図
  6
CONTINUOUS
 62
     6
100
AcDbLine
 10
1610.0
 20
612.5
 30
0.0
 11
1590.0
 21
608.5
 31
0.0
  0
LINE
  5
2DD
100
AcDbEntity
  8
詳細図
  6
CONTINUOUS
 62
     6
100
AcDbLine
 10
1610.0
 20
604.5
 30
0.0
 11
1590.0
 21
600.5
 31
0.0
  0
LINE
  5
2DE
100
AcDbEntity
  8
詳細図
  6
CONTINUOUS
 62
     6
100
AcDbLine
 10
1610.0
 20
596.5
 30
0.0
 11
1590.0
 21
592.5
 31
0.0
  0
LINE
  5
2DF
100
AcDbEntity
  8
詳細図
  6
CONTINUOUS
 62
     6
100
AcDbLine
 10
1610.0
 20
588.5
 30
0.0
 11
1590.0
 21
584.5
 31
0.0
  0
LINE
  5
2E0
100
AcDbEntity
  8
詳細図
  6
CONTINUOUS
 62
     6
100
AcDbLine
 10
1610.0
 20
580.5
 30
0.0
 11
1590.0
 21
576.5
 31
0.0
  0
LINE
  5
2E1
100
AcDbEntity
  8
詳細図
  6
CONTINUOUS
 62
     6
100
AcDbLine
 10
1610.0
 20
572.5
 30
0.0
 11
1590.0
 21
568.5
 31
0.0
  0
LINE
  5
2E2
100
AcDbEntity
  8
詳細図
  6
CONTINUOUS
 62
     6
100
AcDbLine
 10
1610.0
 20
564.5
 30
0.0
 11
1590.0
 21
560.5
 31
0.0
  0
LINE
  5
2E3
100
AcDbEntity
  8
詳細図
  6
CONTINUOUS
 62
     6
100
AcDbLine
 10
1607.590768
 20
548.018154
 30
0.0
 11
1593.203299
 21
545.14066
 31
0.0
  0
LINE
  5
2E4
100
AcDbEntity
  8
詳細図
  6
CONTINUOUS
 62
     6
100
AcDbLine
 10
1609.237557
 20
556.347511
 30
0.0
 11
1591.353537
 21
552.770707
 31
0.0
  0
LINE
  5
2E5
100
AcDbEntity
  8
詳細図
  6
CONTINUOUS
 62
     6
100
AcDbLine
 10
1592.5
 20
784.5
 30
0.0
 11
1592.5
 21
567.191742
 31
0.0
  0
LINE
  5
2E6
100
AcDbEntity
  8
詳細図
  6
CONTINUOUS
 62
     6
100
AcDbLine
 10
1607.5
 20
784.5
 30
0.0
 11
1607.5
 21
567.191742
 31
0.0
  0
LINE
  5
2E7
100
AcDbEntity
  8
詳細図
  6
EXLTYPE3
 62
     6
100
AcDbLine
 10
1600.0
 20
938.113054
 30
0.0
 11
1600.0
 21
525.7
 31
0.0
  0
LINE
  5
2E8
100
AcDbEntity
  8
詳細図
  6
CONTINUOUS
 62
     6
100
AcDbLine
 10
1610.0
 20
626.9
 30
0.0
 11
1590.0
 21
622.9
 31
0.0
  0
LINE
  5
2E9
100
AcDbEntity
  8
詳細図
  6
CONTINUOUS
 62
     6
100
AcDbLine
 10
1546.517208
 20
559.5
 30
0.0
 11
1592.5
 21
605.482792
 31
0.0
  0
LINE
  5
2EA
100
AcDbEntity
  8
詳細図
  6
CONTINUOUS
 62
     6
100
AcDbLine
 10
1553.588276
 20
559.5
 30
0.0
 11
1592.5
 21
598.411724
 31
0.0
  0
LINE
  5
2EB
100
AcDbEntity
  8
詳細図
  6
CONTINUOUS
 62
     6
100
AcDbLine
 10
1607.5
 20
613.411724
 30
0.0
 11
1613.588276
 21
619.5
 31
0.0
  0
LINE
  5
2EC
100
AcDbEntity
  8
詳細図
  6
CONTINUOUS
 62
     2
100
AcDbLine
 10
1640.071557
 20
786.901117
 30
0.0
 11
1644.928443
 21
909.598883
 31
0.0
  0
LINE
  5
2ED
100
AcDbEntity
  8
詳細図
  6
CONTINUOUS
 62
     6
100
AcDbLine
 10
1377.0
 20
421.75
 30
0.0
 11
1837.0
 21
421.75
 31
0.0
  0
TEXT
  5
2EE
100
AcDbEntity
  8
詳細図
  6
CONTINUOUS
 62
     2
100
AcDbText
 10
1396.535343
 20
427.0
 30
0.0
 40
45.0
  1
防水パン固定部詳細図
 41
0.798933
  7
EXCADSTD
 72
     5
 11
1824.535347
 21
427.0
 31
0.0
100
AcDbText
  0
TEXT
  5
2EF
100
AcDbEntity
  8
詳細図寸法
  6
CONTINUOUS
 62
     2
100
AcDbText
 10
1707.029221
 20
764.75
 30
0.0
 40
40.0
  1
トラスねじ
 41
0.8106
  7
EXCADSTD
 72
     5
 11
1900.02922
 21
764.75
 31
0.0
100
AcDbText
  0
LEADER
  5
2F0
100
AcDbEntity
  8
詳細図寸法
  6
CONTINUOUS
 62
     6
100
AcDbLeader
  3
STANDARD
 73
     3
 74
     1
 75
     0
 40
0.0
 76
     3
 10
1607.5
 20
684.0
 30
0.0
 10
1699.5
 20
761.5
 30
0.0
 10
1900.0
 20
761.5
 30
0.0
 77
     6
1001
ACAD
1000
DSTYLE
1002
{
1070
    41
1040
35.0
1070
     5
1000
_EX_NORM
1070
     6
1000
_EX_NORM
1070
     7
1000
_EX_NORM
1070
   341
1005
2B
1002
}
  0
TEXT
  5
2F1
100
AcDbEntity
  8
詳細図寸法
  6
CONTINUOUS
 62
     2
100
AcDbText
 10
1806.404221
 20
1016.431527
 30
0.0
 40
40.0
  1
キャップ
 41
0.819
  7
EXCADSTD
 72
     5
 11
1962.40422
 21
1016.431527
 31
0.0
100
AcDbText
  0
LEADER
  5
2F2
100
AcDbEntity
  8
詳細図寸法
  6
CONTINUOUS
 62
     6
100
AcDbLeader
  3
STANDARD
 73
     3
 74
     1
 75
     0
 40
0.0
 76
     3
 10
1616.478285
 20
922.841447
 30
0.0
 10
1801.533554
 20
1008.961982
 30
0.0
 10
1962.5
 20
1008.961982
 30
0.0
 77
     6
1001
ACAD
1000
DSTYLE
1002
{
1070
    41
1040
35.0
1070
     5
1000
_EX_NORM
1070
     6
1000
_EX_NORM
1070
     7
1000
_EX_NORM
1070
   341
1005
2B
1002
}
  0
TEXT
  5
2F3
100
AcDbEntity
  8
詳細図寸法
  6
CONTINUOUS
 62
     2
100
AcDbText
 10
1245.093247
 20
1021.25
 30
0.0
 40
40.0
  1
パン本体
 41
0.819
  7
EXCADSTD
 72
     5
 11
1401.093247
 21
1021.25
 31
0.0
100
AcDbText
  0
LEADER
  5
2F4
100
AcDbEntity
  8
詳細図寸法
  6
CONTINUOUS
 62
     6
100
AcDbLeader
  3
STANDARD
 73
     3
 74
     1
 75
     0
 40
0.0
 76
     3
 10
1511.0
 20
919.5
 30
0.0
 10
1403.941559
 20
1013.5
 30
0.0
 10
1236.0
 20
1013.5
 30
0.0
 77
     6
1001
ACAD
1000
DSTYLE
1002
{
1070
    41
1040
35.0
1070
     5
1000
_EX_NORM
1070
     6
1000
_EX_NORM
1070
     7
1000
_EX_NORM
1070
   341
1005
2B
1002
}
  0
TEXT
  5
2F5
100
AcDbEntity
  8
詳細図寸法
  6
CONTINUOUS
 62
     2
100
AcDbText
 10
1292.0
 20
619.5
 30
0.0
 40
40.0
  1
仕上床
 41
0.833
  7
EXCADSTD
 72
     5
 11
1411.0
 21
619.5
 31
0.0
100
AcDbText
  0
ENDSEC
  0
SECTION
  2
OBJECTS
  0
DICTIONARY
  5
19
100
AcDbDictionary
  3
ACAD_GROUP
350
1A
  3
ACAD_MLINESTYLE
350
1B
  0
DICTIONARY
  5
1A
102
{ACAD_REACTORS
330
19
102
}
100
AcDbDictionary
  0
DICTIONARY
  5
1B
102
{ACAD_REACTORS
330
19
102
}
100
AcDbDictionary
  3
STANDARD
350
1C
  0
MLINESTYLE
  5
1C
102
{ACAD_REACTORS
330
1B
102
}
100
AcDbMlineStyle
  2
Standard
 70
     0
  3

 62
     0
 51
90.0
 52
90.0
 71
     2
 49
0.5
 62
   256
  6
ByLayer
 49
-0.5
 62
   256
  6
ByLayer
  0
ENDSEC
  0
EOF
