  0
SECTION
  2
HEADER
  9
$ACADVER
  1
AC1014
  9
$ACADMAINTVER
 70
     0
  9
$DWGCODEPAGE
  3
ANSI_932
  9
$INSBASE
 10
0.0
 20
0.0
 30
0.0
  9
$EXTMIN
 10
1.5
 20
10.5
 30
0.0
  9
$EXTMAX
 10
202.9
 20
290.5
 30
0.0
  9
$LIMMIN
 10
0.0
 20
0.0
  9
$LIMMAX
 10
210.0
 20
297.0
  9
$ORTHOMODE
 70
     0
  9
$REGENMODE
 70
     1
  9
$FILLMODE
 70
     1
  9
$QTEXTMODE
 70
     0
  9
$MIRRTEXT
 70
     1
  9
$DRAGMODE
 70
     2
  9
$LTSCALE
 40
1.0
  9
$OSMODE
 70
     0
  9
$ATTMODE
 70
     1
  9
$TEXTSIZE
 40
0.2
  9
$TRACEWID
 40
0.05
  9
$TEXTSTYLE
  7
STANDARD
  9
$CLAYER
  8
本体
  9
$CELTYPE
  6
CONTINUOUS
  9
$CECOLOR
 62
   256
  9
$CELTSCALE
 40
1.0
  9
$DELOBJ
 70
     1
  9
$DISPSILH
 70
     0
  9
$DIMSCALE
 40
1.0
  9
$DIMASZ
 40
0.18
  9
$DIMEXO
 40
0.0625
  9
$DIMDLI
 40
0.38
  9
$DIMRND
 40
0.0
  9
$DIMDLE
 40
0.0
  9
$DIMEXE
 40
0.18
  9
$DIMTP
 40
0.0
  9
$DIMTM
 40
0.0
  9
$DIMTXT
 40
0.18
  9
$DIMCEN
 40
0.09
  9
$DIMTSZ
 40
0.0
  9
$DIMTOL
 70
     0
  9
$DIMLIM
 70
     0
  9
$DIMTIH
 70
     1
  9
$DIMTOH
 70
     1
  9
$DIMSE1
 70
     0
  9
$DIMSE2
 70
     0
  9
$DIMTAD
 70
     0
  9
$DIMZIN
 70
     0
  9
$DIMBLK
  1

  9
$DIMASO
 70
     1
  9
$DIMSHO
 70
     1
  9
$DIMPOST
  1

  9
$DIMAPOST
  1

  9
$DIMALT
 70
     0
  9
$DIMALTD
 70
     2
  9
$DIMALTF
 40
25.4
  9
$DIMLFAC
 40
1.0
  9
$DIMTOFL
 70
     0
  9
$DIMTVP
 40
0.0
  9
$DIMTIX
 70
     0
  9
$DIMSOXD
 70
     0
  9
$DIMSAH
 70
     0
  9
$DIMBLK1
  1

  9
$DIMBLK2
  1

  9
$DIMSTYLE
  2
STANDARD
  9
$DIMCLRD
 70
     0
  9
$DIMCLRE
 70
     0
  9
$DIMCLRT
 70
     0
  9
$DIMTFAC
 40
1.0
  9
$DIMGAP
 40
0.09
  9
$DIMJUST
 70
     0
  9
$DIMSD1
 70
     0
  9
$DIMSD2
 70
     0
  9
$DIMTOLJ
 70
     1
  9
$DIMTZIN
 70
     0
  9
$DIMALTZ
 70
     0
  9
$DIMALTTZ
 70
     0
  9
$DIMFIT
 70
     3
  9
$DIMUPT
 70
     0
  9
$DIMUNIT
 70
     2
  9
$DIMDEC
 70
     4
  9
$DIMTDEC
 70
     4
  9
$DIMALTU
 70
     2
  9
$DIMALTTD
 70
     2
  9
$DIMTXSTY
  7
STANDARD
  9
$DIMAUNIT
 70
     0
  9
$LUNITS
 70
     2
  9
$LUPREC
 70
     4
  9
$SKETCHINC
 40
0.1
  9
$FILLETRAD
 40
0.0
  9
$AUNITS
 70
     0
  9
$AUPREC
 70
     0
  9
$MENU
  1
acad
  9
$ELEVATION
 40
0.0
  9
$PELEVATION
 40
0.0
  9
$THICKNESS
 40
0.0
  9
$LIMCHECK
 70
     0
  9
$BLIPMODE
 70
     1
  9
$CHAMFERA
 40
0.0
  9
$CHAMFERB
 40
0.0
  9
$CHAMFERC
 40
0.0
  9
$CHAMFERD
 40
0.0
  9
$SKPOLY
 70
     0
  9
$TDCREATE
 40
2455284.820533495
  9
$TDUPDATE
 40
2455284.820533495
  9
$TDINDWG
 40
0.0000000000
  9
$TDUSRTIMER
 40
0.0000000000
  9
$USRTIMER
 70
     1
  9
$ANGBASE
 50
0.0
  9
$ANGDIR
 70
     0
  9
$PDMODE
 70
     0
  9
$PDSIZE
 40
0.0
  9
$PLINEWID
 40
0.0
  9
$COORDS
 70
     1
  9
$SPLFRAME
 70
     0
  9
$SPLINETYPE
 70
     6
  9
$SPLINESEGS
 70
     8
  9
$ATTDIA
 70
     0
  9
$ATTREQ
 70
     1
  9
$HANDLING
 70
     1
  9
$HANDSEED
  5
445
  9
$SURFTAB1
 70
     6
  9
$SURFTAB2
 70
     6
  9
$SURFTYPE
 70
     6
  9
$SURFU
 70
     6
  9
$SURFV
 70
     6
  9
$UCSNAME
  2

  9
$UCSORG
 10
0.0
 20
0.0
 30
0.0
  9
$UCSXDIR
 10
1.0
 20
0.0
 30
0.0
  9
$UCSYDIR
 10
0.0
 20
1.0
 30
0.0
  9
$PUCSNAME
  2

  9
$PUCSORG
 10
0.0
 20
0.0
 30
0.0
  9
$PUCSXDIR
 10
1.0
 20
0.0
 30
0.0
  9
$PUCSYDIR
 10
0.0
 20
1.0
 30
0.0
  9
$USERI1
 70
     0
  9
$USERI2
 70
     0
  9
$USERI3
 70
     0
  9
$USERI4
 70
     0
  9
$USERI5
 70
     0
  9
$USERR1
 40
0.0
  9
$USERR2
 40
0.0
  9
$USERR3
 40
0.0
  9
$USERR4
 40
0.0
  9
$USERR5
 40
0.0
  9
$WORLDVIEW
 70
     1
  9
$SHADEDGE
 70
     3
  9
$SHADEDIF
 70
    70
  9
$TILEMODE
 70
     1
  9
$MAXACTVP
 70
    16
  9
$PINSBASE
 10
0.0
 20
0.0
 30
0.0
  9
$PLIMCHECK
 70
     0
  9
$PEXTMIN
 10
1.000000E+20
 20
1.000000E+20
 30
1.000000E+20
  9
$PEXTMAX
 10
-1.000000E+20
 20
-1.000000E+20
 30
-1.000000E+20
  9
$PLIMMIN
 10
0.0
 20
0.0
  9
$PLIMMAX
 10
12.0
 20
9.0
  9
$UNITMODE
 70
     0
  9
$VISRETAIN
 70
     0
  9
$PLINEGEN
 70
     1
  9
$PSLTSCALE
 70
     0
  9
$TREEDEPTH
 70
  3020
  9
$PICKSTYLE
 70
     1
  9
$CMLSTYLE
  2
Standard
  9
$CMLJUST
 70
     0
  9
$CMLSCALE
 40
1.0
  9
$PROXYGRAPHICS
 70
     0
  9
$MEASUREMENT
 70
     0
  0
ENDSEC
  0
SECTION
  2
CLASSES
  0
CLASS
  1
LWPOLYLINE
  2
AcDbPolyline
  3
"AutoCAD"
 90
        0
280
     0
281
     1
  0
CLASS
  1
IMAGE
  2
AcDbRasterImage
  3
ISM
 90
      127
280
     0
281
     1
  0
CLASS
  1
OLE2FRAME
  2
AcDbOle2Frame
  3
""
 90
        0
280
     0
281
     1
  0
CLASS
  1
HATCH
  2
AcDbHatch
  3
"ACAD_SEDONA"
 90
        0
280
     0
281
     1
  0
CLASS
  1
DICTIONARYVAR
  2
AcDbDictionaryVar
  3
"AutoCAD"
 90
        0
280
     0
281
     0
  0
CLASS
  1
RASTERVARIABLES
  2
AcDbRasterVariables
  3
ISM
 90
        0
280
     0
281
     0
  0
CLASS
  1
IMAGEDEF
  2
AcDbRasterImageDef
  3
ISM
 90
        0
280
     0
281
     0
  0
CLASS
  1
IMAGEDEF_REACTOR
  2
AcDbRasterImageDefReactor
  3
ISM
 90
        1
280
     0
281
     0
  0
CLASS
  1
IDBUFFER
  2
AcDbIdBuffer
  3
"Acad"
 90
        0
280
     0
281
     0
  0
CLASS
  1
SPATIAL_FILTER
  2
AcDbSpatialFilter
  3
"Acad"
 90
        0
280
     0
281
     0
  0
CLASS
  1
XRECORD
  2
AcDbXrecord
  3
"<Built In>"
 90
        0
280
     0
281
     0
  0
CLASS
  1
SORTENTSTABLE
  2
AcDbSortentsTable
  3
"AutoCAD"
 90
        0
280
     0
281
     0
  0
CLASS
  1
LAYER_INDEX
  2
AcDbLayerIndex
  3
"Acad"
 90
        0
280
     0
281
     0
  0
CLASS
  1
SPATIAL_INDEX
  2
AcDbSpatialIndex
  3
"Acad"
 90
        0
280
     0
281
     0
  0
CLASS
  1
OBJECT_PTR
  2
CAseDLPNTableRecord
  3
"ASE-LPNTableRecord"
 90
        1
280
     0
281
     0
  0
CLASS
  1
LAYOUT
  2
AcDbLayout
  3
"AutoCAD 2000"
 90
        1
280
     0
281
     0
  0
CLASS
  1
PLOTSETTINGS
  2
AcDbPlotSettings
  3
"AutoCAD 2000"
 90
        1
280
     0
281
     0
  0
CLASS
  1
ACDBDICTIONARYWDFLT
  2
AcDbDictionaryWithDefault
  3
"AutoCAD 2000"
 90
        1
280
     0
281
     0
  0
CLASS
  1
ACDBPLACEHOLDER
  2
AcDbPlaceHolder
  3
"AutoCAD 2000"
 90
        1
280
     0
281
     0
  0
CLASS
  1
VBA_PROJECT
  2
AcDbVbaProject
  3
"acadvba"
 90
        1
280
     0
281
     0
  0
CLASS
  1
WIPEOUT
  2
AcDbWipeout
  3
WipeOut|AutoCAD Express Tool|expresstools@autodesk.com
 90
      127
280
     0
281
     1
  0
CLASS
  1
WIPEOUTVARIABLES
  2
AcDbWipeoutVariables
  3
WipeOut|AutoCAD Express Tool|expresstools@autodesk.com
 90
        0
280
     0
281
     0
  0
CLASS
  1
RTEXT
  2
RText
  3
RText|AutoCAD Express Tool|expresstools@autodesk.com
 90
        0
280
     0
281
     1
  0
CLASS
  1
ARCALIGNEDTEXT
  2
AcDbArcAlignedText
  3
ATEXT|AutoCAD Express Tool|expresstools@autodesk.com
 90
        0
280
     0
281
     1
  0
ENDSEC
  0
SECTION
  2
TABLES
  0
TABLE
  2
VPORT
  5
7
100
AcDbSymbolTable
 70
     1
  0
VPORT
  5
15
100
AcDbSymbolTableRecord
100
AcDbViewportTableRecord
  2
*ACTIVE
 70
     0
 10
0.0
 20
0.0
 11
1.0
 21
1.0
 12
1022.0
 22
1505.0
 13
0.0
 23
0.0
 14
1.0
 24
1.0
 15
0.0
 25
0.0
 16
0.0
 26
0.0
 36
1.0
 17
0.0
 27
0.0
 37
0.0
 40
2800.0
 41
1.722533
 42
50.0
 43
0.0
 44
0.0
 50
0.0
 51
0.0
 71
     0
 72
   100
 73
     1
 74
     1
 75
     0
 76
     0
 77
     0
 78
     0
  0
ENDTAB
  0
TABLE
  2
LTYPE
  5
4
100
AcDbSymbolTable
 70
    10
  0
LTYPE
  5
11
100
AcDbSymbolTableRecord
100
AcDbLinetypeTableRecord
  2
BYBLOCK
 70
    64
  3

 72
    65
 73
     0
 40
0.0
  0
LTYPE
  5
12
100
AcDbSymbolTableRecord
100
AcDbLinetypeTableRecord
  2
BYLAYER
 70
    64
  3

 72
    65
 73
     0
 40
0.0
  0
LTYPE
  5
13
100
AcDbSymbolTableRecord
100
AcDbLinetypeTableRecord
  2
CONTINUOUS
 70
    64
  3
実線
 72
    65
 73
     0
 40
0.0
  0
LTYPE
  5
1D
100
AcDbSymbolTableRecord
100
AcDbLinetypeTableRecord
  2
EXLTYPE1
 70
    64
  3
破線
 72
    65
 73
     2
 40
3.0
 49
2.0
 74
     0
 49
-1.0
 74
     0
  0
LTYPE
  5
1E
100
AcDbSymbolTableRecord
100
AcDbLinetypeTableRecord
  2
EXLTYPE2
 70
    64
  3
点線
 72
    65
 73
     2
 40
2.0
 49
1.0
 74
     0
 49
-1.0
 74
     0
  0
LTYPE
  5
1F
100
AcDbSymbolTableRecord
100
AcDbLinetypeTableRecord
  2
EXLTYPE3
 70
    64
  3
一点鎖線
 72
    65
 73
     4
 40
10.0
 49
7.0
 74
     0
 49
-1.0
 74
     0
 49
1.0
 74
     0
 49
-1.0
 74
     0
  0
LTYPE
  5
20
100
AcDbSymbolTableRecord
100
AcDbLinetypeTableRecord
  2
EXLTYPE4
 70
    64
  3
二点鎖線
 72
    65
 73
     6
 40
12.0
 49
7.0
 74
     0
 49
-1.0
 74
     0
 49
1.0
 74
     0
 49
-1.0
 74
     0
 49
1.0
 74
     0
 49
-1.0
 74
     0
  0
LTYPE
  5
21
100
AcDbSymbolTableRecord
100
AcDbLinetypeTableRecord
  2
EXLTYPE5
 70
    64
  3
三点鎖線
 72
    65
 73
     8
 40
37.0
 49
30.0
 74
     0
 49
-1.0
 74
     0
 49
1.0
 74
     0
 49
-1.0
 74
     0
 49
1.0
 74
     0
 49
-1.0
 74
     0
 49
1.0
 74
     0
 49
-1.0
 74
     0
  0
LTYPE
  5
22
100
AcDbSymbolTableRecord
100
AcDbLinetypeTableRecord
  2
EXLTYPE6
 70
    64
  3
四点鎖線
 72
    65
 73
    10
 40
39.0
 49
30.0
 74
     0
 49
-1.0
 74
     0
 49
1.0
 74
     0
 49
-1.0
 74
     0
 49
1.0
 74
     0
 49
-1.0
 74
     0
 49
1.0
 74
     0
 49
-1.0
 74
     0
 49
1.0
 74
     0
 49
-1.0
 74
     0
  0
LTYPE
  5
23
100
AcDbSymbolTableRecord
100
AcDbLinetypeTableRecord
  2
EXLTYPE7
 70
    64
  3
一点鎖線2
 72
    65
 73
     4
 40
9.011873
 49
3.918206
 74
     0
 49
-1.959103
 74
     0
 49
1.175462
 74
     0
 49
-1.959103
 74
     0
  0
ENDTAB
  0
TABLE
  2
LAYER
  5
2
100
AcDbSymbolTable
 70
     6
  0
LAYER
  5
14
100
AcDbSymbolTableRecord
100
AcDbLayerTableRecord
  2
0
 70
     0
 62
     7
  6
CONTINUOUS
  0
LAYER
  5
26
100
AcDbSymbolTableRecord
100
AcDbLayerTableRecord
  2
枠
 70
    64
 62
     7
  6
CONTINUOUS
  0
LAYER
  5
27
100
AcDbSymbolTableRecord
100
AcDbLayerTableRecord
  2
本体
 70
    64
 62
     7
  6
CONTINUOUS
  0
LAYER
  5
28
100
AcDbSymbolTableRecord
100
AcDbLayerTableRecord
  2
寸法
 70
    64
 62
     7
  6
CONTINUOUS
  0
LAYER
  5
29
100
AcDbSymbolTableRecord
100
AcDbLayerTableRecord
  2
詳細図
 70
    64
 62
     7
  6
CONTINUOUS
  0
LAYER
  5
2A
100
AcDbSymbolTableRecord
100
AcDbLayerTableRecord
  2
詳細図寸法
 70
    64
 62
     7
  6
CONTINUOUS
  0
ENDTAB
  0
TABLE
  2
STYLE
  5
3
100
AcDbSymbolTable
 70
     5
  0
STYLE
  5
17
100
AcDbSymbolTableRecord
100
AcDbTextStyleTableRecord
  2
STANDARD
 70
     0
 40
0.0
 41
1.0
 50
0.0
 71
     0
 42
0.0
  3
monotxt
  4
extfont
  0
STYLE
  5
24
100
AcDbSymbolTableRecord
100
AcDbTextStyleTableRecord
  2
EXCADSTD
 70
    64
 40
0.0
 41
1.0
 50
0.0
 71
     0
 42
0.2
  3
monotxt
  4
extfont
  0
STYLE
  5
25
100
AcDbSymbolTableRecord
100
AcDbTextStyleTableRecord
  2
EXCADVERT
 70
    68
 40
0.0
 41
1.0
 50
0.0
 71
     0
 42
0.286885
  3
monotxt
  4
extfont
  0
STYLE
  5
B8
100
AcDbSymbolTableRecord
100
AcDbTextStyleTableRecord
  2
EXCADTTF1
 70
    64
 40
0.0
 41
1.0
 50
0.0
 71
     0
 42
0.2
  3
MS Gothic.ttf
  4

1001
ACAD
1000
MS Gothic
1071
    32817
  0
STYLE
  5
1BC
100
AcDbSymbolTableRecord
100
AcDbTextStyleTableRecord
  2
EXCADDIM1
 70
    64
 40
0.0
 41
0.84
 50
0.0
 71
     0
 42
0.2
  3
monotxt
  4
extfont
  0
ENDTAB
  0
TABLE
  2
VIEW
  5
5
100
AcDbSymbolTable
 70
     0
  0
ENDTAB
  0
TABLE
  2
UCS
  5
6
100
AcDbSymbolTable
 70
     0
  0
ENDTAB
  0
TABLE
  2
APPID
  5
8
100
AcDbSymbolTable
 70
     1
  0
APPID
  5
16
100
AcDbSymbolTableRecord
100
AcDbRegAppTableRecord
  2
ACAD
 70
     0
  0
ENDTAB
  0
TABLE
  2
DIMSTYLE
  5
9
100
AcDbSymbolTable
 70
     1
  0
DIMSTYLE
105
18
100
AcDbSymbolTableRecord
100
AcDbDimStyleTableRecord
  2
STANDARD
 70
     0
  3

  4

  5

  6

  7

 40
1.0
 41
0.18
 42
0.0625
 43
0.38
 44
0.18
 45
0.0
 46
0.0
 47
0.0
 48
0.0
 71
     0
 72
     0
 73
     1
 74
     1
 75
     0
 76
     0
 77
     0
 78
     0
140
0.18
141
0.09
142
0.0
143
25.4
144
1.0
145
0.0
146
1.0
147
0.09
170
     0
171
     2
172
     1
173
     0
174
     0
175
     0
176
     0
177
     0
178
     0
270
     2
271
     4
272
     4
273
     2
274
     2
275
     0
280
     0
281
     0
282
     0
283
     1
284
     0
285
     0
286
     0
287
     0
288
     0
340
17
  0
ENDTAB
  0
TABLE
  2
BLOCK_RECORD
  5
1
100
AcDbSymbolTable
 70
    25
  0
BLOCK_RECORD
  5
A
100
AcDbSymbolTableRecord
100
AcDbBlockTableRecord
  2
*MODEL_SPACE
  0
BLOCK_RECORD
  5
B
100
AcDbSymbolTableRecord
100
AcDbBlockTableRecord
  2
*PAPER_SPACE
  0
BLOCK_RECORD
  5
2B
100
AcDbSymbolTableRecord
100
AcDbBlockTableRecord
  2
_EX_NORM
  0
BLOCK_RECORD
  5
2C
100
AcDbSymbolTableRecord
100
AcDbBlockTableRecord
  2
_EX_BNORM
  0
BLOCK_RECORD
  5
2D
100
AcDbSymbolTableRecord
100
AcDbBlockTableRecord
  2
_EX_BCIR
  0
BLOCK_RECORD
  5
2E
100
AcDbSymbolTableRecord
100
AcDbBlockTableRecord
  2
_EX_RCIVIL
  0
BLOCK_RECORD
  5
2F
100
AcDbSymbolTableRecord
100
AcDbBlockTableRecord
  2
_EX_SLANT
  0
BLOCK_RECORD
  5
30
100
AcDbSymbolTableRecord
100
AcDbBlockTableRecord
  2
_EX_NONE
  0
BLOCK_RECORD
  5
31
100
AcDbSymbolTableRecord
100
AcDbBlockTableRecord
  2
_EX_CIVIL
  0
BLOCK_RECORD
  5
32
100
AcDbSymbolTableRecord
100
AcDbBlockTableRecord
  2
_EX_WCIR
  0
BLOCK_RECORD
  5
33
100
AcDbSymbolTableRecord
100
AcDbBlockTableRecord
  2
_EX_WCIR2
  0
BLOCK_RECORD
  5
34
100
AcDbSymbolTableRecord
100
AcDbBlockTableRecord
  2
_EX_WNORM
  0
BLOCK_RECORD
  5
35
100
AcDbSymbolTableRecord
100
AcDbBlockTableRecord
  2
_EX_NNORM
  0
BLOCK_RECORD
  5
36
100
AcDbSymbolTableRecord
100
AcDbBlockTableRecord
  2
_EX_BBOX
  0
BLOCK_RECORD
  5
37
100
AcDbSymbolTableRecord
100
AcDbBlockTableRecord
  2
_EX_WBOX
  0
BLOCK_RECORD
  5
38
100
AcDbSymbolTableRecord
100
AcDbBlockTableRecord
  2
_EX_INTEGRAL
  0
BLOCK_RECORD
  5
1B2
100
AcDbSymbolTableRecord
100
AcDbBlockTableRecord
  2
*D14
  0
BLOCK_RECORD
  5
1C1
100
AcDbSymbolTableRecord
100
AcDbBlockTableRecord
  2
*D15
  0
BLOCK_RECORD
  5
372
100
AcDbSymbolTableRecord
100
AcDbBlockTableRecord
  2
*D16
  0
BLOCK_RECORD
  5
37E
100
AcDbSymbolTableRecord
100
AcDbBlockTableRecord
  2
*D17
  0
BLOCK_RECORD
  5
38A
100
AcDbSymbolTableRecord
100
AcDbBlockTableRecord
  2
*D18
  0
BLOCK_RECORD
  5
396
100
AcDbSymbolTableRecord
100
AcDbBlockTableRecord
  2
*D19
  0
BLOCK_RECORD
  5
3A2
100
AcDbSymbolTableRecord
100
AcDbBlockTableRecord
  2
*D20
  0
BLOCK_RECORD
  5
3AE
100
AcDbSymbolTableRecord
100
AcDbBlockTableRecord
  2
*D21
  0
BLOCK_RECORD
  5
3BA
100
AcDbSymbolTableRecord
100
AcDbBlockTableRecord
  2
*D22
  0
BLOCK_RECORD
  5
3C6
100
AcDbSymbolTableRecord
100
AcDbBlockTableRecord
  2
*D23
  0
BLOCK_RECORD
  5
3D1
100
AcDbSymbolTableRecord
100
AcDbBlockTableRecord
  2
*D24
  0
ENDTAB
  0
ENDSEC
  0
SECTION
  2
BLOCKS
  0
BLOCK
  5
D
100
AcDbEntity
  8
0
100
AcDbBlockBegin
  2
*MODEL_SPACE
 70
     0
 10
0.0
 20
0.0
 30
0.0
  3
*MODEL_SPACE
  1

  0
ENDBLK
  5
E
100
AcDbEntity
  8
0
100
AcDbBlockEnd
  0
BLOCK
  5
F
100
AcDbEntity
 67
     1
  8
0
100
AcDbBlockBegin
  2
*PAPER_SPACE
 70
     0
 10
0.0
 20
0.0
 30
0.0
  3
*PAPER_SPACE
  1

  0
ENDBLK
  5
10
100
AcDbEntity
 67
     1
  8
0
100
AcDbBlockEnd
  0
BLOCK
  5
39
100
AcDbEntity
  8
0
100
AcDbBlockBegin
  2
_EX_NORM
 70
     0
 10
0.0
 20
0.0
 30
0.0
  3
_EX_NORM
  1

  0
LINE
  5
3A
100
AcDbEntity
  8
0
  6
CONTINUOUS
 62
     0
100
AcDbLine
 10
0.0
 20
0.0
 30
0.0
 11
-1.0
 21
0.0
 31
0.0
  0
LINE
  5
3B
100
AcDbEntity
  8
0
  6
CONTINUOUS
 62
     0
100
AcDbLine
 10
0.0
 20
0.0
 30
0.0
 11
-1.0
 21
0.166667
 31
0.0
  0
LINE
  5
3C
100
AcDbEntity
  8
0
  6
CONTINUOUS
 62
     0
100
AcDbLine
 10
0.0
 20
0.0
 30
0.0
 11
-1.0
 21
-0.166667
 31
0.0
  0
ENDBLK
  5
3D
100
AcDbEntity
  8
0
100
AcDbBlockEnd
  0
BLOCK
  5
3E
100
AcDbEntity
  8
0
100
AcDbBlockBegin
  2
_EX_BNORM
 70
     0
 10
0.0
 20
0.0
 30
0.0
  3
_EX_BNORM
  1

  0
LINE
  5
3F
100
AcDbEntity
  8
0
  6
CONTINUOUS
 62
     0
100
AcDbLine
 10
0.0
 20
0.0
 30
0.0
 11
-1.0
 21
0.0
 31
0.0
  0
LINE
  5
40
100
AcDbEntity
  8
0
  6
CONTINUOUS
 62
     0
100
AcDbLine
 10
0.0
 20
0.0
 30
0.0
 11
-1.0
 21
0.166667
 31
0.0
  0
LINE
  5
41
100
AcDbEntity
  8
0
  6
CONTINUOUS
 62
     0
100
AcDbLine
 10
0.0
 20
0.0
 30
0.0
 11
-1.0
 21
-0.166667
 31
0.0
  0
LINE
  5
42
100
AcDbEntity
  8
0
  6
CONTINUOUS
 62
     0
100
AcDbLine
 10
0.0
 20
0.0
 30
0.0
 11
-1.0
 21
0.083333
 31
0.0
  0
LINE
  5
43
100
AcDbEntity
  8
0
  6
CONTINUOUS
 62
     0
100
AcDbLine
 10
0.0
 20
0.0
 30
0.0
 11
-1.0
 21
-0.083333
 31
0.0
  0
LINE
  5
44
100
AcDbEntity
  8
0
  6
CONTINUOUS
 62
     0
100
AcDbLine
 10
-1.0
 20
0.166667
 30
0.0
 11
-1.0
 21
-0.166667
 31
0.0
  0
ENDBLK
  5
45
100
AcDbEntity
  8
0
100
AcDbBlockEnd
  0
BLOCK
  5
46
100
AcDbEntity
  8
0
100
AcDbBlockBegin
  2
_EX_BCIR
 70
     0
 10
0.0
 20
0.0
 30
0.0
  3
_EX_BCIR
  1

  0
LINE
  5
47
100
AcDbEntity
  8
0
  6
CONTINUOUS
 62
     0
100
AcDbLine
 10
0.0
 20
0.0
 30
0.0
 11
-1.0
 21
0.0
 31
0.0
  0
CIRCLE
  5
48
100
AcDbEntity
  8
0
  6
CONTINUOUS
 62
     0
100
AcDbCircle
 10
0.0
 20
0.0
 30
0.0
 40
0.5
  0
CIRCLE
  5
49
100
AcDbEntity
  8
0
  6
CONTINUOUS
 62
     0
100
AcDbCircle
 10
0.0
 20
0.0
 30
0.0
 40
0.25
  0
ENDBLK
  5
4A
100
AcDbEntity
  8
0
100
AcDbBlockEnd
  0
BLOCK
  5
4B
100
AcDbEntity
  8
0
100
AcDbBlockBegin
  2
_EX_RCIVIL
 70
     0
 10
0.0
 20
0.0
 30
0.0
  3
_EX_RCIVIL
  1

  0
LINE
  5
4C
100
AcDbEntity
  8
0
  6
CONTINUOUS
 62
     0
100
AcDbLine
 10
0.0
 20
0.0
 30
0.0
 11
-1.0
 21
0.0
 31
0.0
  0
LINE
  5
4D
100
AcDbEntity
  8
0
  6
CONTINUOUS
 62
     0
100
AcDbLine
 10
-1.0
 20
-0.25
 30
0.0
 11
0.0
 21
-0.25
 31
0.0
  0
LINE
  5
4E
100
AcDbEntity
  8
0
  6
CONTINUOUS
 62
     0
100
AcDbLine
 10
-1.0
 20
-0.125
 30
0.0
 11
0.0
 21
-0.125
 31
0.0
  0
ENDBLK
  5
4F
100
AcDbEntity
  8
0
100
AcDbBlockEnd
  0
BLOCK
  5
50
100
AcDbEntity
  8
0
100
AcDbBlockBegin
  2
_EX_SLANT
 70
     0
 10
0.0
 20
0.0
 30
0.0
  3
_EX_SLANT
  1

  0
LINE
  5
51
100
AcDbEntity
  8
0
  6
CONTINUOUS
 62
     0
100
AcDbLine
 10
0.0
 20
0.0
 30
0.0
 11
-1.0
 21
0.0
 31
0.0
  0
LINE
  5
52
100
AcDbEntity
  8
0
  6
CONTINUOUS
 62
     0
100
AcDbLine
 10
0.707107
 20
0.707107
 30
0.0
 11
-0.707107
 21
-0.707107
 31
0.0
  0
ENDBLK
  5
53
100
AcDbEntity
  8
0
100
AcDbBlockEnd
  0
BLOCK
  5
54
100
AcDbEntity
  8
0
100
AcDbBlockBegin
  2
_EX_NONE
 70
     0
 10
0.0
 20
0.0
 30
0.0
  3
_EX_NONE
  1

  0
LINE
  5
55
100
AcDbEntity
  8
0
  6
CONTINUOUS
 62
     0
100
AcDbLine
 10
0.0
 20
0.0
 30
0.0
 11
-1.0
 21
0.0
 31
0.0
  0
ENDBLK
  5
56
100
AcDbEntity
  8
0
100
AcDbBlockEnd
  0
BLOCK
  5
57
100
AcDbEntity
  8
0
100
AcDbBlockBegin
  2
_EX_CIVIL
 70
     0
 10
0.0
 20
0.0
 30
0.0
  3
_EX_CIVIL
  1

  0
LINE
  5
58
100
AcDbEntity
  8
0
  6
CONTINUOUS
 62
     0
100
AcDbLine
 10
0.0
 20
0.0
 30
0.0
 11
-1.0
 21
0.0
 31
0.0
  0
LINE
  5
59
100
AcDbEntity
  8
0
  6
CONTINUOUS
 62
     0
100
AcDbLine
 10
-1.0
 20
0.25
 30
0.0
 11
0.0
 21
0.25
 31
0.0
  0
LINE
  5
5A
100
AcDbEntity
  8
0
  6
CONTINUOUS
 62
     0
100
AcDbLine
 10
-1.0
 20
0.125
 30
0.0
 11
0.0
 21
0.125
 31
0.0
  0
ENDBLK
  5
5B
100
AcDbEntity
  8
0
100
AcDbBlockEnd
  0
BLOCK
  5
5C
100
AcDbEntity
  8
0
100
AcDbBlockBegin
  2
_EX_WCIR
 70
     0
 10
0.0
 20
0.0
 30
0.0
  3
_EX_WCIR
  1

  0
LINE
  5
5D
100
AcDbEntity
  8
0
  6
CONTINUOUS
 62
     0
100
AcDbLine
 10
0.0
 20
0.0
 30
0.0
 11
-1.0
 21
0.0
 31
0.0
  0
CIRCLE
  5
5E
100
AcDbEntity
  8
0
  6
CONTINUOUS
 62
     0
100
AcDbCircle
 10
0.0
 20
0.0
 30
0.0
 40
0.5
  0
ENDBLK
  5
5F
100
AcDbEntity
  8
0
100
AcDbBlockEnd
  0
BLOCK
  5
60
100
AcDbEntity
  8
0
100
AcDbBlockBegin
  2
_EX_WCIR2
 70
     0
 10
0.0
 20
0.0
 30
0.0
  3
_EX_WCIR2
  1

  0
LINE
  5
61
100
AcDbEntity
  8
0
  6
CONTINUOUS
 62
     0
100
AcDbLine
 10
-0.5
 20
0.0
 30
0.0
 11
-1.0
 21
0.0
 31
0.0
  0
CIRCLE
  5
62
100
AcDbEntity
  8
0
  6
CONTINUOUS
 62
     0
100
AcDbCircle
 10
0.0
 20
0.0
 30
0.0
 40
0.5
  0
ENDBLK
  5
63
100
AcDbEntity
  8
0
100
AcDbBlockEnd
  0
BLOCK
  5
64
100
AcDbEntity
  8
0
100
AcDbBlockBegin
  2
_EX_WNORM
 70
     0
 10
0.0
 20
0.0
 30
0.0
  3
_EX_WNORM
  1

  0
LINE
  5
65
100
AcDbEntity
  8
0
  6
CONTINUOUS
 62
     0
100
AcDbLine
 10
-1.0
 20
0.0
 30
0.0
 11
-1.0
 21
0.0
 31
0.0
  0
LINE
  5
66
100
AcDbEntity
  8
0
  6
CONTINUOUS
 62
     0
100
AcDbLine
 10
0.0
 20
0.0
 30
0.0
 11
-1.0
 21
0.166667
 31
0.0
  0
LINE
  5
67
100
AcDbEntity
  8
0
  6
CONTINUOUS
 62
     0
100
AcDbLine
 10
0.0
 20
0.0
 30
0.0
 11
-1.0
 21
-0.166667
 31
0.0
  0
LINE
  5
68
100
AcDbEntity
  8
0
  6
CONTINUOUS
 62
     0
100
AcDbLine
 10
-1.0
 20
0.166667
 30
0.0
 11
-1.0
 21
-0.166667
 31
0.0
  0
ENDBLK
  5
69
100
AcDbEntity
  8
0
100
AcDbBlockEnd
  0
BLOCK
  5
6A
100
AcDbEntity
  8
0
100
AcDbBlockBegin
  2
_EX_NNORM
 70
     0
 10
0.0
 20
0.0
 30
0.0
  3
_EX_NNORM
  1

  0
LINE
  5
6B
100
AcDbEntity
  8
0
  6
CONTINUOUS
 62
     0
100
AcDbLine
 10
0.0
 20
0.0
 30
0.0
 11
-1.0
 21
0.0
 31
0.0
  0
LINE
  5
6C
100
AcDbEntity
  8
0
  6
CONTINUOUS
 62
     0
100
AcDbLine
 10
0.0
 20
0.0
 30
0.0
 11
-1.0
 21
0.166667
 31
0.0
  0
LINE
  5
6D
100
AcDbEntity
  8
0
  6
CONTINUOUS
 62
     0
100
AcDbLine
 10
0.0
 20
0.0
 30
0.0
 11
-1.0
 21
-0.166667
 31
0.0
  0
LINE
  5
6E
100
AcDbEntity
  8
0
  6
CONTINUOUS
 62
     0
100
AcDbLine
 10
-1.0
 20
0.166667
 30
0.0
 11
-1.0
 21
-0.166667
 31
0.0
  0
ENDBLK
  5
6F
100
AcDbEntity
  8
0
100
AcDbBlockEnd
  0
BLOCK
  5
70
100
AcDbEntity
  8
0
100
AcDbBlockBegin
  2
_EX_BBOX
 70
     0
 10
0.0
 20
0.0
 30
0.0
  3
_EX_BBOX
  1

  0
LINE
  5
71
100
AcDbEntity
  8
0
  6
CONTINUOUS
 62
     0
100
AcDbLine
 10
0.0
 20
0.0
 30
0.0
 11
-1.0
 21
0.0
 31
0.0
  0
LINE
  5
72
100
AcDbEntity
  8
0
  6
CONTINUOUS
 62
     0
100
AcDbLine
 10
-0.5
 20
0.5
 30
0.0
 11
0.5
 21
0.5
 31
0.0
  0
LINE
  5
73
100
AcDbEntity
  8
0
  6
CONTINUOUS
 62
     0
100
AcDbLine
 10
0.5
 20
0.5
 30
0.0
 11
0.5
 21
-0.5
 31
0.0
  0
LINE
  5
74
100
AcDbEntity
  8
0
  6
CONTINUOUS
 62
     0
100
AcDbLine
 10
0.5
 20
-0.5
 30
0.0
 11
-0.5
 21
-0.5
 31
0.0
  0
LINE
  5
75
100
AcDbEntity
  8
0
  6
CONTINUOUS
 62
     0
100
AcDbLine
 10
-0.5
 20
-0.5
 30
0.0
 11
-0.5
 21
0.5
 31
0.0
  0
LINE
  5
76
100
AcDbEntity
  8
0
  6
CONTINUOUS
 62
     0
100
AcDbLine
 10
-0.25
 20
0.25
 30
0.0
 11
0.25
 21
0.25
 31
0.0
  0
LINE
  5
77
100
AcDbEntity
  8
0
  6
CONTINUOUS
 62
     0
100
AcDbLine
 10
0.25
 20
0.25
 30
0.0
 11
0.25
 21
-0.25
 31
0.0
  0
LINE
  5
78
100
AcDbEntity
  8
0
  6
CONTINUOUS
 62
     0
100
AcDbLine
 10
0.25
 20
-0.25
 30
0.0
 11
-0.25
 21
-0.25
 31
0.0
  0
LINE
  5
79
100
AcDbEntity
  8
0
  6
CONTINUOUS
 62
     0
100
AcDbLine
 10
-0.25
 20
-0.25
 30
0.0
 11
-0.25
 21
0.25
 31
0.0
  0
ENDBLK
  5
7A
100
AcDbEntity
  8
0
100
AcDbBlockEnd
  0
BLOCK
  5
7B
100
AcDbEntity
  8
0
100
AcDbBlockBegin
  2
_EX_WBOX
 70
     0
 10
0.0
 20
0.0
 30
0.0
  3
_EX_WBOX
  1

  0
LINE
  5
7C
100
AcDbEntity
  8
0
  6
CONTINUOUS
 62
     0
100
AcDbLine
 10
-0.5
 20
0.0
 30
0.0
 11
-1.0
 21
0.0
 31
0.0
  0
LINE
  5
7D
100
AcDbEntity
  8
0
  6
CONTINUOUS
 62
     0
100
AcDbLine
 10
-0.5
 20
0.5
 30
0.0
 11
0.5
 21
0.5
 31
0.0
  0
LINE
  5
7E
100
AcDbEntity
  8
0
  6
CONTINUOUS
 62
     0
100
AcDbLine
 10
0.5
 20
0.5
 30
0.0
 11
0.5
 21
-0.5
 31
0.0
  0
LINE
  5
7F
100
AcDbEntity
  8
0
  6
CONTINUOUS
 62
     0
100
AcDbLine
 10
0.5
 20
-0.5
 30
0.0
 11
-0.5
 21
-0.5
 31
0.0
  0
LINE
  5
80
100
AcDbEntity
  8
0
  6
CONTINUOUS
 62
     0
100
AcDbLine
 10
-0.5
 20
-0.5
 30
0.0
 11
-0.5
 21
0.5
 31
0.0
  0
ENDBLK
  5
81
100
AcDbEntity
  8
0
100
AcDbBlockEnd
  0
BLOCK
  5
82
100
AcDbEntity
  8
0
100
AcDbBlockBegin
  2
_EX_INTEGRAL
 70
     0
 10
0.0
 20
0.0
 30
0.0
  3
_EX_INTEGRAL
  1

  0
LINE
  5
83
100
AcDbEntity
  8
0
  6
CONTINUOUS
 62
     0
100
AcDbLine
 10
0.0
 20
0.0
 30
0.0
 11
-1.0
 21
0.0
 31
0.0
  0
ARC
  5
84
100
AcDbEntity
  8
0
  6
CONTINUOUS
 62
     0
100
AcDbCircle
 10
0.542115
 20
0.164992
 30
0.0
 40
0.56667
100
AcDbArc
 50
73.07249
 51
196.927513
  0
ARC
  5
85
100
AcDbEntity
  8
0
  6
CONTINUOUS
 62
     0
100
AcDbCircle
 10
-0.542115
 20
-0.164992
 30
0.0
 40
0.56667
100
AcDbArc
 50
253.072487
 51
16.927513
  0
ENDBLK
  5
86
100
AcDbEntity
  8
0
100
AcDbBlockEnd
  0
BLOCK
  5
1B3
100
AcDbEntity
  8
0
100
AcDbBlockBegin
  2
*D14
 70
    65
 10
0.0
 20
0.0
 30
0.0
  3
*D14
  1

  0
LINE
  5
1B4
100
AcDbEntity
  8
本体
  6
CONTINUOUS
 62
     3
100
AcDbLine
 10
842.0
 20
1997.0
 30
0.0
 11
842.0
 21
1936.0
 31
0.0
  0
LINE
  5
1B5
100
AcDbEntity
  8
本体
  6
CONTINUOUS
 62
     3
100
AcDbLine
 10
719.0
 20
1946.0
 30
0.0
 11
842.0
 21
1946.0
 31
0.0
  0
LINE
  5
1B6
100
AcDbEntity
  8
本体
  6
CONTINUOUS
 62
     3
100
AcDbLine
 10
749.0
 20
1951.0
 30
0.0
 11
719.0
 21
1946.0
 31
0.0
  0
LINE
  5
1B7
100
AcDbEntity
  8
本体
  6
CONTINUOUS
 62
     3
100
AcDbLine
 10
719.0
 20
1946.0
 30
0.0
 11
749.0
 21
1941.0
 31
0.0
  0
LINE
  5
1B8
100
AcDbEntity
  8
本体
  6
CONTINUOUS
 62
     3
100
AcDbLine
 10
812.0
 20
1941.0
 30
0.0
 11
842.0
 21
1946.0
 31
0.0
  0
LINE
  5
1B9
100
AcDbEntity
  8
本体
  6
CONTINUOUS
 62
     3
100
AcDbLine
 10
842.0
 20
1946.0
 30
0.0
 11
812.0
 21
1951.0
 31
0.0
  0
TEXT
  5
1BA
100
AcDbEntity
  8
本体
  6
CONTINUOUS
 62
     2
100
AcDbText
 10
745.5
 20
1949.5
 30
0.0
 40
40.0
  1
123
 41
0.84
  7
EXCADSTD
 72
     1
 11
787.5
 21
1949.5
 31
0.0
100
AcDbText
  0
ENDBLK
  5
1BB
100
AcDbEntity
  8
0
100
AcDbBlockEnd
  0
BLOCK
  5
1C2
100
AcDbEntity
  8
0
100
AcDbBlockBegin
  2
*D15
 70
    65
 10
0.0
 20
0.0
 30
0.0
  3
*D15
  1

  0
LINE
  5
1C3
100
AcDbEntity
  8
本体
  6
CONTINUOUS
 62
     3
100
AcDbLine
 10
797.0
 20
1204.2
 30
0.0
 11
730.5
 21
1204.2
 31
0.0
  0
LINE
  5
1C4
100
AcDbEntity
  8
本体
  6
CONTINUOUS
 62
     3
100
AcDbLine
 10
817.95
 20
805.2
 30
0.0
 11
730.5
 21
805.2
 31
0.0
  0
TEXT
  5
1C5
100
AcDbEntity
  8
本体
  6
CONTINUOUS
 62
     2
100
AcDbText
 10
737.0
 20
962.7
 30
0.0
 40
40.0
  1
634
 50
90.0
 41
0.84
  7
EXCADSTD
 72
     1
 11
737.0
 21
1004.7
 31
0.0
100
AcDbText
  0
LINE
  5
1C6
100
AcDbEntity
  8
本体
  6
CONTINUOUS
 62
     3
100
AcDbLine
 10
740.5
 20
1204.2
 30
0.0
 11
740.5
 21
805.2
 31
0.0
  0
LINE
  5
1C7
100
AcDbEntity
  8
本体
  6
CONTINUOUS
 62
     3
100
AcDbLine
 10
745.5
 20
1174.2
 30
0.0
 11
740.5
 21
1204.2
 31
0.0
  0
LINE
  5
1C8
100
AcDbEntity
  8
本体
  6
CONTINUOUS
 62
     3
100
AcDbLine
 10
740.5
 20
1204.2
 30
0.0
 11
735.5
 21
1174.2
 31
0.0
  0
LINE
  5
1C9
100
AcDbEntity
  8
本体
  6
CONTINUOUS
 62
     3
100
AcDbLine
 10
735.5
 20
835.2
 30
0.0
 11
740.5
 21
805.2
 31
0.0
  0
LINE
  5
1CA
100
AcDbEntity
  8
本体
  6
CONTINUOUS
 62
     3
100
AcDbLine
 10
740.5
 20
805.2
 30
0.0
 11
745.5
 21
835.2
 31
0.0
  0
ENDBLK
  5
1CB
100
AcDbEntity
  8
0
100
AcDbBlockEnd
  0
BLOCK
  5
373
100
AcDbEntity
  8
0
100
AcDbBlockBegin
  2
*D16
 70
    65
 10
0.0
 20
0.0
 30
0.0
  3
*D16
  1

  0
LINE
  5
374
100
AcDbEntity
  8
寸法
  6
CONTINUOUS
 62
     3
100
AcDbLine
 10
1683.0
 20
2385.0
 30
0.0
 11
1683.0
 21
1785.0
 31
0.0
  0
LINE
  5
375
100
AcDbEntity
  8
寸法
  6
CONTINUOUS
 62
     3
100
AcDbLine
 10
1688.833333
 20
2350.0
 30
0.0
 11
1683.0
 21
2385.0
 31
0.0
  0
LINE
  5
376
100
AcDbEntity
  8
寸法
  6
CONTINUOUS
 62
     3
100
AcDbLine
 10
1683.0
 20
2385.0
 30
0.0
 11
1677.166667
 21
2350.0
 31
0.0
  0
LINE
  5
377
100
AcDbEntity
  8
寸法
  6
CONTINUOUS
 62
     3
100
AcDbLine
 10
1677.166667
 20
1820.0
 30
0.0
 11
1683.0
 21
1785.0
 31
0.0
  0
LINE
  5
378
100
AcDbEntity
  8
寸法
  6
CONTINUOUS
 62
     3
100
AcDbLine
 10
1683.0
 20
1785.0
 30
0.0
 11
1688.833333
 21
1820.0
 31
0.0
  0
TEXT
  5
379
100
AcDbEntity
  8
寸法
  6
CONTINUOUS
 62
     2
100
AcDbText
 10
1679.5
 20
2041.32
 30
0.0
 40
40.0
  1
600
 50
90.0
 41
0.84
  7
EXCADSTD
 72
     1
 11
1679.5
 21
2085.0
 31
0.0
100
AcDbText
  0
LINE
  5
37A
100
AcDbEntity
  8
寸法
  6
CONTINUOUS
 62
     3
100
AcDbLine
 10
1518.1
 20
2385.0
 30
0.0
 11
1703.0
 21
2385.0
 31
0.0
  0
LINE
  5
37B
100
AcDbEntity
  8
寸法
  6
CONTINUOUS
 62
     3
100
AcDbLine
 10
1520.1
 20
1785.0
 30
0.0
 11
1703.0
 21
1785.0
 31
0.0
  0
ENDBLK
  5
37C
100
AcDbEntity
  8
0
100
AcDbBlockEnd
  0
BLOCK
  5
37F
100
AcDbEntity
  8
0
100
AcDbBlockBegin
  2
*D17
 70
    65
 10
0.0
 20
0.0
 30
0.0
  3
*D17
  1

  0
LINE
  5
380
100
AcDbEntity
  8
寸法
  6
CONTINUOUS
 62
     3
100
AcDbLine
 10
722.0
 20
2405.0
 30
0.0
 11
619.0
 21
2405.0
 31
0.0
  0
LINE
  5
381
100
AcDbEntity
  8
寸法
  6
CONTINUOUS
 62
     3
100
AcDbLine
 10
722.0
 20
1765.0
 30
0.0
 11
619.0
 21
1765.0
 31
0.0
  0
TEXT
  5
382
100
AcDbEntity
  8
寸法
  6
CONTINUOUS
 62
     2
100
AcDbText
 10
635.5
 20
2041.32
 30
0.0
 40
40.0
  1
640
 50
90.0
 41
0.84
  7
EXCADSTD
 72
     1
 11
635.5
 21
2085.0
 31
0.0
100
AcDbText
  0
LINE
  5
383
100
AcDbEntity
  8
寸法
  6
CONTINUOUS
 62
     3
100
AcDbLine
 10
639.0
 20
2405.0
 30
0.0
 11
639.0
 21
1765.0
 31
0.0
  0
LINE
  5
384
100
AcDbEntity
  8
寸法
  6
CONTINUOUS
 62
     3
100
AcDbLine
 10
644.833333
 20
2370.0
 30
0.0
 11
639.0
 21
2405.0
 31
0.0
  0
LINE
  5
385
100
AcDbEntity
  8
寸法
  6
CONTINUOUS
 62
     3
100
AcDbLine
 10
639.0
 20
2405.0
 30
0.0
 11
633.166667
 21
2370.0
 31
0.0
  0
LINE
  5
386
100
AcDbEntity
  8
寸法
  6
CONTINUOUS
 62
     3
100
AcDbLine
 10
633.166667
 20
1800.0
 30
0.0
 11
639.0
 21
1765.0
 31
0.0
  0
LINE
  5
387
100
AcDbEntity
  8
寸法
  6
CONTINUOUS
 62
     3
100
AcDbLine
 10
639.0
 20
1765.0
 30
0.0
 11
644.833333
 21
1800.0
 31
0.0
  0
ENDBLK
  5
388
100
AcDbEntity
  8
0
100
AcDbBlockEnd
  0
BLOCK
  5
38B
100
AcDbEntity
  8
0
100
AcDbBlockBegin
  2
*D18
 70
    65
 10
0.0
 20
0.0
 30
0.0
  3
*D18
  1

  0
LINE
  5
38C
100
AcDbEntity
  8
寸法
  6
CONTINUOUS
 62
     3
100
AcDbLine
 10
1519.0
 20
2480.0
 30
0.0
 11
719.0
 21
2480.0
 31
0.0
  0
LINE
  5
38D
100
AcDbEntity
  8
寸法
  6
CONTINUOUS
 62
     3
100
AcDbLine
 10
1489.0
 20
2475.0
 30
0.0
 11
1519.0
 21
2480.0
 31
0.0
  0
LINE
  5
38E
100
AcDbEntity
  8
寸法
  6
CONTINUOUS
 62
     3
100
AcDbLine
 10
1519.0
 20
2480.0
 30
0.0
 11
1489.0
 21
2485.0
 31
0.0
  0
LINE
  5
38F
100
AcDbEntity
  8
寸法
  6
CONTINUOUS
 62
     3
100
AcDbLine
 10
749.0
 20
2485.0
 30
0.0
 11
719.0
 21
2480.0
 31
0.0
  0
LINE
  5
390
100
AcDbEntity
  8
寸法
  6
CONTINUOUS
 62
     3
100
AcDbLine
 10
719.0
 20
2480.0
 30
0.0
 11
749.0
 21
2475.0
 31
0.0
  0
TEXT
  5
391
100
AcDbEntity
  8
寸法
  6
CONTINUOUS
 62
     2
100
AcDbText
 10
1077.0
 20
2483.5
 30
0.0
 40
40.0
  1
800
 41
0.84
  7
EXCADSTD
 72
     1
 11
1119.0
 21
2483.5
 31
0.0
100
AcDbText
  0
LINE
  5
392
100
AcDbEntity
  8
寸法
  6
CONTINUOUS
 62
     3
100
AcDbLine
 10
1519.0
 20
2402.0
 30
0.0
 11
1519.0
 21
2490.0
 31
0.0
  0
LINE
  5
393
100
AcDbEntity
  8
寸法
  6
CONTINUOUS
 62
     3
100
AcDbLine
 10
719.0
 20
2402.0
 30
0.0
 11
719.0
 21
2490.0
 31
0.0
  0
ENDBLK
  5
394
100
AcDbEntity
  8
0
100
AcDbBlockEnd
  0
BLOCK
  5
397
100
AcDbEntity
  8
0
100
AcDbBlockBegin
  2
*D19
 70
    65
 10
0.0
 20
0.0
 30
0.0
  3
*D19
  1

  0
LINE
  5
398
100
AcDbEntity
  8
寸法
  6
CONTINUOUS
 62
     3
100
AcDbLine
 10
1499.0
 20
1608.0
 30
0.0
 11
739.0
 21
1608.0
 31
0.0
  0
LINE
  5
399
100
AcDbEntity
  8
寸法
  6
CONTINUOUS
 62
     3
100
AcDbLine
 10
1469.0
 20
1603.0
 30
0.0
 11
1499.0
 21
1608.0
 31
0.0
  0
LINE
  5
39A
100
AcDbEntity
  8
寸法
  6
CONTINUOUS
 62
     3
100
AcDbLine
 10
1499.0
 20
1608.0
 30
0.0
 11
1469.0
 21
1613.0
 31
0.0
  0
LINE
  5
39B
100
AcDbEntity
  8
寸法
  6
CONTINUOUS
 62
     3
100
AcDbLine
 10
769.0
 20
1613.0
 30
0.0
 11
739.0
 21
1608.0
 31
0.0
  0
LINE
  5
39C
100
AcDbEntity
  8
寸法
  6
CONTINUOUS
 62
     3
100
AcDbLine
 10
739.0
 20
1608.0
 30
0.0
 11
769.0
 21
1603.0
 31
0.0
  0
TEXT
  5
39D
100
AcDbEntity
  8
寸法
  6
CONTINUOUS
 62
     2
100
AcDbText
 10
1077.0
 20
1611.5
 30
0.0
 40
40.0
  1
760
 41
0.84
  7
EXCADSTD
 72
     1
 11
1119.0
 21
1611.5
 31
0.0
100
AcDbText
  0
LINE
  5
39E
100
AcDbEntity
  8
寸法
  6
CONTINUOUS
 62
     3
100
AcDbLine
 10
1499.0
 20
1768.9
 30
0.0
 11
1499.0
 21
1598.0
 31
0.0
  0
LINE
  5
39F
100
AcDbEntity
  8
寸法
  6
CONTINUOUS
 62
     3
100
AcDbLine
 10
739.0
 20
1768.9
 30
0.0
 11
739.0
 21
1598.0
 31
0.0
  0
ENDBLK
  5
3A0
100
AcDbEntity
  8
0
100
AcDbBlockEnd
  0
BLOCK
  5
3A3
100
AcDbEntity
  8
0
100
AcDbBlockBegin
  2
*D20
 70
    65
 10
0.0
 20
0.0
 30
0.0
  3
*D20
  1

  0
LINE
  5
3A4
100
AcDbEntity
  8
寸法
  6
CONTINUOUS
 62
     3
100
AcDbLine
 10
1622.0
 20
2362.5
 30
0.0
 11
1622.0
 21
1807.5
 31
0.0
  0
LINE
  5
3A5
100
AcDbEntity
  8
寸法
  6
CONTINUOUS
 62
     3
100
AcDbLine
 10
1627.0
 20
2332.5
 30
0.0
 11
1622.0
 21
2362.5
 31
0.0
  0
LINE
  5
3A6
100
AcDbEntity
  8
寸法
  6
CONTINUOUS
 62
     3
100
AcDbLine
 10
1622.0
 20
2362.5
 30
0.0
 11
1617.0
 21
2332.5
 31
0.0
  0
LINE
  5
3A7
100
AcDbEntity
  8
寸法
  6
CONTINUOUS
 62
     3
100
AcDbLine
 10
1617.0
 20
1837.5
 30
0.0
 11
1622.0
 21
1807.5
 31
0.0
  0
LINE
  5
3A8
100
AcDbEntity
  8
寸法
  6
CONTINUOUS
 62
     3
100
AcDbLine
 10
1622.0
 20
1807.5
 30
0.0
 11
1627.0
 21
1837.5
 31
0.0
  0
TEXT
  5
3A9
100
AcDbEntity
  8
寸法
  6
CONTINUOUS
 62
     2
100
AcDbText
 10
1618.5
 20
1992.6
 30
0.0
 40
40.0
  1
555（内寸）
 50
90.0
 41
0.84
  7
EXCADSTD
 72
     1
 11
1618.5
 21
2085.0
 31
0.0
100
AcDbText
  0
LINE
  5
3AA
100
AcDbEntity
  8
寸法
  6
CONTINUOUS
 62
     3
100
AcDbLine
 10
1470.137116
 20
1807.5
 30
0.0
 11
1632.0
 21
1807.5
 31
0.0
  0
LINE
  5
3AB
100
AcDbEntity
  8
寸法
  6
CONTINUOUS
 62
     3
100
AcDbLine
 10
1470.137116
 20
2362.5
 30
0.0
 11
1632.0
 21
2362.5
 31
0.0
  0
ENDBLK
  5
3AC
100
AcDbEntity
  8
0
100
AcDbBlockEnd
  0
BLOCK
  5
3AF
100
AcDbEntity
  8
0
100
AcDbBlockBegin
  2
*D21
 70
    65
 10
0.0
 20
0.0
 30
0.0
  3
*D21
  1

  0
LINE
  5
3B0
100
AcDbEntity
  8
寸法
  6
CONTINUOUS
 62
     3
100
AcDbLine
 10
761.5
 20
1672.0
 30
0.0
 11
1476.5
 21
1672.0
 31
0.0
  0
LINE
  5
3B1
100
AcDbEntity
  8
寸法
  6
CONTINUOUS
 62
     3
100
AcDbLine
 10
791.5
 20
1677.0
 30
0.0
 11
761.5
 21
1672.0
 31
0.0
  0
LINE
  5
3B2
100
AcDbEntity
  8
寸法
  6
CONTINUOUS
 62
     3
100
AcDbLine
 10
761.5
 20
1672.0
 30
0.0
 11
791.5
 21
1667.0
 31
0.0
  0
LINE
  5
3B3
100
AcDbEntity
  8
寸法
  6
CONTINUOUS
 62
     3
100
AcDbLine
 10
1446.5
 20
1667.0
 30
0.0
 11
1476.5
 21
1672.0
 31
0.0
  0
LINE
  5
3B4
100
AcDbEntity
  8
寸法
  6
CONTINUOUS
 62
     3
100
AcDbLine
 10
1476.5
 20
1672.0
 30
0.0
 11
1446.5
 21
1677.0
 31
0.0
  0
TEXT
  5
3B5
100
AcDbEntity
  8
寸法
  6
CONTINUOUS
 62
     2
100
AcDbText
 10
1026.6
 20
1675.5
 30
0.0
 40
40.0
  1
715（内寸）
 41
0.84
  7
EXCADSTD
 72
     1
 11
1119.0
 21
1675.5
 31
0.0
100
AcDbText
  0
LINE
  5
3B6
100
AcDbEntity
  8
寸法
  6
CONTINUOUS
 62
     3
100
AcDbLine
 10
1476.5
 20
1816.431082
 30
0.0
 11
1476.5
 21
1662.0
 31
0.0
  0
LINE
  5
3B7
100
AcDbEntity
  8
寸法
  6
CONTINUOUS
 62
     3
100
AcDbLine
 10
761.5
 20
1816.431082
 30
0.0
 11
761.5
 21
1662.0
 31
0.0
  0
ENDBLK
  5
3B8
100
AcDbEntity
  8
0
100
AcDbBlockEnd
  0
BLOCK
  5
3BB
100
AcDbEntity
  8
0
100
AcDbBlockBegin
  2
*D22
 70
    65
 10
0.0
 20
0.0
 30
0.0
  3
*D22
  1

  0
LINE
  5
3BC
100
AcDbEntity
  8
寸法
  6
CONTINUOUS
 62
     3
100
AcDbLine
 10
1516.7
 20
1393.1
 30
0.0
 11
1621.5
 21
1393.1
 31
0.0
  0
TEXT
  5
3BD
100
AcDbEntity
  8
寸法
  6
CONTINUOUS
 62
     2
100
AcDbText
 10
1608.0
 20
1428.7
 30
0.0
 40
40.0
  1
60
 50
90.0
 41
0.84
  7
EXCADSTD
 72
     1
 11
1608.0
 21
1458.1
 31
0.0
100
AcDbText
  0
LINE
  5
3BE
100
AcDbEntity
  8
寸法
  6
CONTINUOUS
 62
     3
100
AcDbLine
 10
1611.5
 20
1303.1
 30
0.0
 11
1611.5
 21
1496.600004
 31
0.0
  0
LINE
  5
3BF
100
AcDbEntity
  8
寸法
  6
CONTINUOUS
 62
     3
100
AcDbLine
 10
1616.5
 20
1303.1
 30
0.0
 11
1611.5
 21
1333.1
 31
0.0
  0
LINE
  5
3C0
100
AcDbEntity
  8
寸法
  6
CONTINUOUS
 62
     3
100
AcDbLine
 10
1611.5
 20
1333.1
 30
0.0
 11
1606.5
 21
1303.1
 31
0.0
  0
LINE
  5
3C1
100
AcDbEntity
  8
寸法
  6
CONTINUOUS
 62
     3
100
AcDbLine
 10
1606.5
 20
1423.1
 30
0.0
 11
1611.5
 21
1393.1
 31
0.0
  0
LINE
  5
3C2
100
AcDbEntity
  8
寸法
  6
CONTINUOUS
 62
     3
100
AcDbLine
 10
1611.5
 20
1393.1
 30
0.0
 11
1616.5
 21
1423.1
 31
0.0
  0
ENDBLK
  5
3C3
100
AcDbEntity
  8
0
100
AcDbBlockEnd
  0
BLOCK
  5
3C7
100
AcDbEntity
  8
0
100
AcDbBlockBegin
  2
*D23
 70
    65
 10
0.0
 20
0.0
 30
0.0
  3
*D23
  1

  0
LINE
  5
3C8
100
AcDbEntity
  8
寸法
  6
CONTINUOUS
 62
     3
100
AcDbLine
 10
736.5
 20
1178.098679
 30
0.0
 11
667.5
 21
1178.098679
 31
0.0
  0
TEXT
  5
3C9
100
AcDbEntity
  8
寸法
  6
CONTINUOUS
 62
     2
100
AcDbText
 10
674.0
 20
1213.599339
 30
0.0
 40
40.0
  1
159
 50
90.0
 41
0.84
  7
EXCADSTD
 72
     1
 11
674.0
 21
1255.599339
 31
0.0
100
AcDbText
  0
LINE
  5
3CA
100
AcDbEntity
  8
寸法
  6
CONTINUOUS
 62
     3
100
AcDbLine
 10
677.5
 20
1333.1
 30
0.0
 11
677.5
 21
1178.098679
 31
0.0
  0
LINE
  5
3CB
100
AcDbEntity
  8
寸法
  6
CONTINUOUS
 62
     3
100
AcDbLine
 10
682.5
 20
1303.1
 30
0.0
 11
677.5
 21
1333.1
 31
0.0
  0
LINE
  5
3CC
100
AcDbEntity
  8
寸法
  6
CONTINUOUS
 62
     3
100
AcDbLine
 10
677.5
 20
1333.1
 30
0.0
 11
672.5
 21
1303.1
 31
0.0
  0
LINE
  5
3CD
100
AcDbEntity
  8
寸法
  6
CONTINUOUS
 62
     3
100
AcDbLine
 10
672.5
 20
1208.098679
 30
0.0
 11
677.5
 21
1178.098679
 31
0.0
  0
LINE
  5
3CE
100
AcDbEntity
  8
寸法
  6
CONTINUOUS
 62
     3
100
AcDbLine
 10
677.5
 20
1178.098679
 30
0.0
 11
682.5
 21
1208.098679
 31
0.0
  0
ENDBLK
  5
3CF
100
AcDbEntity
  8
0
100
AcDbBlockEnd
  0
BLOCK
  5
3D2
100
AcDbEntity
  8
0
100
AcDbBlockBegin
  2
*D24
 70
    65
 10
0.0
 20
0.0
 30
0.0
  3
*D24
  1

  0
LINE
  5
3D3
100
AcDbEntity
  8
寸法
  6
CONTINUOUS
 62
     3
100
AcDbLine
 10
820.7
 20
812.1
 30
0.0
 11
820.7
 21
757.5
 31
0.0
  0
LINE
  5
3D4
100
AcDbEntity
  8
寸法
  6
CONTINUOUS
 62
     3
100
AcDbLine
 10
863.3
 20
812.1
 30
0.0
 11
863.3
 21
757.5
 31
0.0
  0
TEXT
  5
3D5
100
AcDbEntity
  8
寸法
  6
CONTINUOUS
 62
     2
100
AcDbText
 10
904.5
 20
771.0
 30
0.0
 40
40.0
  1
%%c42.6
 41
0.84
  7
EXCADSTD
 72
     1
 11
963.3
 21
771.0
 31
0.0
100
AcDbText
  0
LINE
  5
3D6
100
AcDbEntity
  8
寸法
  6
CONTINUOUS
 62
     3
100
AcDbLine
 10
790.7
 20
767.5
 30
0.0
 11
1036.800004
 21
767.5
 31
0.0
  0
LINE
  5
3D7
100
AcDbEntity
  8
寸法
  6
CONTINUOUS
 62
     3
100
AcDbLine
 10
790.7
 20
762.5
 30
0.0
 11
820.7
 21
767.5
 31
0.0
  0
LINE
  5
3D8
100
AcDbEntity
  8
寸法
  6
CONTINUOUS
 62
     3
100
AcDbLine
 10
820.7
 20
767.5
 30
0.0
 11
790.7
 21
772.5
 31
0.0
  0
LINE
  5
3D9
100
AcDbEntity
  8
寸法
  6
CONTINUOUS
 62
     3
100
AcDbLine
 10
893.3
 20
772.5
 30
0.0
 11
863.3
 21
767.5
 31
0.0
  0
LINE
  5
3DA
100
AcDbEntity
  8
寸法
  6
CONTINUOUS
 62
     3
100
AcDbLine
 10
863.3
 20
767.5
 30
0.0
 11
893.3
 21
762.5
 31
0.0
  0
ENDBLK
  5
3DB
100
AcDbEntity
  8
0
100
AcDbBlockEnd
  0
ENDSEC
  0
SECTION
  2
ENTITIES
  0
TEXT
  5
87
100
AcDbEntity
  8
枠
  6
CONTINUOUS
 62
     2
100
AcDbText
 10
231.5
 20
277.5
 30
0.0
 40
45.0
  1
製図
 41
1.026667
  7
EXCADSTD
 72
     5
 11
332.326
 21
277.5
 31
0.0
100
AcDbText
  0
TEXT
  5
88
100
AcDbEntity
  8
枠
  6
CONTINUOUS
 62
     2
100
AcDbText
 10
386.5
 20
277.5
 30
0.0
 40
45.0
  1
写図
 41
1.026667
  7
EXCADSTD
 72
     5
 11
487.326
 21
277.5
 31
0.0
100
AcDbText
  0
TEXT
  5
89
100
AcDbEntity
  8
枠
  6
CONTINUOUS
 62
     2
100
AcDbText
 10
534.0
 20
277.5
 30
0.0
 40
45.0
  1
検図
 41
0.933333
  7
EXCADSTD
 72
     5
 11
625.66
 21
277.5
 31
0.0
100
AcDbText
  0
TEXT
  5
8A
100
AcDbEntity
  8
枠
  6
CONTINUOUS
 62
     2
100
AcDbText
 10
664.0
 20
277.5
 30
0.0
 40
45.0
  1
承認
 41
0.933333
  7
EXCADSTD
 72
     5
 11
755.66
 21
277.5
 31
0.0
100
AcDbText
  0
TEXT
  5
8B
100
AcDbEntity
  8
枠
  6
CONTINUOUS
 62
     2
100
AcDbText
 10
804.0
 20
315.0
 30
0.0
 40
45.0
  1
品名
  7
EXCADVERT
 72
     3
 11
804.0
 21
215.0
 31
0.0
100
AcDbText
  0
TEXT
  5
8C
100
AcDbEntity
  8
枠
  6
CONTINUOUS
 62
     2
100
AcDbText
 10
1444.0
 20
315.0
 30
0.0
 40
45.0
  1
品番
  7
EXCADVERT
 72
     3
 11
1444.0
 21
215.0
 31
0.0
100
AcDbText
  0
TEXT
  5
8D
100
AcDbEntity
  8
枠
  6
CONTINUOUS
 62
     2
100
AcDbText
 10
1864.0
 20
315.0
 30
0.0
 40
45.0
  1
尺度
  7
EXCADVERT
 72
     3
 11
1864.0
 21
215.0
 31
0.0
100
AcDbText
  0
TEXT
  5
8E
100
AcDbEntity
  8
枠
  6
CONTINUOUS
 62
     2
100
AcDbText
 10
1444.0
 20
200.0
 30
0.0
 40
45.0
  1
図番
  7
EXCADVERT
 72
     3
 11
1444.0
 21
110.0
 31
0.0
100
AcDbText
  0
TEXT
  5
8F
100
AcDbEntity
  8
枠
  6
CONTINUOUS
 62
     2
100
AcDbText
 10
1926.0
 20
306.5
 30
0.0
 40
35.0
  1
１
 41
0.785714
  7
EXCADVERT
 72
     3
 11
1926.0
 21
271.5
 31
0.0
100
AcDbText
  0
LINE
  5
90
100
AcDbEntity
  8
枠
  6
CONTINUOUS
 62
     7
100
AcDbLine
 10
209.0
 20
105.0
 30
0.0
 11
2029.0
 21
105.0
 31
0.0
  0
LINE
  5
91
100
AcDbEntity
  8
枠
  6
CONTINUOUS
 62
     7
100
AcDbLine
 10
2029.0
 20
105.0
 30
0.0
 11
2029.0
 21
2905.0
 31
0.0
  0
LINE
  5
92
100
AcDbEntity
  8
枠
  6
CONTINUOUS
 62
     7
100
AcDbLine
 10
209.0
 20
105.0
 30
0.0
 11
209.0
 21
2905.0
 31
0.0
  0
LINE
  5
93
100
AcDbEntity
  8
枠
  6
CONTINUOUS
 62
     7
100
AcDbLine
 10
209.0
 20
2905.0
 30
0.0
 11
2029.0
 21
2905.0
 31
0.0
  0
LINE
  5
94
100
AcDbEntity
  8
枠
  6
CONTINUOUS
 62
     7
100
AcDbLine
 10
209.0
 20
325.0
 30
0.0
 11
2029.0
 21
325.0
 31
0.0
  0
LINE
  5
95
100
AcDbEntity
  8
枠
  6
CONTINUOUS
 62
     6
100
AcDbLine
 10
1889.0
 20
325.0
 30
0.0
 11
1889.0
 21
205.0
 31
0.0
  0
LINE
  5
96
100
AcDbEntity
  8
枠
  6
CONTINUOUS
 62
     6
100
AcDbLine
 10
1839.0
 20
325.0
 30
0.0
 11
1839.0
 21
205.0
 31
0.0
  0
LINE
  5
97
100
AcDbEntity
  8
枠
  6
CONTINUOUS
 62
     6
100
AcDbLine
 10
1469.0
 20
325.0
 30
0.0
 11
1469.0
 21
105.0
 31
0.0
  0
LINE
  5
98
100
AcDbEntity
  8
枠
  6
CONTINUOUS
 62
     6
100
AcDbLine
 10
1419.0
 20
325.0
 30
0.0
 11
1419.0
 21
105.0
 31
0.0
  0
LINE
  5
99
100
AcDbEntity
  8
枠
  6
CONTINUOUS
 62
     6
100
AcDbLine
 10
829.0
 20
325.0
 30
0.0
 11
829.0
 21
205.0
 31
0.0
  0
LINE
  5
9A
100
AcDbEntity
  8
枠
  6
CONTINUOUS
 62
     6
100
AcDbLine
 10
779.0
 20
325.0
 30
0.0
 11
779.0
 21
105.0
 31
0.0
  0
LINE
  5
9B
100
AcDbEntity
  8
枠
  6
CONTINUOUS
 62
     6
100
AcDbLine
 10
649.0
 20
325.0
 30
0.0
 11
649.0
 21
105.0
 31
0.0
  0
LINE
  5
9C
100
AcDbEntity
  8
枠
  6
CONTINUOUS
 62
     6
100
AcDbLine
 10
519.0
 20
325.0
 30
0.0
 11
519.0
 21
105.0
 31
0.0
  0
LINE
  5
9D
100
AcDbEntity
  8
枠
  6
CONTINUOUS
 62
     6
100
AcDbLine
 10
364.0
 20
325.0
 30
0.0
 11
364.0
 21
105.0
 31
0.0
  0
LINE
  5
9E
100
AcDbEntity
  8
枠
  6
CONTINUOUS
 62
     6
100
AcDbLine
 10
209.0
 20
275.0
 30
0.0
 11
779.0
 21
275.0
 31
0.0
  0
LINE
  5
9F
100
AcDbEntity
  8
枠
  6
CONTINUOUS
 62
     6
100
AcDbLine
 10
1921.654114
 20
228.00293
 30
0.0
 11
1998.993897
 21
306.699829
 31
0.0
  0
LINE
  5
A0
100
AcDbEntity
  8
枠
  6
EXLTYPE2
 62
     6
100
AcDbLine
 10
209.0
 20
155.0
 30
0.0
 11
519.0
 21
155.0
 31
0.0
  0
CIRCLE
  5
A1
100
AcDbEntity
  8
枠
  6
CONTINUOUS
 62
     6
100
AcDbCircle
 10
259.0
 20
130.0
 30
0.0
 40
1.0
  0
CIRCLE
  5
A2
100
AcDbEntity
  8
枠
  6
CONTINUOUS
 62
     6
100
AcDbCircle
 10
309.0
 20
130.0
 30
0.0
 40
1.0
  0
CIRCLE
  5
A3
100
AcDbEntity
  8
枠
  6
CONTINUOUS
 62
     6
100
AcDbCircle
 10
414.0
 20
130.0
 30
0.0
 40
1.0
  0
CIRCLE
  5
A4
100
AcDbEntity
  8
枠
  6
CONTINUOUS
 62
     6
100
AcDbCircle
 10
464.0
 20
130.0
 30
0.0
 40
1.0
  0
LINE
  5
A5
100
AcDbEntity
  8
枠
  6
CONTINUOUS
 62
     6
100
AcDbLine
 10
2029.0
 20
205.0
 30
0.0
 11
779.0
 21
205.0
 31
0.0
  0
TEXT
  5
A6
100
AcDbEntity
  8
枠
  6
CONTINUOUS
 62
     2
100
AcDbText
 10
912.000003
 20
207.5
 30
0.0
 40
65.0
  1
洗濯機用防水パン
 41
0.684923
  7
EXCADSTD
 72
     5
 11
1335.999997
 21
207.5
 31
0.0
100
AcDbText
  0
TEXT
  5
A7
100
AcDbEntity
  8
枠
  6
CONTINUOUS
 62
     2
100
AcDbText
 10
837.0
 20
271.5
 30
0.0
 40
50.0
  1
８００×６４０
 41
0.684
  7
EXCADSTD
 72
     5
 11
1122.0
 21
271.5
 31
0.0
100
AcDbText
  0
TEXT
  5
A8
100
AcDbEntity
  8
枠
  6
CONTINUOUS
 62
     2
100
AcDbText
 10
1968.5
 20
225.5
 30
0.0
 40
35.0
  1
１０
 41
0.564
  7
EXCADSTD
 72
     5
 11
2011.5802
 21
225.5
 31
0.0
100
AcDbText
  0
TEXT
  5
A9
100
AcDbEntity
  8
枠
  6
CONTINUOUS
 62
     2
100
AcDbText
 10
1888.0
 20
2757.5
 30
0.0
 40
40.0
  1
個数
 41
0.861
  7
EXCADSTD
 72
     5
 11
1963.1612
 21
2757.5
 31
0.0
100
AcDbText
  0
TEXT
  5
AA
100
AcDbEntity
  8
枠
  6
CONTINUOUS
 62
     2
100
AcDbText
 10
1906.5
 20
2702.5
 30
0.0
 40
40.0
  1
１
 41
0.945
  7
EXCADSTD
 72
     5
 11
1942.5
 21
2702.5
 31
0.0
100
AcDbText
  0
TEXT
  5
AB
100
AcDbEntity
  8
枠
  6
CONTINUOUS
 62
     2
100
AcDbText
 10
1906.5
 20
2647.5
 30
0.0
 40
40.0
  1
１
 41
0.945
  7
EXCADSTD
 72
     5
 11
1942.5
 21
2647.5
 31
0.0
100
AcDbText
  0
TEXT
  5
AC
100
AcDbEntity
  8
枠
  6
CONTINUOUS
 62
     2
100
AcDbText
 10
1379.0
 20
2815.0
 30
0.0
 40
50.0
  1
器具明細
 41
0.924
  7
EXCADSTD
 72
     5
 11
1599.0
 21
2815.0
 31
0.0
100
AcDbText
  0
LINE
  5
AD
100
AcDbEntity
  8
枠
  6
CONTINUOUS
 62
     6
100
AcDbLine
 10
1379.0
 20
2805.0
 30
0.0
 11
1979.0
 21
2805.0
 31
0.0
  0
LINE
  5
AE
100
AcDbEntity
  8
枠
  6
CONTINUOUS
 62
     6
100
AcDbLine
 10
1379.0
 20
2750.0
 30
0.0
 11
1979.0
 21
2750.0
 31
0.0
  0
LINE
  5
AF
100
AcDbEntity
  8
枠
  6
CONTINUOUS
 62
     6
100
AcDbLine
 10
1379.0
 20
2695.0
 30
0.0
 11
1979.0
 21
2695.0
 31
0.0
  0
TEXT
  5
B0
100
AcDbEntity
  8
枠
  6
CONTINUOUS
 62
     2
100
AcDbText
 10
1534.0
 20
2757.5
 30
0.0
 40
40.0
  1
品名
 41
1.995
  7
EXCADSTD
 72
     5
 11
1708.154
 21
2757.5
 31
0.0
100
AcDbText
  0
TEXT
  5
B1
100
AcDbEntity
  8
枠
  6
CONTINUOUS
 62
     2
100
AcDbText
 10
1389.0
 20
2702.5
 30
0.0
 40
40.0
  1
防水パン（ＰＰ製）
 41
0.795667
  7
EXCADSTD
 72
     5
 11
1729.999999
 21
2702.5
 31
0.0
100
AcDbText
  0
TEXT
  5
B2
100
AcDbEntity
  8
枠
  6
CONTINUOUS
 62
     6
100
AcDbText
 10
235.5
 20
190.0
 30
0.0
 40
50.0
  1
間瀬
 41
0.8568
  7
EXCADSTD
 72
     5
 11
328.9932
 21
190.0
 31
0.0
100
AcDbText
  0
TEXT
  5
B3
100
AcDbEntity
  8
枠
  6
CONTINUOUS
 62
     6
100
AcDbText
 10
213.5
 20
116.5
 30
0.0
 40
25.0
  1
２１
 41
0.756
  7
EXCADSTD
 72
     5
 11
254.747
 21
116.5
 31
0.0
100
AcDbText
  0
TEXT
  5
B4
100
AcDbEntity
  8
枠
  6
CONTINUOUS
 62
     6
100
AcDbText
 10
272.2
 20
116.5
 30
0.0
 40
25.0
  1
９
 41
0.84
  7
EXCADSTD
 72
     5
 11
292.2
 21
116.5
 31
0.0
100
AcDbText
  0
TEXT
  5
B5
100
AcDbEntity
  8
枠
  6
CONTINUOUS
 62
     6
100
AcDbText
 10
316.5
 20
116.5
 30
0.0
 40
25.0
  1
１８
 41
0.756
  7
EXCADSTD
 72
     5
 11
357.747
 21
116.5
 31
0.0
100
AcDbText
  0
TEXT
  5
B6
100
AcDbEntity
  8
枠
  6
CONTINUOUS
 62
     6
100
AcDbText
 10
535.5
 20
190.0
 30
0.0
 40
50.0
  1
中村
 41
0.8568
  7
EXCADSTD
 72
     5
 11
628.9932
 21
190.0
 31
0.0
100
AcDbText
  0
TEXT
  5
B7
100
AcDbEntity
  8
枠
  6
CONTINUOUS
 62
     6
100
AcDbText
 10
665.5
 20
190.0
 30
0.0
 40
50.0
  1
古林
 41
0.8568
  7
EXCADSTD
 72
     5
 11
758.9932
 21
190.0
 31
0.0
100
AcDbText
  0
TEXT
  5
B9
100
AcDbEntity
  8
枠
  6
CONTINUOUS
 62
     2
100
AcDbText
 10
799.0
 20
125.0
 30
0.0
 40
45.0
  1
ジャニス工業株式会社
  7
EXCADTTF1
 72
     5
 11
1399.0
 21
125.0
 31
0.0
100
AcDbText
  0
TEXT
  5
BA
100
AcDbEntity
  8
枠
  6
CONTINUOUS
 62
     2
100
AcDbText
 10
1389.0
 20
2647.5
 30
0.0
 40
40.0
  1
縦形トラップ（樹脂製）
 41
0.792273
  7
EXCADSTD
 72
     5
 11
1803.999999
 21
2647.5
 31
0.0
100
AcDbText
  0
TEXT
  5
BB
100
AcDbEntity
  8
枠
  6
CONTINUOUS
 62
     2
100
AcDbText
 10
1906.5
 20
2592.5
 30
0.0
 40
40.0
  1
１
 41
0.945
  7
EXCADSTD
 72
     5
 11
1942.5
 21
2592.5
 31
0.0
100
AcDbText
  0
LINE
  5
BC
100
AcDbEntity
  8
枠
  6
CONTINUOUS
 62
     6
100
AcDbLine
 10
1379.0
 20
2585.0
 30
0.0
 11
1979.0
 21
2585.0
 31
0.0
  0
TEXT
  5
BD
100
AcDbEntity
  8
枠
  6
CONTINUOUS
 62
     2
100
AcDbText
 10
1389.0
 20
2592.5
 30
0.0
 40
40.0
  1
トラップ接続ホース
 41
0.795667
  7
EXCADSTD
 72
     5
 11
1729.999999
 21
2592.5
 31
0.0
100
AcDbText
  0
LINE
  5
BE
100
AcDbEntity
  8
枠
  6
CONTINUOUS
 62
     6
100
AcDbLine
 10
1879.0
 20
2585.0
 30
0.0
 11
1879.0
 21
2805.0
 31
0.0
  0
LINE
  5
BF
100
AcDbEntity
  8
枠
  6
CONTINUOUS
 62
     6
100
AcDbLine
 10
1979.0
 20
2585.0
 30
0.0
 11
1979.0
 21
2805.0
 31
0.0
  0
LINE
  5
C0
100
AcDbEntity
  8
枠
  6
CONTINUOUS
 62
     6
100
AcDbLine
 10
1379.0
 20
2585.0
 30
0.0
 11
1379.0
 21
2805.0
 31
0.0
  0
LINE
  5
C1
100
AcDbEntity
  8
枠
  6
CONTINUOUS
 62
     6
100
AcDbLine
 10
1379.0
 20
2640.0
 30
0.0
 11
1979.0
 21
2640.0
 31
0.0
  0
TEXT
  5
C2
100
AcDbEntity
  8
枠
  6
CONTINUOUS
 62
     7
100
AcDbText
 10
1481.000002
 20
121.5
 30
0.0
 40
70.0
  1
Ｐ０１０２０２０
 41
0.804
  7
EXCADSTD
 72
     5
 11
2016.999998
 21
121.5
 31
0.0
100
AcDbText
  0
TEXT
  5
C3
100
AcDbEntity
  8
枠
  6
CONTINUOUS
 62
     2
100
AcDbText
 10
1485.0
 20
281.5
 30
0.0
 40
33.0
  1
ＳＰ８６４１Ｇ
 41
0.970909
  7
EXCADSTD
 72
     5
 11
1751.999999
 21
281.5
 31
0.0
100
AcDbText
  0
TEXT
  5
C4
100
AcDbEntity
  8
枠
  6
CONTINUOUS
 62
     2
100
AcDbText
 10
1485.0
 20
248.5
 30
0.0
 40
33.0
  1
ＳＰ２－Ｍ
 41
0.982545
  7
EXCADSTD
 72
     5
 11
1678.0
 21
248.5
 31
0.0
100
AcDbText
  0
TEXT
  5
C5
100
AcDbEntity
  8
枠
  6
CONTINUOUS
 62
     2
100
AcDbText
 10
1485.0
 20
215.5
 30
0.0
 40
33.0
  1
ＭＥＳＰＢＰＨ－６
 41
0.964444
  7
EXCADSTD
 72
     5
 11
1825.999999
 21
215.5
 31
0.0
100
AcDbText
  0
ARC
  5
C6
100
AcDbEntity
  8
本体
  6
CONTINUOUS
 62
     2
100
AcDbCircle
 10
729.0
 20
1775.0
 30
0.0
 40
10.0
100
AcDbArc
 50
180.0
 51
270.0
  0
LINE
  5
C7
100
AcDbEntity
  8
本体
  6
CONTINUOUS
 62
     2
100
AcDbLine
 10
719.0
 20
1775.0
 30
0.0
 11
719.0
 21
2395.0
 31
0.0
  0
ARC
  5
C8
100
AcDbEntity
  8
本体
  6
CONTINUOUS
 62
     2
100
AcDbCircle
 10
729.0
 20
2395.0
 30
0.0
 40
10.0
100
AcDbArc
 50
90.0
 51
180.0
  0
LINE
  5
C9
100
AcDbEntity
  8
本体
  6
CONTINUOUS
 62
     6
100
AcDbLine
 10
739.0
 20
2399.1
 30
0.0
 11
739.0
 21
2370.9
 31
0.0
  0
LINE
  5
CA
100
AcDbEntity
  8
本体
  6
CONTINUOUS
 62
     6
100
AcDbLine
 10
753.1
 20
2385.0
 30
0.0
 11
724.9
 21
2385.0
 31
0.0
  0
LINE
  5
CB
100
AcDbEntity
  8
本体
  6
CONTINUOUS
 62
     6
100
AcDbLine
 10
739.0
 20
1770.9
 30
0.0
 11
739.0
 21
1799.1
 31
0.0
  0
LINE
  5
CC
100
AcDbEntity
  8
本体
  6
CONTINUOUS
 62
     6
100
AcDbLine
 10
753.1
 20
1785.0
 30
0.0
 11
724.9
 21
1785.0
 31
0.0
  0
LINE
  5
CD
100
AcDbEntity
  8
本体
  6
CONTINUOUS
 62
     6
100
AcDbLine
 10
1484.9
 20
1785.0
 30
0.0
 11
1513.1
 21
1785.0
 31
0.0
  0
LINE
  5
CE
100
AcDbEntity
  8
本体
  6
CONTINUOUS
 62
     6
100
AcDbLine
 10
1499.0
 20
1770.9
 30
0.0
 11
1499.0
 21
1799.1
 31
0.0
  0
LINE
  5
CF
100
AcDbEntity
  8
本体
  6
CONTINUOUS
 62
     6
100
AcDbLine
 10
1484.9
 20
2385.0
 30
0.0
 11
1513.1
 21
2385.0
 31
0.0
  0
LINE
  5
D0
100
AcDbEntity
  8
本体
  6
CONTINUOUS
 62
     6
100
AcDbLine
 10
1499.0
 20
2399.1
 30
0.0
 11
1499.0
 21
2370.9
 31
0.0
  0
LINE
  5
D1
100
AcDbEntity
  8
本体
  6
CONTINUOUS
 62
     2
100
AcDbLine
 10
729.0
 20
1765.0
 30
0.0
 11
1509.0
 21
1765.0
 31
0.0
  0
ARC
  5
D2
100
AcDbEntity
  8
本体
  6
CONTINUOUS
 62
     2
100
AcDbCircle
 10
1509.0
 20
1775.0
 30
0.0
 40
10.0
100
AcDbArc
 50
270.0
 51
0.0
  0
LINE
  5
D3
100
AcDbEntity
  8
本体
  6
CONTINUOUS
 62
     2
100
AcDbLine
 10
729.0
 20
2405.0
 30
0.0
 11
1509.0
 21
2405.0
 31
0.0
  0
LINE
  5
D4
100
AcDbEntity
  8
本体
  6
CONTINUOUS
 62
     2
100
AcDbLine
 10
1519.0
 20
1775.0
 30
0.0
 11
1519.0
 21
2395.0
 31
0.0
  0
ARC
  5
D5
100
AcDbEntity
  8
本体
  6
CONTINUOUS
 62
     2
100
AcDbCircle
 10
1509.0
 20
2395.0
 30
0.0
 40
10.0
100
AcDbArc
 50
0.0
 51
90.0
  0
LINE
  5
D6
100
AcDbEntity
  8
本体
  6
CONTINUOUS
 62
     2
100
AcDbLine
 10
1494.0
 20
1825.0
 30
0.0
 11
1494.0
 21
2345.0
 31
0.0
  0
LINE
  5
D7
100
AcDbEntity
  8
本体
  6
CONTINUOUS
 62
     2
100
AcDbLine
 10
779.0
 20
2380.0
 30
0.0
 11
1459.0
 21
2380.0
 31
0.0
  0
LINE
  5
D8
100
AcDbEntity
  8
本体
  6
CONTINUOUS
 62
     2
100
AcDbLine
 10
744.0
 20
1825.0
 30
0.0
 11
744.0
 21
2345.0
 31
0.0
  0
LINE
  5
D9
100
AcDbEntity
  8
本体
  6
CONTINUOUS
 62
     2
100
AcDbLine
 10
779.0
 20
1790.0
 30
0.0
 11
1459.0
 21
1790.0
 31
0.0
  0
ARC
  5
DA
100
AcDbEntity
  8
本体
  6
CONTINUOUS
 62
     2
100
AcDbCircle
 10
779.0
 20
1825.0
 30
0.0
 40
35.0
100
AcDbArc
 50
180.0
 51
270.0
  0
ARC
  5
DB
100
AcDbEntity
  8
本体
  6
CONTINUOUS
 62
     2
100
AcDbCircle
 10
779.0
 20
2345.0
 30
0.0
 40
35.0
100
AcDbArc
 50
90.0
 51
180.0
  0
ARC
  5
DC
100
AcDbEntity
  8
本体
  6
CONTINUOUS
 62
     2
100
AcDbCircle
 10
1459.0
 20
2345.0
 30
0.0
 40
35.0
100
AcDbArc
 50
0.0
 51
90.0
  0
ARC
  5
DD
100
AcDbEntity
  8
本体
  6
CONTINUOUS
 62
     2
100
AcDbCircle
 10
1459.0
 20
1825.0
 30
0.0
 40
35.0
100
AcDbArc
 50
270.0
 51
0.0
  0
LINE
  5
DE
100
AcDbEntity
  8
本体
  6
CONTINUOUS
 62
     6
100
AcDbLine
 10
930.0
 20
2087.3
 30
0.0
 11
930.0
 21
2107.7
 31
0.0
  0
LINE
  5
DF
100
AcDbEntity
  8
本体
  6
CONTINUOUS
 62
     6
100
AcDbLine
 10
1477.695805
 20
2087.3
 30
0.0
 11
930.0
 21
2087.3
 31
0.0
  0
LINE
  5
E0
100
AcDbEntity
  8
本体
  6
CONTINUOUS
 62
     6
100
AcDbLine
 10
930.0
 20
2107.7
 30
0.0
 11
1477.695805
 21
2107.7
 31
0.0
  0
LINE
  5
E1
100
AcDbEntity
  8
本体
  6
CONTINUOUS
 62
     6
100
AcDbLine
 10
1477.695805
 20
2107.7
 30
0.0
 11
1477.695805
 21
2087.3
 31
0.0
  0
LINE
  5
E2
100
AcDbEntity
  8
本体
  6
CONTINUOUS
 62
     6
100
AcDbLine
 10
930.0
 20
2112.3
 30
0.0
 11
930.0
 21
2132.7
 31
0.0
  0
LINE
  5
E3
100
AcDbEntity
  8
本体
  6
CONTINUOUS
 62
     6
100
AcDbLine
 10
1477.695805
 20
2112.3
 30
0.0
 11
930.0
 21
2112.3
 31
0.0
  0
LINE
  5
E4
100
AcDbEntity
  8
本体
  6
CONTINUOUS
 62
     6
100
AcDbLine
 10
930.0
 20
2132.7
 30
0.0
 11
1477.695805
 21
2132.7
 31
0.0
  0
LINE
  5
E5
100
AcDbEntity
  8
本体
  6
CONTINUOUS
 62
     6
100
AcDbLine
 10
1477.695805
 20
2132.7
 30
0.0
 11
1477.695805
 21
2112.3
 31
0.0
  0
LINE
  5
E6
100
AcDbEntity
  8
本体
  6
CONTINUOUS
 62
     6
100
AcDbLine
 10
930.0
 20
2137.3
 30
0.0
 11
930.0
 21
2157.7
 31
0.0
  0
LINE
  5
E7
100
AcDbEntity
  8
本体
  6
CONTINUOUS
 62
     6
100
AcDbLine
 10
1477.695805
 20
2137.3
 30
0.0
 11
930.0
 21
2137.3
 31
0.0
  0
LINE
  5
E8
100
AcDbEntity
  8
本体
  6
CONTINUOUS
 62
     6
100
AcDbLine
 10
930.0
 20
2157.7
 30
0.0
 11
1477.695805
 21
2157.7
 31
0.0
  0
LINE
  5
E9
100
AcDbEntity
  8
本体
  6
CONTINUOUS
 62
     6
100
AcDbLine
 10
1477.695805
 20
2157.7
 30
0.0
 11
1477.695805
 21
2137.3
 31
0.0
  0
LINE
  5
EA
100
AcDbEntity
  8
本体
  6
CONTINUOUS
 62
     6
100
AcDbLine
 10
930.0
 20
2162.3
 30
0.0
 11
930.0
 21
2182.7
 31
0.0
  0
LINE
  5
EB
100
AcDbEntity
  8
本体
  6
CONTINUOUS
 62
     6
100
AcDbLine
 10
1477.695805
 20
2162.3
 30
0.0
 11
930.0
 21
2162.3
 31
0.0
  0
LINE
  5
EC
100
AcDbEntity
  8
本体
  6
CONTINUOUS
 62
     6
100
AcDbLine
 10
930.0
 20
2182.7
 30
0.0
 11
1477.695805
 21
2182.7
 31
0.0
  0
LINE
  5
ED
100
AcDbEntity
  8
本体
  6
CONTINUOUS
 62
     6
100
AcDbLine
 10
1477.695805
 20
2182.7
 30
0.0
 11
1477.695805
 21
2162.3
 31
0.0
  0
LINE
  5
EE
100
AcDbEntity
  8
本体
  6
CONTINUOUS
 62
     6
100
AcDbLine
 10
930.0
 20
2187.3
 30
0.0
 11
930.0
 21
2207.7
 31
0.0
  0
LINE
  5
EF
100
AcDbEntity
  8
本体
  6
CONTINUOUS
 62
     6
100
AcDbLine
 10
1477.695805
 20
2187.3
 30
0.0
 11
930.0
 21
2187.3
 31
0.0
  0
LINE
  5
F0
100
AcDbEntity
  8
本体
  6
CONTINUOUS
 62
     6
100
AcDbLine
 10
930.0
 20
2207.7
 30
0.0
 11
1477.695805
 21
2207.7
 31
0.0
  0
LINE
  5
F1
100
AcDbEntity
  8
本体
  6
CONTINUOUS
 62
     6
100
AcDbLine
 10
1477.695805
 20
2207.7
 30
0.0
 11
1477.695805
 21
2187.3
 31
0.0
  0
LINE
  5
F2
100
AcDbEntity
  8
本体
  6
CONTINUOUS
 62
     6
100
AcDbLine
 10
930.0
 20
2212.3
 30
0.0
 11
930.0
 21
2232.7
 31
0.0
  0
LINE
  5
F3
100
AcDbEntity
  8
本体
  6
CONTINUOUS
 62
     6
100
AcDbLine
 10
1477.695805
 20
2212.3
 30
0.0
 11
930.0
 21
2212.3
 31
0.0
  0
LINE
  5
F4
100
AcDbEntity
  8
本体
  6
CONTINUOUS
 62
     6
100
AcDbLine
 10
930.0
 20
2232.7
 30
0.0
 11
1477.695805
 21
2232.7
 31
0.0
  0
LINE
  5
F5
100
AcDbEntity
  8
本体
  6
CONTINUOUS
 62
     6
100
AcDbLine
 10
1477.695805
 20
2232.7
 30
0.0
 11
1477.695805
 21
2212.3
 31
0.0
  0
LINE
  5
F6
100
AcDbEntity
  8
本体
  6
CONTINUOUS
 62
     6
100
AcDbLine
 10
930.0
 20
2237.3
 30
0.0
 11
930.0
 21
2257.7
 31
0.0
  0
LINE
  5
F7
100
AcDbEntity
  8
本体
  6
CONTINUOUS
 62
     6
100
AcDbLine
 10
1477.695805
 20
2237.3
 30
0.0
 11
930.0
 21
2237.3
 31
0.0
  0
LINE
  5
F8
100
AcDbEntity
  8
本体
  6
CONTINUOUS
 62
     6
100
AcDbLine
 10
930.0
 20
2257.7
 30
0.0
 11
1477.695805
 21
2257.7
 31
0.0
  0
LINE
  5
F9
100
AcDbEntity
  8
本体
  6
CONTINUOUS
 62
     6
100
AcDbLine
 10
1477.695805
 20
2257.7
 30
0.0
 11
1477.695805
 21
2237.3
 31
0.0
  0
LINE
  5
FA
100
AcDbEntity
  8
本体
  6
CONTINUOUS
 62
     6
100
AcDbLine
 10
930.0
 20
2262.3
 30
0.0
 11
930.0
 21
2282.7
 31
0.0
  0
LINE
  5
FB
100
AcDbEntity
  8
本体
  6
CONTINUOUS
 62
     6
100
AcDbLine
 10
1477.695805
 20
2262.3
 30
0.0
 11
930.0
 21
2262.3
 31
0.0
  0
LINE
  5
FC
100
AcDbEntity
  8
本体
  6
CONTINUOUS
 62
     6
100
AcDbLine
 10
930.0
 20
2282.7
 30
0.0
 11
1477.695805
 21
2282.7
 31
0.0
  0
LINE
  5
FD
100
AcDbEntity
  8
本体
  6
CONTINUOUS
 62
     6
100
AcDbLine
 10
1477.695805
 20
2282.7
 30
0.0
 11
1477.695805
 21
2262.3
 31
0.0
  0
LINE
  5
FE
100
AcDbEntity
  8
本体
  6
CONTINUOUS
 62
     6
100
AcDbLine
 10
930.0
 20
2287.3
 30
0.0
 11
930.0
 21
2307.7
 31
0.0
  0
LINE
  5
FF
100
AcDbEntity
  8
本体
  6
CONTINUOUS
 62
     6
100
AcDbLine
 10
1477.695805
 20
2287.3
 30
0.0
 11
930.0
 21
2287.3
 31
0.0
  0
LINE
  5
100
100
AcDbEntity
  8
本体
  6
CONTINUOUS
 62
     6
100
AcDbLine
 10
930.0
 20
2307.7
 30
0.0
 11
1477.695805
 21
2307.7
 31
0.0
  0
LINE
  5
101
100
AcDbEntity
  8
本体
  6
CONTINUOUS
 62
     6
100
AcDbLine
 10
1477.695805
 20
2307.7
 30
0.0
 11
1477.695805
 21
2287.3
 31
0.0
  0
LINE
  5
102
100
AcDbEntity
  8
本体
  6
CONTINUOUS
 62
     6
100
AcDbLine
 10
930.0
 20
2312.3
 30
0.0
 11
930.0
 21
2332.7
 31
0.0
  0
LINE
  5
103
100
AcDbEntity
  8
本体
  6
CONTINUOUS
 62
     6
100
AcDbLine
 10
1477.695805
 20
2312.3
 30
0.0
 11
930.0
 21
2312.3
 31
0.0
  0
LINE
  5
104
100
AcDbEntity
  8
本体
  6
CONTINUOUS
 62
     6
100
AcDbLine
 10
1477.695805
 20
2332.7
 30
0.0
 11
1477.695805
 21
2312.3
 31
0.0
  0
LINE
  5
105
100
AcDbEntity
  8
本体
  6
CONTINUOUS
 62
     6
100
AcDbLine
 10
930.0
 20
2332.7
 30
0.0
 11
1477.695805
 21
2332.7
 31
0.0
  0
LINE
  5
106
100
AcDbEntity
  8
本体
  6
CONTINUOUS
 62
     6
100
AcDbLine
 10
930.0
 20
2337.3
 30
0.0
 11
930.0
 21
2362.7
 31
0.0
  0
LINE
  5
107
100
AcDbEntity
  8
本体
  6
CONTINUOUS
 62
     6
100
AcDbLine
 10
930.0
 20
2337.3
 30
0.0
 11
1477.695805
 21
2337.3
 31
0.0
  0
ARC
  5
108
100
AcDbEntity
  8
本体
  6
CONTINUOUS
 62
     6
100
AcDbCircle
 10
1462.695805
 20
2347.7
 30
0.0
 40
15.0
100
AcDbArc
 50
0.0
 51
90.0
  0
LINE
  5
109
100
AcDbEntity
  8
本体
  6
CONTINUOUS
 62
     6
100
AcDbLine
 10
1477.695805
 20
2337.3
 30
0.0
 11
1477.695805
 21
2347.7
 31
0.0
  0
LINE
  5
10A
100
AcDbEntity
  8
本体
  6
CONTINUOUS
 62
     6
100
AcDbLine
 10
930.0
 20
2362.7
 30
0.0
 11
1462.695805
 21
2362.7
 31
0.0
  0
LINE
  5
10B
100
AcDbEntity
  8
本体
  6
CONTINUOUS
 62
     6
100
AcDbLine
 10
930.0
 20
2082.7
 30
0.0
 11
930.0
 21
2062.3
 31
0.0
  0
LINE
  5
10C
100
AcDbEntity
  8
本体
  6
CONTINUOUS
 62
     6
100
AcDbLine
 10
1477.695805
 20
2082.7
 30
0.0
 11
930.0
 21
2082.7
 31
0.0
  0
LINE
  5
10D
100
AcDbEntity
  8
本体
  6
CONTINUOUS
 62
     6
100
AcDbLine
 10
930.0
 20
2062.3
 30
0.0
 11
1477.695805
 21
2062.3
 31
0.0
  0
LINE
  5
10E
100
AcDbEntity
  8
本体
  6
CONTINUOUS
 62
     6
100
AcDbLine
 10
1477.695805
 20
2062.3
 30
0.0
 11
1477.695805
 21
2082.7
 31
0.0
  0
LINE
  5
10F
100
AcDbEntity
  8
本体
  6
CONTINUOUS
 62
     6
100
AcDbLine
 10
930.0
 20
2057.7
 30
0.0
 11
930.0
 21
2037.3
 31
0.0
  0
LINE
  5
110
100
AcDbEntity
  8
本体
  6
CONTINUOUS
 62
     6
100
AcDbLine
 10
1477.695805
 20
2057.7
 30
0.0
 11
930.0
 21
2057.7
 31
0.0
  0
LINE
  5
111
100
AcDbEntity
  8
本体
  6
CONTINUOUS
 62
     6
100
AcDbLine
 10
930.0
 20
2037.3
 30
0.0
 11
1477.695805
 21
2037.3
 31
0.0
  0
LINE
  5
112
100
AcDbEntity
  8
本体
  6
CONTINUOUS
 62
     6
100
AcDbLine
 10
1477.695805
 20
2037.3
 30
0.0
 11
1477.695805
 21
2057.7
 31
0.0
  0
LINE
  5
113
100
AcDbEntity
  8
本体
  6
CONTINUOUS
 62
     6
100
AcDbLine
 10
930.0
 20
2032.7
 30
0.0
 11
930.0
 21
2012.3
 31
0.0
  0
LINE
  5
114
100
AcDbEntity
  8
本体
  6
CONTINUOUS
 62
     6
100
AcDbLine
 10
1477.695805
 20
2032.7
 30
0.0
 11
930.0
 21
2032.7
 31
0.0
  0
LINE
  5
115
100
AcDbEntity
  8
本体
  6
CONTINUOUS
 62
     6
100
AcDbLine
 10
930.0
 20
2012.3
 30
0.0
 11
1477.695805
 21
2012.3
 31
0.0
  0
LINE
  5
116
100
AcDbEntity
  8
本体
  6
CONTINUOUS
 62
     6
100
AcDbLine
 10
1477.695805
 20
2012.3
 30
0.0
 11
1477.695805
 21
2032.7
 31
0.0
  0
LINE
  5
117
100
AcDbEntity
  8
本体
  6
CONTINUOUS
 62
     6
100
AcDbLine
 10
930.0
 20
2007.7
 30
0.0
 11
930.0
 21
1987.3
 31
0.0
  0
LINE
  5
118
100
AcDbEntity
  8
本体
  6
CONTINUOUS
 62
     6
100
AcDbLine
 10
1477.695805
 20
2007.7
 30
0.0
 11
930.0
 21
2007.7
 31
0.0
  0
LINE
  5
119
100
AcDbEntity
  8
本体
  6
CONTINUOUS
 62
     6
100
AcDbLine
 10
930.0
 20
1987.3
 30
0.0
 11
1477.695805
 21
1987.3
 31
0.0
  0
LINE
  5
11A
100
AcDbEntity
  8
本体
  6
CONTINUOUS
 62
     6
100
AcDbLine
 10
1477.695805
 20
1987.3
 30
0.0
 11
1477.695805
 21
2007.7
 31
0.0
  0
LINE
  5
11B
100
AcDbEntity
  8
本体
  6
CONTINUOUS
 62
     6
100
AcDbLine
 10
930.0
 20
1982.7
 30
0.0
 11
930.0
 21
1962.3
 31
0.0
  0
LINE
  5
11C
100
AcDbEntity
  8
本体
  6
CONTINUOUS
 62
     6
100
AcDbLine
 10
1477.695805
 20
1982.7
 30
0.0
 11
930.0
 21
1982.7
 31
0.0
  0
LINE
  5
11D
100
AcDbEntity
  8
本体
  6
CONTINUOUS
 62
     6
100
AcDbLine
 10
930.0
 20
1962.3
 30
0.0
 11
1477.695805
 21
1962.3
 31
0.0
  0
LINE
  5
11E
100
AcDbEntity
  8
本体
  6
CONTINUOUS
 62
     6
100
AcDbLine
 10
1477.695805
 20
1962.3
 30
0.0
 11
1477.695805
 21
1982.7
 31
0.0
  0
LINE
  5
11F
100
AcDbEntity
  8
本体
  6
CONTINUOUS
 62
     6
100
AcDbLine
 10
930.0
 20
1957.7
 30
0.0
 11
930.0
 21
1937.3
 31
0.0
  0
LINE
  5
120
100
AcDbEntity
  8
本体
  6
CONTINUOUS
 62
     6
100
AcDbLine
 10
1477.695805
 20
1957.7
 30
0.0
 11
930.0
 21
1957.7
 31
0.0
  0
LINE
  5
121
100
AcDbEntity
  8
本体
  6
CONTINUOUS
 62
     6
100
AcDbLine
 10
930.0
 20
1937.3
 30
0.0
 11
1477.695805
 21
1937.3
 31
0.0
  0
LINE
  5
122
100
AcDbEntity
  8
本体
  6
CONTINUOUS
 62
     6
100
AcDbLine
 10
1477.695805
 20
1937.3
 30
0.0
 11
1477.695805
 21
1957.7
 31
0.0
  0
LINE
  5
123
100
AcDbEntity
  8
本体
  6
CONTINUOUS
 62
     6
100
AcDbLine
 10
930.0
 20
1932.7
 30
0.0
 11
930.0
 21
1912.3
 31
0.0
  0
LINE
  5
124
100
AcDbEntity
  8
本体
  6
CONTINUOUS
 62
     6
100
AcDbLine
 10
1477.695805
 20
1932.7
 30
0.0
 11
930.0
 21
1932.7
 31
0.0
  0
LINE
  5
125
100
AcDbEntity
  8
本体
  6
CONTINUOUS
 62
     6
100
AcDbLine
 10
930.0
 20
1912.3
 30
0.0
 11
1477.695805
 21
1912.3
 31
0.0
  0
LINE
  5
126
100
AcDbEntity
  8
本体
  6
CONTINUOUS
 62
     6
100
AcDbLine
 10
1477.695805
 20
1912.3
 30
0.0
 11
1477.695805
 21
1932.7
 31
0.0
  0
LINE
  5
127
100
AcDbEntity
  8
本体
  6
CONTINUOUS
 62
     6
100
AcDbLine
 10
930.0
 20
1907.7
 30
0.0
 11
930.0
 21
1887.3
 31
0.0
  0
LINE
  5
128
100
AcDbEntity
  8
本体
  6
CONTINUOUS
 62
     6
100
AcDbLine
 10
1477.695805
 20
1907.7
 30
0.0
 11
930.0
 21
1907.7
 31
0.0
  0
LINE
  5
129
100
AcDbEntity
  8
本体
  6
CONTINUOUS
 62
     6
100
AcDbLine
 10
930.0
 20
1887.3
 30
0.0
 11
1477.695805
 21
1887.3
 31
0.0
  0
LINE
  5
12A
100
AcDbEntity
  8
本体
  6
CONTINUOUS
 62
     6
100
AcDbLine
 10
1477.695805
 20
1887.3
 30
0.0
 11
1477.695805
 21
1907.7
 31
0.0
  0
LINE
  5
12B
100
AcDbEntity
  8
本体
  6
CONTINUOUS
 62
     6
100
AcDbLine
 10
930.0
 20
1882.7
 30
0.0
 11
930.0
 21
1862.3
 31
0.0
  0
LINE
  5
12C
100
AcDbEntity
  8
本体
  6
CONTINUOUS
 62
     6
100
AcDbLine
 10
1477.695805
 20
1882.7
 30
0.0
 11
930.0
 21
1882.7
 31
0.0
  0
LINE
  5
12D
100
AcDbEntity
  8
本体
  6
CONTINUOUS
 62
     6
100
AcDbLine
 10
930.0
 20
1862.3
 30
0.0
 11
1477.695805
 21
1862.3
 31
0.0
  0
LINE
  5
12E
100
AcDbEntity
  8
本体
  6
CONTINUOUS
 62
     6
100
AcDbLine
 10
1477.695805
 20
1862.3
 30
0.0
 11
1477.695805
 21
1882.7
 31
0.0
  0
LINE
  5
12F
100
AcDbEntity
  8
本体
  6
CONTINUOUS
 62
     6
100
AcDbLine
 10
930.0
 20
1857.7
 30
0.0
 11
930.0
 21
1837.3
 31
0.0
  0
LINE
  5
130
100
AcDbEntity
  8
本体
  6
CONTINUOUS
 62
     6
100
AcDbLine
 10
1477.695805
 20
1857.7
 30
0.0
 11
930.0
 21
1857.7
 31
0.0
  0
LINE
  5
131
100
AcDbEntity
  8
本体
  6
CONTINUOUS
 62
     6
100
AcDbLine
 10
1477.695805
 20
1837.3
 30
0.0
 11
1477.695805
 21
1857.7
 31
0.0
  0
LINE
  5
132
100
AcDbEntity
  8
本体
  6
CONTINUOUS
 62
     6
100
AcDbLine
 10
930.0
 20
1837.3
 30
0.0
 11
1477.695805
 21
1837.3
 31
0.0
  0
LINE
  5
133
100
AcDbEntity
  8
本体
  6
CONTINUOUS
 62
     6
100
AcDbLine
 10
930.0
 20
1832.7
 30
0.0
 11
930.0
 21
1807.3
 31
0.0
  0
LINE
  5
134
100
AcDbEntity
  8
本体
  6
CONTINUOUS
 62
     6
100
AcDbLine
 10
930.0
 20
1832.7
 30
0.0
 11
1477.695805
 21
1832.7
 31
0.0
  0
ARC
  5
135
100
AcDbEntity
  8
本体
  6
CONTINUOUS
 62
     6
100
AcDbCircle
 10
1462.695805
 20
1822.3
 30
0.0
 40
15.0
100
AcDbArc
 50
270.0
 51
0.0
  0
LINE
  5
136
100
AcDbEntity
  8
本体
  6
CONTINUOUS
 62
     6
100
AcDbLine
 10
1477.695805
 20
1832.7
 30
0.0
 11
1477.695805
 21
1822.3
 31
0.0
  0
LINE
  5
137
100
AcDbEntity
  8
本体
  6
CONTINUOUS
 62
     6
100
AcDbLine
 10
930.0
 20
1807.3
 30
0.0
 11
1462.695805
 21
1807.3
 31
0.0
  0
CIRCLE
  5
138
100
AcDbEntity
  8
本体
  6
CONTINUOUS
 62
     2
100
AcDbCircle
 10
1499.0
 20
1785.0
 30
0.0
 40
12.1
  0
CIRCLE
  5
139
100
AcDbEntity
  8
本体
  6
CONTINUOUS
 62
     2
100
AcDbCircle
 10
1499.0
 20
2385.0
 30
0.0
 40
12.1
  0
CIRCLE
  5
13A
100
AcDbEntity
  8
本体
  6
CONTINUOUS
 62
     2
100
AcDbCircle
 10
739.0
 20
2385.0
 30
0.0
 40
12.1
  0
CIRCLE
  5
13B
100
AcDbEntity
  8
本体
  6
CONTINUOUS
 62
     2
100
AcDbCircle
 10
739.0
 20
1785.0
 30
0.0
 40
12.1
  0
ARC
  5
13C
100
AcDbEntity
  8
本体
  6
CONTINUOUS
 62
     6
100
AcDbCircle
 10
1600.4
 20
756.445172
 30
0.0
 40
42.556707
100
AcDbArc
 50
41.241478
 51
138.758522
  0
ARC
  5
13D
100
AcDbEntity
  8
本体
  6
CONTINUOUS
 62
     6
100
AcDbCircle
 10
1600.0
 20
423.113054
 30
0.0
 40
500.0
100
AcDbArc
 50
83.62063
 51
96.37937
  0
ARC
  5
13E
100
AcDbEntity
  8
本体
  6
CONTINUOUS
 62
     6
100
AcDbCircle
 10
1655.0
 20
915.048009
 30
0.0
 40
5.0
100
AcDbArc
 50
0.0
 51
83.62063
  0
LINE
  5
13F
100
AcDbEntity
  8
本体
  6
CONTINUOUS
 62
     6
100
AcDbLine
 10
1660.0
 20
915.048009
 30
0.0
 11
1660.0
 21
912.0
 31
0.0
  0
LINE
  5
140
100
AcDbEntity
  8
本体
  6
CONTINUOUS
 62
     6
100
AcDbLine
 10
1644.663382
 20
912.0
 30
0.0
 11
1660.0
 21
912.0
 31
0.0
  0
LINE
  5
141
100
AcDbEntity
  8
本体
  6
CONTINUOUS
 62
     6
100
AcDbLine
 10
1655.0
 20
914.5
 30
0.0
 11
1655.0
 21
912.0
 31
0.0
  0
LINE
  5
142
100
AcDbEntity
  8
本体
  6
CONTINUOUS
 62
     6
100
AcDbLine
 10
1644.73914
 20
914.5
 30
0.0
 11
1655.0
 21
914.5
 31
0.0
  0
LINE
  5
143
100
AcDbEntity
  8
本体
  6
CONTINUOUS
 62
     6
100
AcDbLine
 10
1644.73914
 20
914.5
 30
0.0
 11
1643.487624
 21
873.2
 31
0.0
  0
LINE
  5
144
100
AcDbEntity
  8
本体
  6
CONTINUOUS
 62
     6
100
AcDbLine
 10
1634.966412
 20
907.0
 30
0.0
 11
1565.033588
 21
907.0
 31
0.0
  0
LINE
  5
145
100
AcDbEntity
  8
本体
  6
CONTINUOUS
 62
     6
100
AcDbLine
 10
1565.26086
 20
914.5
 30
0.0
 11
1634.73914
 21
914.5
 31
0.0
  0
LINE
  5
146
100
AcDbEntity
  8
本体
  6
CONTINUOUS
 62
     6
100
AcDbLine
 10
1545.0
 20
914.5
 30
0.0
 11
1555.26086
 21
914.5
 31
0.0
  0
LINE
  5
147
100
AcDbEntity
  8
本体
  6
CONTINUOUS
 62
     6
100
AcDbLine
 10
1545.0
 20
914.5
 30
0.0
 11
1545.0
 21
912.0
 31
0.0
  0
LINE
  5
148
100
AcDbEntity
  8
本体
  6
CONTINUOUS
 62
     6
100
AcDbLine
 10
1555.26086
 20
914.5
 30
0.0
 11
1556.512376
 21
873.2
 31
0.0
  0
LINE
  5
149
100
AcDbEntity
  8
本体
  6
CONTINUOUS
 62
     6
100
AcDbLine
 10
1540.0
 20
912.0
 30
0.0
 11
1555.336618
 21
912.0
 31
0.0
  0
ARC
  5
14A
100
AcDbEntity
  8
本体
  6
CONTINUOUS
 62
     6
100
AcDbCircle
 10
1545.0
 20
915.048009
 30
0.0
 40
5.0
100
AcDbArc
 50
96.37937
 51
180.0
  0
LINE
  5
14B
100
AcDbEntity
  8
本体
  6
CONTINUOUS
 62
     6
100
AcDbLine
 10
1540.0
 20
915.048009
 30
0.0
 11
1540.0
 21
912.0
 31
0.0
  0
LINE
  5
14C
100
AcDbEntity
  8
本体
  6
CONTINUOUS
 62
     6
100
AcDbLine
 10
1565.26086
 20
914.5
 30
0.0
 11
1563.236618
 21
847.7
 31
0.0
  0
LINE
  5
14D
100
AcDbEntity
  8
本体
  6
CONTINUOUS
 62
     6
100
AcDbLine
 10
1634.73914
 20
914.5
 30
0.0
 11
1636.763382
 21
847.7
 31
0.0
  0
CIRCLE
  5
14E
100
AcDbEntity
  8
本体
  6
CONTINUOUS
 62
     6
100
AcDbCircle
 10
842.0
 20
2085.0
 30
0.0
 40
72.0
  0
CIRCLE
  5
14F
100
AcDbEntity
  8
本体
  6
CONTINUOUS
 62
     6
100
AcDbCircle
 10
842.0
 20
2085.0
 30
0.0
 40
71.000003
  0
ELLIPSE
  5
150
100
AcDbEntity
  8
本体
  6
CONTINUOUS
 62
     6
100
AcDbEllipse
 10
890.134936
 20
2085.0
 30
0.0
 11
0.0000000000000137
 21
-19.499999999999993
 31
0.0
210
0.0
220
0.0
230
1.0
 40
0.258819
 41
0.0
 42
6.2831853071796004
  0
LINE
  5
151
100
AcDbEntity
  8
本体
  6
CONTINUOUS
 62
     6
100
AcDbLine
 10
854.913214
 20
2088.0
 30
0.0
 11
854.913214
 21
2082.0
 31
0.0
  0
LINE
  5
152
100
AcDbEntity
  8
本体
  6
CONTINUOUS
 62
     6
100
AcDbLine
 10
854.913214
 20
2088.0
 30
0.0
 11
872.591014
 21
2088.0
 31
0.0
  0
LINE
  5
153
100
AcDbEntity
  8
本体
  6
CONTINUOUS
 62
     6
100
AcDbLine
 10
854.913214
 20
2082.0
 30
0.0
 11
872.591014
 21
2082.0
 31
0.0
  0
ELLIPSE
  5
154
100
AcDbEntity
  8
本体
  6
CONTINUOUS
 62
     6
100
AcDbEllipse
 10
874.680123
 20
2085.0
 30
0.0
 11
0.0000000000000137
 21
-19.499999999999993
 31
0.0
210
0.0
220
0.0
230
1.0
 40
0.258819
 41
3.1415926535897931
 42
4.5579293819006477
  0
LINE
  5
155
100
AcDbEntity
  8
本体
  6
CONTINUOUS
 62
     6
100
AcDbLine
 10
887.237158
 20
2104.5
 30
0.0
 11
890.134936
 21
2104.5
 31
0.0
  0
ELLIPSE
  5
156
100
AcDbEntity
  8
本体
  6
CONTINUOUS
 62
     6
100
AcDbEllipse
 10
887.237158
 20
2085.0
 30
0.0
 11
0.0000000000000137
 21
-19.499999999999993
 31
0.0
210
0.0
220
0.0
230
1.0
 40
0.258819
 41
3.1415926535897931
 42
0.0
  0
LINE
  5
157
100
AcDbEntity
  8
本体
  6
CONTINUOUS
 62
     6
100
AcDbLine
 10
878.907529
 20
2104.647939
 30
0.0
 11
885.907529
 21
2104.647939
 31
0.0
  0
ELLIPSE
  5
158
100
AcDbEntity
  8
本体
  6
CONTINUOUS
 62
     6
100
AcDbEllipse
 10
890.134936
 20
2085.0
 30
0.0
 11
0.0000000000000116
 21
-16.500000000000004
 31
0.0
210
0.0
220
0.0
230
1.0
 40
0.258819
 41
0.0
 42
6.2831853071796004
  0
LINE
  5
159
100
AcDbEntity
  8
本体
  6
CONTINUOUS
 62
     6
100
AcDbLine
 10
874.680123
 20
2104.5
 30
0.0
 11
877.5779
 21
2104.5
 31
0.0
  0
LINE
  5
15A
100
AcDbEntity
  8
本体
  6
CONTINUOUS
 62
     6
100
AcDbLine
 10
877.19479
 20
2103.5
 30
0.0
 11
875.982432
 21
2103.5
 31
0.0
  0
LINE
  5
15B
100
AcDbEntity
  8
本体
  6
CONTINUOUS
 62
     6
100
AcDbLine
 10
864.530929
 20
2082.0
 30
0.0
 11
864.530929
 21
2088.0
 31
0.0
  0
LINE
  5
15C
100
AcDbEntity
  8
本体
  6
CONTINUOUS
 62
     6
100
AcDbLine
 10
885.641691
 20
2103.5
 30
0.0
 11
884.94309
 21
2103.5
 31
0.0
  0
LINE
  5
15D
100
AcDbEntity
  8
本体
  6
CONTINUOUS
 62
     6
100
AcDbLine
 10
887.237158
 20
2065.5
 30
0.0
 11
890.134936
 21
2065.5
 31
0.0
  0
LINE
  5
15E
100
AcDbEntity
  8
本体
  6
CONTINUOUS
 62
     6
100
AcDbLine
 10
877.19479
 20
2066.5
 30
0.0
 11
875.982432
 21
2066.5
 31
0.0
  0
LINE
  5
15F
100
AcDbEntity
  8
本体
  6
CONTINUOUS
 62
     6
100
AcDbLine
 10
885.641691
 20
2066.5
 30
0.0
 11
884.94309
 21
2066.5
 31
0.0
  0
ARC
  5
160
100
AcDbEntity
  8
本体
  6
CONTINUOUS
 62
     6
100
AcDbCircle
 10
842.0
 20
2085.0
 30
0.0
 40
17.0
100
AcDbArc
 50
120.139088
 51
239.860912
  0
ARC
  5
161
100
AcDbEntity
  8
本体
  6
CONTINUOUS
 62
     6
100
AcDbCircle
 10
842.0
 20
2085.0
 30
0.0
 40
19.0
100
AcDbArc
 50
84.715267
 51
275.284733
  0
ARC
  5
162
100
AcDbEntity
  8
本体
  6
CONTINUOUS
 62
     6
100
AcDbCircle
 10
842.0
 20
2085.0
 30
0.0
 40
19.5
100
AcDbArc
 50
76.997176
 51
283.342364
  0
ELLIPSE
  5
163
100
AcDbEntity
  8
本体
  6
CONTINUOUS
 62
     6
100
AcDbEllipse
 10
878.907529
 20
2085.0
 30
0.0
 11
0.0000000000000012
 21
19.647939461319989
 31
0.0
210
0.0
220
0.0
230
1.0
 40
0.258819
 41
0.0000000000000007
 42
3.1722900573009816
  0
LINE
  5
164
100
AcDbEntity
  8
本体
  6
CONTINUOUS
 62
     6
100
AcDbLine
 10
878.907529
 20
2065.352061
 30
0.0
 11
885.907529
 21
2065.352061
 31
0.0
  0
LINE
  5
165
100
AcDbEntity
  8
本体
  6
CONTINUOUS
 62
     6
100
AcDbLine
 10
874.680123
 20
2065.5
 30
0.0
 11
878.284666
 21
2065.5
 31
0.0
  0
ELLIPSE
  5
166
100
AcDbEntity
  8
本体
  6
CONTINUOUS
 62
     6
100
AcDbEllipse
 10
877.5779
 20
2085.0
 30
0.0
 11
0.0000000000000012
 21
19.499999999999993
 31
0.0
210
0.0
220
0.0
230
1.0
 40
0.258819
 41
6.1801842312692976
 42
3.1415926535897958
  0
ELLIPSE
  5
167
100
AcDbEntity
  8
本体
  6
CONTINUOUS
 62
     6
100
AcDbEllipse
 10
874.680123
 20
2085.0
 30
0.0
 11
0.0000000000000012
 21
19.499999999999993
 31
0.0
210
0.0
220
0.0
230
1.0
 40
0.258819
 41
1.7252559252789581
 42
3.1415926535897958
  0
LINE
  5
168
100
AcDbEntity
  8
本体
  6
CONTINUOUS
 62
     6
100
AcDbLine
 10
887.237158
 20
2065.5
 30
0.0
 11
890.134936
 21
2065.5
 31
0.0
  0
ELLIPSE
  5
169
100
AcDbEntity
  8
本体
  6
CONTINUOUS
 62
     6
100
AcDbEllipse
 10
885.907529
 20
2085.0
 30
0.0
 11
0.0000000000000012
 21
19.647939461319989
 31
0.0
210
0.0
220
0.0
230
1.0
 40
0.258819
 41
6.1230797949452587
 42
3.2643850253334796
  0
LINE
  5
16A
100
AcDbEntity
  8
本体
  6
CONTINUOUS
 62
     6
100
AcDbLine
 10
845.5
 20
2104.0
 30
0.0
 11
873.544559
 21
2104.0
 31
0.0
  0
LINE
  5
16B
100
AcDbEntity
  8
本体
  6
CONTINUOUS
 62
     6
100
AcDbLine
 10
845.5
 20
2066.0
 30
0.0
 11
873.544559
 21
2066.0
 31
0.0
  0
ARC
  5
16C
100
AcDbEntity
  8
本体
  6
CONTINUOUS
 62
     6
100
AcDbCircle
 10
845.5
 20
2085.0
 30
0.0
 40
19.0
100
AcDbArc
 50
90.0
 51
270.0
  0
CIRCLE
  5
16D
100
AcDbEntity
  8
本体
  6
CONTINUOUS
 62
     6
100
AcDbCircle
 10
799.5
 20
2085.0
 30
0.0
 40
3.5
  0
ARC
  5
16E
100
AcDbEntity
  8
本体
  6
CONTINUOUS
 62
     6
100
AcDbCircle
 10
815.657317
 20
2097.126955
 30
0.0
 40
3.5
100
AcDbArc
 50
225.0
 51
45.0
  0
ARC
  5
16F
100
AcDbEntity
  8
本体
  6
CONTINUOUS
 62
     6
100
AcDbCircle
 10
804.965504
 20
2107.818767
 30
0.0
 40
3.5
100
AcDbArc
 50
45.0
 51
225.0
  0
ARC
  5
170
100
AcDbEntity
  8
本体
  6
CONTINUOUS
 62
     6
100
AcDbCircle
 10
807.142136
 20
2091.5
 30
0.0
 40
3.5
100
AcDbArc
 50
225.0
 51
45.0
  0
ARC
  5
171
100
AcDbEntity
  8
本体
  6
CONTINUOUS
 62
     6
100
AcDbCircle
 10
800.524861
 20
2098.117274
 30
0.0
 40
3.5
100
AcDbArc
 50
45.0
 51
225.0
  0
LINE
  5
172
100
AcDbEntity
  8
本体
  6
CONTINUOUS
 62
     6
100
AcDbLine
 10
802.490631
 20
2105.343893
 30
0.0
 11
813.182443
 21
2094.652081
 31
0.0
  0
LINE
  5
173
100
AcDbEntity
  8
本体
  6
CONTINUOUS
 62
     6
100
AcDbLine
 10
802.999735
 20
2100.592148
 30
0.0
 11
809.617009
 21
2093.974874
 31
0.0
  0
LINE
  5
174
100
AcDbEntity
  8
本体
  6
CONTINUOUS
 62
     6
100
AcDbLine
 10
798.049988
 20
2095.6424
 30
0.0
 11
804.667262
 21
2089.025126
 31
0.0
  0
ARC
  5
175
100
AcDbEntity
  8
本体
  6
CONTINUOUS
 62
     6
100
AcDbCircle
 10
829.772417
 20
2058.703875
 30
0.0
 40
3.5
100
AcDbArc
 50
315.0
 51
135.0
  0
ARC
  5
176
100
AcDbEntity
  8
本体
  6
CONTINUOUS
 62
     6
100
AcDbCircle
 10
819.090256
 20
2048.021714
 30
0.0
 40
3.5
100
AcDbArc
 50
135.0
 51
315.0
  0
ARC
  5
177
100
AcDbEntity
  8
本体
  6
CONTINUOUS
 62
     6
100
AcDbCircle
 10
821.45714
 20
2064.530733
 30
0.0
 40
3.5
100
AcDbArc
 50
315.0
 51
135.0
  0
ARC
  5
178
100
AcDbEntity
  8
本体
  6
CONTINUOUS
 62
     6
100
AcDbCircle
 10
811.20408
 20
2054.277674
 30
0.0
 40
3.5
100
AcDbArc
 50
135.0
 51
315.0
  0
ARC
  5
179
100
AcDbEntity
  8
本体
  6
CONTINUOUS
 62
     6
100
AcDbCircle
 10
815.657317
 20
2072.873045
 30
0.0
 40
3.5
100
AcDbArc
 50
315.0
 51
135.0
  0
ARC
  5
17A
100
AcDbEntity
  8
本体
  6
CONTINUOUS
 62
     6
100
AcDbCircle
 10
804.965504
 20
2062.181233
 30
0.0
 40
3.5
100
AcDbArc
 50
135.0
 51
315.0
  0
ARC
  5
17B
100
AcDbEntity
  8
本体
  6
CONTINUOUS
 62
     6
100
AcDbCircle
 10
807.142136
 20
2078.5
 30
0.0
 40
3.5
100
AcDbArc
 50
315.0
 51
135.0
  0
ARC
  5
17C
100
AcDbEntity
  8
本体
  6
CONTINUOUS
 62
     6
100
AcDbCircle
 10
800.524861
 20
2071.882726
 30
0.0
 40
3.5
100
AcDbArc
 50
135.0
 51
315.0
  0
LINE
  5
17D
100
AcDbEntity
  8
本体
  6
CONTINUOUS
 62
     6
100
AcDbLine
 10
821.56513
 20
2045.54684
 30
0.0
 11
832.247291
 21
2056.229001
 31
0.0
  0
LINE
  5
17E
100
AcDbEntity
  8
本体
  6
CONTINUOUS
 62
     6
100
AcDbLine
 10
816.615383
 20
2050.496588
 30
0.0
 11
827.297543
 21
2061.178748
 31
0.0
  0
LINE
  5
17F
100
AcDbEntity
  8
本体
  6
CONTINUOUS
 62
     6
100
AcDbLine
 10
813.678954
 20
2051.8028
 30
0.0
 11
823.932014
 21
2062.055859
 31
0.0
  0
LINE
  5
180
100
AcDbEntity
  8
本体
  6
CONTINUOUS
 62
     6
100
AcDbLine
 10
808.729207
 20
2056.752547
 30
0.0
 11
818.982266
 21
2067.005607
 31
0.0
  0
LINE
  5
181
100
AcDbEntity
  8
本体
  6
CONTINUOUS
 62
     6
100
AcDbLine
 10
807.440378
 20
2059.706359
 30
0.0
 11
818.13219
 21
2070.398172
 31
0.0
  0
LINE
  5
182
100
AcDbEntity
  8
本体
  6
CONTINUOUS
 62
     6
100
AcDbLine
 10
802.490631
 20
2064.656107
 30
0.0
 11
813.182443
 21
2075.347919
 31
0.0
  0
LINE
  5
183
100
AcDbEntity
  8
本体
  6
CONTINUOUS
 62
     6
100
AcDbLine
 10
802.999735
 20
2069.407852
 30
0.0
 11
809.617009
 21
2076.025126
 31
0.0
  0
LINE
  5
184
100
AcDbEntity
  8
本体
  6
CONTINUOUS
 62
     6
100
AcDbLine
 10
798.049988
 20
2074.3576
 30
0.0
 11
804.667262
 21
2080.974874
 31
0.0
  0
CIRCLE
  5
185
100
AcDbEntity
  8
本体
  6
CONTINUOUS
 62
     6
100
AcDbCircle
 10
842.0
 20
2122.5
 30
0.0
 40
7.5
  0
CIRCLE
  5
186
100
AcDbEntity
  8
本体
  6
CONTINUOUS
 62
     6
100
AcDbCircle
 10
854.430757
 20
2125.641435
 30
0.0
 40
3.5
  0
ARC
  5
187
100
AcDbEntity
  8
本体
  6
CONTINUOUS
 62
     6
100
AcDbCircle
 10
854.227583
 20
2111.296125
 30
0.0
 40
3.5
100
AcDbArc
 50
135.0
 51
315.0
  0
ARC
  5
188
100
AcDbEntity
  8
本体
  6
CONTINUOUS
 62
     6
100
AcDbCircle
 10
864.909744
 20
2121.978286
 30
0.0
 40
3.5
100
AcDbArc
 50
315.0
 51
135.0
  0
ARC
  5
189
100
AcDbEntity
  8
本体
  6
CONTINUOUS
 62
     6
100
AcDbCircle
 10
872.79592
 20
2115.722326
 30
0.0
 40
3.5
100
AcDbArc
 50
315.0
 51
135.0
  0
ARC
  5
18A
100
AcDbEntity
  8
本体
  6
CONTINUOUS
 62
     6
100
AcDbCircle
 10
879.034496
 20
2107.818767
 30
0.0
 40
3.5
100
AcDbArc
 50
315.0
 51
135.0
  0
LINE
  5
18B
100
AcDbEntity
  8
本体
  6
CONTINUOUS
 62
     6
100
AcDbLine
 10
862.43487
 20
2124.45316
 30
0.0
 11
851.752709
 21
2113.770999
 31
0.0
  0
LINE
  5
18C
100
AcDbEntity
  8
本体
  6
CONTINUOUS
 62
     6
100
AcDbLine
 10
867.384617
 20
2119.503412
 30
0.0
 11
856.702457
 21
2108.821252
 31
0.0
  0
LINE
  5
18D
100
AcDbEntity
  8
本体
  6
CONTINUOUS
 62
     6
100
AcDbLine
 10
870.321046
 20
2118.1972
 30
0.0
 11
860.067986
 21
2107.944141
 31
0.0
  0
CIRCLE
  5
18E
100
AcDbEntity
  8
本体
  6
CONTINUOUS
 62
     6
100
AcDbCircle
 10
829.569243
 20
2125.641435
 30
0.0
 40
3.5
  0
ARC
  5
18F
100
AcDbEntity
  8
本体
  6
CONTINUOUS
 62
     6
100
AcDbCircle
 10
829.772417
 20
2111.296125
 30
0.0
 40
3.5
100
AcDbArc
 50
225.0
 51
45.0
  0
ARC
  5
190
100
AcDbEntity
  8
本体
  6
CONTINUOUS
 62
     6
100
AcDbCircle
 10
819.090256
 20
2121.978286
 30
0.0
 40
3.5
100
AcDbArc
 50
45.0
 51
225.0
  0
ARC
  5
191
100
AcDbEntity
  8
本体
  6
CONTINUOUS
 62
     6
100
AcDbCircle
 10
821.45714
 20
2105.469267
 30
0.0
 40
3.5
100
AcDbArc
 50
225.0
 51
45.0
  0
ARC
  5
192
100
AcDbEntity
  8
本体
  6
CONTINUOUS
 62
     6
100
AcDbCircle
 10
811.20408
 20
2115.722326
 30
0.0
 40
3.5
100
AcDbArc
 50
45.0
 51
225.0
  0
LINE
  5
193
100
AcDbEntity
  8
本体
  6
CONTINUOUS
 62
     6
100
AcDbLine
 10
821.56513
 20
2124.45316
 30
0.0
 11
832.247291
 21
2113.770999
 31
0.0
  0
LINE
  5
194
100
AcDbEntity
  8
本体
  6
CONTINUOUS
 62
     6
100
AcDbLine
 10
816.615383
 20
2119.503412
 30
0.0
 11
827.297543
 21
2108.821252
 31
0.0
  0
LINE
  5
195
100
AcDbEntity
  8
本体
  6
CONTINUOUS
 62
     6
100
AcDbLine
 10
813.678954
 20
2118.1972
 30
0.0
 11
823.932014
 21
2107.944141
 31
0.0
  0
LINE
  5
196
100
AcDbEntity
  8
本体
  6
CONTINUOUS
 62
     6
100
AcDbLine
 10
808.729207
 20
2113.247453
 30
0.0
 11
818.982266
 21
2102.994393
 31
0.0
  0
LINE
  5
197
100
AcDbEntity
  8
本体
  6
CONTINUOUS
 62
     6
100
AcDbLine
 10
807.440378
 20
2110.293641
 30
0.0
 11
818.13219
 21
2099.601828
 31
0.0
  0
LINE
  5
198
100
AcDbEntity
  8
本体
  6
CONTINUOUS
 62
     6
100
AcDbLine
 10
843.5
 20
2129.848469
 30
0.0
 11
843.5
 21
2115.151531
 31
0.0
  0
LINE
  5
199
100
AcDbEntity
  8
本体
  6
CONTINUOUS
 62
     6
100
AcDbLine
 10
840.5
 20
2129.848469
 30
0.0
 11
840.5
 21
2115.151531
 31
0.0
  0
CIRCLE
  5
19A
100
AcDbEntity
  8
本体
  6
CONTINUOUS
 62
     6
100
AcDbCircle
 10
842.0
 20
2047.5
 30
0.0
 40
7.5
  0
CIRCLE
  5
19B
100
AcDbEntity
  8
本体
  6
CONTINUOUS
 62
     6
100
AcDbCircle
 10
829.569243
 20
2044.358565
 30
0.0
 40
3.5
  0
LINE
  5
19C
100
AcDbEntity
  8
本体
  6
CONTINUOUS
 62
     6
100
AcDbLine
 10
843.5
 20
2040.151531
 30
0.0
 11
843.5
 21
2054.848469
 31
0.0
  0
LINE
  5
19D
100
AcDbEntity
  8
本体
  6
CONTINUOUS
 62
     6
100
AcDbLine
 10
840.5
 20
2040.151531
 30
0.0
 11
840.5
 21
2054.848469
 31
0.0
  0
ARC
  5
19E
100
AcDbEntity
  8
本体
  6
CONTINUOUS
 62
     6
100
AcDbCircle
 10
854.227583
 20
2058.703875
 30
0.0
 40
3.5
100
AcDbArc
 50
45.0
 51
225.0
  0
ARC
  5
19F
100
AcDbEntity
  8
本体
  6
CONTINUOUS
 62
     6
100
AcDbCircle
 10
872.79592
 20
2054.277674
 30
0.0
 40
3.5
100
AcDbArc
 50
225.0
 51
45.0
  0
LINE
  5
1A0
100
AcDbEntity
  8
本体
  6
CONTINUOUS
 62
     6
100
AcDbLine
 10
867.384617
 20
2050.496588
 30
0.0
 11
856.702457
 21
2061.178748
 31
0.0
  0
LINE
  5
1A1
100
AcDbEntity
  8
本体
  6
CONTINUOUS
 62
     6
100
AcDbLine
 10
870.321046
 20
2051.8028
 30
0.0
 11
860.067986
 21
2062.055859
 31
0.0
  0
CIRCLE
  5
1A2
100
AcDbEntity
  8
本体
  6
CONTINUOUS
 62
     6
100
AcDbCircle
 10
854.430757
 20
2044.358565
 30
0.0
 40
3.5
  0
ARC
  5
1A3
100
AcDbEntity
  8
本体
  6
CONTINUOUS
 62
     6
100
AcDbCircle
 10
864.909744
 20
2048.021714
 30
0.0
 40
3.5
100
AcDbArc
 50
225.0
 51
45.0
  0
LINE
  5
1A4
100
AcDbEntity
  8
本体
  6
CONTINUOUS
 62
     6
100
AcDbLine
 10
862.43487
 20
2045.54684
 30
0.0
 11
851.752709
 21
2056.229001
 31
0.0
  0
ARC
  5
1A5
100
AcDbEntity
  8
本体
  6
CONTINUOUS
 62
     6
100
AcDbCircle
 10
842.0
 20
2085.0
 30
0.0
 40
53.0
100
AcDbArc
 50
21.759772
 51
337.946581
  0
ARC
  5
1A6
100
AcDbEntity
  8
本体
  6
CONTINUOUS
 62
     6
100
AcDbCircle
 10
862.54286
 20
2105.469267
 30
0.0
 40
3.5
100
AcDbArc
 50
135.0
 51
204.821367
  0
LINE
  5
1A7
100
AcDbEntity
  8
本体
  6
CONTINUOUS
 62
     6
100
AcDbLine
 10
875.270793
 20
2113.247453
 30
0.0
 11
866.023341
 21
2104.0
 31
0.0
  0
LINE
  5
1A8
100
AcDbEntity
  8
本体
  6
CONTINUOUS
 62
     6
100
AcDbLine
 10
876.559622
 20
2110.293641
 30
0.0
 11
870.265981
 21
2104.0
 31
0.0
  0
LINE
  5
1A9
100
AcDbEntity
  8
本体
  6
CONTINUOUS
 62
     6
100
AcDbLine
 10
881.509369
 20
2105.343893
 30
0.0
 11
880.813416
 21
2104.647939
 31
0.0
  0
ARC
  5
1AA
100
AcDbEntity
  8
本体
  6
CONTINUOUS
 62
     6
100
AcDbCircle
 10
879.034496
 20
2062.181233
 30
0.0
 40
3.5
100
AcDbArc
 50
225.0
 51
45.0
  0
LINE
  5
1AB
100
AcDbEntity
  8
本体
  6
CONTINUOUS
 62
     6
100
AcDbLine
 10
881.509369
 20
2064.656107
 30
0.0
 11
880.813416
 21
2065.352061
 31
0.0
  0
LINE
  5
1AC
100
AcDbEntity
  8
本体
  6
CONTINUOUS
 62
     6
100
AcDbLine
 10
876.559622
 20
2059.706359
 30
0.0
 11
870.265981
 21
2066.0
 31
0.0
  0
LINE
  5
1AD
100
AcDbEntity
  8
本体
  6
CONTINUOUS
 62
     6
100
AcDbLine
 10
875.270793
 20
2056.752547
 30
0.0
 11
866.023341
 21
2066.0
 31
0.0
  0
ARC
  5
1AE
100
AcDbEntity
  8
本体
  6
CONTINUOUS
 62
     6
100
AcDbCircle
 10
862.54286
 20
2064.530733
 30
0.0
 40
3.5
100
AcDbArc
 50
155.178633
 51
225.0
  0
LINE
  5
1AF
100
AcDbEntity
  8
本体
  6
EXLTYPE3
 62
     6
100
AcDbLine
 10
842.0
 20
2164.0
 30
0.0
 11
842.0
 21
2002.0
 31
0.0
  0
LINE
  5
1B0
100
AcDbEntity
  8
本体
  6
CONTINUOUS
 62
     6
100
AcDbLine
 10
1557.521771
 20
847.7
 30
0.0
 11
1563.236618
 21
847.7
 31
0.0
  0
LINE
  5
1B1
100
AcDbEntity
  8
本体
  6
CONTINUOUS
 62
     6
100
AcDbLine
 10
1636.763382
 20
847.7
 30
0.0
 11
1642.478229
 21
847.7
 31
0.0
  0
DIMENSION
  5
1BD
100
AcDbEntity
  8
本体
  6
CONTINUOUS
 62
     2
100
AcDbDimension
  2
*D14
 10
842.0
 20
1946.0
 30
0.0
 11
787.5
 21
1969.5
 31
0.0
 70
   160
  3
STANDARD
100
AcDbAlignedDimension
 13
719.0
 23
2085.0
 33
0.0
 14
842.0
 24
2002.0
 34
0.0
100
AcDbRotatedDimension
1001
ACAD
1000
DSTYLE
1002
{
1070
     6
1000
_EX_NORM
1070
     7
1000
_EX_NORM
1070
    41
1040
30.0
1070
    42
1040
5.0
1070
    44
1040
10.0
1070
    73
1070
     0
1070
    74
1070
     0
1070
    75
1070
     1
1070
    76
1070
     0
1070
    77
1070
     1
1070
    78
1070
     8
1070
   140
1040
40.0
1070
   147
1040
3.5
1070
   173
1070
     1
1070
   176
1070
     3
1070
   177
1070
     3
1070
   178
1070
     2
1070
   271
1070
     2
1070
   279
1070
     2
1070
   280
1070
     0
1070
   287
1070
     5
1070
   340
1005
1BC
1002
}
  0
LINE
  5
1BE
100
AcDbEntity
  8
本体
  6
EXLTYPE3
 62
     6
100
AcDbLine
 10
709.0
 20
2085.0
 30
0.0
 11
1533.0
 21
2085.0
 31
0.0
  0
LINE
  5
1BF
100
AcDbEntity
  8
本体
  6
EXLTYPE3
 62
     6
100
AcDbLine
 10
1119.0
 20
1754.0
 30
0.0
 11
1119.0
 21
2416.0
 31
0.0
  0
LINE
  5
1C0
100
AcDbEntity
  8
本体
  6
EXLTYPE2
 62
     6
100
AcDbLine
 10
209.0
 20
1505.0
 30
0.0
 11
15.0
 21
1505.0
 31
0.0
  0
DIMENSION
  5
1CC
100
AcDbEntity
  8
本体
  6
CONTINUOUS
 62
     3
100
AcDbDimension
  2
*D15
 10
740.5
 20
805.2
 30
0.0
 11
717.0
 21
1004.7
 31
0.0
 70
   160
  1
634
  3
STANDARD
100
AcDbAlignedDimension
 13
802.0
 23
1204.2
 33
0.0
 14
822.95
 24
805.2
 34
0.0
 50
90.0
100
AcDbRotatedDimension
1001
ACAD
1000
DSTYLE
1002
{
1070
     6
1000
_EX_NORM
1070
     7
1000
_EX_NORM
1070
    41
1040
30.0
1070
    42
1040
5.0
1070
    44
1040
10.0
1070
    73
1070
     0
1070
    74
1070
     0
1070
    75
1070
     0
1070
    76
1070
     0
1070
    77
1070
     1
1070
    78
1070
     8
1070
   140
1040
40.0
1070
   147
1040
3.5
1070
   173
1070
     1
1070
   176
1070
     3
1070
   177
1070
     3
1070
   178
1070
     2
1070
   271
1070
     2
1070
   279
1070
     2
1070
   280
1070
     0
1070
   287
1070
     5
1070
   340
1005
1BC
1002
}
  0
LINE
  5
1CD
100
AcDbEntity
  8
本体
  6
CONTINUOUS
 62
     2
100
AcDbLine
 10
719.961552
 20
1388.187262
 30
0.0
 11
719.0
 21
1333.1
 31
0.0
  0
ARC
  5
1CE
100
AcDbEntity
  8
本体
  6
CONTINUOUS
 62
     2
100
AcDbCircle
 10
724.96079
 20
1388.1
 30
0.0
 40
5.0
100
AcDbArc
 50
90.0
 51
179.0
  0
ARC
  5
1CF
100
AcDbEntity
  8
本体
  6
CONTINUOUS
 62
     2
100
AcDbCircle
 10
771.5
 20
1333.1
 30
0.0
 40
5.0
100
AcDbArc
 50
180.0
 51
270.0
  0
ARC
  5
1D0
100
AcDbEntity
  8
本体
  6
CONTINUOUS
 62
     2
100
AcDbCircle
 10
912.5
 20
1333.1
 30
0.0
 40
5.0
100
AcDbArc
 50
270.0
 51
0.0
  0
LINE
  5
1D1
100
AcDbEntity
  8
本体
  6
CONTINUOUS
 62
     2
100
AcDbLine
 10
771.5
 20
1328.1
 30
0.0
 11
912.5
 21
1328.1
 31
0.0
  0
LINE
  5
1D2
100
AcDbEntity
  8
本体
  6
CONTINUOUS
 62
     2
100
AcDbLine
 10
782.500002
 20
1318.098679
 30
0.0
 11
782.500002
 21
1308.598679
 31
0.0
  0
LINE
  5
1D3
100
AcDbEntity
  8
本体
  6
CONTINUOUS
 62
     2
100
AcDbLine
 10
784.9
 20
1306.098679
 30
0.0
 11
785.755383
 21
1229.114192
 31
0.0
  0
LINE
  5
1D4
100
AcDbEntity
  8
本体
  6
CONTINUOUS
 62
     2
100
AcDbLine
 10
782.500002
 20
1308.598679
 30
0.0
 11
784.9
 21
1306.098679
 31
0.0
  0
LINE
  5
1D5
100
AcDbEntity
  8
本体
  6
CONTINUOUS
 62
     2
100
AcDbLine
 10
798.80604
 20
1214.407931
 30
0.0
 11
806.189685
 21
1213.440642
 31
0.0
  0
ARC
  5
1D6
100
AcDbEntity
  8
本体
  6
CONTINUOUS
 62
     2
100
AcDbCircle
 10
805.800001
 20
1210.466058
 30
0.0
 40
3.0
100
AcDbArc
 50
0.0
 51
82.536506
  0
ARC
  5
1D7
100
AcDbEntity
  8
本体
  6
CONTINUOUS
 62
     2
100
AcDbCircle
 10
800.754457
 20
1229.280849
 30
0.0
 40
15.0
100
AcDbArc
 50
180.636594
 51
262.536506
  0
ARC
  5
1D8
100
AcDbEntity
  8
本体
  6
CONTINUOUS
 62
     2
100
AcDbCircle
 10
779.500002
 20
1318.098679
 30
0.0
 40
3.0
100
AcDbArc
 50
0.000003
 51
90.000005
  0
LINE
  5
1D9
100
AcDbEntity
  8
本体
  6
CONTINUOUS
 62
     2
100
AcDbLine
 10
771.000002
 20
1326.098679
 30
0.0
 11
771.000002
 21
1323.098679
 31
0.0
  0
ARC
  5
1DA
100
AcDbEntity
  8
本体
  6
CONTINUOUS
 62
     2
100
AcDbCircle
 10
773.000002
 20
1323.098679
 30
0.0
 40
2.0
100
AcDbArc
 50
179.999997
 51
270.0
  0
ARC
  5
1DB
100
AcDbEntity
  8
本体
  6
CONTINUOUS
 62
     2
100
AcDbCircle
 10
805.800001
 20
1210.466058
 30
0.0
 40
3.0
100
AcDbArc
 50
1.988579
 51
82.536506
  0
ARC
  5
1DC
100
AcDbEntity
  8
本体
  6
CONTINUOUS
 62
     2
100
AcDbCircle
 10
772.521285
 20
1327.14862
 30
0.0
 40
1.0
100
AcDbArc
 50
180.0
 51
263.383262
  0
LINE
  5
1DD
100
AcDbEntity
  8
本体
  6
CONTINUOUS
 62
     2
100
AcDbLine
 10
771.521285
 20
1327.14862
 30
0.0
 11
771.521285
 21
1327.752644
 31
0.0
  0
ARC
  5
1DE
100
AcDbEntity
  8
本体
  6
CONTINUOUS
 62
     2
100
AcDbCircle
 10
772.521285
 20
1327.752644
 30
0.0
 40
1.0
100
AcDbArc
 50
159.674307
 51
180.0
  0
LINE
  5
1DF
100
AcDbEntity
  8
本体
  6
CONTINUOUS
 62
     2
100
AcDbLine
 10
901.499998
 20
1318.098679
 30
0.0
 11
901.499998
 21
1308.598679
 31
0.0
  0
LINE
  5
1E0
100
AcDbEntity
  8
本体
  6
CONTINUOUS
 62
     2
100
AcDbLine
 10
901.499998
 20
1308.598679
 30
0.0
 11
899.1
 21
1306.098679
 31
0.0
  0
ARC
  5
1E1
100
AcDbEntity
  8
本体
  6
CONTINUOUS
 62
     2
100
AcDbCircle
 10
904.499998
 20
1318.098679
 30
0.0
 40
3.0
100
AcDbArc
 50
89.999995
 51
179.999997
  0
LINE
  5
1E2
100
AcDbEntity
  8
本体
  6
CONTINUOUS
 62
     2
100
AcDbLine
 10
912.999998
 20
1326.098679
 30
0.0
 11
912.999998
 21
1323.098679
 31
0.0
  0
ARC
  5
1E3
100
AcDbEntity
  8
本体
  6
CONTINUOUS
 62
     2
100
AcDbCircle
 10
910.999998
 20
1323.098679
 30
0.0
 40
2.0
100
AcDbArc
 50
270.0
 51
0.000003
  0
ARC
  5
1E4
100
AcDbEntity
  8
本体
  6
CONTINUOUS
 62
     2
100
AcDbCircle
 10
911.478715
 20
1327.14862
 30
0.0
 40
1.0
100
AcDbArc
 50
276.616738
 51
0.0
  0
LINE
  5
1E5
100
AcDbEntity
  8
本体
  6
CONTINUOUS
 62
     2
100
AcDbLine
 10
912.478715
 20
1327.14862
 30
0.0
 11
912.478715
 21
1327.752644
 31
0.0
  0
ARC
  5
1E6
100
AcDbEntity
  8
本体
  6
CONTINUOUS
 62
     2
100
AcDbCircle
 10
911.478715
 20
1327.752644
 30
0.0
 40
1.0
100
AcDbArc
 50
0.0
 51
20.325693
  0
LINE
  5
1E7
100
AcDbEntity
  8
本体
  6
CONTINUOUS
 62
     2
100
AcDbLine
 10
899.1
 20
1306.098679
 30
0.0
 11
898.244617
 21
1229.114192
 31
0.0
  0
ARC
  5
1E8
100
AcDbEntity
  8
本体
  6
CONTINUOUS
 62
     2
100
AcDbCircle
 10
883.245543
 20
1229.280849
 30
0.0
 40
15.0
100
AcDbArc
 50
277.463494
 51
359.363406
  0
ARC
  5
1E9
100
AcDbEntity
  8
本体
  6
CONTINUOUS
 62
     2
100
AcDbCircle
 10
878.199999
 20
1210.466058
 30
0.0
 40
3.0
100
AcDbArc
 50
97.463494
 51
180.0
  0
ARC
  5
1EA
100
AcDbEntity
  8
本体
  6
CONTINUOUS
 62
     2
100
AcDbCircle
 10
878.199999
 20
1210.466058
 30
0.0
 40
3.0
100
AcDbArc
 50
97.463494
 51
178.011421
  0
LINE
  5
1EB
100
AcDbEntity
  8
本体
  6
CONTINUOUS
 62
     2
100
AcDbLine
 10
876.76149
 20
1213.098679
 30
0.0
 11
807.23851
 21
1213.098679
 31
0.0
  0
LINE
  5
1EC
100
AcDbEntity
  8
本体
  6
CONTINUOUS
 62
     2
100
AcDbLine
 10
885.19396
 20
1214.407931
 30
0.0
 11
877.810315
 21
1213.440642
 31
0.0
  0
LINE
  5
1ED
100
AcDbEntity
  8
本体
  6
CONTINUOUS
 62
     2
100
AcDbLine
 10
772.0
 20
1327.24862
 30
0.0
 11
912.0
 21
1327.24862
 31
0.0
  0
LINE
  5
1EE
100
AcDbEntity
  8
本体
  6
CONTINUOUS
 62
     2
100
AcDbLine
 10
911.593942
 20
1326.098679
 30
0.0
 11
771.000002
 21
1326.098679
 31
0.0
  0
LINE
  5
1EF
100
AcDbEntity
  8
本体
  6
CONTINUOUS
 62
     2
100
AcDbLine
 10
910.999998
 20
1321.098679
 30
0.0
 11
773.000002
 21
1321.098679
 31
0.0
  0
LINE
  5
1F0
100
AcDbEntity
  8
本体
  6
CONTINUOUS
 62
     2
100
AcDbLine
 10
901.499998
 20
1308.598679
 30
0.0
 11
782.500002
 21
1308.598679
 31
0.0
  0
LINE
  5
1F1
100
AcDbEntity
  8
本体
  6
CONTINUOUS
 62
     2
100
AcDbLine
 10
899.1
 20
1306.098679
 30
0.0
 11
784.9
 21
1306.098679
 31
0.0
  0
LINE
  5
1F2
100
AcDbEntity
  8
本体
  6
CONTINUOUS
 62
     6
100
AcDbLine
 10
739.0
 20
1313.632367
 30
0.0
 11
737.97036
 21
1317.309654
 31
0.0
  0
LINE
  5
1F3
100
AcDbEntity
  8
本体
  6
CONTINUOUS
 62
     6
100
AcDbLine
 10
740.02964
 20
1317.309654
 30
0.0
 11
739.0
 21
1313.632367
 31
0.0
  0
ARC
  5
1F4
100
AcDbEntity
  8
本体
  6
CONTINUOUS
 62
     6
100
AcDbCircle
 10
747.6
 20
1320.005953
 30
0.0
 40
10.0
100
AcDbArc
 50
180.0
 51
195.642246
  0
ARC
  5
1F5
100
AcDbEntity
  8
本体
  6
CONTINUOUS
 62
     6
100
AcDbCircle
 10
730.4
 20
1320.005953
 30
0.0
 40
10.0
100
AcDbArc
 50
344.357754
 51
0.0
  0
LINE
  5
1F6
100
AcDbEntity
  8
本体
  6
CONTINUOUS
 62
     6
100
AcDbLine
 10
737.0
 20
1331.812081
 30
0.0
 11
741.0
 21
1332.517389
 31
0.0
  0
LINE
  5
1F7
100
AcDbEntity
  8
本体
  6
CONTINUOUS
 62
     6
100
AcDbLine
 10
741.0
 20
1330.767389
 30
0.0
 11
737.0
 21
1330.062081
 31
0.0
  0
LINE
  5
1F8
100
AcDbEntity
  8
本体
  6
CONTINUOUS
 62
     6
100
AcDbLine
 10
737.0
 20
1328.312081
 30
0.0
 11
741.0
 21
1329.017389
 31
0.0
  0
LINE
  5
1F9
100
AcDbEntity
  8
本体
  6
CONTINUOUS
 62
     6
100
AcDbLine
 10
741.0
 20
1327.267389
 30
0.0
 11
737.0
 21
1326.562081
 31
0.0
  0
LINE
  5
1FA
100
AcDbEntity
  8
本体
  6
CONTINUOUS
 62
     6
100
AcDbLine
 10
737.0
 20
1324.812081
 30
0.0
 11
741.0
 21
1325.517389
 31
0.0
  0
LINE
  5
1FB
100
AcDbEntity
  8
本体
  6
CONTINUOUS
 62
     6
100
AcDbLine
 10
741.0
 20
1323.767389
 30
0.0
 11
737.0
 21
1323.062081
 31
0.0
  0
LINE
  5
1FC
100
AcDbEntity
  8
本体
  6
CONTINUOUS
 62
     6
100
AcDbLine
 10
737.0
 20
1321.312081
 30
0.0
 11
741.0
 21
1322.017389
 31
0.0
  0
LINE
  5
1FD
100
AcDbEntity
  8
本体
  6
CONTINUOUS
 62
     6
100
AcDbLine
 10
737.0
 20
1319.562081
 30
0.0
 11
741.0
 21
1320.267389
 31
0.0
  0
LINE
  5
1FE
100
AcDbEntity
  8
本体
  6
CONTINUOUS
 62
     6
100
AcDbLine
 10
737.0
 20
1317.812081
 30
0.0
 11
741.0
 21
1318.517389
 31
0.0
  0
LINE
  5
1FF
100
AcDbEntity
  8
本体
  6
CONTINUOUS
 62
     6
100
AcDbLine
 10
740.47496
 20
1316.67481
 30
0.0
 11
737.66383
 21
1316.179132
 31
0.0
  0
LINE
  5
200
100
AcDbEntity
  8
本体
  6
CONTINUOUS
 62
     6
100
AcDbLine
 10
739.959512
 20
1314.833922
 30
0.0
 11
738.130776
 21
1314.511467
 31
0.0
  0
LINE
  5
201
100
AcDbEntity
  8
本体
  6
CONTINUOUS
 62
     6
100
AcDbLine
 10
737.6
 20
1333.1
 30
0.0
 11
737.6
 21
1320.005953
 31
0.0
  0
LINE
  5
202
100
AcDbEntity
  8
本体
  6
CONTINUOUS
 62
     6
100
AcDbLine
 10
740.4
 20
1333.1
 30
0.0
 11
740.4
 21
1320.005953
 31
0.0
  0
LINE
  5
203
100
AcDbEntity
  8
本体
  6
CONTINUOUS
 62
     6
100
AcDbLine
 10
573.0
 20
1333.1
 30
0.0
 11
573.0
 21
1133.1
 31
0.0
  0
LINE
  5
204
100
AcDbEntity
  8
本体
  6
CONTINUOUS
 62
     6
100
AcDbLine
 10
493.0
 20
1333.1
 30
0.0
 11
493.0
 21
1133.1
 31
0.0
  0
LINE
  5
205
100
AcDbEntity
  8
本体
  6
CONTINUOUS
 62
     6
100
AcDbLine
 10
493.0
 20
1133.1
 30
0.0
 11
573.0
 21
1133.1
 31
0.0
  0
LINE
  5
206
100
AcDbEntity
  8
本体
  6
CONTINUOUS
 62
     6
100
AcDbLine
 10
493.0
 20
1333.1
 30
0.0
 11
573.0
 21
1133.1
 31
0.0
  0
LINE
  5
207
100
AcDbEntity
  8
本体
  6
CONTINUOUS
 62
     6
100
AcDbLine
 10
493.0
 20
1133.1
 30
0.0
 11
573.0
 21
1333.1
 31
0.0
  0
TEXT
  5
208
100
AcDbEntity
  8
本体
  6
CONTINUOUS
 62
     2
100
AcDbText
 10
466.5
 20
1312.1
 30
0.0
 40
40.0
  1
根太
 41
1.125
  7
EXCADVERT
 72
     3
 11
466.5
 21
1222.1
 31
0.0
100
AcDbText
  0
ARC
  5
209
100
AcDbEntity
  8
本体
  6
CONTINUOUS
 62
     6
100
AcDbCircle
 10
874.0
 20
1182.2
 30
0.0
 40
8.0
100
AcDbArc
 50
270.0
 51
0.0
  0
LINE
  5
20A
100
AcDbEntity
  8
本体
  6
CONTINUOUS
 62
     6
100
AcDbLine
 10
802.0
 20
1204.2
 30
0.0
 11
802.0
 21
1182.2
 31
0.0
  0
ARC
  5
20B
100
AcDbEntity
  8
本体
  6
CONTINUOUS
 62
     6
100
AcDbCircle
 10
810.0
 20
1182.2
 30
0.0
 40
8.0
100
AcDbArc
 50
180.0
 51
270.0
  0
LINE
  5
20C
100
AcDbEntity
  8
本体
  6
CONTINUOUS
 62
     6
100
AcDbLine
 10
810.0
 20
1174.2
 30
0.0
 11
874.0
 21
1174.2
 31
0.0
  0
LINE
  5
20D
100
AcDbEntity
  8
本体
  6
CONTINUOUS
 62
     6
100
AcDbLine
 10
882.0
 20
1204.2
 30
0.0
 11
882.0
 21
1182.2
 31
0.0
  0
LINE
  5
20E
100
AcDbEntity
  8
本体
  6
CONTINUOUS
 62
     6
100
AcDbLine
 10
802.0
 20
1204.2
 30
0.0
 11
882.0
 21
1204.2
 31
0.0
  0
LINE
  5
20F
100
AcDbEntity
  8
本体
  6
CONTINUOUS
 62
     2
100
AcDbLine
 10
808.8
 20
1210.451309
 30
0.0
 11
808.8
 21
1204.2
 31
0.0
  0
LINE
  5
210
100
AcDbEntity
  8
本体
  6
CONTINUOUS
 62
     2
100
AcDbLine
 10
875.2
 20
1210.451309
 30
0.0
 11
875.2
 21
1204.2
 31
0.0
  0
ARC
  5
211
100
AcDbEntity
  8
本体
  6
CONTINUOUS
 62
     6
100
AcDbCircle
 10
828.05
 20
1202.2075
 30
0.0
 40
25.7075
100
AcDbArc
 50
239.751985
 51
300.248015
  0
ARC
  5
212
100
AcDbEntity
  8
本体
  6
CONTINUOUS
 62
     6
100
AcDbCircle
 10
807.704223
 20
1182.267548
 30
0.0
 40
5.852878
100
AcDbArc
 50
202.794336
 51
337.205664
  0
LINE
  5
213
100
AcDbEntity
  8
本体
  6
CONTINUOUS
 62
     6
100
AcDbLine
 10
813.1
 20
1204.2
 30
0.0
 11
813.1
 21
1180.0
 31
0.0
  0
LINE
  5
214
100
AcDbEntity
  8
本体
  6
CONTINUOUS
 62
     6
100
AcDbLine
 10
815.1
 20
1204.2
 30
0.0
 11
815.1
 21
1180.0
 31
0.0
  0
LINE
  5
215
100
AcDbEntity
  8
本体
  6
CONTINUOUS
 62
     6
100
AcDbLine
 10
841.0
 20
1204.2
 30
0.0
 11
841.0
 21
1180.0
 31
0.0
  0
ARC
  5
216
100
AcDbEntity
  8
本体
  6
CONTINUOUS
 62
     6
100
AcDbCircle
 10
855.95
 20
1202.2075
 30
0.0
 40
25.7075
100
AcDbArc
 50
239.751985
 51
300.248015
  0
ARC
  5
217
100
AcDbEntity
  8
本体
  6
CONTINUOUS
 62
     6
100
AcDbCircle
 10
876.295777
 20
1182.267548
 30
0.0
 40
5.852878
100
AcDbArc
 50
202.794336
 51
337.205664
  0
LINE
  5
218
100
AcDbEntity
  8
本体
  6
CONTINUOUS
 62
     6
100
AcDbLine
 10
843.0
 20
1204.2
 30
0.0
 11
843.0
 21
1180.0
 31
0.0
  0
LINE
  5
219
100
AcDbEntity
  8
本体
  6
CONTINUOUS
 62
     6
100
AcDbLine
 10
868.9
 20
1204.2
 30
0.0
 11
868.9
 21
1180.0
 31
0.0
  0
LINE
  5
21A
100
AcDbEntity
  8
本体
  6
CONTINUOUS
 62
     6
100
AcDbLine
 10
870.9
 20
1204.2
 30
0.0
 11
870.9
 21
1180.0
 31
0.0
  0
LINE
  5
21B
100
AcDbEntity
  8
本体
  6
CONTINUOUS
 62
     6
100
AcDbLine
 10
822.95
 20
1169.272447
 30
0.0
 11
822.95
 21
1164.094093
 31
0.0
  0
LINE
  5
21C
100
AcDbEntity
  8
本体
  6
CONTINUOUS
 62
     6
100
AcDbLine
 10
822.95
 20
1160.272447
 30
0.0
 11
822.95
 21
1155.094093
 31
0.0
  0
LINE
  5
21D
100
AcDbEntity
  8
本体
  6
CONTINUOUS
 62
     6
100
AcDbLine
 10
861.05
 20
1156.2
 30
0.0
 11
861.05
 21
1151.021646
 31
0.0
  0
LINE
  5
21E
100
AcDbEntity
  8
本体
  6
CONTINUOUS
 62
     6
100
AcDbLine
 10
861.05
 20
1165.2
 30
0.0
 11
861.05
 21
1160.021646
 31
0.0
  0
LINE
  5
21F
100
AcDbEntity
  8
本体
  6
CONTINUOUS
 62
     6
100
AcDbLine
 10
822.95
 20
1174.2
 30
0.0
 11
822.95
 21
1173.094093
 31
0.0
  0
LINE
  5
220
100
AcDbEntity
  8
本体
  6
CONTINUOUS
 62
     6
100
AcDbLine
 10
861.05
 20
1174.2
 30
0.0
 11
861.05
 21
1169.021646
 31
0.0
  0
ARC
  5
221
100
AcDbEntity
  8
本体
  6
CONTINUOUS
 62
     6
100
AcDbCircle
 10
822.6
 20
1171.220681
 30
0.0
 40
1.9
100
AcDbArc
 50
83.898913
 51
263.898913
  0
ARC
  5
222
100
AcDbEntity
  8
本体
  6
CONTINUOUS
 62
     6
100
AcDbCircle
 10
861.4
 20
1167.073412
 30
0.0
 40
1.9
100
AcDbArc
 50
263.898913
 51
83.898913
  0
ARC
  5
223
100
AcDbEntity
  8
本体
  6
CONTINUOUS
 62
     6
100
AcDbCircle
 10
822.6
 20
1162.220681
 30
0.0
 40
1.9
100
AcDbArc
 50
83.898913
 51
263.898913
  0
ARC
  5
224
100
AcDbEntity
  8
本体
  6
CONTINUOUS
 62
     6
100
AcDbCircle
 10
822.6
 20
1153.220681
 30
0.0
 40
1.9
100
AcDbArc
 50
83.898913
 51
263.898913
  0
ARC
  5
225
100
AcDbEntity
  8
本体
  6
CONTINUOUS
 62
     6
100
AcDbCircle
 10
861.4
 20
1158.073412
 30
0.0
 40
1.9
100
AcDbArc
 50
263.898913
 51
83.898913
  0
ARC
  5
226
100
AcDbEntity
  8
本体
  6
CONTINUOUS
 62
     6
100
AcDbCircle
 10
861.4
 20
1149.073412
 30
0.0
 40
1.9
100
AcDbArc
 50
263.898913
 51
83.898913
  0
LINE
  5
227
100
AcDbEntity
  8
本体
  6
CONTINUOUS
 62
     6
100
AcDbLine
 10
822.801938
 20
1173.109919
 30
0.0
 11
861.601938
 21
1168.96265
 31
0.0
  0
LINE
  5
228
100
AcDbEntity
  8
本体
  6
CONTINUOUS
 62
     6
100
AcDbLine
 10
861.198062
 20
1165.184174
 30
0.0
 11
822.398062
 21
1169.331442
 31
0.0
  0
LINE
  5
229
100
AcDbEntity
  8
本体
  6
CONTINUOUS
 62
     6
100
AcDbLine
 10
822.801938
 20
1164.109919
 30
0.0
 11
861.601938
 21
1159.96265
 31
0.0
  0
LINE
  5
22A
100
AcDbEntity
  8
本体
  6
CONTINUOUS
 62
     6
100
AcDbLine
 10
861.198062
 20
1156.184174
 30
0.0
 11
822.398062
 21
1160.331442
 31
0.0
  0
LINE
  5
22B
100
AcDbEntity
  8
本体
  6
CONTINUOUS
 62
     6
100
AcDbLine
 10
822.801938
 20
1155.109919
 30
0.0
 11
861.601938
 21
1150.96265
 31
0.0
  0
LINE
  5
22C
100
AcDbEntity
  8
本体
  6
CONTINUOUS
 62
     6
100
AcDbLine
 10
861.198062
 20
1147.184174
 30
0.0
 11
822.398062
 21
1151.331442
 31
0.0
  0
LINE
  5
22D
100
AcDbEntity
  8
本体
  6
CONTINUOUS
 62
     6
100
AcDbLine
 10
822.95
 20
1142.272447
 30
0.0
 11
822.95
 21
1137.094093
 31
0.0
  0
LINE
  5
22E
100
AcDbEntity
  8
本体
  6
CONTINUOUS
 62
     6
100
AcDbLine
 10
861.05
 20
1138.2
 30
0.0
 11
861.05
 21
1133.021646
 31
0.0
  0
LINE
  5
22F
100
AcDbEntity
  8
本体
  6
CONTINUOUS
 62
     6
100
AcDbLine
 10
861.05
 20
1147.2
 30
0.0
 11
861.05
 21
1142.021646
 31
0.0
  0
ARC
  5
230
100
AcDbEntity
  8
本体
  6
CONTINUOUS
 62
     6
100
AcDbCircle
 10
822.6
 20
1144.220681
 30
0.0
 40
1.9
100
AcDbArc
 50
83.898913
 51
263.898913
  0
ARC
  5
231
100
AcDbEntity
  8
本体
  6
CONTINUOUS
 62
     6
100
AcDbCircle
 10
822.6
 20
1135.220681
 30
0.0
 40
1.9
100
AcDbArc
 50
83.898913
 51
263.898913
  0
ARC
  5
232
100
AcDbEntity
  8
本体
  6
CONTINUOUS
 62
     6
100
AcDbCircle
 10
861.4
 20
1140.073412
 30
0.0
 40
1.9
100
AcDbArc
 50
263.898913
 51
83.898913
  0
ARC
  5
233
100
AcDbEntity
  8
本体
  6
CONTINUOUS
 62
     6
100
AcDbCircle
 10
861.4
 20
1131.073412
 30
0.0
 40
1.9
100
AcDbArc
 50
263.898913
 51
83.898913
  0
LINE
  5
234
100
AcDbEntity
  8
本体
  6
CONTINUOUS
 62
     6
100
AcDbLine
 10
822.801938
 20
1146.109919
 30
0.0
 11
861.601938
 21
1141.96265
 31
0.0
  0
LINE
  5
235
100
AcDbEntity
  8
本体
  6
CONTINUOUS
 62
     6
100
AcDbLine
 10
861.198062
 20
1138.184174
 30
0.0
 11
822.398062
 21
1142.331442
 31
0.0
  0
LINE
  5
236
100
AcDbEntity
  8
本体
  6
CONTINUOUS
 62
     6
100
AcDbLine
 10
822.801938
 20
1137.109919
 30
0.0
 11
861.601938
 21
1132.96265
 31
0.0
  0
LINE
  5
237
100
AcDbEntity
  8
本体
  6
CONTINUOUS
 62
     6
100
AcDbLine
 10
861.198062
 20
1129.184174
 30
0.0
 11
822.398062
 21
1133.331442
 31
0.0
  0
LINE
  5
238
100
AcDbEntity
  8
本体
  6
CONTINUOUS
 62
     6
100
AcDbLine
 10
822.95
 20
1124.272447
 30
0.0
 11
822.95
 21
1119.094093
 31
0.0
  0
LINE
  5
239
100
AcDbEntity
  8
本体
  6
CONTINUOUS
 62
     6
100
AcDbLine
 10
861.05
 20
1120.2
 30
0.0
 11
861.05
 21
1115.021646
 31
0.0
  0
LINE
  5
23A
100
AcDbEntity
  8
本体
  6
CONTINUOUS
 62
     6
100
AcDbLine
 10
861.05
 20
1129.2
 30
0.0
 11
861.05
 21
1124.021646
 31
0.0
  0
ARC
  5
23B
100
AcDbEntity
  8
本体
  6
CONTINUOUS
 62
     6
100
AcDbCircle
 10
822.6
 20
1126.220681
 30
0.0
 40
1.9
100
AcDbArc
 50
83.898913
 51
263.898913
  0
ARC
  5
23C
100
AcDbEntity
  8
本体
  6
CONTINUOUS
 62
     6
100
AcDbCircle
 10
822.6
 20
1117.220681
 30
0.0
 40
1.9
100
AcDbArc
 50
83.898913
 51
263.898913
  0
ARC
  5
23D
100
AcDbEntity
  8
本体
  6
CONTINUOUS
 62
     6
100
AcDbCircle
 10
861.4
 20
1122.073412
 30
0.0
 40
1.9
100
AcDbArc
 50
263.898913
 51
83.898913
  0
ARC
  5
23E
100
AcDbEntity
  8
本体
  6
CONTINUOUS
 62
     6
100
AcDbCircle
 10
861.4
 20
1113.073412
 30
0.0
 40
1.9
100
AcDbArc
 50
263.898913
 51
83.898913
  0
LINE
  5
23F
100
AcDbEntity
  8
本体
  6
CONTINUOUS
 62
     6
100
AcDbLine
 10
822.801938
 20
1128.109919
 30
0.0
 11
861.601938
 21
1123.96265
 31
0.0
  0
LINE
  5
240
100
AcDbEntity
  8
本体
  6
CONTINUOUS
 62
     6
100
AcDbLine
 10
861.198062
 20
1120.184174
 30
0.0
 11
822.398062
 21
1124.331442
 31
0.0
  0
LINE
  5
241
100
AcDbEntity
  8
本体
  6
CONTINUOUS
 62
     6
100
AcDbLine
 10
822.801938
 20
1119.109919
 30
0.0
 11
861.601938
 21
1114.96265
 31
0.0
  0
LINE
  5
242
100
AcDbEntity
  8
本体
  6
CONTINUOUS
 62
     6
100
AcDbLine
 10
861.198062
 20
1111.184174
 30
0.0
 11
822.398062
 21
1115.331442
 31
0.0
  0
LINE
  5
243
100
AcDbEntity
  8
本体
  6
CONTINUOUS
 62
     6
100
AcDbLine
 10
822.95
 20
1106.272447
 30
0.0
 11
822.95
 21
1101.094093
 31
0.0
  0
LINE
  5
244
100
AcDbEntity
  8
本体
  6
CONTINUOUS
 62
     6
100
AcDbLine
 10
861.05
 20
1102.2
 30
0.0
 11
861.05
 21
1097.021646
 31
0.0
  0
LINE
  5
245
100
AcDbEntity
  8
本体
  6
CONTINUOUS
 62
     6
100
AcDbLine
 10
861.05
 20
1111.2
 30
0.0
 11
861.05
 21
1106.021646
 31
0.0
  0
ARC
  5
246
100
AcDbEntity
  8
本体
  6
CONTINUOUS
 62
     6
100
AcDbCircle
 10
822.6
 20
1108.220681
 30
0.0
 40
1.9
100
AcDbArc
 50
83.898913
 51
263.898913
  0
ARC
  5
247
100
AcDbEntity
  8
本体
  6
CONTINUOUS
 62
     6
100
AcDbCircle
 10
822.6
 20
1099.220681
 30
0.0
 40
1.9
100
AcDbArc
 50
83.898913
 51
263.898913
  0
ARC
  5
248
100
AcDbEntity
  8
本体
  6
CONTINUOUS
 62
     6
100
AcDbCircle
 10
861.4
 20
1104.073412
 30
0.0
 40
1.9
100
AcDbArc
 50
263.898913
 51
83.898913
  0
ARC
  5
249
100
AcDbEntity
  8
本体
  6
CONTINUOUS
 62
     6
100
AcDbCircle
 10
861.4
 20
1095.073412
 30
0.0
 40
1.9
100
AcDbArc
 50
263.898913
 51
83.898913
  0
LINE
  5
24A
100
AcDbEntity
  8
本体
  6
CONTINUOUS
 62
     6
100
AcDbLine
 10
822.801938
 20
1110.109919
 30
0.0
 11
861.601938
 21
1105.96265
 31
0.0
  0
LINE
  5
24B
100
AcDbEntity
  8
本体
  6
CONTINUOUS
 62
     6
100
AcDbLine
 10
861.198062
 20
1102.184174
 30
0.0
 11
822.398062
 21
1106.331442
 31
0.0
  0
LINE
  5
24C
100
AcDbEntity
  8
本体
  6
CONTINUOUS
 62
     6
100
AcDbLine
 10
822.801938
 20
1101.109919
 30
0.0
 11
861.601938
 21
1096.96265
 31
0.0
  0
LINE
  5
24D
100
AcDbEntity
  8
本体
  6
CONTINUOUS
 62
     6
100
AcDbLine
 10
861.198062
 20
1093.184174
 30
0.0
 11
822.398062
 21
1097.331442
 31
0.0
  0
LINE
  5
24E
100
AcDbEntity
  8
本体
  6
CONTINUOUS
 62
     6
100
AcDbLine
 10
822.95
 20
1088.272447
 30
0.0
 11
822.95
 21
1083.094093
 31
0.0
  0
LINE
  5
24F
100
AcDbEntity
  8
本体
  6
CONTINUOUS
 62
     6
100
AcDbLine
 10
861.05
 20
1084.2
 30
0.0
 11
861.05
 21
1079.021646
 31
0.0
  0
LINE
  5
250
100
AcDbEntity
  8
本体
  6
CONTINUOUS
 62
     6
100
AcDbLine
 10
861.05
 20
1093.2
 30
0.0
 11
861.05
 21
1088.021646
 31
0.0
  0
ARC
  5
251
100
AcDbEntity
  8
本体
  6
CONTINUOUS
 62
     6
100
AcDbCircle
 10
822.6
 20
1090.220681
 30
0.0
 40
1.9
100
AcDbArc
 50
83.898913
 51
263.898913
  0
ARC
  5
252
100
AcDbEntity
  8
本体
  6
CONTINUOUS
 62
     6
100
AcDbCircle
 10
822.6
 20
1081.220681
 30
0.0
 40
1.9
100
AcDbArc
 50
83.898913
 51
263.898913
  0
ARC
  5
253
100
AcDbEntity
  8
本体
  6
CONTINUOUS
 62
     6
100
AcDbCircle
 10
861.4
 20
1086.073412
 30
0.0
 40
1.9
100
AcDbArc
 50
263.898913
 51
83.898913
  0
ARC
  5
254
100
AcDbEntity
  8
本体
  6
CONTINUOUS
 62
     6
100
AcDbCircle
 10
861.4
 20
1077.073412
 30
0.0
 40
1.9
100
AcDbArc
 50
263.898913
 51
83.898913
  0
LINE
  5
255
100
AcDbEntity
  8
本体
  6
CONTINUOUS
 62
     6
100
AcDbLine
 10
822.801938
 20
1092.109919
 30
0.0
 11
861.601938
 21
1087.96265
 31
0.0
  0
LINE
  5
256
100
AcDbEntity
  8
本体
  6
CONTINUOUS
 62
     6
100
AcDbLine
 10
861.198062
 20
1084.184174
 30
0.0
 11
822.398062
 21
1088.331442
 31
0.0
  0
LINE
  5
257
100
AcDbEntity
  8
本体
  6
CONTINUOUS
 62
     6
100
AcDbLine
 10
822.801938
 20
1083.109919
 30
0.0
 11
861.601938
 21
1078.96265
 31
0.0
  0
LINE
  5
258
100
AcDbEntity
  8
本体
  6
CONTINUOUS
 62
     6
100
AcDbLine
 10
861.198062
 20
1075.184174
 30
0.0
 11
822.398062
 21
1079.331442
 31
0.0
  0
LINE
  5
259
100
AcDbEntity
  8
本体
  6
CONTINUOUS
 62
     6
100
AcDbLine
 10
822.95
 20
1070.272447
 30
0.0
 11
822.95
 21
1065.094093
 31
0.0
  0
LINE
  5
25A
100
AcDbEntity
  8
本体
  6
CONTINUOUS
 62
     6
100
AcDbLine
 10
861.05
 20
1066.2
 30
0.0
 11
861.05
 21
1061.021646
 31
0.0
  0
LINE
  5
25B
100
AcDbEntity
  8
本体
  6
CONTINUOUS
 62
     6
100
AcDbLine
 10
861.05
 20
1075.2
 30
0.0
 11
861.05
 21
1070.021646
 31
0.0
  0
ARC
  5
25C
100
AcDbEntity
  8
本体
  6
CONTINUOUS
 62
     6
100
AcDbCircle
 10
822.6
 20
1072.220681
 30
0.0
 40
1.9
100
AcDbArc
 50
83.898913
 51
263.898913
  0
ARC
  5
25D
100
AcDbEntity
  8
本体
  6
CONTINUOUS
 62
     6
100
AcDbCircle
 10
822.6
 20
1063.220681
 30
0.0
 40
1.9
100
AcDbArc
 50
83.898913
 51
263.898913
  0
ARC
  5
25E
100
AcDbEntity
  8
本体
  6
CONTINUOUS
 62
     6
100
AcDbCircle
 10
861.4
 20
1068.073412
 30
0.0
 40
1.9
100
AcDbArc
 50
263.898913
 51
83.898913
  0
ARC
  5
25F
100
AcDbEntity
  8
本体
  6
CONTINUOUS
 62
     6
100
AcDbCircle
 10
861.4
 20
1059.073412
 30
0.0
 40
1.9
100
AcDbArc
 50
263.898913
 51
83.898913
  0
LINE
  5
260
100
AcDbEntity
  8
本体
  6
CONTINUOUS
 62
     6
100
AcDbLine
 10
822.801938
 20
1074.109919
 30
0.0
 11
861.601938
 21
1069.96265
 31
0.0
  0
LINE
  5
261
100
AcDbEntity
  8
本体
  6
CONTINUOUS
 62
     6
100
AcDbLine
 10
861.198062
 20
1066.184174
 30
0.0
 11
822.398062
 21
1070.331442
 31
0.0
  0
LINE
  5
262
100
AcDbEntity
  8
本体
  6
CONTINUOUS
 62
     6
100
AcDbLine
 10
822.801938
 20
1065.109919
 30
0.0
 11
861.601938
 21
1060.96265
 31
0.0
  0
LINE
  5
263
100
AcDbEntity
  8
本体
  6
CONTINUOUS
 62
     6
100
AcDbLine
 10
861.198062
 20
1057.184174
 30
0.0
 11
822.398062
 21
1061.331442
 31
0.0
  0
LINE
  5
264
100
AcDbEntity
  8
本体
  6
CONTINUOUS
 62
     6
100
AcDbLine
 10
822.95
 20
1052.272447
 30
0.0
 11
822.95
 21
1047.094093
 31
0.0
  0
LINE
  5
265
100
AcDbEntity
  8
本体
  6
CONTINUOUS
 62
     6
100
AcDbLine
 10
861.05
 20
1048.2
 30
0.0
 11
861.05
 21
1043.021646
 31
0.0
  0
LINE
  5
266
100
AcDbEntity
  8
本体
  6
CONTINUOUS
 62
     6
100
AcDbLine
 10
861.05
 20
1057.2
 30
0.0
 11
861.05
 21
1052.021646
 31
0.0
  0
ARC
  5
267
100
AcDbEntity
  8
本体
  6
CONTINUOUS
 62
     6
100
AcDbCircle
 10
822.6
 20
1054.220681
 30
0.0
 40
1.9
100
AcDbArc
 50
83.898913
 51
263.898913
  0
ARC
  5
268
100
AcDbEntity
  8
本体
  6
CONTINUOUS
 62
     6
100
AcDbCircle
 10
822.6
 20
1045.220681
 30
0.0
 40
1.9
100
AcDbArc
 50
83.898913
 51
263.898913
  0
ARC
  5
269
100
AcDbEntity
  8
本体
  6
CONTINUOUS
 62
     6
100
AcDbCircle
 10
861.4
 20
1050.073412
 30
0.0
 40
1.9
100
AcDbArc
 50
263.898913
 51
83.898913
  0
ARC
  5
26A
100
AcDbEntity
  8
本体
  6
CONTINUOUS
 62
     6
100
AcDbCircle
 10
861.4
 20
1041.073412
 30
0.0
 40
1.9
100
AcDbArc
 50
263.898913
 51
83.898913
  0
LINE
  5
26B
100
AcDbEntity
  8
本体
  6
CONTINUOUS
 62
     6
100
AcDbLine
 10
822.801938
 20
1056.109919
 30
0.0
 11
861.601938
 21
1051.96265
 31
0.0
  0
LINE
  5
26C
100
AcDbEntity
  8
本体
  6
CONTINUOUS
 62
     6
100
AcDbLine
 10
861.198062
 20
1048.184174
 30
0.0
 11
822.398062
 21
1052.331442
 31
0.0
  0
LINE
  5
26D
100
AcDbEntity
  8
本体
  6
CONTINUOUS
 62
     6
100
AcDbLine
 10
822.801938
 20
1047.109919
 30
0.0
 11
861.601938
 21
1042.96265
 31
0.0
  0
LINE
  5
26E
100
AcDbEntity
  8
本体
  6
CONTINUOUS
 62
     6
100
AcDbLine
 10
861.198062
 20
1039.184174
 30
0.0
 11
822.398062
 21
1043.331442
 31
0.0
  0
LINE
  5
26F
100
AcDbEntity
  8
本体
  6
CONTINUOUS
 62
     6
100
AcDbLine
 10
822.95
 20
1034.272447
 30
0.0
 11
822.95
 21
1029.094093
 31
0.0
  0
LINE
  5
270
100
AcDbEntity
  8
本体
  6
CONTINUOUS
 62
     6
100
AcDbLine
 10
861.05
 20
1030.2
 30
0.0
 11
861.05
 21
1025.021646
 31
0.0
  0
LINE
  5
271
100
AcDbEntity
  8
本体
  6
CONTINUOUS
 62
     6
100
AcDbLine
 10
861.05
 20
1039.2
 30
0.0
 11
861.05
 21
1034.021646
 31
0.0
  0
ARC
  5
272
100
AcDbEntity
  8
本体
  6
CONTINUOUS
 62
     6
100
AcDbCircle
 10
822.6
 20
1036.220681
 30
0.0
 40
1.9
100
AcDbArc
 50
83.898913
 51
263.898913
  0
ARC
  5
273
100
AcDbEntity
  8
本体
  6
CONTINUOUS
 62
     6
100
AcDbCircle
 10
822.6
 20
1027.220681
 30
0.0
 40
1.9
100
AcDbArc
 50
83.898913
 51
263.898913
  0
ARC
  5
274
100
AcDbEntity
  8
本体
  6
CONTINUOUS
 62
     6
100
AcDbCircle
 10
861.4
 20
1032.073412
 30
0.0
 40
1.9
100
AcDbArc
 50
263.898913
 51
83.898913
  0
ARC
  5
275
100
AcDbEntity
  8
本体
  6
CONTINUOUS
 62
     6
100
AcDbCircle
 10
861.4
 20
1023.073412
 30
0.0
 40
1.9
100
AcDbArc
 50
263.898913
 51
83.898913
  0
LINE
  5
276
100
AcDbEntity
  8
本体
  6
CONTINUOUS
 62
     6
100
AcDbLine
 10
822.801938
 20
1038.109919
 30
0.0
 11
861.601938
 21
1033.96265
 31
0.0
  0
LINE
  5
277
100
AcDbEntity
  8
本体
  6
CONTINUOUS
 62
     6
100
AcDbLine
 10
861.198062
 20
1030.184174
 30
0.0
 11
822.398062
 21
1034.331442
 31
0.0
  0
LINE
  5
278
100
AcDbEntity
  8
本体
  6
CONTINUOUS
 62
     6
100
AcDbLine
 10
822.801938
 20
1029.109919
 30
0.0
 11
861.601938
 21
1024.96265
 31
0.0
  0
LINE
  5
279
100
AcDbEntity
  8
本体
  6
CONTINUOUS
 62
     6
100
AcDbLine
 10
861.198062
 20
1021.184174
 30
0.0
 11
822.398062
 21
1025.331442
 31
0.0
  0
LINE
  5
27A
100
AcDbEntity
  8
本体
  6
CONTINUOUS
 62
     6
100
AcDbLine
 10
822.95
 20
1016.272447
 30
0.0
 11
822.95
 21
1011.094093
 31
0.0
  0
LINE
  5
27B
100
AcDbEntity
  8
本体
  6
CONTINUOUS
 62
     6
100
AcDbLine
 10
861.05
 20
1012.2
 30
0.0
 11
861.05
 21
1007.021646
 31
0.0
  0
LINE
  5
27C
100
AcDbEntity
  8
本体
  6
CONTINUOUS
 62
     6
100
AcDbLine
 10
861.05
 20
1021.2
 30
0.0
 11
861.05
 21
1016.021646
 31
0.0
  0
ARC
  5
27D
100
AcDbEntity
  8
本体
  6
CONTINUOUS
 62
     6
100
AcDbCircle
 10
822.6
 20
1018.220681
 30
0.0
 40
1.9
100
AcDbArc
 50
83.898913
 51
263.898913
  0
ARC
  5
27E
100
AcDbEntity
  8
本体
  6
CONTINUOUS
 62
     6
100
AcDbCircle
 10
822.6
 20
1009.220681
 30
0.0
 40
1.9
100
AcDbArc
 50
83.898913
 51
263.898913
  0
ARC
  5
27F
100
AcDbEntity
  8
本体
  6
CONTINUOUS
 62
     6
100
AcDbCircle
 10
861.4
 20
1014.073412
 30
0.0
 40
1.9
100
AcDbArc
 50
263.898913
 51
83.898913
  0
ARC
  5
280
100
AcDbEntity
  8
本体
  6
CONTINUOUS
 62
     6
100
AcDbCircle
 10
861.4
 20
1005.073412
 30
0.0
 40
1.9
100
AcDbArc
 50
263.898913
 51
83.898913
  0
LINE
  5
281
100
AcDbEntity
  8
本体
  6
CONTINUOUS
 62
     6
100
AcDbLine
 10
822.801938
 20
1020.109919
 30
0.0
 11
861.601938
 21
1015.96265
 31
0.0
  0
LINE
  5
282
100
AcDbEntity
  8
本体
  6
CONTINUOUS
 62
     6
100
AcDbLine
 10
861.198062
 20
1012.184174
 30
0.0
 11
822.398062
 21
1016.331442
 31
0.0
  0
LINE
  5
283
100
AcDbEntity
  8
本体
  6
CONTINUOUS
 62
     6
100
AcDbLine
 10
822.801938
 20
1011.109919
 30
0.0
 11
861.601938
 21
1006.96265
 31
0.0
  0
LINE
  5
284
100
AcDbEntity
  8
本体
  6
CONTINUOUS
 62
     6
100
AcDbLine
 10
861.198062
 20
1003.184174
 30
0.0
 11
822.398062
 21
1007.331442
 31
0.0
  0
LINE
  5
285
100
AcDbEntity
  8
本体
  6
EXLTYPE7
 62
     6
100
AcDbLine
 10
842.0
 20
1345.1
 30
0.0
 11
842.0
 21
996.4
 31
0.0
  0
LINE
  5
286
100
AcDbEntity
  8
本体
  6
CONTINUOUS
 62
     6
100
AcDbLine
 10
822.95
 20
1151.272447
 30
0.0
 11
822.95
 21
1146.094093
 31
0.0
  0
LINE
  5
287
100
AcDbEntity
  8
本体
  6
CONTINUOUS
 62
     6
100
AcDbLine
 10
822.801938
 20
1133.288273
 30
0.0
 11
822.801938
 21
1128.109919
 31
0.0
  0
LINE
  5
288
100
AcDbEntity
  8
本体
  6
CONTINUOUS
 62
     6
100
AcDbLine
 10
822.95
 20
1115.272447
 30
0.0
 11
822.95
 21
1110.094093
 31
0.0
  0
LINE
  5
289
100
AcDbEntity
  8
本体
  6
CONTINUOUS
 62
     6
100
AcDbLine
 10
822.95
 20
1097.272447
 30
0.0
 11
822.95
 21
1092.094093
 31
0.0
  0
LINE
  5
28A
100
AcDbEntity
  8
本体
  6
CONTINUOUS
 62
     6
100
AcDbLine
 10
822.95
 20
1079.272447
 30
0.0
 11
822.95
 21
1074.094093
 31
0.0
  0
LINE
  5
28B
100
AcDbEntity
  8
本体
  6
CONTINUOUS
 62
     6
100
AcDbLine
 10
822.95
 20
1061.272447
 30
0.0
 11
822.95
 21
1056.094093
 31
0.0
  0
LINE
  5
28C
100
AcDbEntity
  8
本体
  6
CONTINUOUS
 62
     6
100
AcDbLine
 10
822.95
 20
1043.272447
 30
0.0
 11
822.95
 21
1038.094093
 31
0.0
  0
LINE
  5
28D
100
AcDbEntity
  8
本体
  6
CONTINUOUS
 62
     6
100
AcDbLine
 10
822.95
 20
1025.272447
 30
0.0
 11
822.95
 21
1020.094093
 31
0.0
  0
ARC
  5
28E
100
AcDbEntity
  8
本体
  6
CONTINUOUS
 62
     6
100
AcDbCircle
 10
822.6
 20
1000.220681
 30
0.0
 40
1.9
100
AcDbArc
 50
83.898913
 51
263.898913
  0
ARC
  5
28F
100
AcDbEntity
  8
本体
  6
CONTINUOUS
 62
     6
100
AcDbCircle
 10
861.4
 20
996.073412
 30
0.0
 40
1.9
100
AcDbArc
 50
263.898913
 51
83.898913
  0
LINE
  5
290
100
AcDbEntity
  8
本体
  6
CONTINUOUS
 62
     6
100
AcDbLine
 10
822.801938
 20
1002.109919
 30
0.0
 11
861.601938
 21
997.96265
 31
0.0
  0
LINE
  5
291
100
AcDbEntity
  8
本体
  6
CONTINUOUS
 62
     6
100
AcDbLine
 10
861.198062
 20
994.184174
 30
0.0
 11
822.398062
 21
998.331442
 31
0.0
  0
LINE
  5
292
100
AcDbEntity
  8
本体
  6
CONTINUOUS
 62
     6
100
AcDbLine
 10
861.05
 20
994.2
 30
0.0
 11
861.05
 21
989.021646
 31
0.0
  0
ARC
  5
293
100
AcDbEntity
  8
本体
  6
CONTINUOUS
 62
     6
100
AcDbCircle
 10
822.6
 20
991.220681
 30
0.0
 40
1.9
100
AcDbArc
 50
83.898913
 51
263.898913
  0
ARC
  5
294
100
AcDbEntity
  8
本体
  6
CONTINUOUS
 62
     6
100
AcDbCircle
 10
861.4
 20
987.073412
 30
0.0
 40
1.9
100
AcDbArc
 50
263.898913
 51
83.898913
  0
LINE
  5
295
100
AcDbEntity
  8
本体
  6
CONTINUOUS
 62
     6
100
AcDbLine
 10
822.801938
 20
993.109919
 30
0.0
 11
861.601938
 21
988.96265
 31
0.0
  0
LINE
  5
296
100
AcDbEntity
  8
本体
  6
CONTINUOUS
 62
     6
100
AcDbLine
 10
822.95
 20
971.272447
 30
0.0
 11
822.95
 21
966.094093
 31
0.0
  0
LINE
  5
297
100
AcDbEntity
  8
本体
  6
CONTINUOUS
 62
     6
100
AcDbLine
 10
861.05
 20
967.2
 30
0.0
 11
861.05
 21
962.021646
 31
0.0
  0
LINE
  5
298
100
AcDbEntity
  8
本体
  6
CONTINUOUS
 62
     6
100
AcDbLine
 10
861.05
 20
976.2
 30
0.0
 11
861.05
 21
971.021646
 31
0.0
  0
ARC
  5
299
100
AcDbEntity
  8
本体
  6
CONTINUOUS
 62
     6
100
AcDbCircle
 10
822.6
 20
973.220681
 30
0.0
 40
1.9
100
AcDbArc
 50
83.898913
 51
263.898913
  0
ARC
  5
29A
100
AcDbEntity
  8
本体
  6
CONTINUOUS
 62
     6
100
AcDbCircle
 10
822.6
 20
964.220681
 30
0.0
 40
1.9
100
AcDbArc
 50
83.898913
 51
263.898913
  0
ARC
  5
29B
100
AcDbEntity
  8
本体
  6
CONTINUOUS
 62
     6
100
AcDbCircle
 10
861.4
 20
969.073412
 30
0.0
 40
1.9
100
AcDbArc
 50
263.898913
 51
83.898913
  0
ARC
  5
29C
100
AcDbEntity
  8
本体
  6
CONTINUOUS
 62
     6
100
AcDbCircle
 10
861.4
 20
960.073412
 30
0.0
 40
1.9
100
AcDbArc
 50
263.898913
 51
83.898913
  0
LINE
  5
29D
100
AcDbEntity
  8
本体
  6
CONTINUOUS
 62
     6
100
AcDbLine
 10
822.801938
 20
975.109919
 30
0.0
 11
861.601938
 21
970.96265
 31
0.0
  0
LINE
  5
29E
100
AcDbEntity
  8
本体
  6
CONTINUOUS
 62
     6
100
AcDbLine
 10
861.198062
 20
967.184174
 30
0.0
 11
822.398062
 21
971.331442
 31
0.0
  0
LINE
  5
29F
100
AcDbEntity
  8
本体
  6
CONTINUOUS
 62
     6
100
AcDbLine
 10
822.801938
 20
966.109919
 30
0.0
 11
861.601938
 21
961.96265
 31
0.0
  0
LINE
  5
2A0
100
AcDbEntity
  8
本体
  6
CONTINUOUS
 62
     6
100
AcDbLine
 10
861.198062
 20
958.184174
 30
0.0
 11
822.398062
 21
962.331442
 31
0.0
  0
LINE
  5
2A1
100
AcDbEntity
  8
本体
  6
CONTINUOUS
 62
     6
100
AcDbLine
 10
822.95
 20
953.272447
 30
0.0
 11
822.95
 21
948.094093
 31
0.0
  0
LINE
  5
2A2
100
AcDbEntity
  8
本体
  6
CONTINUOUS
 62
     6
100
AcDbLine
 10
861.05
 20
949.2
 30
0.0
 11
861.05
 21
944.021646
 31
0.0
  0
LINE
  5
2A3
100
AcDbEntity
  8
本体
  6
CONTINUOUS
 62
     6
100
AcDbLine
 10
861.05
 20
958.2
 30
0.0
 11
861.05
 21
953.021646
 31
0.0
  0
ARC
  5
2A4
100
AcDbEntity
  8
本体
  6
CONTINUOUS
 62
     6
100
AcDbCircle
 10
822.6
 20
955.220681
 30
0.0
 40
1.9
100
AcDbArc
 50
83.898913
 51
263.898913
  0
ARC
  5
2A5
100
AcDbEntity
  8
本体
  6
CONTINUOUS
 62
     6
100
AcDbCircle
 10
822.6
 20
946.220681
 30
0.0
 40
1.9
100
AcDbArc
 50
83.898913
 51
263.898913
  0
ARC
  5
2A6
100
AcDbEntity
  8
本体
  6
CONTINUOUS
 62
     6
100
AcDbCircle
 10
861.4
 20
951.073412
 30
0.0
 40
1.9
100
AcDbArc
 50
263.898913
 51
83.898913
  0
ARC
  5
2A7
100
AcDbEntity
  8
本体
  6
CONTINUOUS
 62
     6
100
AcDbCircle
 10
861.4
 20
942.073412
 30
0.0
 40
1.9
100
AcDbArc
 50
263.898913
 51
83.898913
  0
LINE
  5
2A8
100
AcDbEntity
  8
本体
  6
CONTINUOUS
 62
     6
100
AcDbLine
 10
822.801938
 20
957.109919
 30
0.0
 11
861.601938
 21
952.96265
 31
0.0
  0
LINE
  5
2A9
100
AcDbEntity
  8
本体
  6
CONTINUOUS
 62
     6
100
AcDbLine
 10
861.198062
 20
949.184174
 30
0.0
 11
822.398062
 21
953.331442
 31
0.0
  0
LINE
  5
2AA
100
AcDbEntity
  8
本体
  6
CONTINUOUS
 62
     6
100
AcDbLine
 10
822.801938
 20
948.109919
 30
0.0
 11
861.601938
 21
943.96265
 31
0.0
  0
LINE
  5
2AB
100
AcDbEntity
  8
本体
  6
CONTINUOUS
 62
     6
100
AcDbLine
 10
861.198062
 20
940.184174
 30
0.0
 11
822.398062
 21
944.331442
 31
0.0
  0
LINE
  5
2AC
100
AcDbEntity
  8
本体
  6
CONTINUOUS
 62
     6
100
AcDbLine
 10
822.95
 20
935.272447
 30
0.0
 11
822.95
 21
930.094093
 31
0.0
  0
LINE
  5
2AD
100
AcDbEntity
  8
本体
  6
CONTINUOUS
 62
     6
100
AcDbLine
 10
861.05
 20
931.2
 30
0.0
 11
861.05
 21
926.021646
 31
0.0
  0
LINE
  5
2AE
100
AcDbEntity
  8
本体
  6
CONTINUOUS
 62
     6
100
AcDbLine
 10
861.05
 20
940.2
 30
0.0
 11
861.05
 21
935.021646
 31
0.0
  0
ARC
  5
2AF
100
AcDbEntity
  8
本体
  6
CONTINUOUS
 62
     6
100
AcDbCircle
 10
822.6
 20
937.220681
 30
0.0
 40
1.9
100
AcDbArc
 50
83.898913
 51
263.898913
  0
ARC
  5
2B0
100
AcDbEntity
  8
本体
  6
CONTINUOUS
 62
     6
100
AcDbCircle
 10
822.6
 20
928.220681
 30
0.0
 40
1.9
100
AcDbArc
 50
83.898913
 51
263.898913
  0
ARC
  5
2B1
100
AcDbEntity
  8
本体
  6
CONTINUOUS
 62
     6
100
AcDbCircle
 10
861.4
 20
933.073412
 30
0.0
 40
1.9
100
AcDbArc
 50
263.898913
 51
83.898913
  0
ARC
  5
2B2
100
AcDbEntity
  8
本体
  6
CONTINUOUS
 62
     6
100
AcDbCircle
 10
861.4
 20
924.073412
 30
0.0
 40
1.9
100
AcDbArc
 50
263.898913
 51
83.898913
  0
LINE
  5
2B3
100
AcDbEntity
  8
本体
  6
CONTINUOUS
 62
     6
100
AcDbLine
 10
822.801938
 20
939.109919
 30
0.0
 11
861.601938
 21
934.96265
 31
0.0
  0
LINE
  5
2B4
100
AcDbEntity
  8
本体
  6
CONTINUOUS
 62
     6
100
AcDbLine
 10
861.198062
 20
931.184174
 30
0.0
 11
822.398062
 21
935.331442
 31
0.0
  0
LINE
  5
2B5
100
AcDbEntity
  8
本体
  6
CONTINUOUS
 62
     6
100
AcDbLine
 10
822.801938
 20
930.109919
 30
0.0
 11
861.601938
 21
925.96265
 31
0.0
  0
LINE
  5
2B6
100
AcDbEntity
  8
本体
  6
CONTINUOUS
 62
     6
100
AcDbLine
 10
861.198062
 20
922.184174
 30
0.0
 11
822.398062
 21
926.331442
 31
0.0
  0
LINE
  5
2B7
100
AcDbEntity
  8
本体
  6
CONTINUOUS
 62
     6
100
AcDbLine
 10
822.95
 20
917.272447
 30
0.0
 11
822.95
 21
912.094093
 31
0.0
  0
LINE
  5
2B8
100
AcDbEntity
  8
本体
  6
CONTINUOUS
 62
     6
100
AcDbLine
 10
861.05
 20
913.2
 30
0.0
 11
861.05
 21
908.021646
 31
0.0
  0
LINE
  5
2B9
100
AcDbEntity
  8
本体
  6
CONTINUOUS
 62
     6
100
AcDbLine
 10
861.05
 20
922.2
 30
0.0
 11
861.05
 21
917.021646
 31
0.0
  0
ARC
  5
2BA
100
AcDbEntity
  8
本体
  6
CONTINUOUS
 62
     6
100
AcDbCircle
 10
822.6
 20
919.220681
 30
0.0
 40
1.9
100
AcDbArc
 50
83.898913
 51
263.898913
  0
ARC
  5
2BB
100
AcDbEntity
  8
本体
  6
CONTINUOUS
 62
     6
100
AcDbCircle
 10
822.6
 20
910.220681
 30
0.0
 40
1.9
100
AcDbArc
 50
83.898913
 51
263.898913
  0
ARC
  5
2BC
100
AcDbEntity
  8
本体
  6
CONTINUOUS
 62
     6
100
AcDbCircle
 10
861.4
 20
915.073412
 30
0.0
 40
1.9
100
AcDbArc
 50
263.898913
 51
83.898913
  0
ARC
  5
2BD
100
AcDbEntity
  8
本体
  6
CONTINUOUS
 62
     6
100
AcDbCircle
 10
861.4
 20
906.073412
 30
0.0
 40
1.9
100
AcDbArc
 50
263.898913
 51
83.898913
  0
LINE
  5
2BE
100
AcDbEntity
  8
本体
  6
CONTINUOUS
 62
     6
100
AcDbLine
 10
822.801938
 20
921.109919
 30
0.0
 11
861.601938
 21
916.96265
 31
0.0
  0
LINE
  5
2BF
100
AcDbEntity
  8
本体
  6
CONTINUOUS
 62
     6
100
AcDbLine
 10
861.198062
 20
913.184174
 30
0.0
 11
822.398062
 21
917.331442
 31
0.0
  0
LINE
  5
2C0
100
AcDbEntity
  8
本体
  6
CONTINUOUS
 62
     6
100
AcDbLine
 10
822.801938
 20
912.109919
 30
0.0
 11
861.601938
 21
907.96265
 31
0.0
  0
LINE
  5
2C1
100
AcDbEntity
  8
本体
  6
CONTINUOUS
 62
     6
100
AcDbLine
 10
861.198062
 20
904.184174
 30
0.0
 11
822.398062
 21
908.331442
 31
0.0
  0
LINE
  5
2C2
100
AcDbEntity
  8
本体
  6
CONTINUOUS
 62
     6
100
AcDbLine
 10
822.95
 20
998.272447
 30
0.0
 11
822.95
 21
993.094093
 31
0.0
  0
LINE
  5
2C3
100
AcDbEntity
  8
本体
  6
CONTINUOUS
 62
     6
100
AcDbLine
 10
822.95
 20
980.272447
 30
0.0
 11
822.95
 21
975.094093
 31
0.0
  0
LINE
  5
2C4
100
AcDbEntity
  8
本体
  6
CONTINUOUS
 62
     6
100
AcDbLine
 10
822.95
 20
962.272447
 30
0.0
 11
822.95
 21
957.094093
 31
0.0
  0
LINE
  5
2C5
100
AcDbEntity
  8
本体
  6
CONTINUOUS
 62
     6
100
AcDbLine
 10
822.95
 20
944.272447
 30
0.0
 11
822.95
 21
939.094093
 31
0.0
  0
LINE
  5
2C6
100
AcDbEntity
  8
本体
  6
CONTINUOUS
 62
     6
100
AcDbLine
 10
822.95
 20
926.272447
 30
0.0
 11
822.95
 21
921.094093
 31
0.0
  0
LINE
  5
2C7
100
AcDbEntity
  8
本体
  6
CONTINUOUS
 62
     6
100
AcDbLine
 10
822.95
 20
1007.272447
 30
0.0
 11
822.95
 21
1002.094093
 31
0.0
  0
LINE
  5
2C8
100
AcDbEntity
  8
本体
  6
CONTINUOUS
 62
     6
100
AcDbLine
 10
861.05
 20
1003.2
 30
0.0
 11
861.05
 21
998.021646
 31
0.0
  0
ARC
  5
2C9
100
AcDbEntity
  8
本体
  6
CONTINUOUS
 62
     6
100
AcDbCircle
 10
822.6
 20
901.220681
 30
0.0
 40
1.9
100
AcDbArc
 50
83.898913
 51
263.898913
  0
ARC
  5
2CA
100
AcDbEntity
  8
本体
  6
CONTINUOUS
 62
     6
100
AcDbCircle
 10
861.4
 20
897.073412
 30
0.0
 40
1.9
100
AcDbArc
 50
263.898913
 51
83.898913
  0
LINE
  5
2CB
100
AcDbEntity
  8
本体
  6
CONTINUOUS
 62
     6
100
AcDbLine
 10
822.801938
 20
903.109919
 30
0.0
 11
861.601938
 21
898.96265
 31
0.0
  0
LINE
  5
2CC
100
AcDbEntity
  8
本体
  6
CONTINUOUS
 62
     6
100
AcDbLine
 10
861.198062
 20
895.184174
 30
0.0
 11
822.398062
 21
899.331442
 31
0.0
  0
LINE
  5
2CD
100
AcDbEntity
  8
本体
  6
CONTINUOUS
 62
     6
100
AcDbLine
 10
822.95
 20
890.272447
 30
0.0
 11
822.95
 21
885.094093
 31
0.0
  0
LINE
  5
2CE
100
AcDbEntity
  8
本体
  6
CONTINUOUS
 62
     6
100
AcDbLine
 10
861.05
 20
886.2
 30
0.0
 11
861.05
 21
881.021646
 31
0.0
  0
LINE
  5
2CF
100
AcDbEntity
  8
本体
  6
CONTINUOUS
 62
     6
100
AcDbLine
 10
861.05
 20
895.2
 30
0.0
 11
861.05
 21
890.021646
 31
0.0
  0
ARC
  5
2D0
100
AcDbEntity
  8
本体
  6
CONTINUOUS
 62
     6
100
AcDbCircle
 10
822.6
 20
892.220681
 30
0.0
 40
1.9
100
AcDbArc
 50
83.898913
 51
263.898913
  0
ARC
  5
2D1
100
AcDbEntity
  8
本体
  6
CONTINUOUS
 62
     6
100
AcDbCircle
 10
822.6
 20
883.220681
 30
0.0
 40
1.9
100
AcDbArc
 50
83.898913
 51
263.898913
  0
ARC
  5
2D2
100
AcDbEntity
  8
本体
  6
CONTINUOUS
 62
     6
100
AcDbCircle
 10
861.4
 20
888.073412
 30
0.0
 40
1.9
100
AcDbArc
 50
263.898913
 51
83.898913
  0
ARC
  5
2D3
100
AcDbEntity
  8
本体
  6
CONTINUOUS
 62
     6
100
AcDbCircle
 10
861.4
 20
879.073412
 30
0.0
 40
1.9
100
AcDbArc
 50
263.898913
 51
83.898913
  0
LINE
  5
2D4
100
AcDbEntity
  8
本体
  6
CONTINUOUS
 62
     6
100
AcDbLine
 10
822.801938
 20
894.109919
 30
0.0
 11
861.601938
 21
889.96265
 31
0.0
  0
LINE
  5
2D5
100
AcDbEntity
  8
本体
  6
CONTINUOUS
 62
     6
100
AcDbLine
 10
861.198062
 20
886.184174
 30
0.0
 11
822.398062
 21
890.331442
 31
0.0
  0
LINE
  5
2D6
100
AcDbEntity
  8
本体
  6
CONTINUOUS
 62
     6
100
AcDbLine
 10
822.801938
 20
885.109919
 30
0.0
 11
861.601938
 21
880.96265
 31
0.0
  0
LINE
  5
2D7
100
AcDbEntity
  8
本体
  6
CONTINUOUS
 62
     6
100
AcDbLine
 10
861.198062
 20
877.184174
 30
0.0
 11
822.398062
 21
881.331442
 31
0.0
  0
LINE
  5
2D8
100
AcDbEntity
  8
本体
  6
CONTINUOUS
 62
     6
100
AcDbLine
 10
822.95
 20
872.272447
 30
0.0
 11
822.95
 21
867.094093
 31
0.0
  0
LINE
  5
2D9
100
AcDbEntity
  8
本体
  6
CONTINUOUS
 62
     6
100
AcDbLine
 10
861.05
 20
868.2
 30
0.0
 11
861.05
 21
863.021646
 31
0.0
  0
LINE
  5
2DA
100
AcDbEntity
  8
本体
  6
CONTINUOUS
 62
     6
100
AcDbLine
 10
861.05
 20
877.2
 30
0.0
 11
861.05
 21
872.021646
 31
0.0
  0
ARC
  5
2DB
100
AcDbEntity
  8
本体
  6
CONTINUOUS
 62
     6
100
AcDbCircle
 10
822.6
 20
874.220681
 30
0.0
 40
1.9
100
AcDbArc
 50
83.898913
 51
263.898913
  0
ARC
  5
2DC
100
AcDbEntity
  8
本体
  6
CONTINUOUS
 62
     6
100
AcDbCircle
 10
822.6
 20
865.220681
 30
0.0
 40
1.9
100
AcDbArc
 50
83.898913
 51
263.898913
  0
ARC
  5
2DD
100
AcDbEntity
  8
本体
  6
CONTINUOUS
 62
     6
100
AcDbCircle
 10
861.4
 20
870.073412
 30
0.0
 40
1.9
100
AcDbArc
 50
263.898913
 51
83.898913
  0
ARC
  5
2DE
100
AcDbEntity
  8
本体
  6
CONTINUOUS
 62
     6
100
AcDbCircle
 10
861.4
 20
861.073412
 30
0.0
 40
1.9
100
AcDbArc
 50
263.898913
 51
83.898913
  0
LINE
  5
2DF
100
AcDbEntity
  8
本体
  6
CONTINUOUS
 62
     6
100
AcDbLine
 10
822.801938
 20
876.109919
 30
0.0
 11
861.601938
 21
871.96265
 31
0.0
  0
LINE
  5
2E0
100
AcDbEntity
  8
本体
  6
CONTINUOUS
 62
     6
100
AcDbLine
 10
861.198062
 20
868.184174
 30
0.0
 11
822.398062
 21
872.331442
 31
0.0
  0
LINE
  5
2E1
100
AcDbEntity
  8
本体
  6
CONTINUOUS
 62
     6
100
AcDbLine
 10
822.801938
 20
867.109919
 30
0.0
 11
861.601938
 21
862.96265
 31
0.0
  0
LINE
  5
2E2
100
AcDbEntity
  8
本体
  6
CONTINUOUS
 62
     6
100
AcDbLine
 10
861.198062
 20
859.184174
 30
0.0
 11
822.398062
 21
863.331442
 31
0.0
  0
LINE
  5
2E3
100
AcDbEntity
  8
本体
  6
CONTINUOUS
 62
     6
100
AcDbLine
 10
822.95
 20
854.272447
 30
0.0
 11
822.95
 21
849.094093
 31
0.0
  0
LINE
  5
2E4
100
AcDbEntity
  8
本体
  6
CONTINUOUS
 62
     6
100
AcDbLine
 10
861.05
 20
850.2
 30
0.0
 11
861.05
 21
845.021646
 31
0.0
  0
LINE
  5
2E5
100
AcDbEntity
  8
本体
  6
CONTINUOUS
 62
     6
100
AcDbLine
 10
861.05
 20
859.2
 30
0.0
 11
861.05
 21
854.021646
 31
0.0
  0
ARC
  5
2E6
100
AcDbEntity
  8
本体
  6
CONTINUOUS
 62
     6
100
AcDbCircle
 10
822.6
 20
856.220681
 30
0.0
 40
1.9
100
AcDbArc
 50
83.898913
 51
263.898913
  0
ARC
  5
2E7
100
AcDbEntity
  8
本体
  6
CONTINUOUS
 62
     6
100
AcDbCircle
 10
822.6
 20
847.220681
 30
0.0
 40
1.9
100
AcDbArc
 50
83.898913
 51
263.898913
  0
ARC
  5
2E8
100
AcDbEntity
  8
本体
  6
CONTINUOUS
 62
     6
100
AcDbCircle
 10
861.4
 20
852.073412
 30
0.0
 40
1.9
100
AcDbArc
 50
263.898913
 51
83.898913
  0
ARC
  5
2E9
100
AcDbEntity
  8
本体
  6
CONTINUOUS
 62
     6
100
AcDbCircle
 10
861.4
 20
843.073412
 30
0.0
 40
1.9
100
AcDbArc
 50
263.898913
 51
83.898913
  0
LINE
  5
2EA
100
AcDbEntity
  8
本体
  6
CONTINUOUS
 62
     6
100
AcDbLine
 10
822.801938
 20
858.109919
 30
0.0
 11
861.601938
 21
853.96265
 31
0.0
  0
LINE
  5
2EB
100
AcDbEntity
  8
本体
  6
CONTINUOUS
 62
     6
100
AcDbLine
 10
861.198062
 20
850.184174
 30
0.0
 11
822.398062
 21
854.331442
 31
0.0
  0
LINE
  5
2EC
100
AcDbEntity
  8
本体
  6
CONTINUOUS
 62
     6
100
AcDbLine
 10
822.801938
 20
849.109919
 30
0.0
 11
861.601938
 21
844.96265
 31
0.0
  0
LINE
  5
2ED
100
AcDbEntity
  8
本体
  6
CONTINUOUS
 62
     6
100
AcDbLine
 10
861.198062
 20
841.184174
 30
0.0
 11
822.398062
 21
845.331442
 31
0.0
  0
LINE
  5
2EE
100
AcDbEntity
  8
本体
  6
CONTINUOUS
 62
     6
100
AcDbLine
 10
822.95
 20
836.272447
 30
0.0
 11
822.95
 21
831.094093
 31
0.0
  0
LINE
  5
2EF
100
AcDbEntity
  8
本体
  6
CONTINUOUS
 62
     6
100
AcDbLine
 10
861.05
 20
832.2
 30
0.0
 11
861.05
 21
827.021646
 31
0.0
  0
LINE
  5
2F0
100
AcDbEntity
  8
本体
  6
CONTINUOUS
 62
     6
100
AcDbLine
 10
861.05
 20
841.2
 30
0.0
 11
861.05
 21
836.021646
 31
0.0
  0
ARC
  5
2F1
100
AcDbEntity
  8
本体
  6
CONTINUOUS
 62
     6
100
AcDbCircle
 10
822.6
 20
838.220681
 30
0.0
 40
1.9
100
AcDbArc
 50
83.898913
 51
263.898913
  0
ARC
  5
2F2
100
AcDbEntity
  8
本体
  6
CONTINUOUS
 62
     6
100
AcDbCircle
 10
822.6
 20
829.220681
 30
0.0
 40
1.9
100
AcDbArc
 50
83.898913
 51
263.898913
  0
ARC
  5
2F3
100
AcDbEntity
  8
本体
  6
CONTINUOUS
 62
     6
100
AcDbCircle
 10
861.4
 20
834.073412
 30
0.0
 40
1.9
100
AcDbArc
 50
263.898913
 51
83.898913
  0
ARC
  5
2F4
100
AcDbEntity
  8
本体
  6
CONTINUOUS
 62
     6
100
AcDbCircle
 10
861.4
 20
825.073412
 30
0.0
 40
1.9
100
AcDbArc
 50
263.898913
 51
83.898913
  0
LINE
  5
2F5
100
AcDbEntity
  8
本体
  6
CONTINUOUS
 62
     6
100
AcDbLine
 10
822.801938
 20
840.109919
 30
0.0
 11
861.601938
 21
835.96265
 31
0.0
  0
LINE
  5
2F6
100
AcDbEntity
  8
本体
  6
CONTINUOUS
 62
     6
100
AcDbLine
 10
861.198062
 20
832.184174
 30
0.0
 11
822.398062
 21
836.331442
 31
0.0
  0
LINE
  5
2F7
100
AcDbEntity
  8
本体
  6
CONTINUOUS
 62
     6
100
AcDbLine
 10
822.801938
 20
831.109919
 30
0.0
 11
861.601938
 21
826.96265
 31
0.0
  0
LINE
  5
2F8
100
AcDbEntity
  8
本体
  6
CONTINUOUS
 62
     6
100
AcDbLine
 10
861.198062
 20
823.184174
 30
0.0
 11
822.398062
 21
827.331442
 31
0.0
  0
LINE
  5
2F9
100
AcDbEntity
  8
本体
  6
CONTINUOUS
 62
     6
100
AcDbLine
 10
822.95
 20
818.272447
 30
0.0
 11
822.95
 21
813.094093
 31
0.0
  0
LINE
  5
2FA
100
AcDbEntity
  8
本体
  6
CONTINUOUS
 62
     6
100
AcDbLine
 10
861.05
 20
814.2
 30
0.0
 11
861.05
 21
809.021646
 31
0.0
  0
LINE
  5
2FB
100
AcDbEntity
  8
本体
  6
CONTINUOUS
 62
     6
100
AcDbLine
 10
861.05
 20
823.2
 30
0.0
 11
861.05
 21
818.021646
 31
0.0
  0
ARC
  5
2FC
100
AcDbEntity
  8
本体
  6
CONTINUOUS
 62
     6
100
AcDbCircle
 10
822.6
 20
820.220681
 30
0.0
 40
1.9
100
AcDbArc
 50
83.898913
 51
263.898913
  0
ARC
  5
2FD
100
AcDbEntity
  8
本体
  6
CONTINUOUS
 62
     6
100
AcDbCircle
 10
822.6
 20
811.220681
 30
0.0
 40
1.9
100
AcDbArc
 50
83.898913
 51
263.898913
  0
ARC
  5
2FE
100
AcDbEntity
  8
本体
  6
CONTINUOUS
 62
     6
100
AcDbCircle
 10
861.4
 20
816.073412
 30
0.0
 40
1.9
100
AcDbArc
 50
263.898913
 51
83.898913
  0
ARC
  5
2FF
100
AcDbEntity
  8
本体
  6
CONTINUOUS
 62
     6
100
AcDbCircle
 10
861.4
 20
807.073412
 30
0.0
 40
1.9
100
AcDbArc
 50
263.898913
 51
83.898913
  0
LINE
  5
300
100
AcDbEntity
  8
本体
  6
CONTINUOUS
 62
     6
100
AcDbLine
 10
822.801938
 20
822.109919
 30
0.0
 11
861.601938
 21
817.96265
 31
0.0
  0
LINE
  5
301
100
AcDbEntity
  8
本体
  6
CONTINUOUS
 62
     6
100
AcDbLine
 10
861.198062
 20
814.184174
 30
0.0
 11
822.398062
 21
818.331442
 31
0.0
  0
LINE
  5
302
100
AcDbEntity
  8
本体
  6
CONTINUOUS
 62
     6
100
AcDbLine
 10
822.801938
 20
813.109919
 30
0.0
 11
861.601938
 21
808.96265
 31
0.0
  0
LINE
  5
303
100
AcDbEntity
  8
本体
  6
CONTINUOUS
 62
     6
100
AcDbLine
 10
822.95
 20
899.272447
 30
0.0
 11
822.95
 21
894.094093
 31
0.0
  0
LINE
  5
304
100
AcDbEntity
  8
本体
  6
CONTINUOUS
 62
     6
100
AcDbLine
 10
822.95
 20
881.272447
 30
0.0
 11
822.95
 21
876.094093
 31
0.0
  0
LINE
  5
305
100
AcDbEntity
  8
本体
  6
CONTINUOUS
 62
     6
100
AcDbLine
 10
822.95
 20
863.272447
 30
0.0
 11
822.95
 21
858.094093
 31
0.0
  0
LINE
  5
306
100
AcDbEntity
  8
本体
  6
CONTINUOUS
 62
     6
100
AcDbLine
 10
822.95
 20
845.272447
 30
0.0
 11
822.95
 21
840.094093
 31
0.0
  0
LINE
  5
307
100
AcDbEntity
  8
本体
  6
CONTINUOUS
 62
     6
100
AcDbLine
 10
822.95
 20
827.272447
 30
0.0
 11
822.95
 21
822.094093
 31
0.0
  0
LINE
  5
308
100
AcDbEntity
  8
本体
  6
CONTINUOUS
 62
     6
100
AcDbLine
 10
822.95
 20
908.272447
 30
0.0
 11
822.95
 21
903.094093
 31
0.0
  0
LINE
  5
309
100
AcDbEntity
  8
本体
  6
CONTINUOUS
 62
     6
100
AcDbLine
 10
861.05
 20
904.2
 30
0.0
 11
861.05
 21
899.021646
 31
0.0
  0
LINE
  5
30A
100
AcDbEntity
  8
本体
  6
CONTINUOUS
 62
     6
100
AcDbLine
 10
861.05
 20
805.2
 30
0.0
 11
822.398062
 21
809.331442
 31
0.0
  0
LINE
  5
30B
100
AcDbEntity
  8
本体
  6
CONTINUOUS
 62
     6
100
AcDbLine
 10
822.95
 20
809.272447
 30
0.0
 11
822.95
 21
805.2
 31
0.0
  0
LINE
  5
30C
100
AcDbEntity
  8
本体
  6
CONTINUOUS
 62
     6
100
AcDbLine
 10
822.95
 20
805.2
 30
0.0
 11
861.05
 21
805.2
 31
0.0
  0
POLYLINE
  5
30D
100
AcDbEntity
  8
本体
  6
CONTINUOUS
 62
     6
100
AcDb2dPolyline
 66
     1
 10
0.0
 20
0.0
 30
0.0
 70
   128
  0
VERTEX
  5
30E
100
AcDbEntity
  8
本体
  6
CONTINUOUS
 62
     6
100
AcDbVertex
100
AcDb2dVertex
 10
816.0
 20
987.0
 30
0.0
  0
VERTEX
  5
30F
100
AcDbEntity
  8
本体
  6
CONTINUOUS
 62
     6
100
AcDbVertex
100
AcDb2dVertex
 10
816.295389
 20
987.138044
 30
0.0
  0
VERTEX
  5
310
100
AcDbEntity
  8
本体
  6
CONTINUOUS
 62
     6
100
AcDbVertex
100
AcDb2dVertex
 10
817.129717
 20
987.512471
 30
0.0
  0
VERTEX
  5
311
100
AcDbEntity
  8
本体
  6
CONTINUOUS
 62
     6
100
AcDbVertex
100
AcDb2dVertex
 10
818.425221
 20
988.063726
 30
0.0
  0
VERTEX
  5
312
100
AcDbEntity
  8
本体
  6
CONTINUOUS
 62
     6
100
AcDbVertex
100
AcDb2dVertex
 10
820.104141
 20
988.732251
 30
0.0
  0
VERTEX
  5
313
100
AcDbEntity
  8
本体
  6
CONTINUOUS
 62
     6
100
AcDbVertex
100
AcDb2dVertex
 10
822.088715
 20
989.45849
 30
0.0
  0
VERTEX
  5
314
100
AcDbEntity
  8
本体
  6
CONTINUOUS
 62
     6
100
AcDbVertex
100
AcDb2dVertex
 10
824.301182
 20
990.182887
 30
0.0
  0
VERTEX
  5
315
100
AcDbEntity
  8
本体
  6
CONTINUOUS
 62
     6
100
AcDbVertex
100
AcDb2dVertex
 10
826.663781
 20
990.845885
 30
0.0
  0
VERTEX
  5
316
100
AcDbEntity
  8
本体
  6
CONTINUOUS
 62
     6
100
AcDbVertex
100
AcDb2dVertex
 10
829.09875
 20
991.387927
 30
0.0
  0
VERTEX
  5
317
100
AcDbEntity
  8
本体
  6
CONTINUOUS
 62
     6
100
AcDbVertex
100
AcDb2dVertex
 10
831.52833
 20
991.749458
 30
0.0
  0
VERTEX
  5
318
100
AcDbEntity
  8
本体
  6
CONTINUOUS
 62
     6
100
AcDbVertex
100
AcDb2dVertex
 10
833.874757
 20
991.87092
 30
0.0
  0
VERTEX
  5
319
100
AcDbEntity
  8
本体
  6
CONTINUOUS
 62
     6
100
AcDbVertex
100
AcDb2dVertex
 10
836.060271
 20
991.692757
 30
0.0
  0
VERTEX
  5
31A
100
AcDbEntity
  8
本体
  6
CONTINUOUS
 62
     6
100
AcDbVertex
100
AcDb2dVertex
 10
837.877852
 20
991.230768
 30
0.0
  0
VERTEX
  5
31B
100
AcDbEntity
  8
本体
  6
CONTINUOUS
 62
     6
100
AcDbVertex
100
AcDb2dVertex
 10
839.529631
 20
990.524422
 30
0.0
  0
VERTEX
  5
31C
100
AcDbEntity
  8
本体
  6
CONTINUOUS
 62
     6
100
AcDbVertex
100
AcDb2dVertex
 10
841.051762
 20
989.633288
 30
0.0
  0
VERTEX
  5
31D
100
AcDbEntity
  8
本体
  6
CONTINUOUS
 62
     6
100
AcDbVertex
100
AcDb2dVertex
 10
842.4804
 20
988.616933
 30
0.0
  0
VERTEX
  5
31E
100
AcDbEntity
  8
本体
  6
CONTINUOUS
 62
     6
100
AcDbVertex
100
AcDb2dVertex
 10
843.851698
 20
987.534927
 30
0.0
  0
VERTEX
  5
31F
100
AcDbEntity
  8
本体
  6
CONTINUOUS
 62
     6
100
AcDbVertex
100
AcDb2dVertex
 10
845.201811
 20
986.446836
 30
0.0
  0
VERTEX
  5
320
100
AcDbEntity
  8
本体
  6
CONTINUOUS
 62
     6
100
AcDbVertex
100
AcDb2dVertex
 10
846.566894
 20
985.412229
 30
0.0
  0
VERTEX
  5
321
100
AcDbEntity
  8
本体
  6
CONTINUOUS
 62
     6
100
AcDbVertex
100
AcDb2dVertex
 10
847.9831
 20
984.490674
 30
0.0
  0
VERTEX
  5
322
100
AcDbEntity
  8
本体
  6
CONTINUOUS
 62
     6
100
AcDbVertex
100
AcDb2dVertex
 10
849.486583
 20
983.741739
 30
0.0
  0
VERTEX
  5
323
100
AcDbEntity
  8
本体
  6
CONTINUOUS
 62
     6
100
AcDbVertex
100
AcDb2dVertex
 10
851.113498
 20
983.224991
 30
0.0
  0
VERTEX
  5
324
100
AcDbEntity
  8
本体
  6
CONTINUOUS
 62
     6
100
AcDbVertex
100
AcDb2dVertex
 10
852.9
 20
983.0
 30
0.0
  0
VERTEX
  5
325
100
AcDbEntity
  8
本体
  6
CONTINUOUS
 62
     6
100
AcDbVertex
100
AcDb2dVertex
 10
854.872514
 20
983.106899
 30
0.0
  0
VERTEX
  5
326
100
AcDbEntity
  8
本体
  6
CONTINUOUS
 62
     6
100
AcDbVertex
100
AcDb2dVertex
 10
856.975175
 20
983.5043
 30
0.0
  0
VERTEX
  5
327
100
AcDbEntity
  8
本体
  6
CONTINUOUS
 62
     6
100
AcDbVertex
100
AcDb2dVertex
 10
859.140979
 20
984.128849
 30
0.0
  0
VERTEX
  5
328
100
AcDbEntity
  8
本体
  6
CONTINUOUS
 62
     6
100
AcDbVertex
100
AcDb2dVertex
 10
861.302921
 20
984.917191
 30
0.0
  0
VERTEX
  5
329
100
AcDbEntity
  8
本体
  6
CONTINUOUS
 62
     6
100
AcDbVertex
100
AcDb2dVertex
 10
863.393996
 20
985.805972
 30
0.0
  0
VERTEX
  5
32A
100
AcDbEntity
  8
本体
  6
CONTINUOUS
 62
     6
100
AcDbVertex
100
AcDb2dVertex
 10
865.347201
 20
986.731836
 30
0.0
  0
VERTEX
  5
32B
100
AcDbEntity
  8
本体
  6
CONTINUOUS
 62
     6
100
AcDbVertex
100
AcDb2dVertex
 10
867.09553
 20
987.631429
 30
0.0
  0
VERTEX
  5
32C
100
AcDbEntity
  8
本体
  6
CONTINUOUS
 62
     6
100
AcDbVertex
100
AcDb2dVertex
 10
868.571979
 20
988.441397
 30
0.0
  0
VERTEX
  5
32D
100
AcDbEntity
  8
本体
  6
CONTINUOUS
 62
     6
100
AcDbVertex
100
AcDb2dVertex
 10
869.709543
 20
989.098384
 30
0.0
  0
VERTEX
  5
32E
100
AcDbEntity
  8
本体
  6
CONTINUOUS
 62
     6
100
AcDbVertex
100
AcDb2dVertex
 10
870.441218
 20
989.539037
 30
0.0
  0
VERTEX
  5
32F
100
AcDbEntity
  8
本体
  6
CONTINUOUS
 62
     6
100
AcDbVertex
100
AcDb2dVertex
 10
870.7
 20
989.7
 30
0.0
  0
SEQEND
  5
330
100
AcDbEntity
  8
本体
  6
CONTINUOUS
 62
     6
  0
POLYLINE
  5
331
100
AcDbEntity
  8
本体
  6
CONTINUOUS
 62
     6
100
AcDb2dPolyline
 66
     1
 10
0.0
 20
0.0
 30
0.0
 70
   128
  0
VERTEX
  5
332
100
AcDbEntity
  8
本体
  6
CONTINUOUS
 62
     6
100
AcDbVertex
100
AcDb2dVertex
 10
816.0
 20
978.4
 30
0.0
  0
VERTEX
  5
333
100
AcDbEntity
  8
本体
  6
CONTINUOUS
 62
     6
100
AcDbVertex
100
AcDb2dVertex
 10
816.295389
 20
978.538044
 30
0.0
  0
VERTEX
  5
334
100
AcDbEntity
  8
本体
  6
CONTINUOUS
 62
     6
100
AcDbVertex
100
AcDb2dVertex
 10
817.129717
 20
978.912471
 30
0.0
  0
VERTEX
  5
335
100
AcDbEntity
  8
本体
  6
CONTINUOUS
 62
     6
100
AcDbVertex
100
AcDb2dVertex
 10
818.425221
 20
979.463726
 30
0.0
  0
VERTEX
  5
336
100
AcDbEntity
  8
本体
  6
CONTINUOUS
 62
     6
100
AcDbVertex
100
AcDb2dVertex
 10
820.104141
 20
980.132251
 30
0.0
  0
VERTEX
  5
337
100
AcDbEntity
  8
本体
  6
CONTINUOUS
 62
     6
100
AcDbVertex
100
AcDb2dVertex
 10
822.088715
 20
980.85849
 30
0.0
  0
VERTEX
  5
338
100
AcDbEntity
  8
本体
  6
CONTINUOUS
 62
     6
100
AcDbVertex
100
AcDb2dVertex
 10
824.301182
 20
981.582887
 30
0.0
  0
VERTEX
  5
339
100
AcDbEntity
  8
本体
  6
CONTINUOUS
 62
     6
100
AcDbVertex
100
AcDb2dVertex
 10
826.663781
 20
982.245885
 30
0.0
  0
VERTEX
  5
33A
100
AcDbEntity
  8
本体
  6
CONTINUOUS
 62
     6
100
AcDbVertex
100
AcDb2dVertex
 10
829.09875
 20
982.787927
 30
0.0
  0
VERTEX
  5
33B
100
AcDbEntity
  8
本体
  6
CONTINUOUS
 62
     6
100
AcDbVertex
100
AcDb2dVertex
 10
831.52833
 20
983.149458
 30
0.0
  0
VERTEX
  5
33C
100
AcDbEntity
  8
本体
  6
CONTINUOUS
 62
     6
100
AcDbVertex
100
AcDb2dVertex
 10
833.874757
 20
983.27092
 30
0.0
  0
VERTEX
  5
33D
100
AcDbEntity
  8
本体
  6
CONTINUOUS
 62
     6
100
AcDbVertex
100
AcDb2dVertex
 10
836.060271
 20
983.092757
 30
0.0
  0
VERTEX
  5
33E
100
AcDbEntity
  8
本体
  6
CONTINUOUS
 62
     6
100
AcDbVertex
100
AcDb2dVertex
 10
837.877852
 20
982.630768
 30
0.0
  0
VERTEX
  5
33F
100
AcDbEntity
  8
本体
  6
CONTINUOUS
 62
     6
100
AcDbVertex
100
AcDb2dVertex
 10
839.529631
 20
981.924422
 30
0.0
  0
VERTEX
  5
340
100
AcDbEntity
  8
本体
  6
CONTINUOUS
 62
     6
100
AcDbVertex
100
AcDb2dVertex
 10
841.051762
 20
981.033288
 30
0.0
  0
VERTEX
  5
341
100
AcDbEntity
  8
本体
  6
CONTINUOUS
 62
     6
100
AcDbVertex
100
AcDb2dVertex
 10
842.4804
 20
980.016933
 30
0.0
  0
VERTEX
  5
342
100
AcDbEntity
  8
本体
  6
CONTINUOUS
 62
     6
100
AcDbVertex
100
AcDb2dVertex
 10
843.851698
 20
978.934927
 30
0.0
  0
VERTEX
  5
343
100
AcDbEntity
  8
本体
  6
CONTINUOUS
 62
     6
100
AcDbVertex
100
AcDb2dVertex
 10
845.201811
 20
977.846836
 30
0.0
  0
VERTEX
  5
344
100
AcDbEntity
  8
本体
  6
CONTINUOUS
 62
     6
100
AcDbVertex
100
AcDb2dVertex
 10
846.566894
 20
976.812229
 30
0.0
  0
VERTEX
  5
345
100
AcDbEntity
  8
本体
  6
CONTINUOUS
 62
     6
100
AcDbVertex
100
AcDb2dVertex
 10
847.9831
 20
975.890674
 30
0.0
  0
VERTEX
  5
346
100
AcDbEntity
  8
本体
  6
CONTINUOUS
 62
     6
100
AcDbVertex
100
AcDb2dVertex
 10
849.486583
 20
975.141739
 30
0.0
  0
VERTEX
  5
347
100
AcDbEntity
  8
本体
  6
CONTINUOUS
 62
     6
100
AcDbVertex
100
AcDb2dVertex
 10
851.113498
 20
974.624991
 30
0.0
  0
VERTEX
  5
348
100
AcDbEntity
  8
本体
  6
CONTINUOUS
 62
     6
100
AcDbVertex
100
AcDb2dVertex
 10
852.9
 20
974.4
 30
0.0
  0
VERTEX
  5
349
100
AcDbEntity
  8
本体
  6
CONTINUOUS
 62
     6
100
AcDbVertex
100
AcDb2dVertex
 10
854.872514
 20
974.506899
 30
0.0
  0
VERTEX
  5
34A
100
AcDbEntity
  8
本体
  6
CONTINUOUS
 62
     6
100
AcDbVertex
100
AcDb2dVertex
 10
856.975175
 20
974.9043
 30
0.0
  0
VERTEX
  5
34B
100
AcDbEntity
  8
本体
  6
CONTINUOUS
 62
     6
100
AcDbVertex
100
AcDb2dVertex
 10
859.140979
 20
975.528849
 30
0.0
  0
VERTEX
  5
34C
100
AcDbEntity
  8
本体
  6
CONTINUOUS
 62
     6
100
AcDbVertex
100
AcDb2dVertex
 10
861.302921
 20
976.317191
 30
0.0
  0
VERTEX
  5
34D
100
AcDbEntity
  8
本体
  6
CONTINUOUS
 62
     6
100
AcDbVertex
100
AcDb2dVertex
 10
863.393996
 20
977.205972
 30
0.0
  0
VERTEX
  5
34E
100
AcDbEntity
  8
本体
  6
CONTINUOUS
 62
     6
100
AcDbVertex
100
AcDb2dVertex
 10
865.347201
 20
978.131836
 30
0.0
  0
VERTEX
  5
34F
100
AcDbEntity
  8
本体
  6
CONTINUOUS
 62
     6
100
AcDbVertex
100
AcDb2dVertex
 10
867.09553
 20
979.031429
 30
0.0
  0
VERTEX
  5
350
100
AcDbEntity
  8
本体
  6
CONTINUOUS
 62
     6
100
AcDbVertex
100
AcDb2dVertex
 10
868.571979
 20
979.841397
 30
0.0
  0
VERTEX
  5
351
100
AcDbEntity
  8
本体
  6
CONTINUOUS
 62
     6
100
AcDbVertex
100
AcDb2dVertex
 10
869.709543
 20
980.498384
 30
0.0
  0
VERTEX
  5
352
100
AcDbEntity
  8
本体
  6
CONTINUOUS
 62
     6
100
AcDbVertex
100
AcDb2dVertex
 10
870.441218
 20
980.939037
 30
0.0
  0
VERTEX
  5
353
100
AcDbEntity
  8
本体
  6
CONTINUOUS
 62
     6
100
AcDbVertex
100
AcDb2dVertex
 10
870.7
 20
981.1
 30
0.0
  0
SEQEND
  5
354
100
AcDbEntity
  8
本体
  6
CONTINUOUS
 62
     6
  0
LINE
  5
355
100
AcDbEntity
  8
本体
  6
CONTINUOUS
 62
     6
100
AcDbLine
 10
861.05
 20
985.2
 30
0.0
 11
861.05
 21
984.824965
 31
0.0
  0
ARC
  5
356
100
AcDbEntity
  8
本体
  6
CONTINUOUS
 62
     6
100
AcDbCircle
 10
861.4
 20
978.073412
 30
0.0
 40
1.9
100
AcDbArc
 50
263.898913
 51
326.857576
  0
LINE
  5
357
100
AcDbEntity
  8
本体
  6
CONTINUOUS
 62
     6
100
AcDbLine
 10
861.198062
 20
976.184174
 30
0.0
 11
860.997056
 21
976.205659
 31
0.0
  0
LINE
  5
358
100
AcDbEntity
  8
本体
  6
CONTINUOUS
 62
     6
100
AcDbLine
 10
845.13436
 20
977.901197
 30
0.0
 11
822.398062
 21
980.331442
 31
0.0
  0
LINE
  5
359
100
AcDbEntity
  8
本体
  6
CONTINUOUS
 62
     6
100
AcDbLine
 10
822.801938
 20
984.109919
 30
0.0
 11
822.95
 21
984.094093
 31
0.0
  0
LINE
  5
35A
100
AcDbEntity
  8
本体
  6
CONTINUOUS
 62
     6
100
AcDbLine
 10
831.702996
 20
983.158499
 30
0.0
 11
838.290302
 21
982.454393
 31
0.0
  0
ARC
  5
35B
100
AcDbEntity
  8
本体
  6
CONTINUOUS
 62
     6
100
AcDbCircle
 10
822.6
 20
982.220681
 30
0.0
 40
1.9
100
AcDbArc
 50
235.606605
 51
263.898913
  0
LINE
  5
35C
100
AcDbEntity
  8
本体
  6
CONTINUOUS
 62
     6
100
AcDbLine
 10
861.198062
 20
985.184174
 30
0.0
 11
844.562144
 21
986.96236
 31
0.0
  0
LINE
  5
35D
100
AcDbEntity
  8
本体
  6
CONTINUOUS
 62
     2
100
AcDbLine
 10
397.5
 20
1333.1
 30
0.0
 11
1741.0
 21
1333.1
 31
0.0
  0
ARC
  5
35E
100
AcDbEntity
  8
本体
  6
CONTINUOUS
 62
     2
100
AcDbCircle
 10
1513.03921
 20
1388.1
 30
0.0
 40
5.0
100
AcDbArc
 50
1.0
 51
90.0
  0
LINE
  5
35F
100
AcDbEntity
  8
本体
  6
CONTINUOUS
 62
     2
100
AcDbLine
 10
1518.038448
 20
1388.187262
 30
0.0
 11
1519.0
 21
1333.1
 31
0.0
  0
LINE
  5
360
100
AcDbEntity
  8
本体
  6
CONTINUOUS
 62
     6
100
AcDbLine
 10
1499.0
 20
1313.632367
 30
0.0
 11
1497.97036
 21
1317.309654
 31
0.0
  0
LINE
  5
361
100
AcDbEntity
  8
本体
  6
CONTINUOUS
 62
     6
100
AcDbLine
 10
1500.02964
 20
1317.309654
 30
0.0
 11
1499.0
 21
1313.632367
 31
0.0
  0
ARC
  5
362
100
AcDbEntity
  8
本体
  6
CONTINUOUS
 62
     6
100
AcDbCircle
 10
1507.6
 20
1320.005953
 30
0.0
 40
10.0
100
AcDbArc
 50
180.0
 51
195.642246
  0
ARC
  5
363
100
AcDbEntity
  8
本体
  6
CONTINUOUS
 62
     6
100
AcDbCircle
 10
1490.4
 20
1320.005953
 30
0.0
 40
10.0
100
AcDbArc
 50
344.357754
 51
0.0
  0
LINE
  5
364
100
AcDbEntity
  8
本体
  6
CONTINUOUS
 62
     6
100
AcDbLine
 10
1497.0
 20
1331.812081
 30
0.0
 11
1501.0
 21
1332.517389
 31
0.0
  0
LINE
  5
365
100
AcDbEntity
  8
本体
  6
CONTINUOUS
 62
     6
100
AcDbLine
 10
1501.0
 20
1330.767389
 30
0.0
 11
1497.0
 21
1330.062081
 31
0.0
  0
LINE
  5
366
100
AcDbEntity
  8
本体
  6
CONTINUOUS
 62
     6
100
AcDbLine
 10
1497.0
 20
1328.312081
 30
0.0
 11
1501.0
 21
1329.017389
 31
0.0
  0
LINE
  5
367
100
AcDbEntity
  8
本体
  6
CONTINUOUS
 62
     6
100
AcDbLine
 10
1501.0
 20
1327.267389
 30
0.0
 11
1497.0
 21
1326.562081
 31
0.0
  0
LINE
  5
368
100
AcDbEntity
  8
本体
  6
CONTINUOUS
 62
     6
100
AcDbLine
 10
1497.0
 20
1324.812081
 30
0.0
 11
1501.0
 21
1325.517389
 31
0.0
  0
LINE
  5
369
100
AcDbEntity
  8
本体
  6
CONTINUOUS
 62
     6
100
AcDbLine
 10
1501.0
 20
1323.767389
 30
0.0
 11
1497.0
 21
1323.062081
 31
0.0
  0
LINE
  5
36A
100
AcDbEntity
  8
本体
  6
CONTINUOUS
 62
     6
100
AcDbLine
 10
1497.0
 20
1321.312081
 30
0.0
 11
1501.0
 21
1322.017389
 31
0.0
  0
LINE
  5
36B
100
AcDbEntity
  8
本体
  6
CONTINUOUS
 62
     6
100
AcDbLine
 10
1497.0
 20
1319.562081
 30
0.0
 11
1501.0
 21
1320.267389
 31
0.0
  0
LINE
  5
36C
100
AcDbEntity
  8
本体
  6
CONTINUOUS
 62
     6
100
AcDbLine
 10
1497.0
 20
1317.812081
 30
0.0
 11
1501.0
 21
1318.517389
 31
0.0
  0
LINE
  5
36D
100
AcDbEntity
  8
本体
  6
CONTINUOUS
 62
     6
100
AcDbLine
 10
1500.47496
 20
1316.67481
 30
0.0
 11
1497.66383
 21
1316.179132
 31
0.0
  0
LINE
  5
36E
100
AcDbEntity
  8
本体
  6
CONTINUOUS
 62
     6
100
AcDbLine
 10
1499.959512
 20
1314.833922
 30
0.0
 11
1498.130776
 21
1314.511467
 31
0.0
  0
LINE
  5
36F
100
AcDbEntity
  8
本体
  6
CONTINUOUS
 62
     6
100
AcDbLine
 10
1497.6
 20
1333.1
 30
0.0
 11
1497.6
 21
1320.005953
 31
0.0
  0
LINE
  5
370
100
AcDbEntity
  8
本体
  6
CONTINUOUS
 62
     6
100
AcDbLine
 10
1500.4
 20
1333.1
 30
0.0
 11
1500.4
 21
1320.005953
 31
0.0
  0
LINE
  5
371
100
AcDbEntity
  8
本体
  6
CONTINUOUS
 62
     2
100
AcDbLine
 10
724.96079
 20
1393.1
 30
0.0
 11
1513.03921
 21
1393.1
 31
0.0
  0
DIMENSION
  5
37D
100
AcDbEntity
  8
寸法
  6
CONTINUOUS
 62
     3
100
AcDbDimension
  2
*D16
 10
1683.0
 20
1785.0
 30
0.0
 11
1659.5
 21
2085.0
 31
0.0
 70
   160
  1
600
  3
STANDARD
100
AcDbAlignedDimension
 13
1511.1
 23
2385.0
 33
0.0
 14
1513.1
 24
1785.0
 34
0.0
 50
90.0
100
AcDbRotatedDimension
1001
ACAD
1000
DSTYLE
1002
{
1070
     6
1000
_EX_NORM
1070
     7
1000
_EX_NORM
1070
    41
1040
35.0
1070
    42
1040
7.0
1070
    44
1040
20.0
1070
    73
1070
     0
1070
    74
1070
     0
1070
    75
1070
     0
1070
    76
1070
     0
1070
    77
1070
     1
1070
    78
1070
     0
1070
   140
1040
40.0
1070
   147
1040
3.5
1070
   173
1070
     1
1070
   176
1070
     3
1070
   177
1070
     3
1070
   178
1070
     2
1070
   271
1070
     0
1070
   279
1070
     2
1070
   280
1070
     0
1070
   287
1070
     5
1070
   340
1005
1BC
1002
}
  0
DIMENSION
  5
389
100
AcDbEntity
  8
寸法
  6
CONTINUOUS
 62
     3
100
AcDbDimension
  2
*D17
 10
639.0
 20
1765.0
 30
0.0
 11
615.5
 21
2085.0
 31
0.0
 70
   160
  1
640
  3
STANDARD
100
AcDbAlignedDimension
 13
729.0
 23
2405.0
 33
0.0
 14
729.0
 24
1765.0
 34
0.0
 50
90.0
100
AcDbRotatedDimension
1001
ACAD
1000
DSTYLE
1002
{
1070
     6
1000
_EX_NORM
1070
     7
1000
_EX_NORM
1070
    41
1040
35.0
1070
    42
1040
7.0
1070
    44
1040
20.0
1070
    73
1070
     0
1070
    74
1070
     0
1070
    75
1070
     0
1070
    76
1070
     0
1070
    77
1070
     1
1070
    78
1070
     0
1070
   140
1040
40.0
1070
   147
1040
3.5
1070
   173
1070
     1
1070
   176
1070
     3
1070
   177
1070
     3
1070
   178
1070
     2
1070
   271
1070
     0
1070
   279
1070
     2
1070
   280
1070
     0
1070
   287
1070
     5
1070
   340
1005
1BC
1002
}
  0
DIMENSION
  5
395
100
AcDbEntity
  8
寸法
  6
CONTINUOUS
 62
     3
100
AcDbDimension
  2
*D18
 10
719.0
 20
2480.0
 30
0.0
 11
1119.0
 21
2503.5
 31
0.0
 70
   160
  1
800
  3
STANDARD
100
AcDbAlignedDimension
 13
1519.0
 23
2395.0
 33
0.0
 14
719.0
 24
2395.0
 34
0.0
100
AcDbRotatedDimension
1001
ACAD
1000
DSTYLE
1002
{
1070
     6
1000
_EX_NORM
1070
     7
1000
_EX_NORM
1070
    41
1040
30.0
1070
    42
1040
7.0
1070
    44
1040
10.0
1070
    73
1070
     0
1070
    74
1070
     0
1070
    75
1070
     0
1070
    76
1070
     0
1070
    77
1070
     1
1070
    78
1070
     8
1070
   140
1040
40.0
1070
   147
1040
3.5
1070
   173
1070
     1
1070
   176
1070
     3
1070
   177
1070
     3
1070
   178
1070
     2
1070
   271
1070
     2
1070
   279
1070
     2
1070
   280
1070
     0
1070
   287
1070
     5
1070
   340
1005
1BC
1002
}
  0
DIMENSION
  5
3A1
100
AcDbEntity
  8
寸法
  6
CONTINUOUS
 62
     3
100
AcDbDimension
  2
*D19
 10
739.0
 20
1608.0
 30
0.0
 11
1119.0
 21
1631.5
 31
0.0
 70
   160
  3
STANDARD
100
AcDbAlignedDimension
 13
1499.0
 23
1775.9
 33
0.0
 14
739.0
 24
1775.9
 34
0.0
100
AcDbRotatedDimension
1001
ACAD
1000
DSTYLE
1002
{
1070
     6
1000
_EX_NORM
1070
     7
1000
_EX_NORM
1070
    41
1040
30.0
1070
    42
1040
7.0
1070
    44
1040
10.0
1070
    73
1070
     0
1070
    74
1070
     0
1070
    75
1070
     0
1070
    76
1070
     0
1070
    77
1070
     1
1070
    78
1070
     8
1070
   140
1040
40.0
1070
   147
1040
3.5
1070
   173
1070
     1
1070
   176
1070
     3
1070
   177
1070
     3
1070
   178
1070
     2
1070
   271
1070
     2
1070
   279
1070
     2
1070
   280
1070
     0
1070
   287
1070
     5
1070
   340
1005
1BC
1002
}
  0
DIMENSION
  5
3AD
100
AcDbEntity
  8
寸法
  6
CONTINUOUS
 62
     3
100
AcDbDimension
  2
*D20
 10
1622.0
 20
1807.5
 30
0.0
 11
1598.5
 21
2085.0
 31
0.0
 70
   160
  1
555（内寸）
  3
STANDARD
100
AcDbAlignedDimension
 13
1519.0
 23
2362.5
 33
0.0
 14
1465.137116
 24
1807.5
 34
0.0
 50
90.0
100
AcDbRotatedDimension
1001
ACAD
1000
DSTYLE
1002
{
1070
     6
1000
_EX_NORM
1070
     7
1000
_EX_NORM
1070
    41
1040
30.0
1070
    42
1040
5.0
1070
    44
1040
10.0
1070
    73
1070
     0
1070
    74
1070
     0
1070
    75
1070
     0
1070
    76
1070
     0
1070
    77
1070
     1
1070
    78
1070
     8
1070
   140
1040
40.0
1070
   147
1040
3.5
1070
   173
1070
     1
1070
   176
1070
     3
1070
   177
1070
     3
1070
   178
1070
     2
1070
   271
1070
     2
1070
   279
1070
     2
1070
   280
1070
     0
1070
   287
1070
     5
1070
   340
1005
1BC
1002
}
  0
DIMENSION
  5
3B9
100
AcDbEntity
  8
寸法
  6
CONTINUOUS
 62
     3
100
AcDbDimension
  2
*D21
 10
1476.5
 20
1672.0
 30
0.0
 11
1119.0
 21
1695.5
 31
0.0
 70
   160
  1
715（内寸）
  3
STANDARD
100
AcDbAlignedDimension
 13
761.5
 23
1765.0
 33
0.0
 14
1476.5
 24
1765.0
 34
0.0
100
AcDbRotatedDimension
1001
ACAD
1000
DSTYLE
1002
{
1070
     6
1000
_EX_NORM
1070
     7
1000
_EX_NORM
1070
    41
1040
30.0
1070
    42
1040
0.0
1070
    44
1040
0.0
1070
    73
1070
     0
1070
    74
1070
     0
1070
    75
1070
     0
1070
    76
1070
     0
1070
    77
1070
     1
1070
    78
1070
     8
1070
   140
1040
40.0
1070
   147
1040
3.5
1070
   173
1070
     1
1070
   176
1070
     3
1070
   177
1070
     3
1070
   178
1070
     2
1070
   271
1070
     2
1070
   279
1070
     2
1070
   280
1070
     0
1070
   287
1070
     5
1070
   340
1005
1BC
1002
}
  0
DIMENSION
  5
3C4
100
AcDbEntity
  8
寸法
  6
CONTINUOUS
 62
     3
100
AcDbDimension
  2
*D22
 10
1611.5
 20
1393.1
 30
0.0
 11
1588.0
 21
1458.1
 31
0.0
 70
   160
  3
STANDARD
100
AcDbAlignedDimension
 13
1723.5
 23
1333.1
 33
0.0
 14
1508.5
 24
1393.1
 34
0.0
 50
90.0
100
AcDbRotatedDimension
1001
ACAD
1000
DSTYLE
1002
{
1070
     6
1000
_EX_NORM
1070
     7
1000
_EX_NORM
1070
    41
1040
30.0
1070
    42
1040
8.2
1070
    44
1040
10.0
1070
    73
1070
     0
1070
    74
1070
     0
1070
    75
1070
     1
1070
    76
1070
     0
1070
    77
1070
     1
1070
    78
1070
     8
1070
   140
1040
40.0
1070
   147
1040
3.5
1070
   173
1070
     1
1070
   176
1070
     3
1070
   177
1070
     3
1070
   178
1070
     2
1070
   271
1070
     2
1070
   279
1070
     2
1070
   280
1070
     2
1070
   287
1070
     5
1070
   340
1005
1BC
1002
}
  0
LINE
  5
3C5
100
AcDbEntity
  8
寸法
  6
CONTINUOUS
 62
     3
100
AcDbLine
 10
803.8
 20
1178.098679
 30
0.0
 11
731.5
 21
1178.098679
 31
0.0
  0
DIMENSION
  5
3D0
100
AcDbEntity
  8
寸法
  6
CONTINUOUS
 62
     3
100
AcDbDimension
  2
*D23
 10
677.5
 20
1178.098679
 30
0.0
 11
654.0
 21
1255.599339
 31
0.0
 70
   160
  1
159
  3
STANDARD
100
AcDbAlignedDimension
 13
719.0
 23
1333.1
 33
0.0
 14
741.5
 24
1178.098679
 34
0.0
 50
90.0
100
AcDbRotatedDimension
1001
ACAD
1000
DSTYLE
1002
{
1070
     6
1000
_EX_NORM
1070
     7
1000
_EX_NORM
1070
    41
1040
30.0
1070
    42
1040
5.0
1070
    44
1040
10.0
1070
    73
1070
     0
1070
    74
1070
     0
1070
    75
1070
     1
1070
    76
1070
     0
1070
    77
1070
     1
1070
    78
1070
     8
1070
   140
1040
40.0
1070
   147
1040
3.5
1070
   173
1070
     1
1070
   176
1070
     3
1070
   177
1070
     3
1070
   178
1070
     2
1070
   271
1070
     2
1070
   279
1070
     2
1070
   280
1070
     0
1070
   287
1070
     5
1070
   340
1005
1BC
1002
}
  0
DIMENSION
  5
3DC
100
AcDbEntity
  8
寸法
  6
CONTINUOUS
 62
     3
100
AcDbDimension
  2
*D24
 10
863.3
 20
767.5
 30
0.0
 11
963.3
 21
791.0
 31
0.0
 70
   160
  1
%%c42.6
  3
STANDARD
100
AcDbAlignedDimension
 13
820.7
 23
817.1
 33
0.0
 14
863.3
 24
817.1
 34
0.0
100
AcDbRotatedDimension
1001
ACAD
1000
DSTYLE
1002
{
1070
     6
1000
_EX_NORM
1070
     7
1000
_EX_NORM
1070
    41
1040
30.0
1070
    42
1040
5.0
1070
    44
1040
10.0
1070
    73
1070
     0
1070
    74
1070
     0
1070
    75
1070
     0
1070
    76
1070
     0
1070
    77
1070
     1
1070
    78
1070
     8
1070
   140
1040
40.0
1070
   147
1040
3.5
1070
   173
1070
     1
1070
   176
1070
     3
1070
   177
1070
     3
1070
   178
1070
     2
1070
   271
1070
     2
1070
   279
1070
     2
1070
   280
1070
     2
1070
   287
1070
     5
1070
   340
1005
1BC
1002
}
  0
TEXT
  5
3DD
100
AcDbEntity
  8
寸法
  6
CONTINUOUS
 62
     2
100
AcDbText
 10
1624.366667
 20
1336.6
 30
0.0
 40
40.0
  1
Ｆ．Ｌ
 41
0.833
  7
EXCADSTD
 72
     5
 11
1743.366666
 21
1336.6
 31
0.0
100
AcDbText
  0
LINE
  5
3DE
100
AcDbEntity
  8
詳細図
  6
CONTINUOUS
 62
     2
100
AcDbLine
 10
1549.995125
 20
724.5
 30
0.0
 11
1543.062248
 21
899.642799
 31
0.0
  0
LINE
  5
3DF
100
AcDbEntity
  8
詳細図
  6
CONTINUOUS
 62
     2
100
AcDbLine
 10
1559.928443
 20
786.901117
 30
0.0
 11
1555.071557
 21
909.598883
 31
0.0
  0
LINE
  5
3E0
100
AcDbEntity
  8
詳細図
  6
CONTINUOUS
 62
     2
100
AcDbLine
 10
1650.004875
 20
724.5
 30
0.0
 11
1656.937752
 21
899.642799
 31
0.0
  0
LINE
  5
3E1
100
AcDbEntity
  8
詳細図
  6
CONTINUOUS
 62
     2
100
AcDbLine
 10
1461.611652
 20
619.5
 30
0.0
 11
1468.829917
 21
895.154424
 31
0.0
  0
ARC
  5
3E2
100
AcDbEntity
  8
詳細図
  6
CONTINUOUS
 62
     2
100
AcDbCircle
 10
1724.08461
 20
884.5
 30
0.0
 40
25.0
100
AcDbArc
 50
184.411726
 51
270.0
  0
ARC
  5
3E3
100
AcDbEntity
  8
詳細図
  6
CONTINUOUS
 62
     2
100
AcDbCircle
 10
1659.277203
 20
879.5
 30
0.0
 40
40.0
100
AcDbArc
 50
4.411726
 51
90.0
  0
ARC
  5
3E4
100
AcDbEntity
  8
詳細図
  6
CONTINUOUS
 62
     2
100
AcDbCircle
 10
1493.821351
 20
894.5
 30
0.0
 40
25.0
100
AcDbArc
 50
90.0
 51
178.5
  0
ARC
  5
3E5
100
AcDbEntity
  8
詳細図
  6
CONTINUOUS
 62
     2
100
AcDbCircle
 10
1493.821351
 20
894.5
 30
0.0
 40
10.0
100
AcDbArc
 50
90.0
 51
178.5
  0
LINE
  5
3E6
100
AcDbEntity
  8
詳細図
  6
CONTINUOUS
 62
     2
100
AcDbLine
 10
1483.824777
 20
894.761769
 30
0.0
 11
1476.606512
 21
619.107346
 31
0.0
  0
ARC
  5
3E7
100
AcDbEntity
  8
詳細図
  6
CONTINUOUS
 62
     2
100
AcDbCircle
 10
1726.730891
 20
882.0
 30
0.0
 40
42.5
100
AcDbArc
 50
182.122551
 51
270.0
  0
LINE
  5
3E8
100
AcDbEntity
  8
詳細図
  6
CONTINUOUS
 62
     2
100
AcDbLine
 10
1724.08461
 20
859.5
 30
0.0
 11
1837.657288
 21
859.5
 31
0.0
  0
LINE
  5
3E9
100
AcDbEntity
  8
詳細図
  6
CONTINUOUS
 62
     2
100
AcDbLine
 10
1724.08461
 20
839.5
 30
0.0
 11
1837.657288
 21
839.5
 31
0.0
  0
LINE
  5
3EA
100
AcDbEntity
  8
詳細図
  6
CONTINUOUS
 62
     2
100
AcDbLine
 10
1625.0
 20
724.5
 30
0.0
 11
1625.0
 21
619.5
 31
0.0
  0
LINE
  5
3EB
100
AcDbEntity
  8
詳細図
  6
CONTINUOUS
 62
     2
100
AcDbLine
 10
1575.0
 20
724.5
 30
0.0
 11
1575.0
 21
619.5
 31
0.0
  0
ARC
  5
3EC
100
AcDbEntity
  8
詳細図
  6
CONTINUOUS
 62
     2
100
AcDbCircle
 10
1659.277203
 20
879.5
 30
0.0
 40
25.0
100
AcDbArc
 50
2.122551
 51
82.375922
  0
LINE
  5
3ED
100
AcDbEntity
  8
詳細図
  6
CONTINUOUS
 62
     2
100
AcDbLine
 10
1538.064287
 20
904.5
 30
0.0
 11
1493.821351
 21
904.5
 31
0.0
  0
ARC
  5
3EE
100
AcDbEntity
  8
詳細図
  6
CONTINUOUS
 62
     2
100
AcDbCircle
 10
1538.064287
 20
899.5
 30
0.0
 40
5.0
100
AcDbArc
 50
1.636577
 51
90.0
  0
ARC
  5
3EF
100
AcDbEntity
  8
詳細図
  6
CONTINUOUS
 62
     2
100
AcDbCircle
 10
1661.930661
 20
899.323197
 30
0.0
 40
5.0
100
AcDbArc
 50
82.375922
 51
178.363423
  0
LINE
  5
3F0
100
AcDbEntity
  8
詳細図
  6
CONTINUOUS
 62
     2
100
AcDbLine
 10
1539.5
 20
919.5
 30
0.0
 11
1539.5
 21
912.0
 31
0.0
  0
ARC
  5
3F1
100
AcDbEntity
  8
詳細図
  6
CONTINUOUS
 62
     2
100
AcDbCircle
 10
1552.573513
 20
909.5
 30
0.0
 40
2.5
100
AcDbArc
 50
1.709814
 51
90.0
  0
LINE
  5
3F2
100
AcDbEntity
  8
詳細図
  6
CONTINUOUS
 62
     2
100
AcDbLine
 10
1660.5
 20
919.5
 30
0.0
 11
1660.5
 21
912.0
 31
0.0
  0
LINE
  5
3F3
100
AcDbEntity
  8
詳細図
  6
CONTINUOUS
 62
     2
100
AcDbLine
 10
1493.821351
 20
919.5
 30
0.0
 11
1542.724087
 21
919.5
 31
0.0
  0
LINE
  5
3F4
100
AcDbEntity
  8
詳細図
  6
CONTINUOUS
 62
     2
100
AcDbLine
 10
1657.275913
 20
919.5
 30
0.0
 11
1837.657288
 21
919.5
 31
0.0
  0
LINE
  5
3F5
100
AcDbEntity
  8
詳細図
  6
CONTINUOUS
 62
     2
100
AcDbLine
 10
1539.5
 20
912.0
 30
0.0
 11
1540.0
 21
912.0
 31
0.0
  0
LINE
  5
3F6
100
AcDbEntity
  8
詳細図
  6
CONTINUOUS
 62
     2
100
AcDbLine
 10
1660.0
 20
912.0
 30
0.0
 11
1660.5
 21
912.0
 31
0.0
  0
LINE
  5
3F7
100
AcDbEntity
  8
詳細図
  6
CONTINUOUS
 62
     6
100
AcDbLine
 10
1683.188276
 20
559.5
 30
0.0
 11
1743.188276
 21
619.5
 31
0.0
  0
LINE
  5
3F8
100
AcDbEntity
  8
詳細図
  6
CONTINUOUS
 62
     6
100
AcDbLine
 10
1676.117208
 20
559.5
 30
0.0
 11
1736.117208
 21
619.5
 31
0.0
  0
LINE
  5
3F9
100
AcDbEntity
  8
詳細図
  6
CONTINUOUS
 62
     6
100
AcDbLine
 10
1690.259344
 20
559.5
 30
0.0
 11
1750.259344
 21
619.5
 31
0.0
  0
LINE
  5
3FA
100
AcDbEntity
  8
詳細図
  6
CONTINUOUS
 62
     6
100
AcDbLine
 10
1495.859344
 20
559.5
 30
0.0
 11
1555.859344
 21
619.5
 31
0.0
  0
LINE
  5
3FB
100
AcDbEntity
  8
詳細図
  6
CONTINUOUS
 62
     6
100
AcDbLine
 10
1481.717208
 20
559.5
 30
0.0
 11
1541.717208
 21
619.5
 31
0.0
  0
LINE
  5
3FC
100
AcDbEntity
  8
詳細図
  6
CONTINUOUS
 62
     6
100
AcDbLine
 10
1488.788276
 20
559.5
 30
0.0
 11
1548.788276
 21
619.5
 31
0.0
  0
LINE
  5
3FD
100
AcDbEntity
  8
詳細図
  6
CONTINUOUS
 62
     6
100
AcDbLine
 10
1625.459344
 20
559.5
 30
0.0
 11
1685.459344
 21
619.5
 31
0.0
  0
LINE
  5
3FE
100
AcDbEntity
  8
詳細図
  6
CONTINUOUS
 62
     6
100
AcDbLine
 10
1618.388276
 20
559.5
 30
0.0
 11
1678.388276
 21
619.5
 31
0.0
  0
LINE
  5
3FF
100
AcDbEntity
  8
詳細図
  6
CONTINUOUS
 62
     6
100
AcDbLine
 10
1611.317208
 20
559.5
 30
0.0
 11
1671.317208
 21
619.5
 31
0.0
  0
LINE
  5
400
100
AcDbEntity
  8
詳細図
  6
CONTINUOUS
 62
     6
100
AcDbLine
 10
1560.659344
 20
559.5
 30
0.0
 11
1592.5
 21
591.340656
 31
0.0
  0
LINE
  5
401
100
AcDbEntity
  8
詳細図
  6
CONTINUOUS
 62
     6
100
AcDbLine
 10
1607.5
 20
606.340656
 30
0.0
 11
1620.659344
 21
619.5
 31
0.0
  0
LINE
  5
402
100
AcDbEntity
  8
詳細図
  6
CONTINUOUS
 62
     2
100
AcDbLine
 10
1290.0
 20
619.5
 30
0.0
 11
1592.5
 21
619.5
 31
0.0
  0
LINE
  5
403
100
AcDbEntity
  8
詳細図
  6
CONTINUOUS
 62
     2
100
AcDbLine
 10
1607.5
 20
619.5
 30
0.0
 11
1776.7
 21
619.5
 31
0.0
  0
LINE
  5
404
100
AcDbEntity
  8
詳細図
  6
CONTINUOUS
 62
     6
100
AcDbLine
 10
1416.917208
 20
559.5
 30
0.0
 11
1476.917208
 21
619.5
 31
0.0
  0
LINE
  5
405
100
AcDbEntity
  8
詳細図
  6
CONTINUOUS
 62
     6
100
AcDbLine
 10
1423.988276
 20
559.5
 30
0.0
 11
1483.988276
 21
619.5
 31
0.0
  0
LINE
  5
406
100
AcDbEntity
  8
詳細図
  6
CONTINUOUS
 62
     6
100
AcDbLine
 10
1431.059344
 20
559.5
 30
0.0
 11
1491.059344
 21
619.5
 31
0.0
  0
LINE
  5
407
100
AcDbEntity
  8
詳細図
  6
CONTINUOUS
 62
     6
100
AcDbLine
 10
1351.816794
 20
559.5
 30
0.0
 11
1411.816794
 21
619.5
 31
0.0
  0
LINE
  5
408
100
AcDbEntity
  8
詳細図
  6
CONTINUOUS
 62
     6
100
AcDbLine
 10
1358.887862
 20
559.5
 30
0.0
 11
1418.887862
 21
619.5
 31
0.0
  0
LINE
  5
409
100
AcDbEntity
  8
詳細図
  6
CONTINUOUS
 62
     6
100
AcDbLine
 10
1365.95893
 20
559.5
 30
0.0
 11
1425.95893
 21
619.5
 31
0.0
  0
LINE
  5
40A
100
AcDbEntity
  8
詳細図
  6
CONTINUOUS
 62
     6
100
AcDbLine
 10
1287.016794
 20
559.5
 30
0.0
 11
1347.016794
 21
619.5
 31
0.0
  0
LINE
  5
40B
100
AcDbEntity
  8
詳細図
  6
CONTINUOUS
 62
     6
100
AcDbLine
 10
1294.087862
 20
559.5
 30
0.0
 11
1354.087862
 21
619.5
 31
0.0
  0
LINE
  5
40C
100
AcDbEntity
  8
詳細図
  6
CONTINUOUS
 62
     6
100
AcDbLine
 10
1301.15893
 20
559.5
 30
0.0
 11
1361.15893
 21
619.5
 31
0.0
  0
LINE
  5
40D
100
AcDbEntity
  8
詳細図
  6
CONTINUOUS
 62
     6
100
AcDbLine
 10
1610.0
 20
777.5
 30
0.0
 11
1590.0
 21
773.5
 31
0.0
  0
LINE
  5
40E
100
AcDbEntity
  8
詳細図
  6
CONTINUOUS
 62
     6
100
AcDbLine
 10
1610.0
 20
769.5
 30
0.0
 11
1590.0
 21
765.5
 31
0.0
  0
LINE
  5
40F
100
AcDbEntity
  8
詳細図
  6
CONTINUOUS
 62
     6
100
AcDbLine
 10
1610.0
 20
761.5
 30
0.0
 11
1590.0
 21
757.5
 31
0.0
  0
LINE
  5
410
100
AcDbEntity
  8
詳細図
  6
CONTINUOUS
 62
     6
100
AcDbLine
 10
1610.0
 20
753.5
 30
0.0
 11
1590.0
 21
749.5
 31
0.0
  0
LINE
  5
411
100
AcDbEntity
  8
詳細図
  6
CONTINUOUS
 62
     6
100
AcDbLine
 10
1610.0
 20
745.5
 30
0.0
 11
1590.0
 21
741.5
 31
0.0
  0
LINE
  5
412
100
AcDbEntity
  8
詳細図
  6
CONTINUOUS
 62
     6
100
AcDbLine
 10
1610.0
 20
737.5
 30
0.0
 11
1590.0
 21
733.5
 31
0.0
  0
LINE
  5
413
100
AcDbEntity
  8
詳細図
  6
CONTINUOUS
 62
     6
100
AcDbLine
 10
1610.0
 20
729.5
 30
0.0
 11
1590.0
 21
725.5
 31
0.0
  0
LINE
  5
414
100
AcDbEntity
  8
詳細図
  6
CONTINUOUS
 62
     6
100
AcDbLine
 10
1610.0
 20
721.5
 30
0.0
 11
1590.0
 21
717.5
 31
0.0
  0
LINE
  5
415
100
AcDbEntity
  8
詳細図
  6
CONTINUOUS
 62
     6
100
AcDbLine
 10
1610.0
 20
713.5
 30
0.0
 11
1590.0
 21
709.5
 31
0.0
  0
LINE
  5
416
100
AcDbEntity
  8
詳細図
  6
CONTINUOUS
 62
     6
100
AcDbLine
 10
1610.0
 20
705.5
 30
0.0
 11
1590.0
 21
701.5
 31
0.0
  0
LINE
  5
417
100
AcDbEntity
  8
詳細図
  6
CONTINUOUS
 62
     6
100
AcDbLine
 10
1610.0
 20
689.5
 30
0.0
 11
1590.0
 21
685.5
 31
0.0
  0
LINE
  5
418
100
AcDbEntity
  8
詳細図
  6
CONTINUOUS
 62
     6
100
AcDbLine
 10
1610.0
 20
681.5
 30
0.0
 11
1590.0
 21
677.5
 31
0.0
  0
LINE
  5
419
100
AcDbEntity
  8
詳細図
  6
CONTINUOUS
 62
     6
100
AcDbLine
 10
1610.0
 20
673.5
 30
0.0
 11
1590.0
 21
669.5
 31
0.0
  0
LINE
  5
41A
100
AcDbEntity
  8
詳細図
  6
CONTINUOUS
 62
     6
100
AcDbLine
 10
1610.0
 20
665.5
 30
0.0
 11
1590.0
 21
661.5
 31
0.0
  0
LINE
  5
41B
100
AcDbEntity
  8
詳細図
  6
CONTINUOUS
 62
     6
100
AcDbLine
 10
1610.0
 20
657.5
 30
0.0
 11
1590.0
 21
653.5
 31
0.0
  0
LINE
  5
41C
100
AcDbEntity
  8
詳細図
  6
CONTINUOUS
 62
     6
100
AcDbLine
 10
1610.0
 20
649.5
 30
0.0
 11
1590.0
 21
645.5
 31
0.0
  0
LINE
  5
41D
100
AcDbEntity
  8
詳細図
  6
CONTINUOUS
 62
     6
100
AcDbLine
 10
1610.0
 20
641.5
 30
0.0
 11
1590.0
 21
637.5
 31
0.0
  0
LINE
  5
41E
100
AcDbEntity
  8
詳細図
  6
CONTINUOUS
 62
     6
100
AcDbLine
 10
1610.0
 20
633.5
 30
0.0
 11
1590.0
 21
629.5
 31
0.0
  0
LINE
  5
41F
100
AcDbEntity
  8
詳細図
  6
CONTINUOUS
 62
     6
100
AcDbLine
 10
1610.0
 20
697.5
 30
0.0
 11
1590.0
 21
693.5
 31
0.0
  0
LINE
  5
420
100
AcDbEntity
  8
詳細図
  6
CONTINUOUS
 62
     2
100
AcDbLine
 10
1562.426487
 20
784.5
 30
0.0
 11
1637.573513
 21
784.5
 31
0.0
  0
ARC
  5
421
100
AcDbEntity
  8
詳細図
  6
CONTINUOUS
 62
     2
100
AcDbCircle
 10
1562.426487
 20
787.0
 30
0.0
 40
2.5
100
AcDbArc
 50
181.709814
 51
270.0
  0
ARC
  5
422
100
AcDbEntity
  8
詳細図
  6
CONTINUOUS
 62
     2
100
AcDbCircle
 10
1637.573513
 20
787.0
 30
0.0
 40
2.5
100
AcDbArc
 50
270.0
 51
358.290186
  0
LINE
  5
423
100
AcDbEntity
  8
詳細図
  6
CONTINUOUS
 62
     2
100
AcDbLine
 10
1587.5
 20
784.5
 30
0.0
 11
1587.5
 21
619.5
 31
0.0
  0
LINE
  5
424
100
AcDbEntity
  8
詳細図
  6
CONTINUOUS
 62
     2
100
AcDbLine
 10
1612.5
 20
784.5
 30
0.0
 11
1612.5
 21
619.5
 31
0.0
  0
LINE
  5
425
100
AcDbEntity
  8
詳細図
  6
CONTINUOUS
 62
     2
100
AcDbLine
 10
1549.995125
 20
724.5
 30
0.0
 11
1575.0
 21
724.5
 31
0.0
  0
LINE
  5
426
100
AcDbEntity
  8
詳細図
  6
CONTINUOUS
 62
     2
100
AcDbLine
 10
1650.004875
 20
724.5
 30
0.0
 11
1625.0
 21
724.5
 31
0.0
  0
ARC
  5
427
100
AcDbEntity
  8
詳細図
  6
CONTINUOUS
 62
     2
100
AcDbCircle
 10
1647.426487
 20
909.5
 30
0.0
 40
2.5
100
AcDbArc
 50
90.0
 51
177.733179
  0
ARC
  5
428
100
AcDbEntity
  8
詳細図
  6
CONTINUOUS
 62
     6
100
AcDbCircle
 10
1667.5
 20
567.191742
 30
0.0
 40
75.0
100
AcDbArc
 50
180.0
 51
205.841933
  0
ARC
  5
429
100
AcDbEntity
  8
詳細図
  6
CONTINUOUS
 62
     6
100
AcDbCircle
 10
1532.5
 20
567.191742
 30
0.0
 40
75.0
100
AcDbArc
 50
334.158067
 51
0.0
  0
LINE
  5
42A
100
AcDbEntity
  8
詳細図
  6
CONTINUOUS
 62
     6
100
AcDbLine
 10
1610.0
 20
620.5
 30
0.0
 11
1590.0
 21
616.5
 31
0.0
  0
LINE
  5
42B
100
AcDbEntity
  8
詳細図
  6
CONTINUOUS
 62
     6
100
AcDbLine
 10
1610.0
 20
612.5
 30
0.0
 11
1590.0
 21
608.5
 31
0.0
  0
LINE
  5
42C
100
AcDbEntity
  8
詳細図
  6
CONTINUOUS
 62
     6
100
AcDbLine
 10
1610.0
 20
604.5
 30
0.0
 11
1590.0
 21
600.5
 31
0.0
  0
LINE
  5
42D
100
AcDbEntity
  8
詳細図
  6
CONTINUOUS
 62
     6
100
AcDbLine
 10
1610.0
 20
596.5
 30
0.0
 11
1590.0
 21
592.5
 31
0.0
  0
LINE
  5
42E
100
AcDbEntity
  8
詳細図
  6
CONTINUOUS
 62
     6
100
AcDbLine
 10
1610.0
 20
588.5
 30
0.0
 11
1590.0
 21
584.5
 31
0.0
  0
LINE
  5
42F
100
AcDbEntity
  8
詳細図
  6
CONTINUOUS
 62
     6
100
AcDbLine
 10
1610.0
 20
580.5
 30
0.0
 11
1590.0
 21
576.5
 31
0.0
  0
LINE
  5
430
100
AcDbEntity
  8
詳細図
  6
CONTINUOUS
 62
     6
100
AcDbLine
 10
1610.0
 20
572.5
 30
0.0
 11
1590.0
 21
568.5
 31
0.0
  0
LINE
  5
431
100
AcDbEntity
  8
詳細図
  6
CONTINUOUS
 62
     6
100
AcDbLine
 10
1610.0
 20
564.5
 30
0.0
 11
1590.0
 21
560.5
 31
0.0
  0
LINE
  5
432
100
AcDbEntity
  8
詳細図
  6
CONTINUOUS
 62
     6
100
AcDbLine
 10
1607.590768
 20
548.018154
 30
0.0
 11
1593.203299
 21
545.14066
 31
0.0
  0
LINE
  5
433
100
AcDbEntity
  8
詳細図
  6
CONTINUOUS
 62
     6
100
AcDbLine
 10
1609.237557
 20
556.347511
 30
0.0
 11
1591.353537
 21
552.770707
 31
0.0
  0
LINE
  5
434
100
AcDbEntity
  8
詳細図
  6
CONTINUOUS
 62
     6
100
AcDbLine
 10
1592.5
 20
784.5
 30
0.0
 11
1592.5
 21
567.191742
 31
0.0
  0
LINE
  5
435
100
AcDbEntity
  8
詳細図
  6
CONTINUOUS
 62
     6
100
AcDbLine
 10
1607.5
 20
784.5
 30
0.0
 11
1607.5
 21
567.191742
 31
0.0
  0
LINE
  5
436
100
AcDbEntity
  8
詳細図
  6
EXLTYPE3
 62
     6
100
AcDbLine
 10
1600.0
 20
938.113054
 30
0.0
 11
1600.0
 21
525.7
 31
0.0
  0
LINE
  5
437
100
AcDbEntity
  8
詳細図
  6
CONTINUOUS
 62
     6
100
AcDbLine
 10
1610.0
 20
626.9
 30
0.0
 11
1590.0
 21
622.9
 31
0.0
  0
LINE
  5
438
100
AcDbEntity
  8
詳細図
  6
CONTINUOUS
 62
     6
100
AcDbLine
 10
1546.517208
 20
559.5
 30
0.0
 11
1592.5
 21
605.482792
 31
0.0
  0
LINE
  5
439
100
AcDbEntity
  8
詳細図
  6
CONTINUOUS
 62
     6
100
AcDbLine
 10
1553.588276
 20
559.5
 30
0.0
 11
1592.5
 21
598.411724
 31
0.0
  0
LINE
  5
43A
100
AcDbEntity
  8
詳細図
  6
CONTINUOUS
 62
     6
100
AcDbLine
 10
1607.5
 20
613.411724
 30
0.0
 11
1613.588276
 21
619.5
 31
0.0
  0
LINE
  5
43B
100
AcDbEntity
  8
詳細図
  6
CONTINUOUS
 62
     2
100
AcDbLine
 10
1640.071557
 20
786.901117
 30
0.0
 11
1644.928443
 21
909.598883
 31
0.0
  0
LINE
  5
43C
100
AcDbEntity
  8
詳細図
  6
CONTINUOUS
 62
     6
100
AcDbLine
 10
1377.0
 20
421.75
 30
0.0
 11
1837.0
 21
421.75
 31
0.0
  0
TEXT
  5
43D
100
AcDbEntity
  8
詳細図
  6
CONTINUOUS
 62
     2
100
AcDbText
 10
1396.535343
 20
427.0
 30
0.0
 40
45.0
  1
防水パン固定部詳細図
 41
0.798933
  7
EXCADSTD
 72
     5
 11
1824.535347
 21
427.0
 31
0.0
100
AcDbText
  0
TEXT
  5
43E
100
AcDbEntity
  8
詳細図寸法
  6
CONTINUOUS
 62
     2
100
AcDbText
 10
1707.029221
 20
764.75
 30
0.0
 40
40.0
  1
トラスねじ
 41
0.8106
  7
EXCADSTD
 72
     5
 11
1900.02922
 21
764.75
 31
0.0
100
AcDbText
  0
LEADER
  5
43F
100
AcDbEntity
  8
詳細図寸法
  6
CONTINUOUS
 62
     6
100
AcDbLeader
  3
STANDARD
 73
     3
 74
     1
 75
     0
 40
0.0
 76
     3
 10
1607.5
 20
684.0
 30
0.0
 10
1699.5
 20
761.5
 30
0.0
 10
1900.0
 20
761.5
 30
0.0
 77
     6
1001
ACAD
1000
DSTYLE
1002
{
1070
    41
1040
35.0
1070
     5
1000
_EX_NORM
1070
     6
1000
_EX_NORM
1070
     7
1000
_EX_NORM
1070
   341
1005
2B
1002
}
  0
TEXT
  5
440
100
AcDbEntity
  8
詳細図寸法
  6
CONTINUOUS
 62
     2
100
AcDbText
 10
1806.404221
 20
1016.431527
 30
0.0
 40
40.0
  1
キャップ
 41
0.819
  7
EXCADSTD
 72
     5
 11
1962.40422
 21
1016.431527
 31
0.0
100
AcDbText
  0
LEADER
  5
441
100
AcDbEntity
  8
詳細図寸法
  6
CONTINUOUS
 62
     6
100
AcDbLeader
  3
STANDARD
 73
     3
 74
     1
 75
     0
 40
0.0
 76
     3
 10
1616.478285
 20
922.841447
 30
0.0
 10
1801.533554
 20
1008.961982
 30
0.0
 10
1962.5
 20
1008.961982
 30
0.0
 77
     6
1001
ACAD
1000
DSTYLE
1002
{
1070
    41
1040
35.0
1070
     5
1000
_EX_NORM
1070
     6
1000
_EX_NORM
1070
     7
1000
_EX_NORM
1070
   341
1005
2B
1002
}
  0
TEXT
  5
442
100
AcDbEntity
  8
詳細図寸法
  6
CONTINUOUS
 62
     2
100
AcDbText
 10
1245.093247
 20
1021.25
 30
0.0
 40
40.0
  1
パン本体
 41
0.819
  7
EXCADSTD
 72
     5
 11
1401.093247
 21
1021.25
 31
0.0
100
AcDbText
  0
LEADER
  5
443
100
AcDbEntity
  8
詳細図寸法
  6
CONTINUOUS
 62
     6
100
AcDbLeader
  3
STANDARD
 73
     3
 74
     1
 75
     0
 40
0.0
 76
     3
 10
1511.0
 20
919.5
 30
0.0
 10
1403.941559
 20
1013.5
 30
0.0
 10
1236.0
 20
1013.5
 30
0.0
 77
     6
1001
ACAD
1000
DSTYLE
1002
{
1070
    41
1040
35.0
1070
     5
1000
_EX_NORM
1070
     6
1000
_EX_NORM
1070
     7
1000
_EX_NORM
1070
   341
1005
2B
1002
}
  0
TEXT
  5
444
100
AcDbEntity
  8
詳細図寸法
  6
CONTINUOUS
 62
     2
100
AcDbText
 10
1292.0
 20
619.5
 30
0.0
 40
40.0
  1
仕上床
 41
0.833
  7
EXCADSTD
 72
     5
 11
1411.0
 21
619.5
 31
0.0
100
AcDbText
  0
ENDSEC
  0
SECTION
  2
OBJECTS
  0
DICTIONARY
  5
19
100
AcDbDictionary
  3
ACAD_GROUP
350
1A
  3
ACAD_MLINESTYLE
350
1B
  0
DICTIONARY
  5
1A
102
{ACAD_REACTORS
330
19
102
}
100
AcDbDictionary
  0
DICTIONARY
  5
1B
102
{ACAD_REACTORS
330
19
102
}
100
AcDbDictionary
  3
STANDARD
350
1C
  0
MLINESTYLE
  5
1C
102
{ACAD_REACTORS
330
1B
102
}
100
AcDbMlineStyle
  2
Standard
 70
     0
  3

 62
     0
 51
90.0
 52
90.0
 71
     2
 49
0.5
 62
   256
  6
ByLayer
 49
-0.5
 62
   256
  6
ByLayer
  0
ENDSEC
  0
EOF
