  0
SECTION
  2
HEADER
  9
$ACADVER
  1
AC1014
  9
$ACADMAINTVER
 70
     0
  9
$DWGCODEPAGE
  3
ANSI_932
  9
$INSBASE
 10
0.0
 20
0.0
 30
0.0
  9
$EXTMIN
 10
-1.1
 20
8.8
 30
0.0
  9
$EXTMAX
 10
199.9
 20
288.8
 30
0.0
  9
$LIMMIN
 10
0.0
 20
0.0
  9
$LIMMAX
 10
210.0
 20
297.0
  9
$ORTHOMODE
 70
     0
  9
$REGENMODE
 70
     1
  9
$FILLMODE
 70
     1
  9
$QTEXTMODE
 70
     0
  9
$MIRRTEXT
 70
     1
  9
$DRAGMODE
 70
     2
  9
$LTSCALE
 40
1.0
  9
$OSMODE
 70
     0
  9
$ATTMODE
 70
     1
  9
$TEXTSIZE
 40
0.2
  9
$TRACEWID
 40
0.05
  9
$TEXTSTYLE
  7
STANDARD
  9
$CLAYER
  8
スト－ル
  9
$CELTYPE
  6
CONTINUOUS
  9
$CECOLOR
 62
   256
  9
$CELTSCALE
 40
1.0
  9
$DELOBJ
 70
     1
  9
$DISPSILH
 70
     0
  9
$DIMSCALE
 40
1.0
  9
$DIMASZ
 40
0.18
  9
$DIMEXO
 40
0.0625
  9
$DIMDLI
 40
0.38
  9
$DIMRND
 40
0.0
  9
$DIMDLE
 40
0.0
  9
$DIMEXE
 40
0.18
  9
$DIMTP
 40
0.0
  9
$DIMTM
 40
0.0
  9
$DIMTXT
 40
0.18
  9
$DIMCEN
 40
0.09
  9
$DIMTSZ
 40
0.0
  9
$DIMTOL
 70
     0
  9
$DIMLIM
 70
     0
  9
$DIMTIH
 70
     1
  9
$DIMTOH
 70
     1
  9
$DIMSE1
 70
     0
  9
$DIMSE2
 70
     0
  9
$DIMTAD
 70
     0
  9
$DIMZIN
 70
     0
  9
$DIMBLK
  1

  9
$DIMASO
 70
     1
  9
$DIMSHO
 70
     1
  9
$DIMPOST
  1

  9
$DIMAPOST
  1

  9
$DIMALT
 70
     0
  9
$DIMALTD
 70
     2
  9
$DIMALTF
 40
25.4
  9
$DIMLFAC
 40
1.0
  9
$DIMTOFL
 70
     0
  9
$DIMTVP
 40
0.0
  9
$DIMTIX
 70
     0
  9
$DIMSOXD
 70
     0
  9
$DIMSAH
 70
     0
  9
$DIMBLK1
  1

  9
$DIMBLK2
  1

  9
$DIMSTYLE
  2
STANDARD
  9
$DIMCLRD
 70
     0
  9
$DIMCLRE
 70
     0
  9
$DIMCLRT
 70
     0
  9
$DIMTFAC
 40
1.0
  9
$DIMGAP
 40
0.09
  9
$DIMJUST
 70
     0
  9
$DIMSD1
 70
     0
  9
$DIMSD2
 70
     0
  9
$DIMTOLJ
 70
     1
  9
$DIMTZIN
 70
     0
  9
$DIMALTZ
 70
     0
  9
$DIMALTTZ
 70
     0
  9
$DIMFIT
 70
     3
  9
$DIMUPT
 70
     0
  9
$DIMUNIT
 70
     2
  9
$DIMDEC
 70
     4
  9
$DIMTDEC
 70
     4
  9
$DIMALTU
 70
     2
  9
$DIMALTTD
 70
     2
  9
$DIMTXSTY
  7
STANDARD
  9
$DIMAUNIT
 70
     0
  9
$LUNITS
 70
     2
  9
$LUPREC
 70
     4
  9
$SKETCHINC
 40
0.1
  9
$FILLETRAD
 40
0.0
  9
$AUNITS
 70
     0
  9
$AUPREC
 70
     0
  9
$MENU
  1
acad
  9
$ELEVATION
 40
0.0
  9
$PELEVATION
 40
0.0
  9
$THICKNESS
 40
0.0
  9
$LIMCHECK
 70
     0
  9
$BLIPMODE
 70
     1
  9
$CHAMFERA
 40
0.0
  9
$CHAMFERB
 40
0.0
  9
$CHAMFERC
 40
0.0
  9
$CHAMFERD
 40
0.0
  9
$SKPOLY
 70
     0
  9
$TDCREATE
 40
2456151.180884526
  9
$TDUPDATE
 40
2456151.180884526
  9
$TDINDWG
 40
0.0000000000
  9
$TDUSRTIMER
 40
0.0000000000
  9
$USRTIMER
 70
     1
  9
$ANGBASE
 50
0.0
  9
$ANGDIR
 70
     0
  9
$PDMODE
 70
     0
  9
$PDSIZE
 40
0.0
  9
$PLINEWID
 40
0.0
  9
$COORDS
 70
     1
  9
$SPLFRAME
 70
     0
  9
$SPLINETYPE
 70
     6
  9
$SPLINESEGS
 70
     8
  9
$ATTDIA
 70
     0
  9
$ATTREQ
 70
     1
  9
$HANDLING
 70
     1
  9
$HANDSEED
  5
772
  9
$SURFTAB1
 70
     6
  9
$SURFTAB2
 70
     6
  9
$SURFTYPE
 70
     6
  9
$SURFU
 70
     6
  9
$SURFV
 70
     6
  9
$UCSNAME
  2

  9
$UCSORG
 10
0.0
 20
0.0
 30
0.0
  9
$UCSXDIR
 10
1.0
 20
0.0
 30
0.0
  9
$UCSYDIR
 10
0.0
 20
1.0
 30
0.0
  9
$PUCSNAME
  2

  9
$PUCSORG
 10
0.0
 20
0.0
 30
0.0
  9
$PUCSXDIR
 10
1.0
 20
0.0
 30
0.0
  9
$PUCSYDIR
 10
0.0
 20
1.0
 30
0.0
  9
$USERI1
 70
     0
  9
$USERI2
 70
     0
  9
$USERI3
 70
     0
  9
$USERI4
 70
     0
  9
$USERI5
 70
     0
  9
$USERR1
 40
0.0
  9
$USERR2
 40
0.0
  9
$USERR3
 40
0.0
  9
$USERR4
 40
0.0
  9
$USERR5
 40
0.0
  9
$WORLDVIEW
 70
     1
  9
$SHADEDGE
 70
     3
  9
$SHADEDIF
 70
    70
  9
$TILEMODE
 70
     1
  9
$MAXACTVP
 70
    16
  9
$PINSBASE
 10
0.0
 20
0.0
 30
0.0
  9
$PLIMCHECK
 70
     0
  9
$PEXTMIN
 10
1.000000E+20
 20
1.000000E+20
 30
1.000000E+20
  9
$PEXTMAX
 10
-1.000000E+20
 20
-1.000000E+20
 30
-1.000000E+20
  9
$PLIMMIN
 10
0.0
 20
0.0
  9
$PLIMMAX
 10
12.0
 20
9.0
  9
$UNITMODE
 70
     0
  9
$VISRETAIN
 70
     0
  9
$PLINEGEN
 70
     1
  9
$PSLTSCALE
 70
     0
  9
$TREEDEPTH
 70
  3020
  9
$PICKSTYLE
 70
     1
  9
$CMLSTYLE
  2
Standard
  9
$CMLJUST
 70
     0
  9
$CMLSCALE
 40
1.0
  9
$PROXYGRAPHICS
 70
     0
  9
$MEASUREMENT
 70
     0
  0
ENDSEC
  0
SECTION
  2
CLASSES
  0
CLASS
  1
LWPOLYLINE
  2
AcDbPolyline
  3
"AutoCAD"
 90
        0
280
     0
281
     1
  0
CLASS
  1
IMAGE
  2
AcDbRasterImage
  3
ISM
 90
      127
280
     0
281
     1
  0
CLASS
  1
OLE2FRAME
  2
AcDbOle2Frame
  3
""
 90
        0
280
     0
281
     1
  0
CLASS
  1
HATCH
  2
AcDbHatch
  3
"ACAD_SEDONA"
 90
        0
280
     0
281
     1
  0
CLASS
  1
DICTIONARYVAR
  2
AcDbDictionaryVar
  3
"AutoCAD"
 90
        0
280
     0
281
     0
  0
CLASS
  1
RASTERVARIABLES
  2
AcDbRasterVariables
  3
ISM
 90
        0
280
     0
281
     0
  0
CLASS
  1
IMAGEDEF
  2
AcDbRasterImageDef
  3
ISM
 90
        0
280
     0
281
     0
  0
CLASS
  1
IMAGEDEF_REACTOR
  2
AcDbRasterImageDefReactor
  3
ISM
 90
        1
280
     0
281
     0
  0
CLASS
  1
IDBUFFER
  2
AcDbIdBuffer
  3
"Acad"
 90
        0
280
     0
281
     0
  0
CLASS
  1
SPATIAL_FILTER
  2
AcDbSpatialFilter
  3
"Acad"
 90
        0
280
     0
281
     0
  0
CLASS
  1
XRECORD
  2
AcDbXrecord
  3
"<Built In>"
 90
        0
280
     0
281
     0
  0
CLASS
  1
SORTENTSTABLE
  2
AcDbSortentsTable
  3
"AutoCAD"
 90
        0
280
     0
281
     0
  0
CLASS
  1
LAYER_INDEX
  2
AcDbLayerIndex
  3
"Acad"
 90
        0
280
     0
281
     0
  0
CLASS
  1
SPATIAL_INDEX
  2
AcDbSpatialIndex
  3
"Acad"
 90
        0
280
     0
281
     0
  0
CLASS
  1
OBJECT_PTR
  2
CAseDLPNTableRecord
  3
"ASE-LPNTableRecord"
 90
        1
280
     0
281
     0
  0
CLASS
  1
LAYOUT
  2
AcDbLayout
  3
"AutoCAD 2000"
 90
        1
280
     0
281
     0
  0
CLASS
  1
PLOTSETTINGS
  2
AcDbPlotSettings
  3
"AutoCAD 2000"
 90
        1
280
     0
281
     0
  0
CLASS
  1
ACDBDICTIONARYWDFLT
  2
AcDbDictionaryWithDefault
  3
"AutoCAD 2000"
 90
        1
280
     0
281
     0
  0
CLASS
  1
ACDBPLACEHOLDER
  2
AcDbPlaceHolder
  3
"AutoCAD 2000"
 90
        1
280
     0
281
     0
  0
CLASS
  1
VBA_PROJECT
  2
AcDbVbaProject
  3
"acadvba"
 90
        1
280
     0
281
     0
  0
CLASS
  1
WIPEOUT
  2
AcDbWipeout
  3
WipeOut|AutoCAD Express Tool|expresstools@autodesk.com
 90
      127
280
     0
281
     1
  0
CLASS
  1
WIPEOUTVARIABLES
  2
AcDbWipeoutVariables
  3
WipeOut|AutoCAD Express Tool|expresstools@autodesk.com
 90
        0
280
     0
281
     0
  0
CLASS
  1
RTEXT
  2
RText
  3
RText|AutoCAD Express Tool|expresstools@autodesk.com
 90
        0
280
     0
281
     1
  0
CLASS
  1
ARCALIGNEDTEXT
  2
AcDbArcAlignedText
  3
ATEXT|AutoCAD Express Tool|expresstools@autodesk.com
 90
        0
280
     0
281
     1
  0
ENDSEC
  0
SECTION
  2
TABLES
  0
TABLE
  2
VPORT
  5
7
100
AcDbSymbolTable
 70
     1
  0
VPORT
  5
15
100
AcDbSymbolTableRecord
100
AcDbViewportTableRecord
  2
*ACTIVE
 70
     0
 10
0.0
 20
0.0
 11
1.0
 21
1.0
 12
994.0
 22
1488.0
 13
0.0
 23
0.0
 14
1.0
 24
1.0
 15
0.0
 25
0.0
 16
0.0
 26
0.0
 36
1.0
 17
0.0
 27
0.0
 37
0.0
 40
2800.0
 41
1.722533
 42
50.0
 43
0.0
 44
0.0
 50
0.0
 51
0.0
 71
     0
 72
   100
 73
     1
 74
     1
 75
     0
 76
     0
 77
     0
 78
     0
  0
ENDTAB
  0
TABLE
  2
LTYPE
  5
4
100
AcDbSymbolTable
 70
    10
  0
LTYPE
  5
11
100
AcDbSymbolTableRecord
100
AcDbLinetypeTableRecord
  2
BYBLOCK
 70
    64
  3

 72
    65
 73
     0
 40
0.0
  0
LTYPE
  5
12
100
AcDbSymbolTableRecord
100
AcDbLinetypeTableRecord
  2
BYLAYER
 70
    64
  3

 72
    65
 73
     0
 40
0.0
  0
LTYPE
  5
13
100
AcDbSymbolTableRecord
100
AcDbLinetypeTableRecord
  2
CONTINUOUS
 70
    64
  3
実線
 72
    65
 73
     0
 40
0.0
  0
LTYPE
  5
1D
100
AcDbSymbolTableRecord
100
AcDbLinetypeTableRecord
  2
EXLTYPE1
 70
    64
  3
破線
 72
    65
 73
     2
 40
3.0
 49
2.0
 74
     0
 49
-1.0
 74
     0
  0
LTYPE
  5
1E
100
AcDbSymbolTableRecord
100
AcDbLinetypeTableRecord
  2
EXLTYPE2
 70
    64
  3
点線
 72
    65
 73
     2
 40
2.0
 49
1.0
 74
     0
 49
-1.0
 74
     0
  0
LTYPE
  5
1F
100
AcDbSymbolTableRecord
100
AcDbLinetypeTableRecord
  2
EXLTYPE3
 70
    64
  3
一点鎖線
 72
    65
 73
     4
 40
10.0
 49
7.0
 74
     0
 49
-1.0
 74
     0
 49
1.0
 74
     0
 49
-1.0
 74
     0
  0
LTYPE
  5
20
100
AcDbSymbolTableRecord
100
AcDbLinetypeTableRecord
  2
EXLTYPE4
 70
    64
  3
二点鎖線
 72
    65
 73
     6
 40
12.0
 49
7.0
 74
     0
 49
-1.0
 74
     0
 49
1.0
 74
     0
 49
-1.0
 74
     0
 49
1.0
 74
     0
 49
-1.0
 74
     0
  0
LTYPE
  5
21
100
AcDbSymbolTableRecord
100
AcDbLinetypeTableRecord
  2
EXLTYPE5
 70
    64
  3
三点鎖線
 72
    65
 73
     8
 40
37.0
 49
30.0
 74
     0
 49
-1.0
 74
     0
 49
1.0
 74
     0
 49
-1.0
 74
     0
 49
1.0
 74
     0
 49
-1.0
 74
     0
 49
1.0
 74
     0
 49
-1.0
 74
     0
  0
LTYPE
  5
22
100
AcDbSymbolTableRecord
100
AcDbLinetypeTableRecord
  2
EXLTYPE6
 70
    64
  3
四点鎖線
 72
    65
 73
    10
 40
39.0
 49
30.0
 74
     0
 49
-1.0
 74
     0
 49
1.0
 74
     0
 49
-1.0
 74
     0
 49
1.0
 74
     0
 49
-1.0
 74
     0
 49
1.0
 74
     0
 49
-1.0
 74
     0
 49
1.0
 74
     0
 49
-1.0
 74
     0
  0
LTYPE
  5
23
100
AcDbSymbolTableRecord
100
AcDbLinetypeTableRecord
  2
EXLTYPE7
 70
    64
  3
破線2
 72
    65
 73
     2
 40
0.02
 49
0.01
 74
     0
 49
-0.01
 74
     0
  0
ENDTAB
  0
TABLE
  2
LAYER
  5
2
100
AcDbSymbolTable
 70
     6
  0
LAYER
  5
14
100
AcDbSymbolTableRecord
100
AcDbLayerTableRecord
  2
0
 70
     0
 62
     7
  6
CONTINUOUS
  0
LAYER
  5
26
100
AcDbSymbolTableRecord
100
AcDbLayerTableRecord
  2
枠_
 70
    64
 62
     7
  6
CONTINUOUS
  0
LAYER
  5
27
100
AcDbSymbolTableRecord
100
AcDbLayerTableRecord
  2
スト－ル
 70
    64
 62
     7
  6
CONTINUOUS
  0
LAYER
  5
28
100
AcDbSymbolTableRecord
100
AcDbLayerTableRecord
  2
フラッシュバルブ
 70
    64
 62
     7
  6
CONTINUOUS
  0
LAYER
  5
29
100
AcDbSymbolTableRecord
100
AcDbLayerTableRecord
  2
寸法
 70
    64
 62
     7
  6
CONTINUOUS
  0
LAYER
  5
2A
100
AcDbSymbolTableRecord
100
AcDbLayerTableRecord
  2
器具明細表
 70
    64
 62
     7
  6
CONTINUOUS
  0
ENDTAB
  0
TABLE
  2
STYLE
  5
3
100
AcDbSymbolTable
 70
     5
  0
STYLE
  5
17
100
AcDbSymbolTableRecord
100
AcDbTextStyleTableRecord
  2
STANDARD
 70
     0
 40
0.0
 41
1.0
 50
0.0
 71
     0
 42
0.0
  3
monotxt
  4
extfont
  0
STYLE
  5
24
100
AcDbSymbolTableRecord
100
AcDbTextStyleTableRecord
  2
EXCADSTD
 70
    64
 40
0.0
 41
1.0
 50
0.0
 71
     0
 42
0.2
  3
monotxt
  4
extfont
  0
STYLE
  5
25
100
AcDbSymbolTableRecord
100
AcDbTextStyleTableRecord
  2
EXCADVERT
 70
    68
 40
0.0
 41
1.0
 50
0.0
 71
     0
 42
0.286885
  3
monotxt
  4
extfont
  0
STYLE
  5
8C
100
AcDbSymbolTableRecord
100
AcDbTextStyleTableRecord
  2
EXCADTTF1
 70
    64
 40
0.0
 41
1.0
 50
0.0
 71
     0
 42
0.2
  3
MS Gothic.ttf
  4

1001
ACAD
1000
MS Gothic
1071
    32817
  0
STYLE
  5
6C1
100
AcDbSymbolTableRecord
100
AcDbTextStyleTableRecord
  2
EXCADDIM1
 70
    64
 40
0.0
 41
0.95
 50
0.0
 71
     0
 42
0.2
  3
monotxt
  4
extfont
  0
ENDTAB
  0
TABLE
  2
VIEW
  5
5
100
AcDbSymbolTable
 70
     0
  0
ENDTAB
  0
TABLE
  2
UCS
  5
6
100
AcDbSymbolTable
 70
     0
  0
ENDTAB
  0
TABLE
  2
APPID
  5
8
100
AcDbSymbolTable
 70
     1
  0
APPID
  5
16
100
AcDbSymbolTableRecord
100
AcDbRegAppTableRecord
  2
ACAD
 70
     0
  0
ENDTAB
  0
TABLE
  2
DIMSTYLE
  5
9
100
AcDbSymbolTable
 70
     1
  0
DIMSTYLE
105
18
100
AcDbSymbolTableRecord
100
AcDbDimStyleTableRecord
  2
STANDARD
 70
     0
  3

  4

  5

  6

  7

 40
1.0
 41
0.18
 42
0.0625
 43
0.38
 44
0.18
 45
0.0
 46
0.0
 47
0.0
 48
0.0
 71
     0
 72
     0
 73
     1
 74
     1
 75
     0
 76
     0
 77
     0
 78
     0
140
0.18
141
0.09
142
0.0
143
25.4
144
1.0
145
0.0
146
1.0
147
0.09
170
     0
171
     2
172
     1
173
     0
174
     0
175
     0
176
     0
177
     0
178
     0
270
     2
271
     4
272
     4
273
     2
274
     2
275
     0
280
     0
281
     0
282
     0
283
     1
284
     0
285
     0
286
     0
287
     0
288
     0
340
17
  0
ENDTAB
  0
TABLE
  2
BLOCK_RECORD
  5
1
100
AcDbSymbolTable
 70
    27
  0
BLOCK_RECORD
  5
A
100
AcDbSymbolTableRecord
100
AcDbBlockTableRecord
  2
*MODEL_SPACE
  0
BLOCK_RECORD
  5
B
100
AcDbSymbolTableRecord
100
AcDbBlockTableRecord
  2
*PAPER_SPACE
  0
BLOCK_RECORD
  5
2B
100
AcDbSymbolTableRecord
100
AcDbBlockTableRecord
  2
_EX_NORM
  0
BLOCK_RECORD
  5
2C
100
AcDbSymbolTableRecord
100
AcDbBlockTableRecord
  2
_EX_BNORM
  0
BLOCK_RECORD
  5
2D
100
AcDbSymbolTableRecord
100
AcDbBlockTableRecord
  2
_EX_BCIR
  0
BLOCK_RECORD
  5
2E
100
AcDbSymbolTableRecord
100
AcDbBlockTableRecord
  2
_EX_RCIVIL
  0
BLOCK_RECORD
  5
2F
100
AcDbSymbolTableRecord
100
AcDbBlockTableRecord
  2
_EX_SLANT
  0
BLOCK_RECORD
  5
30
100
AcDbSymbolTableRecord
100
AcDbBlockTableRecord
  2
_EX_NONE
  0
BLOCK_RECORD
  5
31
100
AcDbSymbolTableRecord
100
AcDbBlockTableRecord
  2
_EX_CIVIL
  0
BLOCK_RECORD
  5
32
100
AcDbSymbolTableRecord
100
AcDbBlockTableRecord
  2
_EX_WCIR
  0
BLOCK_RECORD
  5
33
100
AcDbSymbolTableRecord
100
AcDbBlockTableRecord
  2
_EX_WCIR2
  0
BLOCK_RECORD
  5
34
100
AcDbSymbolTableRecord
100
AcDbBlockTableRecord
  2
_EX_WNORM
  0
BLOCK_RECORD
  5
35
100
AcDbSymbolTableRecord
100
AcDbBlockTableRecord
  2
_EX_NNORM
  0
BLOCK_RECORD
  5
36
100
AcDbSymbolTableRecord
100
AcDbBlockTableRecord
  2
_EX_BBOX
  0
BLOCK_RECORD
  5
37
100
AcDbSymbolTableRecord
100
AcDbBlockTableRecord
  2
_EX_WBOX
  0
BLOCK_RECORD
  5
38
100
AcDbSymbolTableRecord
100
AcDbBlockTableRecord
  2
_EX_INTEGRAL
  0
BLOCK_RECORD
  5
39
100
AcDbSymbolTableRecord
100
AcDbBlockTableRecord
  2
NC510LSK
  0
BLOCK_RECORD
  5
6B6
100
AcDbSymbolTableRecord
100
AcDbBlockTableRecord
  2
*D15
  0
BLOCK_RECORD
  5
6C5
100
AcDbSymbolTableRecord
100
AcDbBlockTableRecord
  2
*D16
  0
BLOCK_RECORD
  5
6D1
100
AcDbSymbolTableRecord
100
AcDbBlockTableRecord
  2
*D17
  0
BLOCK_RECORD
  5
6DD
100
AcDbSymbolTableRecord
100
AcDbBlockTableRecord
  2
*D18
  0
BLOCK_RECORD
  5
6F0
100
AcDbSymbolTableRecord
100
AcDbBlockTableRecord
  2
*D19
  0
BLOCK_RECORD
  5
6FE
100
AcDbSymbolTableRecord
100
AcDbBlockTableRecord
  2
*D20
  0
BLOCK_RECORD
  5
709
100
AcDbSymbolTableRecord
100
AcDbBlockTableRecord
  2
*D21
  0
BLOCK_RECORD
  5
715
100
AcDbSymbolTableRecord
100
AcDbBlockTableRecord
  2
*D22
  0
BLOCK_RECORD
  5
723
100
AcDbSymbolTableRecord
100
AcDbBlockTableRecord
  2
*D23
  0
BLOCK_RECORD
  5
72F
100
AcDbSymbolTableRecord
100
AcDbBlockTableRecord
  2
*D24
  0
BLOCK_RECORD
  5
73B
100
AcDbSymbolTableRecord
100
AcDbBlockTableRecord
  2
*D25
  0
BLOCK_RECORD
  5
746
100
AcDbSymbolTableRecord
100
AcDbBlockTableRecord
  2
*D26
  0
ENDTAB
  0
ENDSEC
  0
SECTION
  2
BLOCKS
  0
BLOCK
  5
D
100
AcDbEntity
  8
0
100
AcDbBlockBegin
  2
*MODEL_SPACE
 70
     0
 10
0.0
 20
0.0
 30
0.0
  3
*MODEL_SPACE
  1

  0
ENDBLK
  5
E
100
AcDbEntity
  8
0
100
AcDbBlockEnd
  0
BLOCK
  5
F
100
AcDbEntity
 67
     1
  8
0
100
AcDbBlockBegin
  2
*PAPER_SPACE
 70
     0
 10
0.0
 20
0.0
 30
0.0
  3
*PAPER_SPACE
  1

  0
ENDBLK
  5
10
100
AcDbEntity
 67
     1
  8
0
100
AcDbBlockEnd
  0
BLOCK
  5
3A
100
AcDbEntity
  8
0
100
AcDbBlockBegin
  2
_EX_NORM
 70
     0
 10
0.0
 20
0.0
 30
0.0
  3
_EX_NORM
  1

  0
LINE
  5
3B
100
AcDbEntity
  8
0
  6
CONTINUOUS
 62
     0
100
AcDbLine
 10
0.0
 20
0.0
 30
0.0
 11
-1.0
 21
0.0
 31
0.0
  0
LINE
  5
3C
100
AcDbEntity
  8
0
  6
CONTINUOUS
 62
     0
100
AcDbLine
 10
0.0
 20
0.0
 30
0.0
 11
-1.0
 21
0.166667
 31
0.0
  0
LINE
  5
3D
100
AcDbEntity
  8
0
  6
CONTINUOUS
 62
     0
100
AcDbLine
 10
0.0
 20
0.0
 30
0.0
 11
-1.0
 21
-0.166667
 31
0.0
  0
ENDBLK
  5
3E
100
AcDbEntity
  8
0
100
AcDbBlockEnd
  0
BLOCK
  5
3F
100
AcDbEntity
  8
0
100
AcDbBlockBegin
  2
_EX_BNORM
 70
     0
 10
0.0
 20
0.0
 30
0.0
  3
_EX_BNORM
  1

  0
LINE
  5
40
100
AcDbEntity
  8
0
  6
CONTINUOUS
 62
     0
100
AcDbLine
 10
0.0
 20
0.0
 30
0.0
 11
-1.0
 21
0.0
 31
0.0
  0
LINE
  5
41
100
AcDbEntity
  8
0
  6
CONTINUOUS
 62
     0
100
AcDbLine
 10
0.0
 20
0.0
 30
0.0
 11
-1.0
 21
0.166667
 31
0.0
  0
LINE
  5
42
100
AcDbEntity
  8
0
  6
CONTINUOUS
 62
     0
100
AcDbLine
 10
0.0
 20
0.0
 30
0.0
 11
-1.0
 21
-0.166667
 31
0.0
  0
LINE
  5
43
100
AcDbEntity
  8
0
  6
CONTINUOUS
 62
     0
100
AcDbLine
 10
0.0
 20
0.0
 30
0.0
 11
-1.0
 21
0.083333
 31
0.0
  0
LINE
  5
44
100
AcDbEntity
  8
0
  6
CONTINUOUS
 62
     0
100
AcDbLine
 10
0.0
 20
0.0
 30
0.0
 11
-1.0
 21
-0.083333
 31
0.0
  0
LINE
  5
45
100
AcDbEntity
  8
0
  6
CONTINUOUS
 62
     0
100
AcDbLine
 10
-1.0
 20
0.166667
 30
0.0
 11
-1.0
 21
-0.166667
 31
0.0
  0
ENDBLK
  5
46
100
AcDbEntity
  8
0
100
AcDbBlockEnd
  0
BLOCK
  5
47
100
AcDbEntity
  8
0
100
AcDbBlockBegin
  2
_EX_BCIR
 70
     0
 10
0.0
 20
0.0
 30
0.0
  3
_EX_BCIR
  1

  0
LINE
  5
48
100
AcDbEntity
  8
0
  6
CONTINUOUS
 62
     0
100
AcDbLine
 10
0.0
 20
0.0
 30
0.0
 11
-1.0
 21
0.0
 31
0.0
  0
CIRCLE
  5
49
100
AcDbEntity
  8
0
  6
CONTINUOUS
 62
     0
100
AcDbCircle
 10
0.0
 20
0.0
 30
0.0
 40
0.5
  0
CIRCLE
  5
4A
100
AcDbEntity
  8
0
  6
CONTINUOUS
 62
     0
100
AcDbCircle
 10
0.0
 20
0.0
 30
0.0
 40
0.25
  0
ENDBLK
  5
4B
100
AcDbEntity
  8
0
100
AcDbBlockEnd
  0
BLOCK
  5
4C
100
AcDbEntity
  8
0
100
AcDbBlockBegin
  2
_EX_RCIVIL
 70
     0
 10
0.0
 20
0.0
 30
0.0
  3
_EX_RCIVIL
  1

  0
LINE
  5
4D
100
AcDbEntity
  8
0
  6
CONTINUOUS
 62
     0
100
AcDbLine
 10
0.0
 20
0.0
 30
0.0
 11
-1.0
 21
0.0
 31
0.0
  0
LINE
  5
4E
100
AcDbEntity
  8
0
  6
CONTINUOUS
 62
     0
100
AcDbLine
 10
-1.0
 20
-0.25
 30
0.0
 11
0.0
 21
-0.25
 31
0.0
  0
LINE
  5
4F
100
AcDbEntity
  8
0
  6
CONTINUOUS
 62
     0
100
AcDbLine
 10
-1.0
 20
-0.125
 30
0.0
 11
0.0
 21
-0.125
 31
0.0
  0
ENDBLK
  5
50
100
AcDbEntity
  8
0
100
AcDbBlockEnd
  0
BLOCK
  5
51
100
AcDbEntity
  8
0
100
AcDbBlockBegin
  2
_EX_SLANT
 70
     0
 10
0.0
 20
0.0
 30
0.0
  3
_EX_SLANT
  1

  0
LINE
  5
52
100
AcDbEntity
  8
0
  6
CONTINUOUS
 62
     0
100
AcDbLine
 10
0.0
 20
0.0
 30
0.0
 11
-1.0
 21
0.0
 31
0.0
  0
LINE
  5
53
100
AcDbEntity
  8
0
  6
CONTINUOUS
 62
     0
100
AcDbLine
 10
0.707107
 20
0.707107
 30
0.0
 11
-0.707107
 21
-0.707107
 31
0.0
  0
ENDBLK
  5
54
100
AcDbEntity
  8
0
100
AcDbBlockEnd
  0
BLOCK
  5
55
100
AcDbEntity
  8
0
100
AcDbBlockBegin
  2
_EX_NONE
 70
     0
 10
0.0
 20
0.0
 30
0.0
  3
_EX_NONE
  1

  0
LINE
  5
56
100
AcDbEntity
  8
0
  6
CONTINUOUS
 62
     0
100
AcDbLine
 10
0.0
 20
0.0
 30
0.0
 11
-1.0
 21
0.0
 31
0.0
  0
ENDBLK
  5
57
100
AcDbEntity
  8
0
100
AcDbBlockEnd
  0
BLOCK
  5
58
100
AcDbEntity
  8
0
100
AcDbBlockBegin
  2
_EX_CIVIL
 70
     0
 10
0.0
 20
0.0
 30
0.0
  3
_EX_CIVIL
  1

  0
LINE
  5
59
100
AcDbEntity
  8
0
  6
CONTINUOUS
 62
     0
100
AcDbLine
 10
0.0
 20
0.0
 30
0.0
 11
-1.0
 21
0.0
 31
0.0
  0
LINE
  5
5A
100
AcDbEntity
  8
0
  6
CONTINUOUS
 62
     0
100
AcDbLine
 10
-1.0
 20
0.25
 30
0.0
 11
0.0
 21
0.25
 31
0.0
  0
LINE
  5
5B
100
AcDbEntity
  8
0
  6
CONTINUOUS
 62
     0
100
AcDbLine
 10
-1.0
 20
0.125
 30
0.0
 11
0.0
 21
0.125
 31
0.0
  0
ENDBLK
  5
5C
100
AcDbEntity
  8
0
100
AcDbBlockEnd
  0
BLOCK
  5
5D
100
AcDbEntity
  8
0
100
AcDbBlockBegin
  2
_EX_WCIR
 70
     0
 10
0.0
 20
0.0
 30
0.0
  3
_EX_WCIR
  1

  0
LINE
  5
5E
100
AcDbEntity
  8
0
  6
CONTINUOUS
 62
     0
100
AcDbLine
 10
0.0
 20
0.0
 30
0.0
 11
-1.0
 21
0.0
 31
0.0
  0
CIRCLE
  5
5F
100
AcDbEntity
  8
0
  6
CONTINUOUS
 62
     0
100
AcDbCircle
 10
0.0
 20
0.0
 30
0.0
 40
0.5
  0
ENDBLK
  5
60
100
AcDbEntity
  8
0
100
AcDbBlockEnd
  0
BLOCK
  5
61
100
AcDbEntity
  8
0
100
AcDbBlockBegin
  2
_EX_WCIR2
 70
     0
 10
0.0
 20
0.0
 30
0.0
  3
_EX_WCIR2
  1

  0
LINE
  5
62
100
AcDbEntity
  8
0
  6
CONTINUOUS
 62
     0
100
AcDbLine
 10
-0.5
 20
0.0
 30
0.0
 11
-1.0
 21
0.0
 31
0.0
  0
CIRCLE
  5
63
100
AcDbEntity
  8
0
  6
CONTINUOUS
 62
     0
100
AcDbCircle
 10
0.0
 20
0.0
 30
0.0
 40
0.5
  0
ENDBLK
  5
64
100
AcDbEntity
  8
0
100
AcDbBlockEnd
  0
BLOCK
  5
65
100
AcDbEntity
  8
0
100
AcDbBlockBegin
  2
_EX_WNORM
 70
     0
 10
0.0
 20
0.0
 30
0.0
  3
_EX_WNORM
  1

  0
LINE
  5
66
100
AcDbEntity
  8
0
  6
CONTINUOUS
 62
     0
100
AcDbLine
 10
-1.0
 20
0.0
 30
0.0
 11
-1.0
 21
0.0
 31
0.0
  0
LINE
  5
67
100
AcDbEntity
  8
0
  6
CONTINUOUS
 62
     0
100
AcDbLine
 10
0.0
 20
0.0
 30
0.0
 11
-1.0
 21
0.166667
 31
0.0
  0
LINE
  5
68
100
AcDbEntity
  8
0
  6
CONTINUOUS
 62
     0
100
AcDbLine
 10
0.0
 20
0.0
 30
0.0
 11
-1.0
 21
-0.166667
 31
0.0
  0
LINE
  5
69
100
AcDbEntity
  8
0
  6
CONTINUOUS
 62
     0
100
AcDbLine
 10
-1.0
 20
0.166667
 30
0.0
 11
-1.0
 21
-0.166667
 31
0.0
  0
ENDBLK
  5
6A
100
AcDbEntity
  8
0
100
AcDbBlockEnd
  0
BLOCK
  5
6B
100
AcDbEntity
  8
0
100
AcDbBlockBegin
  2
_EX_NNORM
 70
     0
 10
0.0
 20
0.0
 30
0.0
  3
_EX_NNORM
  1

  0
LINE
  5
6C
100
AcDbEntity
  8
0
  6
CONTINUOUS
 62
     0
100
AcDbLine
 10
0.0
 20
0.0
 30
0.0
 11
-1.0
 21
0.0
 31
0.0
  0
LINE
  5
6D
100
AcDbEntity
  8
0
  6
CONTINUOUS
 62
     0
100
AcDbLine
 10
0.0
 20
0.0
 30
0.0
 11
-1.0
 21
0.166667
 31
0.0
  0
LINE
  5
6E
100
AcDbEntity
  8
0
  6
CONTINUOUS
 62
     0
100
AcDbLine
 10
0.0
 20
0.0
 30
0.0
 11
-1.0
 21
-0.166667
 31
0.0
  0
LINE
  5
6F
100
AcDbEntity
  8
0
  6
CONTINUOUS
 62
     0
100
AcDbLine
 10
-1.0
 20
0.166667
 30
0.0
 11
-1.0
 21
-0.166667
 31
0.0
  0
ENDBLK
  5
70
100
AcDbEntity
  8
0
100
AcDbBlockEnd
  0
BLOCK
  5
71
100
AcDbEntity
  8
0
100
AcDbBlockBegin
  2
_EX_BBOX
 70
     0
 10
0.0
 20
0.0
 30
0.0
  3
_EX_BBOX
  1

  0
LINE
  5
72
100
AcDbEntity
  8
0
  6
CONTINUOUS
 62
     0
100
AcDbLine
 10
0.0
 20
0.0
 30
0.0
 11
-1.0
 21
0.0
 31
0.0
  0
LINE
  5
73
100
AcDbEntity
  8
0
  6
CONTINUOUS
 62
     0
100
AcDbLine
 10
-0.5
 20
0.5
 30
0.0
 11
0.5
 21
0.5
 31
0.0
  0
LINE
  5
74
100
AcDbEntity
  8
0
  6
CONTINUOUS
 62
     0
100
AcDbLine
 10
0.5
 20
0.5
 30
0.0
 11
0.5
 21
-0.5
 31
0.0
  0
LINE
  5
75
100
AcDbEntity
  8
0
  6
CONTINUOUS
 62
     0
100
AcDbLine
 10
0.5
 20
-0.5
 30
0.0
 11
-0.5
 21
-0.5
 31
0.0
  0
LINE
  5
76
100
AcDbEntity
  8
0
  6
CONTINUOUS
 62
     0
100
AcDbLine
 10
-0.5
 20
-0.5
 30
0.0
 11
-0.5
 21
0.5
 31
0.0
  0
LINE
  5
77
100
AcDbEntity
  8
0
  6
CONTINUOUS
 62
     0
100
AcDbLine
 10
-0.25
 20
0.25
 30
0.0
 11
0.25
 21
0.25
 31
0.0
  0
LINE
  5
78
100
AcDbEntity
  8
0
  6
CONTINUOUS
 62
     0
100
AcDbLine
 10
0.25
 20
0.25
 30
0.0
 11
0.25
 21
-0.25
 31
0.0
  0
LINE
  5
79
100
AcDbEntity
  8
0
  6
CONTINUOUS
 62
     0
100
AcDbLine
 10
0.25
 20
-0.25
 30
0.0
 11
-0.25
 21
-0.25
 31
0.0
  0
LINE
  5
7A
100
AcDbEntity
  8
0
  6
CONTINUOUS
 62
     0
100
AcDbLine
 10
-0.25
 20
-0.25
 30
0.0
 11
-0.25
 21
0.25
 31
0.0
  0
ENDBLK
  5
7B
100
AcDbEntity
  8
0
100
AcDbBlockEnd
  0
BLOCK
  5
7C
100
AcDbEntity
  8
0
100
AcDbBlockBegin
  2
_EX_WBOX
 70
     0
 10
0.0
 20
0.0
 30
0.0
  3
_EX_WBOX
  1

  0
LINE
  5
7D
100
AcDbEntity
  8
0
  6
CONTINUOUS
 62
     0
100
AcDbLine
 10
-0.5
 20
0.0
 30
0.0
 11
-1.0
 21
0.0
 31
0.0
  0
LINE
  5
7E
100
AcDbEntity
  8
0
  6
CONTINUOUS
 62
     0
100
AcDbLine
 10
-0.5
 20
0.5
 30
0.0
 11
0.5
 21
0.5
 31
0.0
  0
LINE
  5
7F
100
AcDbEntity
  8
0
  6
CONTINUOUS
 62
     0
100
AcDbLine
 10
0.5
 20
0.5
 30
0.0
 11
0.5
 21
-0.5
 31
0.0
  0
LINE
  5
80
100
AcDbEntity
  8
0
  6
CONTINUOUS
 62
     0
100
AcDbLine
 10
0.5
 20
-0.5
 30
0.0
 11
-0.5
 21
-0.5
 31
0.0
  0
LINE
  5
81
100
AcDbEntity
  8
0
  6
CONTINUOUS
 62
     0
100
AcDbLine
 10
-0.5
 20
-0.5
 30
0.0
 11
-0.5
 21
0.5
 31
0.0
  0
ENDBLK
  5
82
100
AcDbEntity
  8
0
100
AcDbBlockEnd
  0
BLOCK
  5
83
100
AcDbEntity
  8
0
100
AcDbBlockBegin
  2
_EX_INTEGRAL
 70
     0
 10
0.0
 20
0.0
 30
0.0
  3
_EX_INTEGRAL
  1

  0
LINE
  5
84
100
AcDbEntity
  8
0
  6
CONTINUOUS
 62
     0
100
AcDbLine
 10
0.0
 20
0.0
 30
0.0
 11
-1.0
 21
0.0
 31
0.0
  0
ARC
  5
85
100
AcDbEntity
  8
0
  6
CONTINUOUS
 62
     0
100
AcDbCircle
 10
0.542115
 20
0.164992
 30
0.0
 40
0.56667
100
AcDbArc
 50
73.07249
 51
196.927513
  0
ARC
  5
86
100
AcDbEntity
  8
0
  6
CONTINUOUS
 62
     0
100
AcDbCircle
 10
-0.542115
 20
-0.164992
 30
0.0
 40
0.56667
100
AcDbArc
 50
253.072487
 51
16.927513
  0
ENDBLK
  5
87
100
AcDbEntity
  8
0
100
AcDbBlockEnd
  0
BLOCK
  5
88
100
AcDbEntity
  8
0
100
AcDbBlockBegin
  2
NC510LSK
 70
     0
 10
0.0
 20
0.0
 30
0.0
  3
NC510LSK
  1

  0
POINT
  5
89
100
AcDbEntity
  8
0
  6
CONTINUOUS
 62
     7
100
AcDbPoint
 10
0.0
 20
0.0
 30
0.0
  0
ENDBLK
  5
8A
100
AcDbEntity
  8
0
100
AcDbBlockEnd
  0
BLOCK
  5
6B7
100
AcDbEntity
  8
0
100
AcDbBlockBegin
  2
*D15
 70
    65
 10
0.0
 20
0.0
 30
0.0
  3
*D15
  1

  0
LINE
  5
6B8
100
AcDbEntity
  8
寸法
  6
CONTINUOUS
 62
     3
100
AcDbLine
 10
629.0
 20
1502.999964
 30
0.0
 11
876.0
 21
1502.999964
 31
0.0
  0
TEXT
  5
6B9
100
AcDbEntity
  8
寸法
  6
CONTINUOUS
 62
     2
100
AcDbText
 10
862.5
 20
994.699982
 30
0.0
 40
40.0
  1
920
 50
90.0
 41
0.945
  7
EXCADSTD
 72
     1
 11
862.5
 21
1042.999982
 31
0.0
100
AcDbText
  0
LINE
  5
6BA
100
AcDbEntity
  8
寸法
  6
CONTINUOUS
 62
     3
100
AcDbLine
 10
866.0
 20
1502.999964
 30
0.0
 11
866.0
 21
583.0
 31
0.0
  0
LINE
  5
6BB
100
AcDbEntity
  8
寸法
  6
CONTINUOUS
 62
     3
100
AcDbLine
 10
871.0
 20
1472.999964
 30
0.0
 11
866.0
 21
1502.999964
 31
0.0
  0
LINE
  5
6BC
100
AcDbEntity
  8
寸法
  6
CONTINUOUS
 62
     3
100
AcDbLine
 10
866.0
 20
1502.999964
 30
0.0
 11
861.0
 21
1472.999964
 31
0.0
  0
LINE
  5
6BD
100
AcDbEntity
  8
寸法
  6
CONTINUOUS
 62
     3
100
AcDbLine
 10
861.0
 20
613.0
 30
0.0
 11
866.0
 21
583.0
 31
0.0
  0
LINE
  5
6BE
100
AcDbEntity
  8
寸法
  6
CONTINUOUS
 62
     3
100
AcDbLine
 10
866.0
 20
583.0
 30
0.0
 11
871.0
 21
613.0
 31
0.0
  0
LINE
  5
6BF
100
AcDbEntity
  8
寸法
  6
CONTINUOUS
 62
     3
100
AcDbLine
 10
705.0
 20
583.0
 30
0.0
 11
876.0
 21
583.0
 31
0.0
  0
ENDBLK
  5
6C0
100
AcDbEntity
  8
0
100
AcDbBlockEnd
  0
BLOCK
  5
6C6
100
AcDbEntity
  8
0
100
AcDbBlockBegin
  2
*D16
 70
    65
 10
0.0
 20
0.0
 30
0.0
  3
*D16
  1

  0
LINE
  5
6C7
100
AcDbEntity
  8
寸法
  6
CONTINUOUS
 62
     3
100
AcDbLine
 10
564.0
 20
542.0
 30
0.0
 11
564.0
 21
475.0
 31
0.0
  0
LINE
  5
6C8
100
AcDbEntity
  8
寸法
  6
CONTINUOUS
 62
     3
100
AcDbLine
 10
684.0
 20
542.0
 30
0.0
 11
684.0
 21
475.0
 31
0.0
  0
TEXT
  5
6C9
100
AcDbEntity
  8
寸法
  6
CONTINUOUS
 62
     2
100
AcDbText
 10
575.7
 20
488.5
 30
0.0
 40
40.0
  1
120
 41
0.945
  7
EXCADSTD
 72
     1
 11
624.0
 21
488.5
 31
0.0
100
AcDbText
  0
LINE
  5
6CA
100
AcDbEntity
  8
寸法
  6
CONTINUOUS
 62
     3
100
AcDbLine
 10
564.0
 20
485.0
 30
0.0
 11
684.0
 21
485.0
 31
0.0
  0
LINE
  5
6CB
100
AcDbEntity
  8
寸法
  6
CONTINUOUS
 62
     3
100
AcDbLine
 10
594.0
 20
490.0
 30
0.0
 11
564.0
 21
485.0
 31
0.0
  0
LINE
  5
6CC
100
AcDbEntity
  8
寸法
  6
CONTINUOUS
 62
     3
100
AcDbLine
 10
564.0
 20
485.0
 30
0.0
 11
594.0
 21
480.0
 31
0.0
  0
LINE
  5
6CD
100
AcDbEntity
  8
寸法
  6
CONTINUOUS
 62
     3
100
AcDbLine
 10
654.0
 20
480.0
 30
0.0
 11
684.0
 21
485.0
 31
0.0
  0
LINE
  5
6CE
100
AcDbEntity
  8
寸法
  6
CONTINUOUS
 62
     3
100
AcDbLine
 10
684.0
 20
485.0
 30
0.0
 11
654.0
 21
490.0
 31
0.0
  0
ENDBLK
  5
6CF
100
AcDbEntity
  8
0
100
AcDbBlockEnd
  0
BLOCK
  5
6D2
100
AcDbEntity
  8
0
100
AcDbBlockBegin
  2
*D17
 70
    65
 10
0.0
 20
0.0
 30
0.0
  3
*D17
  1

  0
LINE
  5
6D3
100
AcDbEntity
  8
寸法
  6
CONTINUOUS
 62
     3
100
AcDbLine
 10
454.000461
 20
2630.631496
 30
0.0
 11
454.000461
 21
2162.0
 31
0.0
  0
LINE
  5
6D4
100
AcDbEntity
  8
寸法
  6
CONTINUOUS
 62
     3
100
AcDbLine
 10
794.000461
 20
2630.631496
 30
0.0
 11
794.000461
 21
2162.0
 31
0.0
  0
TEXT
  5
6D5
100
AcDbEntity
  8
寸法
  6
CONTINUOUS
 62
     2
100
AcDbText
 10
575.700461
 20
2175.5
 30
0.0
 40
40.0
  1
340
 41
0.945
  7
EXCADSTD
 72
     1
 11
624.000461
 21
2175.5
 31
0.0
100
AcDbText
  0
LINE
  5
6D6
100
AcDbEntity
  8
寸法
  6
CONTINUOUS
 62
     3
100
AcDbLine
 10
454.000461
 20
2172.0
 30
0.0
 11
794.000461
 21
2172.0
 31
0.0
  0
LINE
  5
6D7
100
AcDbEntity
  8
寸法
  6
CONTINUOUS
 62
     3
100
AcDbLine
 10
484.000461
 20
2177.0
 30
0.0
 11
454.000461
 21
2172.0
 31
0.0
  0
LINE
  5
6D8
100
AcDbEntity
  8
寸法
  6
CONTINUOUS
 62
     3
100
AcDbLine
 10
454.000461
 20
2172.0
 30
0.0
 11
484.000461
 21
2167.0
 31
0.0
  0
LINE
  5
6D9
100
AcDbEntity
  8
寸法
  6
CONTINUOUS
 62
     3
100
AcDbLine
 10
764.000461
 20
2167.0
 30
0.0
 11
794.000461
 21
2172.0
 31
0.0
  0
LINE
  5
6DA
100
AcDbEntity
  8
寸法
  6
CONTINUOUS
 62
     3
100
AcDbLine
 10
794.000461
 20
2172.0
 30
0.0
 11
764.000461
 21
2177.0
 31
0.0
  0
ENDBLK
  5
6DB
100
AcDbEntity
  8
0
100
AcDbBlockEnd
  0
BLOCK
  5
6DE
100
AcDbEntity
  8
0
100
AcDbBlockBegin
  2
*D18
 70
    65
 10
0.0
 20
0.0
 30
0.0
  3
*D18
  1

  0
LINE
  5
6DF
100
AcDbEntity
  8
寸法
  6
CONTINUOUS
 62
     3
100
AcDbLine
 10
629.000461
 20
2635.631696
 30
0.0
 11
896.0
 21
2635.631696
 31
0.0
  0
LINE
  5
6E0
100
AcDbEntity
  8
寸法
  6
CONTINUOUS
 62
     3
100
AcDbLine
 10
629.000908
 20
2255.631496
 30
0.0
 11
896.0
 21
2255.631496
 31
0.0
  0
TEXT
  5
6E1
100
AcDbEntity
  8
寸法
  6
CONTINUOUS
 62
     2
100
AcDbText
 10
882.5
 20
2397.331596
 30
0.0
 40
40.0
  1
380
 50
90.0
 41
0.945
  7
EXCADSTD
 72
     1
 11
882.5
 21
2445.631596
 31
0.0
100
AcDbText
  0
LINE
  5
6E2
100
AcDbEntity
  8
寸法
  6
CONTINUOUS
 62
     3
100
AcDbLine
 10
886.0
 20
2635.631696
 30
0.0
 11
886.0
 21
2255.631496
 31
0.0
  0
LINE
  5
6E3
100
AcDbEntity
  8
寸法
  6
CONTINUOUS
 62
     3
100
AcDbLine
 10
891.0
 20
2605.631696
 30
0.0
 11
886.0
 21
2635.631696
 31
0.0
  0
LINE
  5
6E4
100
AcDbEntity
  8
寸法
  6
CONTINUOUS
 62
     3
100
AcDbLine
 10
886.0
 20
2635.631696
 30
0.0
 11
881.0
 21
2605.631696
 31
0.0
  0
LINE
  5
6E5
100
AcDbEntity
  8
寸法
  6
CONTINUOUS
 62
     3
100
AcDbLine
 10
881.0
 20
2285.631496
 30
0.0
 11
886.0
 21
2255.631496
 31
0.0
  0
LINE
  5
6E6
100
AcDbEntity
  8
寸法
  6
CONTINUOUS
 62
     3
100
AcDbLine
 10
886.0
 20
2255.631496
 30
0.0
 11
891.0
 21
2285.631496
 31
0.0
  0
ENDBLK
  5
6E7
100
AcDbEntity
  8
0
100
AcDbBlockEnd
  0
BLOCK
  5
6F1
100
AcDbEntity
  8
0
100
AcDbBlockBegin
  2
*D19
 70
    65
 10
0.0
 20
0.0
 30
0.0
  3
*D19
  1

  0
LINE
  5
6F2
100
AcDbEntity
  8
寸法
  6
CONTINUOUS
 62
     3
100
AcDbLine
 10
1522.810394
 20
517.5
 30
0.0
 11
1522.810394
 21
466.0
 31
0.0
  0
LINE
  5
6F3
100
AcDbEntity
  8
寸法
  6
CONTINUOUS
 62
     3
100
AcDbLine
 10
1742.810394
 20
578.0
 30
0.0
 11
1742.810394
 21
466.0
 31
0.0
  0
TEXT
  5
6F4
100
AcDbEntity
  8
寸法
  6
CONTINUOUS
 62
     2
100
AcDbText
 10
1584.510394
 20
479.5
 30
0.0
 40
40.0
  1
220
 41
0.945
  7
EXCADSTD
 72
     1
 11
1632.810394
 21
479.5
 31
0.0
100
AcDbText
  0
LINE
  5
6F5
100
AcDbEntity
  8
寸法
  6
CONTINUOUS
 62
     3
100
AcDbLine
 10
1522.810394
 20
476.0
 30
0.0
 11
1742.810394
 21
476.0
 31
0.0
  0
LINE
  5
6F6
100
AcDbEntity
  8
寸法
  6
CONTINUOUS
 62
     3
100
AcDbLine
 10
1552.810394
 20
481.0
 30
0.0
 11
1522.810394
 21
476.0
 31
0.0
  0
LINE
  5
6F7
100
AcDbEntity
  8
寸法
  6
CONTINUOUS
 62
     3
100
AcDbLine
 10
1522.810394
 20
476.0
 30
0.0
 11
1552.810394
 21
471.0
 31
0.0
  0
LINE
  5
6F8
100
AcDbEntity
  8
寸法
  6
CONTINUOUS
 62
     3
100
AcDbLine
 10
1712.810394
 20
471.0
 30
0.0
 11
1742.810394
 21
476.0
 31
0.0
  0
LINE
  5
6F9
100
AcDbEntity
  8
寸法
  6
CONTINUOUS
 62
     3
100
AcDbLine
 10
1742.810394
 20
476.0
 30
0.0
 11
1712.810394
 21
481.0
 31
0.0
  0
ENDBLK
  5
6FA
100
AcDbEntity
  8
0
100
AcDbBlockEnd
  0
BLOCK
  5
6FF
100
AcDbEntity
  8
0
100
AcDbBlockBegin
  2
*D20
 70
    65
 10
0.0
 20
0.0
 30
0.0
  3
*D20
  1

  0
LINE
  5
700
100
AcDbEntity
  8
寸法
  6
CONTINUOUS
 62
     3
100
AcDbLine
 10
1667.810394
 20
1709.9
 30
0.0
 11
1667.810394
 21
1746.5
 31
0.0
  0
TEXT
  5
701
100
AcDbEntity
  8
寸法
  6
CONTINUOUS
 62
     2
100
AcDbText
 10
1671.710394
 20
1740.0
 30
0.0
 40
40.0
  1
75
 41
0.945
  7
EXCADSTD
 72
     1
 11
1705.310394
 21
1740.0
 31
0.0
100
AcDbText
  0
LINE
  5
702
100
AcDbEntity
  8
寸法
  6
CONTINUOUS
 62
     3
100
AcDbLine
 10
1667.810394
 20
1736.5
 30
0.0
 11
1742.810394
 21
1736.5
 31
0.0
  0
LINE
  5
703
100
AcDbEntity
  8
寸法
  6
CONTINUOUS
 62
     3
100
AcDbLine
 10
1697.810394
 20
1741.5
 30
0.0
 11
1667.810394
 21
1736.5
 31
0.0
  0
LINE
  5
704
100
AcDbEntity
  8
寸法
  6
CONTINUOUS
 62
     3
100
AcDbLine
 10
1667.810394
 20
1736.5
 30
0.0
 11
1697.810394
 21
1731.5
 31
0.0
  0
LINE
  5
705
100
AcDbEntity
  8
寸法
  6
CONTINUOUS
 62
     3
100
AcDbLine
 10
1712.810394
 20
1731.5
 30
0.0
 11
1742.810394
 21
1736.5
 31
0.0
  0
LINE
  5
706
100
AcDbEntity
  8
寸法
  6
CONTINUOUS
 62
     3
100
AcDbLine
 10
1742.810394
 20
1736.5
 30
0.0
 11
1712.810394
 21
1741.5
 31
0.0
  0
ENDBLK
  5
707
100
AcDbEntity
  8
0
100
AcDbBlockEnd
  0
BLOCK
  5
70A
100
AcDbEntity
  8
0
100
AcDbBlockBegin
  2
*D21
 70
    65
 10
0.0
 20
0.0
 30
0.0
  3
*D21
  1

  0
LINE
  5
70B
100
AcDbEntity
  8
寸法
  6
CONTINUOUS
 62
     3
100
AcDbLine
 10
1363.810394
 20
903.0
 30
0.0
 11
1302.0
 21
903.0
 31
0.0
  0
LINE
  5
70C
100
AcDbEntity
  8
寸法
  6
CONTINUOUS
 62
     3
100
AcDbLine
 10
1387.810394
 20
583.0
 30
0.0
 11
1302.0
 21
583.0
 31
0.0
  0
TEXT
  5
70D
100
AcDbEntity
  8
寸法
  6
CONTINUOUS
 62
     2
100
AcDbText
 10
1308.5
 20
694.7
 30
0.0
 40
40.0
  1
320
 50
90.0
 41
0.945
  7
EXCADSTD
 72
     1
 11
1308.5
 21
743.0
 31
0.0
100
AcDbText
  0
LINE
  5
70E
100
AcDbEntity
  8
寸法
  6
CONTINUOUS
 62
     3
100
AcDbLine
 10
1312.0
 20
903.0
 30
0.0
 11
1312.0
 21
583.0
 31
0.0
  0
LINE
  5
70F
100
AcDbEntity
  8
寸法
  6
CONTINUOUS
 62
     3
100
AcDbLine
 10
1317.0
 20
873.0
 30
0.0
 11
1312.0
 21
903.0
 31
0.0
  0
LINE
  5
710
100
AcDbEntity
  8
寸法
  6
CONTINUOUS
 62
     3
100
AcDbLine
 10
1312.0
 20
903.0
 30
0.0
 11
1307.0
 21
873.0
 31
0.0
  0
LINE
  5
711
100
AcDbEntity
  8
寸法
  6
CONTINUOUS
 62
     3
100
AcDbLine
 10
1307.0
 20
613.0
 30
0.0
 11
1312.0
 21
583.0
 31
0.0
  0
LINE
  5
712
100
AcDbEntity
  8
寸法
  6
CONTINUOUS
 62
     3
100
AcDbLine
 10
1312.0
 20
583.0
 30
0.0
 11
1317.0
 21
613.0
 31
0.0
  0
ENDBLK
  5
713
100
AcDbEntity
  8
0
100
AcDbBlockEnd
  0
BLOCK
  5
716
100
AcDbEntity
  8
0
100
AcDbBlockBegin
  2
*D22
 70
    65
 10
0.0
 20
0.0
 30
0.0
  3
*D22
  1

  0
LINE
  5
717
100
AcDbEntity
  8
寸法
  6
CONTINUOUS
 62
     3
100
AcDbLine
 10
488.0
 20
2679.631435
 30
0.0
 11
488.0
 21
2718.0
 31
0.0
  0
LINE
  5
718
100
AcDbEntity
  8
寸法
  6
CONTINUOUS
 62
     3
100
AcDbLine
 10
760.000612
 20
2679.631435
 30
0.0
 11
760.000612
 21
2718.0
 31
0.0
  0
TEXT
  5
719
100
AcDbEntity
  8
寸法
  6
CONTINUOUS
 62
     2
100
AcDbText
 10
575.700306
 20
2711.5
 30
0.0
 40
40.0
  1
272
 41
0.945
  7
EXCADSTD
 72
     1
 11
624.000306
 21
2711.5
 31
0.0
100
AcDbText
  0
LINE
  5
71A
100
AcDbEntity
  8
寸法
  6
CONTINUOUS
 62
     3
100
AcDbLine
 10
488.0
 20
2708.0
 30
0.0
 11
760.000612
 21
2708.0
 31
0.0
  0
LINE
  5
71B
100
AcDbEntity
  8
寸法
  6
CONTINUOUS
 62
     3
100
AcDbLine
 10
518.0
 20
2713.0
 30
0.0
 11
488.0
 21
2708.0
 31
0.0
  0
LINE
  5
71C
100
AcDbEntity
  8
寸法
  6
CONTINUOUS
 62
     3
100
AcDbLine
 10
488.0
 20
2708.0
 30
0.0
 11
518.0
 21
2703.0
 31
0.0
  0
LINE
  5
71D
100
AcDbEntity
  8
寸法
  6
CONTINUOUS
 62
     3
100
AcDbLine
 10
730.000612
 20
2703.0
 30
0.0
 11
760.000612
 21
2708.0
 31
0.0
  0
LINE
  5
71E
100
AcDbEntity
  8
寸法
  6
CONTINUOUS
 62
     3
100
AcDbLine
 10
760.000612
 20
2708.0
 30
0.0
 11
730.000612
 21
2713.0
 31
0.0
  0
ENDBLK
  5
71F
100
AcDbEntity
  8
0
100
AcDbBlockEnd
  0
BLOCK
  5
724
100
AcDbEntity
  8
0
100
AcDbBlockBegin
  2
*D23
 70
    65
 10
0.0
 20
0.0
 30
0.0
  3
*D23
  1

  0
LINE
  5
725
100
AcDbEntity
  8
寸法
  6
CONTINUOUS
 62
     3
100
AcDbLine
 10
1791.810333
 20
1383.0
 30
0.0
 11
1848.1
 21
1383.0
 31
0.0
  0
LINE
  5
726
100
AcDbEntity
  8
寸法
  6
CONTINUOUS
 62
     3
100
AcDbLine
 10
1791.810333
 20
1323.0
 30
0.0
 11
1848.1
 21
1323.0
 31
0.0
  0
LINE
  5
727
100
AcDbEntity
  8
寸法
  6
CONTINUOUS
 62
     3
100
AcDbLine
 10
1838.1
 20
1383.0
 30
0.0
 11
1838.1
 21
1323.0
 31
0.0
  0
LINE
  5
728
100
AcDbEntity
  8
寸法
  6
CONTINUOUS
 62
     3
100
AcDbLine
 10
1843.1
 20
1353.0
 30
0.0
 11
1838.1
 21
1383.0
 31
0.0
  0
LINE
  5
729
100
AcDbEntity
  8
寸法
  6
CONTINUOUS
 62
     3
100
AcDbLine
 10
1838.1
 20
1383.0
 30
0.0
 11
1833.1
 21
1353.0
 31
0.0
  0
LINE
  5
72A
100
AcDbEntity
  8
寸法
  6
CONTINUOUS
 62
     3
100
AcDbLine
 10
1833.1
 20
1353.0
 30
0.0
 11
1838.1
 21
1323.0
 31
0.0
  0
LINE
  5
72B
100
AcDbEntity
  8
寸法
  6
CONTINUOUS
 62
     3
100
AcDbLine
 10
1838.1
 20
1323.0
 30
0.0
 11
1843.1
 21
1353.0
 31
0.0
  0
TEXT
  5
72C
100
AcDbEntity
  8
寸法
  6
CONTINUOUS
 62
     2
100
AcDbText
 10
1834.6
 20
1319.4
 30
0.0
 40
40.0
  1
60
 50
90.0
 41
0.945
  7
EXCADSTD
 72
     1
 11
1834.6
 21
1353.0
 31
0.0
100
AcDbText
  0
ENDBLK
  5
72D
100
AcDbEntity
  8
0
100
AcDbBlockEnd
  0
BLOCK
  5
730
100
AcDbEntity
  8
0
100
AcDbBlockBegin
  2
*D24
 70
    65
 10
0.0
 20
0.0
 30
0.0
  3
*D24
  1

  0
LINE
  5
731
100
AcDbEntity
  8
寸法
  6
CONTINUOUS
 62
     3
100
AcDbLine
 10
1747.810394
 20
583.0
 30
0.0
 11
1848.1
 21
583.0
 31
0.0
  0
LINE
  5
732
100
AcDbEntity
  8
寸法
  6
CONTINUOUS
 62
     3
100
AcDbLine
 10
1791.810333
 20
1323.0
 30
0.0
 11
1848.1
 21
1323.0
 31
0.0
  0
LINE
  5
733
100
AcDbEntity
  8
寸法
  6
CONTINUOUS
 62
     3
100
AcDbLine
 10
1838.1
 20
583.0
 30
0.0
 11
1838.1
 21
1323.0
 31
0.0
  0
LINE
  5
734
100
AcDbEntity
  8
寸法
  6
CONTINUOUS
 62
     3
100
AcDbLine
 10
1833.1
 20
613.0
 30
0.0
 11
1838.1
 21
583.0
 31
0.0
  0
LINE
  5
735
100
AcDbEntity
  8
寸法
  6
CONTINUOUS
 62
     3
100
AcDbLine
 10
1838.1
 20
583.0
 30
0.0
 11
1843.1
 21
613.0
 31
0.0
  0
LINE
  5
736
100
AcDbEntity
  8
寸法
  6
CONTINUOUS
 62
     3
100
AcDbLine
 10
1843.1
 20
1293.0
 30
0.0
 11
1838.1
 21
1323.0
 31
0.0
  0
LINE
  5
737
100
AcDbEntity
  8
寸法
  6
CONTINUOUS
 62
     3
100
AcDbLine
 10
1838.1
 20
1323.0
 30
0.0
 11
1833.1
 21
1293.0
 31
0.0
  0
TEXT
  5
738
100
AcDbEntity
  8
寸法
  6
CONTINUOUS
 62
     2
100
AcDbText
 10
1834.6
 20
904.7
 30
0.0
 40
40.0
  1
740
 50
90.0
 41
0.945
  7
EXCADSTD
 72
     1
 11
1834.6
 21
953.0
 31
0.0
100
AcDbText
  0
ENDBLK
  5
739
100
AcDbEntity
  8
0
100
AcDbBlockEnd
  0
BLOCK
  5
73C
100
AcDbEntity
  8
0
100
AcDbBlockBegin
  2
*D25
 70
    65
 10
0.0
 20
0.0
 30
0.0
  3
*D25
  1

  0
LINE
  5
73D
100
AcDbEntity
  8
寸法
  6
CONTINUOUS
 62
     3
100
AcDbLine
 10
953.5
 20
1678.0
 30
0.0
 11
919.0
 21
1678.0
 31
0.0
  0
LINE
  5
73E
100
AcDbEntity
  8
寸法
  6
CONTINUOUS
 62
     3
100
AcDbLine
 10
929.0
 20
1678.0
 30
0.0
 11
929.0
 21
583.0
 31
0.0
  0
LINE
  5
73F
100
AcDbEntity
  8
寸法
  6
CONTINUOUS
 62
     3
100
AcDbLine
 10
934.0
 20
1648.0
 30
0.0
 11
929.0
 21
1678.0
 31
0.0
  0
LINE
  5
740
100
AcDbEntity
  8
寸法
  6
CONTINUOUS
 62
     3
100
AcDbLine
 10
929.0
 20
1678.0
 30
0.0
 11
924.0
 21
1648.0
 31
0.0
  0
LINE
  5
741
100
AcDbEntity
  8
寸法
  6
CONTINUOUS
 62
     3
100
AcDbLine
 10
924.0
 20
613.0
 30
0.0
 11
929.0
 21
583.0
 31
0.0
  0
LINE
  5
742
100
AcDbEntity
  8
寸法
  6
CONTINUOUS
 62
     3
100
AcDbLine
 10
929.0
 20
583.0
 30
0.0
 11
934.0
 21
613.0
 31
0.0
  0
TEXT
  5
743
100
AcDbEntity
  8
寸法
  6
CONTINUOUS
 62
     2
100
AcDbText
 10
925.5
 20
1067.5
 30
0.0
 40
40.0
  1
1095
 50
90.0
 41
0.945
  7
EXCADSTD
 72
     1
 11
925.5
 21
1130.5
 31
0.0
100
AcDbText
  0
ENDBLK
  5
744
100
AcDbEntity
  8
0
100
AcDbBlockEnd
  0
BLOCK
  5
747
100
AcDbEntity
  8
0
100
AcDbBlockBegin
  2
*D26
 70
    65
 10
0.0
 20
0.0
 30
0.0
  3
*D26
  1

  0
LINE
  5
748
100
AcDbEntity
  8
寸法
  6
CONTINUOUS
 62
     3
100
AcDbLine
 10
953.5
 20
1678.0
 30
0.0
 11
855.4
 21
1678.0
 31
0.0
  0
LINE
  5
749
100
AcDbEntity
  8
寸法
  6
CONTINUOUS
 62
     3
100
AcDbLine
 10
861.0
 20
1502.999964
 30
0.0
 11
855.4
 21
1502.999964
 31
0.0
  0
LINE
  5
74A
100
AcDbEntity
  8
寸法
  6
CONTINUOUS
 62
     3
100
AcDbLine
 10
865.4
 20
1678.0
 30
0.0
 11
865.4
 21
1502.999964
 31
0.0
  0
LINE
  5
74B
100
AcDbEntity
  8
寸法
  6
CONTINUOUS
 62
     3
100
AcDbLine
 10
870.4
 20
1648.0
 30
0.0
 11
865.4
 21
1678.0
 31
0.0
  0
LINE
  5
74C
100
AcDbEntity
  8
寸法
  6
CONTINUOUS
 62
     3
100
AcDbLine
 10
865.4
 20
1678.0
 30
0.0
 11
860.4
 21
1648.0
 31
0.0
  0
LINE
  5
74D
100
AcDbEntity
  8
寸法
  6
CONTINUOUS
 62
     3
100
AcDbLine
 10
860.4
 20
1532.999964
 30
0.0
 11
865.4
 21
1502.999964
 31
0.0
  0
LINE
  5
74E
100
AcDbEntity
  8
寸法
  6
CONTINUOUS
 62
     3
100
AcDbLine
 10
865.4
 20
1502.999964
 30
0.0
 11
870.4
 21
1532.999964
 31
0.0
  0
TEXT
  5
74F
100
AcDbEntity
  8
寸法
  6
CONTINUOUS
 62
     2
100
AcDbText
 10
861.9
 20
1542.199982
 30
0.0
 40
40.0
  1
175
 50
90.0
 41
0.945
  7
EXCADSTD
 72
     1
 11
861.9
 21
1590.499982
 31
0.0
100
AcDbText
  0
ENDBLK
  5
750
100
AcDbEntity
  8
0
100
AcDbBlockEnd
  0
ENDSEC
  0
SECTION
  2
ENTITIES
  0
LINE
  5
8B
100
AcDbEntity
  8
枠_
  6
EXLTYPE2
 62
     6
100
AcDbLine
 10
179.0
 20
1515.0
 30
0.0
 11
-11.0
 21
1515.0
 31
0.0
  0
TEXT
  5
8D
100
AcDbEntity
  8
枠_
  6
CONTINUOUS
 62
     2
100
AcDbText
 10
769.0
 20
108.0
 30
0.0
 40
45.0
  1
ジャニス工業株式会社
  7
EXCADTTF1
 72
     5
 11
1369.0
 21
108.0
 31
0.0
100
AcDbText
  0
TEXT
  5
8E
100
AcDbEntity
  8
枠_
  6
CONTINUOUS
 62
     2
100
AcDbText
 10
1392.75
 20
95.75
 30
0.0
 40
42.5
  1
番
 41
0.84
  7
EXCADSTD
 72
     5
 11
1426.75
 21
95.75
 31
0.0
100
AcDbText
  0
TEXT
  5
8F
100
AcDbEntity
  8
枠_
  6
CONTINUOUS
 62
     2
100
AcDbText
 10
1392.75
 20
138.75
 30
0.0
 40
42.5
  1
図
 41
0.84
  7
EXCADSTD
 72
     5
 11
1426.75
 21
138.75
 31
0.0
100
AcDbText
  0
TEXT
  5
90
100
AcDbEntity
  8
枠_
  6
CONTINUOUS
 62
     2
100
AcDbText
 10
1812.75
 20
201.75
 30
0.0
 40
42.5
  1
度
 41
0.84
  7
EXCADSTD
 72
     5
 11
1846.75
 21
201.75
 31
0.0
100
AcDbText
  0
TEXT
  5
91
100
AcDbEntity
  8
枠_
  6
CONTINUOUS
 62
     2
100
AcDbText
 10
1812.75
 20
251.75
 30
0.0
 40
42.5
  1
尺
 41
0.84
  7
EXCADSTD
 72
     5
 11
1846.75
 21
251.75
 31
0.0
100
AcDbText
  0
TEXT
  5
92
100
AcDbEntity
  8
枠_
  6
CONTINUOUS
 62
     2
100
AcDbText
 10
1392.75
 20
201.75
 30
0.0
 40
42.5
  1
番
 41
0.84
  7
EXCADSTD
 72
     5
 11
1426.75
 21
201.75
 31
0.0
100
AcDbText
  0
TEXT
  5
93
100
AcDbEntity
  8
枠_
  6
CONTINUOUS
 62
     2
100
AcDbText
 10
1392.75
 20
251.75
 30
0.0
 40
42.5
  1
品
 41
0.84
  7
EXCADSTD
 72
     5
 11
1426.75
 21
251.75
 31
0.0
100
AcDbText
  0
TEXT
  5
94
100
AcDbEntity
  8
枠_
  6
CONTINUOUS
 62
     2
100
AcDbText
 10
752.75
 20
201.75
 30
0.0
 40
42.5
  1
名
 41
0.84
  7
EXCADSTD
 72
     5
 11
786.75
 21
201.75
 31
0.0
100
AcDbText
  0
TEXT
  5
95
100
AcDbEntity
  8
枠_
  6
CONTINUOUS
 62
     2
100
AcDbText
 10
752.75
 20
251.75
 30
0.0
 40
42.5
  1
品
 41
0.84
  7
EXCADSTD
 72
     5
 11
786.75
 21
251.75
 31
0.0
100
AcDbText
  0
TEXT
  5
96
100
AcDbEntity
  8
枠_
  6
CONTINUOUS
 62
     2
100
AcDbText
 10
636.5
 20
261.75
 30
0.0
 40
42.5
  1
承認
 41
0.938824
  7
EXCADSTD
 72
     5
 11
723.577
 21
261.75
 31
0.0
100
AcDbText
  0
TEXT
  5
97
100
AcDbEntity
  8
枠_
  6
CONTINUOUS
 62
     2
100
AcDbText
 10
506.5
 20
261.75
 30
0.0
 40
42.5
  1
検図
 41
0.938824
  7
EXCADSTD
 72
     5
 11
593.577
 21
261.75
 31
0.0
100
AcDbText
  0
TEXT
  5
98
100
AcDbEntity
  8
枠_
  6
CONTINUOUS
 62
     2
100
AcDbText
 10
356.5
 20
261.75
 30
0.0
 40
42.5
  1
写図
 41
1.087059
  7
EXCADSTD
 72
     5
 11
457.326
 21
261.75
 31
0.0
100
AcDbText
  0
TEXT
  5
99
100
AcDbEntity
  8
枠_
  6
CONTINUOUS
 62
     2
100
AcDbText
 10
201.5
 20
261.75
 30
0.0
 40
42.5
  1
製図
 41
1.087059
  7
EXCADSTD
 72
     5
 11
302.326
 21
261.75
 31
0.0
100
AcDbText
  0
TEXT
  5
9A
100
AcDbEntity
  8
枠_
  6
CONTINUOUS
 62
     2
100
AcDbText
 10
1930.279297
 20
211.348846
 30
0.0
 40
30.0
  1
１０
 41
0.791
  7
EXCADSTD
 72
     5
 11
1982.067198
 21
211.348846
 31
0.0
100
AcDbText
  0
TEXT
  5
9B
100
AcDbEntity
  8
枠_
  6
CONTINUOUS
 62
     2
100
AcDbText
 10
1889.537109
 20
255.722778
 30
0.0
 40
30.0
  1
１
 41
0.826
  7
EXCADSTD
 72
     5
 11
1913.13711
 21
255.722778
 31
0.0
100
AcDbText
  0
CIRCLE
  5
9C
100
AcDbEntity
  8
枠_
  6
CONTINUOUS
 62
     6
100
AcDbCircle
 10
434.0
 20
113.0
 30
0.0
 40
1.0
  0
CIRCLE
  5
9D
100
AcDbEntity
  8
枠_
  6
CONTINUOUS
 62
     6
100
AcDbCircle
 10
384.0
 20
113.0
 30
0.0
 40
1.0
  0
LINE
  5
9E
100
AcDbEntity
  8
枠_
  6
EXLTYPE2
 62
     6
100
AcDbLine
 10
179.0
 20
138.0
 30
0.0
 11
489.0
 21
138.0
 31
0.0
  0
LINE
  5
9F
100
AcDbEntity
  8
枠_
  6
CONTINUOUS
 62
     6
100
AcDbLine
 10
1891.653809
 20
211.00293
 30
0.0
 11
1968.993897
 21
289.699829
 31
0.0
  0
LINE
  5
A0
100
AcDbEntity
  8
枠_
  6
CONTINUOUS
 62
     6
100
AcDbLine
 10
179.0
 20
258.0
 30
0.0
 11
749.0
 21
258.0
 31
0.0
  0
LINE
  5
A1
100
AcDbEntity
  8
枠_
  6
CONTINUOUS
 62
     6
100
AcDbLine
 10
334.0
 20
308.0
 30
0.0
 11
334.0
 21
88.0
 31
0.0
  0
LINE
  5
A2
100
AcDbEntity
  8
枠_
  6
CONTINUOUS
 62
     6
100
AcDbLine
 10
489.0
 20
308.0
 30
0.0
 11
489.0
 21
88.0
 31
0.0
  0
LINE
  5
A3
100
AcDbEntity
  8
枠_
  6
CONTINUOUS
 62
     6
100
AcDbLine
 10
619.0
 20
308.0
 30
0.0
 11
619.0
 21
88.0
 31
0.0
  0
LINE
  5
A4
100
AcDbEntity
  8
枠_
  6
CONTINUOUS
 62
     6
100
AcDbLine
 10
749.0
 20
308.0
 30
0.0
 11
749.0
 21
88.0
 31
0.0
  0
LINE
  5
A5
100
AcDbEntity
  8
枠_
  6
CONTINUOUS
 62
     6
100
AcDbLine
 10
799.0
 20
308.0
 30
0.0
 11
799.0
 21
188.0
 31
0.0
  0
LINE
  5
A6
100
AcDbEntity
  8
枠_
  6
CONTINUOUS
 62
     6
100
AcDbLine
 10
1389.0
 20
308.0
 30
0.0
 11
1389.0
 21
88.0
 31
0.0
  0
LINE
  5
A7
100
AcDbEntity
  8
枠_
  6
CONTINUOUS
 62
     6
100
AcDbLine
 10
1439.0
 20
308.0
 30
0.0
 11
1439.0
 21
88.0
 31
0.0
  0
LINE
  5
A8
100
AcDbEntity
  8
枠_
  6
CONTINUOUS
 62
     6
100
AcDbLine
 10
1809.0
 20
308.0
 30
0.0
 11
1809.0
 21
188.0
 31
0.0
  0
LINE
  5
A9
100
AcDbEntity
  8
枠_
  6
CONTINUOUS
 62
     6
100
AcDbLine
 10
1859.0
 20
308.0
 30
0.0
 11
1859.0
 21
188.0
 31
0.0
  0
LINE
  5
AA
100
AcDbEntity
  8
枠_
  6
CONTINUOUS
 62
     6
100
AcDbLine
 10
1999.0
 20
188.0
 30
0.0
 11
749.0
 21
188.0
 31
0.0
  0
LINE
  5
AB
100
AcDbEntity
  8
枠_
  6
CONTINUOUS
 62
     7
100
AcDbLine
 10
179.0
 20
308.0
 30
0.0
 11
1999.0
 21
308.0
 31
0.0
  0
LINE
  5
AC
100
AcDbEntity
  8
枠_
  6
CONTINUOUS
 62
     7
100
AcDbLine
 10
179.0
 20
2888.0
 30
0.0
 11
1999.0
 21
2888.0
 31
0.0
  0
LINE
  5
AD
100
AcDbEntity
  8
枠_
  6
CONTINUOUS
 62
     7
100
AcDbLine
 10
179.0
 20
88.0
 30
0.0
 11
179.0
 21
2888.0
 31
0.0
  0
LINE
  5
AE
100
AcDbEntity
  8
枠_
  6
CONTINUOUS
 62
     7
100
AcDbLine
 10
1999.0
 20
88.0
 30
0.0
 11
1999.0
 21
2888.0
 31
0.0
  0
LINE
  5
AF
100
AcDbEntity
  8
枠_
  6
CONTINUOUS
 62
     7
100
AcDbLine
 10
179.0
 20
88.0
 30
0.0
 11
1999.0
 21
88.0
 31
0.0
  0
TEXT
  5
B0
100
AcDbEntity
  8
枠_
  6
CONTINUOUS
 62
     2
100
AcDbText
 10
207.5
 20
176.0
 30
0.0
 40
50.0
  1
宮本
 41
0.8568
  7
EXCADSTD
 72
     5
 11
300.9932
 21
176.0
 31
0.0
100
AcDbText
  0
TEXT
  5
B1
100
AcDbEntity
  8
枠_
  6
CONTINUOUS
 62
     6
100
AcDbText
 10
186.026074
 20
102.950073
 30
0.0
 40
25.0
  1
２４
 41
0.72408
  7
EXCADSTD
 72
     5
 11
225.531534
 21
102.950073
 31
0.0
100
AcDbText
  0
CIRCLE
  5
B2
100
AcDbEntity
  8
枠_
  6
CONTINUOUS
 62
     6
100
AcDbCircle
 10
231.0
 20
116.0
 30
0.0
 40
1.0
  0
TEXT
  5
B3
100
AcDbEntity
  8
枠_
  6
CONTINUOUS
 62
     6
100
AcDbText
 10
244.826074
 20
102.950073
 30
0.0
 40
25.0
  1
６
 41
0.89208
  7
EXCADSTD
 72
     5
 11
266.066074
 21
102.950073
 31
0.0
100
AcDbText
  0
CIRCLE
  5
B4
100
AcDbEntity
  8
枠_
  6
CONTINUOUS
 62
     6
100
AcDbCircle
 10
281.0
 20
116.0
 30
0.0
 40
1.0
  0
TEXT
  5
B5
100
AcDbEntity
  8
枠_
  6
CONTINUOUS
 62
     6
100
AcDbText
 10
285.826074
 20
102.950073
 30
0.0
 40
25.0
  1
８
 41
0.89208
  7
EXCADSTD
 72
     5
 11
307.066074
 21
102.950073
 31
0.0
100
AcDbText
  0
TEXT
  5
B6
100
AcDbEntity
  8
枠_
  6
CONTINUOUS
 62
     2
100
AcDbText
 10
499.0
 20
153.0
 30
0.0
 40
50.0
  1
地名坊
 41
0.6664
  7
EXCADSTD
 72
     5
 11
618.0
 21
153.0
 31
0.0
100
AcDbText
  0
TEXT
  5
B7
100
AcDbEntity
  8
枠_
  6
CONTINUOUS
 62
     2
100
AcDbText
 10
633.5
 20
151.0
 30
0.0
 40
50.0
  1
古林
 41
0.8568
  7
EXCADSTD
 72
     5
 11
726.9932
 21
151.0
 31
0.0
100
AcDbText
  0
TEXT
  5
B8
100
AcDbEntity
  8
枠_
  6
CONTINUOUS
 62
     2
100
AcDbText
 10
1446.5
 20
220.25
 30
0.0
 40
50.0
  1
ＵＳ６０００ＣＧＡＦ
 41
0.5964
  7
EXCADSTD
 72
     5
 11
1801.5
 21
220.25
 31
0.0
100
AcDbText
  0
TEXT
  5
B9
100
AcDbEntity
  8
枠_
  6
CONTINUOUS
 62
     7
100
AcDbText
 10
1454.0
 20
103.0
 30
0.0
 40
70.0
  1
Ｕ０６００００２
 41
0.795
  7
EXCADSTD
 72
     5
 11
1984.0
 21
103.0
 31
0.0
100
AcDbText
  0
TEXT
  5
BA
100
AcDbEntity
  8
枠_
  6
CONTINUOUS
 62
     2
100
AcDbText
 10
1408.918457
 20
2649.0
 30
0.0
 40
50.0
  1
小便器＋金具セット
 41
0.636533
  7
EXCADSTD
 72
     5
 11
1749.918456
 21
2649.0
 31
0.0
100
AcDbText
  0
TEXT
  5
BB
100
AcDbEntity
  8
枠_
  6
CONTINUOUS
 62
     2
100
AcDbText
 10
801.999983
 20
211.5
 30
0.0
 40
65.0
  1
大形ストール小便器（トラップ着脱式）
 41
0.433641
  7
EXCADSTD
 72
     5
 11
1406.000017
 21
211.5
 31
0.0
100
AcDbText
  0
LINE
  5
BC
100
AcDbEntity
  8
スト－ル
  6
EXLTYPE3
 62
     6
100
AcDbLine
 10
1522.810394
 20
522.5
 30
0.0
 11
1522.810394
 21
857.4
 31
0.0
  0
LINE
  5
BD
100
AcDbEntity
  8
スト－ル
  6
EXLTYPE3
 62
     6
100
AcDbLine
 10
624.0
 20
1750.999964
 30
0.0
 11
624.0
 21
562.999964
 31
0.0
  0
TEXT
  5
BE
100
AcDbEntity
  8
スト－ル
  6
CONTINUOUS
 62
     2
100
AcDbText
 10
1728.0
 20
1908.0
 30
0.0
 40
40.0
  1
Ｗ.Ｌ
 50
90.0
 41
0.744444
  7
EXCADSTD
 72
     5
 11
1728.0
 21
2008.0
 31
0.0
100
AcDbText
  0
TEXT
  5
BF
100
AcDbEntity
  8
スト－ル
  6
CONTINUOUS
 62
     2
100
AcDbText
 10
985.189606
 20
597.0
 30
0.0
 40
40.0
  1
Ｆ.Ｌ
 41
0.744444
  7
EXCADSTD
 72
     5
 11
1085.189606
 21
597.0
 31
0.0
100
AcDbText
  0
ARC
  5
C0
100
AcDbEntity
  8
スト－ル
  6
CONTINUOUS
 62
     2
100
AcDbCircle
 10
743.834455
 20
2471.947094
 30
0.0
 40
250.0
100
AcDbArc
 50
204.851465
 51
238.599481
  0
ARC
  5
C1
100
AcDbEntity
  8
スト－ル
  6
CONTINUOUS
 62
     2
100
AcDbCircle
 10
624.000461
 20
2275.631496
 30
0.0
 40
20.0
100
AcDbArc
 50
238.599481
 51
270.0
  0
ARC
  5
C2
100
AcDbEntity
  8
スト－ル
  6
CONTINUOUS
 62
     2
100
AcDbCircle
 10
513.836363
 20
2427.867566
 30
0.0
 40
20.0
100
AcDbArc
 50
188.117425
 51
199.245031
  0
ARC
  5
C3
100
AcDbEntity
  8
スト－ル
  6
CONTINUOUS
 62
     2
100
AcDbCircle
 10
743.834455
 20
2471.947094
 30
0.0
 40
238.0
100
AcDbArc
 50
204.851465
 51
238.599481
  0
ARC
  5
C4
100
AcDbEntity
  8
スト－ル
  6
CONTINUOUS
 62
     2
100
AcDbCircle
 10
624.000461
 20
2275.631496
 30
0.0
 40
8.0
100
AcDbArc
 50
238.599481
 51
270.0
  0
ARC
  5
C5
100
AcDbEntity
  8
スト－ル
  6
CONTINUOUS
 62
     2
100
AcDbCircle
 10
552.799147
 20
2518.336602
 30
0.0
 40
100.0
100
AcDbArc
 50
224.16471
 51
239.424038
  0
ARC
  5
C6
100
AcDbEntity
  8
スト－ル
  6
CONTINUOUS
 62
     2
100
AcDbCircle
 10
526.530679
 20
2427.95816
 30
0.0
 40
20.0
100
AcDbArc
 50
188.292237
 51
199.658475
  0
ARC
  5
C7
100
AcDbEntity
  8
スト－ル
  6
CONTINUOUS
 62
     2
100
AcDbCircle
 10
1061.424577
 20
2619.040651
 30
0.0
 40
588.0
100
AcDbArc
 50
199.658475
 51
204.851465
  0
ARC
  5
C8
100
AcDbEntity
  8
スト－ル
  6
CONTINUOUS
 62
     2
100
AcDbCircle
 10
496.844319
 20
2423.631496
 30
0.0
 40
10.0
100
AcDbArc
 50
8.292237
 51
59.424038
  0
LINE
  5
C9
100
AcDbEntity
  8
スト－ル
  6
CONTINUOUS
 62
     2
100
AcDbLine
 10
454.000461
 20
2635.631496
 30
0.0
 11
624.000461
 21
2635.631496
 31
0.0
  0
ARC
  5
CA
100
AcDbEntity
  8
スト－ル
  6
CONTINUOUS
 62
     2
100
AcDbCircle
 10
1061.424577
 20
2619.040651
 30
0.0
 40
600.0
100
AcDbArc
 50
199.245031
 51
204.851465
  0
ARC
  5
CB
100
AcDbEntity
  8
スト－ル
  6
CONTINUOUS
 62
     2
100
AcDbCircle
 10
1061.424577
 20
2619.040651
 30
0.0
 40
600.0
100
AcDbArc
 50
199.006894
 51
199.245031
  0
ARC
  5
CC
100
AcDbEntity
  8
スト－ル
  6
CONTINUOUS
 62
     2
100
AcDbCircle
 10
484.13694
 20
2423.631496
 30
0.0
 40
10.0
100
AcDbArc
 50
0.0
 51
8.117425
  0
ARC
  5
CD
100
AcDbEntity
  8
スト－ル
  6
CONTINUOUS
 62
     2
100
AcDbCircle
 10
496.844319
 20
2423.631496
 30
0.0
 40
10.0
100
AcDbArc
 50
0.0
 51
8.292237
  0
ARC
  5
CE
100
AcDbEntity
  8
スト－ル
  6
CONTINUOUS
 62
     2
100
AcDbCircle
 10
1061.424577
 20
2619.040651
 30
0.0
 40
588.0
100
AcDbArc
 50
199.410167
 51
199.658475
  0
LINE
  5
CF
100
AcDbEntity
  8
スト－ル
  6
CONTINUOUS
 62
     2
100
AcDbLine
 10
629.050461
 20
2500.631496
 30
0.0
 11
620.500461
 21
2500.631496
 31
0.0
  0
ARC
  5
D0
100
AcDbEntity
  8
スト－ル
  6
CONTINUOUS
 62
     2
100
AcDbCircle
 10
593.450828
 20
2297.421577
 30
0.0
 40
200.0
100
AcDbArc
 50
101.996374
 51
123.624578
  0
ARC
  5
D1
100
AcDbEntity
  8
スト－ル
  6
CONTINUOUS
 62
     2
100
AcDbCircle
 10
488.238559
 20
2455.631496
 30
0.0
 40
10.0
100
AcDbArc
 50
123.624578
 51
224.16471
  0
ARC
  5
D2
100
AcDbEntity
  8
スト－ル
  6
CONTINUOUS
 62
     2
100
AcDbCircle
 10
484.13694
 20
2423.631496
 30
0.0
 40
10.0
100
AcDbArc
 50
8.117425
 51
46.582687
  0
ARC
  5
D3
100
AcDbEntity
  8
スト－ル
  6
CONTINUOUS
 62
     2
100
AcDbCircle
 10
2453.986761
 20
2628.228918
 30
0.0
 40
2000.0
100
AcDbArc
 50
179.787931
 51
184.397879
  0
ARC
  5
D4
100
AcDbEntity
  8
スト－ル
  6
CONTINUOUS
 62
     2
100
AcDbCircle
 10
874.943401
 20
2751.305588
 30
0.0
 40
500.0
100
AcDbArc
 50
214.235809
 51
219.978359
  0
ARC
  5
D5
100
AcDbEntity
  8
スト－ル
  6
CONTINUOUS
 62
     2
100
AcDbCircle
 10
624.000461
 20
2153.65212
 30
0.0
 40
346.979376
100
AcDbArc
 50
101.996374
 51
115.583739
  0
ARC
  5
D6
100
AcDbEntity
  8
スト－ル
  6
CONTINUOUS
 62
     2
100
AcDbCircle
 10
469.846135
 20
2475.631496
 30
0.0
 40
10.0
100
AcDbArc
 50
184.397879
 51
295.583739
  0
ARC
  5
D7
100
AcDbEntity
  8
スト－ル
  6
CONTINUOUS
 62
     2
100
AcDbCircle
 10
624.000461
 20
2153.65212
 30
0.0
 40
346.979376
100
AcDbArc
 50
90.0
 51
101.996374
  0
ARC
  5
D8
100
AcDbEntity
  8
スト－ル
  6
CONTINUOUS
 62
     2
100
AcDbCircle
 10
504.166467
 20
2471.947094
 30
0.0
 40
250.0
100
AcDbArc
 50
301.400519
 51
335.148535
  0
ARC
  5
D9
100
AcDbEntity
  8
スト－ル
  6
CONTINUOUS
 62
     2
100
AcDbCircle
 10
624.000461
 20
2275.631496
 30
0.0
 40
20.0
100
AcDbArc
 50
270.0
 51
301.400519
  0
ARC
  5
DA
100
AcDbEntity
  8
スト－ル
  6
CONTINUOUS
 62
     2
100
AcDbCircle
 10
734.164559
 20
2427.867566
 30
0.0
 40
20.0
100
AcDbArc
 50
340.754969
 51
351.882575
  0
ARC
  5
DB
100
AcDbEntity
  8
スト－ル
  6
CONTINUOUS
 62
     2
100
AcDbCircle
 10
504.166467
 20
2471.947094
 30
0.0
 40
238.0
100
AcDbArc
 50
301.400519
 51
335.148535
  0
ARC
  5
DC
100
AcDbEntity
  8
スト－ル
  6
CONTINUOUS
 62
     2
100
AcDbCircle
 10
624.000461
 20
2275.631496
 30
0.0
 40
8.0
100
AcDbArc
 50
270.0
 51
301.400519
  0
ARC
  5
DD
100
AcDbEntity
  8
スト－ル
  6
CONTINUOUS
 62
     2
100
AcDbCircle
 10
695.201775
 20
2518.336602
 30
0.0
 40
100.0
100
AcDbArc
 50
300.575962
 51
315.83529
  0
ARC
  5
DE
100
AcDbEntity
  8
スト－ル
  6
CONTINUOUS
 62
     2
100
AcDbCircle
 10
721.470243
 20
2427.95816
 30
0.0
 40
20.0
100
AcDbArc
 50
340.341525
 51
351.707763
  0
ARC
  5
DF
100
AcDbEntity
  8
スト－ル
  6
CONTINUOUS
 62
     2
100
AcDbCircle
 10
186.576345
 20
2619.040651
 30
0.0
 40
588.0
100
AcDbArc
 50
335.148535
 51
340.341525
  0
ARC
  5
E0
100
AcDbEntity
  8
スト－ル
  6
CONTINUOUS
 62
     2
100
AcDbCircle
 10
751.156603
 20
2423.631496
 30
0.0
 40
10.0
100
AcDbArc
 50
120.575962
 51
171.707763
  0
LINE
  5
E1
100
AcDbEntity
  8
スト－ル
  6
CONTINUOUS
 62
     2
100
AcDbLine
 10
794.000461
 20
2635.631496
 30
0.0
 11
624.000461
 21
2635.631496
 31
0.0
  0
ARC
  5
E2
100
AcDbEntity
  8
スト－ル
  6
CONTINUOUS
 62
     2
100
AcDbCircle
 10
186.576345
 20
2619.040651
 30
0.0
 40
600.0
100
AcDbArc
 50
335.148535
 51
340.754969
  0
ARC
  5
E3
100
AcDbEntity
  8
スト－ル
  6
CONTINUOUS
 62
     2
100
AcDbCircle
 10
186.576345
 20
2619.040651
 30
0.0
 40
600.0
100
AcDbArc
 50
340.754969
 51
340.993106
  0
ARC
  5
E4
100
AcDbEntity
  8
スト－ル
  6
CONTINUOUS
 62
     2
100
AcDbCircle
 10
763.863982
 20
2423.631496
 30
0.0
 40
10.0
100
AcDbArc
 50
171.882575
 51
180.0
  0
ARC
  5
E5
100
AcDbEntity
  8
スト－ル
  6
CONTINUOUS
 62
     2
100
AcDbCircle
 10
751.156603
 20
2423.631496
 30
0.0
 40
10.0
100
AcDbArc
 50
171.707763
 51
180.0
  0
ARC
  5
E6
100
AcDbEntity
  8
スト－ル
  6
CONTINUOUS
 62
     2
100
AcDbCircle
 10
186.576345
 20
2619.040651
 30
0.0
 40
588.0
100
AcDbArc
 50
340.341525
 51
340.589833
  0
ARC
  5
E7
100
AcDbEntity
  8
スト－ル
  6
CONTINUOUS
 62
     2
100
AcDbCircle
 10
654.550094
 20
2297.421577
 30
0.0
 40
200.0
100
AcDbArc
 50
56.375422
 51
78.003626
  0
ARC
  5
E8
100
AcDbEntity
  8
スト－ル
  6
CONTINUOUS
 62
     2
100
AcDbCircle
 10
759.762363
 20
2455.631496
 30
0.0
 40
10.0
100
AcDbArc
 50
315.83529
 51
56.375422
  0
ARC
  5
E9
100
AcDbEntity
  8
スト－ル
  6
CONTINUOUS
 62
     2
100
AcDbCircle
 10
763.863982
 20
2423.631496
 30
0.0
 40
10.0
100
AcDbArc
 50
133.417313
 51
171.882575
  0
ARC
  5
EA
100
AcDbEntity
  8
スト－ル
  6
CONTINUOUS
 62
     2
100
AcDbCircle
 10
373.057521
 20
2751.305588
 30
0.0
 40
500.0
100
AcDbArc
 50
320.021641
 51
325.764191
  0
ARC
  5
EB
100
AcDbEntity
  8
スト－ル
  6
CONTINUOUS
 62
     2
100
AcDbCircle
 10
624.000461
 20
2153.65212
 30
0.0
 40
346.979376
100
AcDbArc
 50
64.416261
 51
78.003626
  0
ARC
  5
EC
100
AcDbEntity
  8
スト－ル
  6
CONTINUOUS
 62
     2
100
AcDbCircle
 10
778.154787
 20
2475.631496
 30
0.0
 40
10.0
100
AcDbArc
 50
244.416261
 51
355.602121
  0
ARC
  5
ED
100
AcDbEntity
  8
スト－ル
  6
CONTINUOUS
 62
     2
100
AcDbCircle
 10
-1205.985839
 20
2628.228918
 30
0.0
 40
2000.0
100
AcDbArc
 50
355.602121
 51
0.212069
  0
ARC
  5
EE
100
AcDbEntity
  8
スト－ル
  6
CONTINUOUS
 62
     2
100
AcDbCircle
 10
624.000461
 20
2153.65212
 30
0.0
 40
346.979376
100
AcDbArc
 50
78.003626
 51
90.0
  0
ARC
  5
EF
100
AcDbEntity
  8
スト－ル
  6
CONTINUOUS
 62
     2
100
AcDbCircle
 10
624.000461
 20
2418.631496
 30
0.0
 40
73.0
100
AcDbArc
 50
90.0
 51
180.0
  0
ARC
  5
F0
100
AcDbEntity
  8
スト－ル
  6
CONTINUOUS
 62
     2
100
AcDbCircle
 10
621.000461
 20
2409.313585
 30
0.0
 40
70.0
100
AcDbArc
 50
180.0
 51
220.0
  0
LINE
  5
F1
100
AcDbEntity
  8
スト－ル
  6
CONTINUOUS
 62
     2
100
AcDbLine
 10
551.000461
 20
2409.313585
 30
0.0
 11
551.000461
 21
2418.631496
 31
0.0
  0
ARC
  5
F2
100
AcDbEntity
  8
スト－ル
  6
CONTINUOUS
 62
     2
100
AcDbCircle
 10
624.000461
 20
2418.631496
 30
0.0
 40
73.0
100
AcDbArc
 50
0.0
 51
90.0
  0
ARC
  5
F3
100
AcDbEntity
  8
スト－ル
  6
CONTINUOUS
 62
     2
100
AcDbCircle
 10
627.000461
 20
2409.313585
 30
0.0
 40
70.0
100
AcDbArc
 50
320.0
 51
0.0
  0
LINE
  5
F4
100
AcDbEntity
  8
スト－ル
  6
CONTINUOUS
 62
     2
100
AcDbLine
 10
697.000461
 20
2409.313585
 30
0.0
 11
697.000461
 21
2418.631496
 31
0.0
  0
ARC
  5
F5
100
AcDbEntity
  8
スト－ル
  6
CONTINUOUS
 62
     2
100
AcDbCircle
 10
598.8147
 20
2334.631496
 30
0.0
 40
5.0
100
AcDbArc
 50
220.0
 51
270.0
  0
LINE
  5
F6
100
AcDbEntity
  8
スト－ル
  6
CONTINUOUS
 62
     2
100
AcDbLine
 10
567.37735
 20
2364.318452
 30
0.0
 11
594.984478
 21
2331.417558
 31
0.0
  0
LINE
  5
F7
100
AcDbEntity
  8
スト－ル
  6
CONTINUOUS
 62
     2
100
AcDbLine
 10
624.000461
 20
2329.631496
 30
0.0
 11
598.8147
 21
2329.631496
 31
0.0
  0
LINE
  5
F8
100
AcDbEntity
  8
スト－ル
  6
CONTINUOUS
 62
     2
100
AcDbLine
 10
397.189606
 20
583.0
 30
0.0
 11
1090.189606
 21
583.0
 31
0.0
  0
ARC
  5
F9
100
AcDbEntity
  8
スト－ル
  6
CONTINUOUS
 62
     2
100
AcDbCircle
 10
-1258.415568
 20
819.325605
 30
0.0
 40
2000.0
100
AcDbArc
 50
4.878427
 51
4.878427
  0
ARC
  5
FA
100
AcDbEntity
  8
スト－ル
  6
CONTINUOUS
 62
     2
100
AcDbCircle
 10
-1285.944396
 20
907.57403
 30
0.0
 40
2000.0
100
AcDbArc
 50
1.192454
 51
1.193151
  0
ARC
  5
FB
100
AcDbEntity
  8
スト－ル
  6
CONTINUOUS
 62
     2
100
AcDbCircle
 10
2533.944396
 20
907.57403
 30
0.0
 40
2000.0
100
AcDbArc
 50
178.806849
 51
178.807546
  0
ARC
  5
FC
100
AcDbEntity
  8
スト－ル
  6
CONTINUOUS
 62
     2
100
AcDbCircle
 10
2506.415568
 20
819.325605
 30
0.0
 40
2000.0
100
AcDbArc
 50
175.121573
 51
175.121573
  0
ARC
  5
FD
100
AcDbEntity
  8
スト－ル
  6
CONTINUOUS
 62
     2
100
AcDbCircle
 10
624.0
 20
1032.999964
 30
0.0
 40
130.0
100
AcDbArc
 50
182.625654
 51
270.0
  0
ARC
  5
FE
100
AcDbEntity
  8
スト－ル
  6
CONTINUOUS
 62
     2
100
AcDbCircle
 10
655.839858
 20
1037.212015
 30
0.0
 40
150.0
100
AcDbArc
 50
182.651215
 51
217.250525
  0
ARC
  5
FF
100
AcDbEntity
  8
スト－ル
  6
CONTINUOUS
 62
     2
100
AcDbCircle
 10
624.0
 20
1012.999964
 30
0.0
 40
110.0
100
AcDbArc
 50
217.250525
 51
270.0
  0
ARC
  5
100
100
AcDbEntity
  8
スト－ル
  6
CONTINUOUS
 62
     2
100
AcDbCircle
 10
562.363078
 20
1405.209341
 30
0.0
 40
85.0
100
AcDbArc
 50
91.469797
 51
186.148526
  0
ARC
  5
101
100
AcDbEntity
  8
スト－ル
  6
CONTINUOUS
 62
     2
100
AcDbCircle
 10
-5499.564472
 20
752.183012
 30
0.0
 40
6012.0
100
AcDbArc
 50
2.651215
 51
6.148526
  0
ARC
  5
102
100
AcDbEntity
  8
スト－ル
  6
CONTINUOUS
 62
     2
100
AcDbCircle
 10
624.0
 20
-997.000036
 30
0.0
 40
2488.0
100
AcDbArc
 50
90.0
 51
91.469797
  0
ARC
  5
103
100
AcDbEntity
  8
スト－ル
  6
CONTINUOUS
 62
     2
100
AcDbCircle
 10
2506.415568
 20
819.325605
 30
0.0
 40
2000.0
100
AcDbArc
 50
167.476667
 51
175.121573
  0
ARC
  5
104
100
AcDbEntity
  8
スト－ル
  6
CONTINUOUS
 62
     2
100
AcDbCircle
 10
2533.944396
 20
907.57403
 30
0.0
 40
2000.0
100
AcDbArc
 50
170.054406
 51
178.806849
  0
ARC
  5
105
100
AcDbEntity
  8
スト－ル
  6
CONTINUOUS
 62
     2
100
AcDbCircle
 10
460.113426
 20
1491.609453
 30
0.0
 40
6.0
100
AcDbArc
 50
93.767755
 51
181.143981
  0
ARC
  5
106
100
AcDbEntity
  8
スト－ル
  6
CONTINUOUS
 62
     2
100
AcDbCircle
 10
-5499.564472
 20
752.183012
 30
0.0
 40
6000.0
100
AcDbArc
 50
2.625654
 51
7.098109
  0
ARC
  5
107
100
AcDbEntity
  8
スト－ル
  6
CONTINUOUS
 62
     2
100
AcDbCircle
 10
624.0
 20
-997.000036
 30
0.0
 40
2500.0
100
AcDbArc
 50
90.0
 51
93.767755
  0
ARC
  5
108
100
AcDbEntity
  8
スト－ル
  6
CONTINUOUS
 62
     2
100
AcDbCircle
 10
-49535.919438
 20
493.243873
 30
0.0
 40
50000.0
100
AcDbArc
 50
0.102853
 51
1.143981
  0
ARC
  5
109
100
AcDbEntity
  8
スト－ル
  6
CONTINUOUS
 62
     2
100
AcDbCircle
 10
-49535.919438
 20
493.243873
 30
0.0
 40
50000.0
100
AcDbArc
 50
1.143981
 51
1.150542
  0
ARC
  5
10A
100
AcDbEntity
  8
スト－ル
  6
CONTINUOUS
 62
     2
100
AcDbCircle
 10
624.0
 20
-997.000036
 30
0.0
 40
2500.0
100
AcDbArc
 50
93.767755
 51
93.89951
  0
ARC
  5
10B
100
AcDbEntity
  8
スト－ル
  6
CONTINUOUS
 62
     2
100
AcDbCircle
 10
624.0
 20
-997.000036
 30
0.0
 40
2500.0
100
AcDbArc
 50
86.10049
 51
86.232245
  0
ARC
  5
10C
100
AcDbEntity
  8
スト－ル
  6
CONTINUOUS
 62
     2
100
AcDbCircle
 10
50783.919438
 20
493.243873
 30
0.0
 40
50000.0
100
AcDbArc
 50
178.849458
 51
178.856019
  0
ARC
  5
10D
100
AcDbEntity
  8
スト－ル
  6
CONTINUOUS
 62
     2
100
AcDbCircle
 10
50783.919438
 20
493.243873
 30
0.0
 40
50000.0
100
AcDbArc
 50
178.856019
 51
179.897147
  0
ARC
  5
10E
100
AcDbEntity
  8
スト－ル
  6
CONTINUOUS
 62
     2
100
AcDbCircle
 10
624.0
 20
-997.000036
 30
0.0
 40
2500.0
100
AcDbArc
 50
86.232245
 51
90.0
  0
ARC
  5
10F
100
AcDbEntity
  8
スト－ル
  6
CONTINUOUS
 62
     2
100
AcDbCircle
 10
6747.564472
 20
752.183012
 30
0.0
 40
6000.0
100
AcDbArc
 50
172.901891
 51
177.374346
  0
ARC
  5
110
100
AcDbEntity
  8
スト－ル
  6
CONTINUOUS
 62
     2
100
AcDbCircle
 10
787.886574
 20
1491.609453
 30
0.0
 40
6.0
100
AcDbArc
 50
358.856019
 51
86.232245
  0
ARC
  5
111
100
AcDbEntity
  8
スト－ル
  6
CONTINUOUS
 62
     2
100
AcDbCircle
 10
-1285.944396
 20
907.57403
 30
0.0
 40
2000.0
100
AcDbArc
 50
1.193151
 51
9.945594
  0
ARC
  5
112
100
AcDbEntity
  8
スト－ル
  6
CONTINUOUS
 62
     2
100
AcDbCircle
 10
-1258.415568
 20
819.325605
 30
0.0
 40
2000.0
100
AcDbArc
 50
4.878427
 51
12.523333
  0
ARC
  5
113
100
AcDbEntity
  8
スト－ル
  6
CONTINUOUS
 62
     2
100
AcDbCircle
 10
624.0
 20
-997.000036
 30
0.0
 40
2488.0
100
AcDbArc
 50
88.530203
 51
90.0
  0
ARC
  5
114
100
AcDbEntity
  8
スト－ル
  6
CONTINUOUS
 62
     2
100
AcDbCircle
 10
6747.564472
 20
752.183012
 30
0.0
 40
6012.0
100
AcDbArc
 50
173.851474
 51
177.348785
  0
ARC
  5
115
100
AcDbEntity
  8
スト－ル
  6
CONTINUOUS
 62
     2
100
AcDbCircle
 10
685.636922
 20
1405.209341
 30
0.0
 40
85.0
100
AcDbArc
 50
353.851474
 51
88.530203
  0
ARC
  5
116
100
AcDbEntity
  8
スト－ル
  6
CONTINUOUS
 62
     2
100
AcDbCircle
 10
624.0
 20
1012.999964
 30
0.0
 40
110.0
100
AcDbArc
 50
270.0
 51
322.749475
  0
ARC
  5
117
100
AcDbEntity
  8
スト－ル
  6
CONTINUOUS
 62
     2
100
AcDbCircle
 10
592.160142
 20
1037.212015
 30
0.0
 40
150.0
100
AcDbArc
 50
322.749475
 51
357.348785
  0
ARC
  5
118
100
AcDbEntity
  8
スト－ル
  6
CONTINUOUS
 62
     2
100
AcDbCircle
 10
624.0
 20
1032.999964
 30
0.0
 40
130.0
100
AcDbArc
 50
270.0
 51
357.374346
  0
LINE
  5
119
100
AcDbEntity
  8
スト－ル
  6
CONTINUOUS
 62
     2
100
AcDbLine
 10
1550.310394
 20
603.0
 30
0.0
 11
1495.310394
 21
603.0
 31
0.0
  0
ARC
  5
11A
100
AcDbEntity
  8
スト－ル
  6
CONTINUOUS
 62
     2
100
AcDbCircle
 10
1507.606096
 20
931.181214
 30
0.0
 40
163.0
100
AcDbArc
 50
309.25607
 51
349.879174
  0
ARC
  5
11B
100
AcDbEntity
  8
スト－ル
  6
CONTINUOUS
 62
     2
100
AcDbCircle
 10
1507.606096
 20
931.181214
 30
0.0
 40
150.0
100
AcDbArc
 50
307.885943
 51
348.636472
  0
LINE
  5
11C
100
AcDbEntity
  8
スト－ル
  6
CONTINUOUS
 62
     2
100
AcDbLine
 10
1742.810394
 20
583.0
 30
0.0
 11
1244.0
 21
583.0
 31
0.0
  0
LINE
  5
11D
100
AcDbEntity
  8
スト－ル
  6
CONTINUOUS
 62
     2
100
AcDbLine
 10
1559.677954
 20
794.678702
 30
0.0
 11
1561.7002
 21
704.991726
 31
0.0
  0
LINE
  5
11E
100
AcDbEntity
  8
スト－ル
  6
CONTINUOUS
 62
     2
100
AcDbLine
 10
1483.938998
 20
704.969168
 30
0.0
 11
1485.920147
 21
779.908278
 31
0.0
  0
LINE
  5
11F
100
AcDbEntity
  8
スト－ル
  6
CONTINUOUS
 62
     2
100
AcDbLine
 10
1475.810394
 20
773.993482
 30
0.0
 11
1569.810394
 21
790.568219
 31
0.0
  0
ARC
  5
120
100
AcDbEntity
  8
スト－ル
  6
CONTINUOUS
 62
     2
100
AcDbCircle
 10
1569.577335
 20
902.224051
 30
0.0
 40
108.0
100
AcDbArc
 50
262.906602
 51
264.740833
  0
CIRCLE
  5
121
100
AcDbEntity
  8
スト－ル
  6
CONTINUOUS
 62
     2
100
AcDbCircle
 10
1527.810394
 20
819.935117
 30
0.0
 40
2.5
  0
ARC
  5
122
100
AcDbEntity
  8
スト－ル
  6
CONTINUOUS
 62
     2
100
AcDbCircle
 10
1559.698365
 20
822.836358
 30
0.0
 40
28.0
100
AcDbArc
 50
208.595033
 51
262.906602
  0
LINE
  5
123
100
AcDbEntity
  8
スト－ル
  6
CONTINUOUS
 62
     2
100
AcDbLine
 10
1521.159262
 20
809.435117
 30
0.0
 11
1535.11368
 21
809.435117
 31
0.0
  0
ARC
  5
124
100
AcDbEntity
  8
スト－ル
  6
CONTINUOUS
 62
     2
100
AcDbCircle
 10
1422.082748
 20
852.293808
 30
0.0
 40
108.0
100
AcDbArc
 50
335.035268
 51
336.619237
  0
ARC
  5
125
100
AcDbEntity
  8
スト－ル
  6
CONTINUOUS
 62
     2
100
AcDbCircle
 10
1476.476813
 20
826.970189
 30
0.0
 40
48.0
100
AcDbArc
 50
281.346161
 51
335.035268
  0
ARC
  5
126
100
AcDbEntity
  8
スト－ル
  6
CONTINUOUS
 62
     2
100
AcDbCircle
 10
1569.577335
 20
902.224051
 30
0.0
 40
100.0
100
AcDbArc
 50
262.906602
 51
280.0
  0
ARC
  5
127
100
AcDbEntity
  8
スト－ル
  6
CONTINUOUS
 62
     2
100
AcDbCircle
 10
1559.698365
 20
822.836358
 30
0.0
 40
20.0
100
AcDbArc
 50
210.831399
 51
262.906602
  0
ARC
  5
128
100
AcDbEntity
  8
スト－ル
  6
CONTINUOUS
 62
     2
100
AcDbCircle
 10
1628.392697
 20
863.837439
 30
0.0
 40
100.0
100
AcDbArc
 50
207.647025
 51
210.831399
  0
LINE
  5
129
100
AcDbEntity
  8
スト－ル
  6
CONTINUOUS
 62
     2
100
AcDbLine
 10
1539.810394
 20
817.435117
 30
0.0
 11
1539.418162
 21
819.396278
 31
0.0
  0
ARC
  5
12A
100
AcDbEntity
  8
スト－ル
  6
CONTINUOUS
 62
     2
100
AcDbCircle
 10
1529.612355
 20
817.435117
 30
0.0
 40
10.0
100
AcDbArc
 50
11.309932
 51
90.0
  0
LINE
  5
12B
100
AcDbEntity
  8
スト－ル
  6
CONTINUOUS
 62
     2
100
AcDbLine
 10
1520.269806
 20
827.435117
 30
0.0
 11
1529.612355
 21
827.435117
 31
0.0
  0
ARC
  5
12C
100
AcDbEntity
  8
スト－ル
  6
CONTINUOUS
 62
     2
100
AcDbCircle
 10
1520.269806
 20
824.435117
 30
0.0
 40
3.0
100
AcDbArc
 50
90.0
 51
168.690068
  0
LINE
  5
12D
100
AcDbEntity
  8
スト－ル
  6
CONTINUOUS
 62
     2
100
AcDbLine
 10
1517.328064
 20
825.023465
 30
0.0
 11
1515.810394
 21
817.435117
 31
0.0
  0
ARC
  5
12E
100
AcDbEntity
  8
スト－ル
  6
CONTINUOUS
 62
     2
100
AcDbCircle
 10
1422.082748
 20
852.293808
 30
0.0
 40
100.0
100
AcDbArc
 50
335.035268
 51
339.599092
  0
ARC
  5
12F
100
AcDbEntity
  8
スト－ル
  6
CONTINUOUS
 62
     2
100
AcDbCircle
 10
1476.476813
 20
826.970189
 30
0.0
 40
40.0
100
AcDbArc
 50
286.126615
 51
335.035268
  0
ARC
  5
130
100
AcDbEntity
  8
スト－ル
  6
CONTINUOUS
 62
     2
100
AcDbCircle
 10
1376.482882
 20
1172.804273
 30
0.0
 40
400.0
100
AcDbArc
 50
280.0
 51
286.126615
  0
ARC
  5
131
100
AcDbEntity
  8
スト－ル
  6
CONTINUOUS
 62
     2
100
AcDbCircle
 10
1553.152495
 20
1571.894321
 30
0.0
 40
90.0
100
AcDbArc
 50
294.07741
 51
308.921866
  0
ARC
  5
132
100
AcDbEntity
  8
スト－ル
  6
CONTINUOUS
 62
     2
100
AcDbCircle
 10
1612.882494
 20
1497.9279
 30
0.0
 40
5.0721
100
AcDbArc
 50
90.0
 51
128.921866
  0
ARC
  5
133
100
AcDbEntity
  8
スト－ル
  6
CONTINUOUS
 62
     2
100
AcDbCircle
 10
1368.810394
 20
1068.0
 30
0.0
 40
165.0
100
AcDbArc
 50
270.0
 51
356.466985
  0
ARC
  5
134
100
AcDbEntity
  8
スト－ル
  6
CONTINUOUS
 62
     2
100
AcDbCircle
 10
-1604.433998
 20
454.446289
 30
0.0
 40
3000.0
100
AcDbArc
 50
2.455947
 51
8.466056
  0
ARC
  5
135
100
AcDbEntity
  8
スト－ル
  6
CONTINUOUS
 62
     2
100
AcDbCircle
 10
1368.810394
 20
897.0
 30
0.0
 40
6.0
100
AcDbArc
 50
8.466056
 51
188.466056
  0
LINE
  5
136
100
AcDbEntity
  8
スト－ル
  6
CONTINUOUS
 62
     2
100
AcDbLine
 10
1548.810394
 20
755.104581
 30
0.0
 11
1496.810394
 21
755.104581
 31
0.0
  0
LINE
  5
137
100
AcDbEntity
  8
スト－ル
  6
CONTINUOUS
 62
     2
100
AcDbLine
 10
1506.810394
 20
755.104581
 30
0.0
 11
1502.810394
 21
603.0
 31
0.0
  0
LINE
  5
138
100
AcDbEntity
  8
スト－ル
  6
CONTINUOUS
 62
     2
100
AcDbLine
 10
1538.810394
 20
755.104581
 30
0.0
 11
1542.810394
 21
603.0
 31
0.0
  0
ARC
  5
139
100
AcDbEntity
  8
スト－ル
  6
CONTINUOUS
 62
     2
100
AcDbCircle
 10
-1604.433998
 20
454.446289
 30
0.0
 40
3012.0
100
AcDbArc
 50
6.645252
 51
8.466056
  0
ARC
  5
13A
100
AcDbEntity
  8
スト－ル
  6
CONTINUOUS
 62
     2
100
AcDbCircle
 10
1489.158109
 20
695.104581
 30
0.0
 40
5.0
100
AcDbArc
 50
270.0
 51
357.473539
  0
ARC
  5
13B
100
AcDbEntity
  8
スト－ル
  6
CONTINUOUS
 62
     2
100
AcDbCircle
 10
1556.462679
 20
695.104581
 30
0.0
 40
5.0
100
AcDbArc
 50
182.526461
 51
270.0
  0
ARC
  5
13C
100
AcDbEntity
  8
スト－ル
  6
CONTINUOUS
 62
     2
100
AcDbCircle
 10
1457.411058
 20
638.0
 30
0.0
 40
5.0
100
AcDbArc
 50
90.0
 51
175.236358
  0
ARC
  5
13D
100
AcDbEntity
  8
スト－ル
  6
CONTINUOUS
 62
     2
100
AcDbCircle
 10
1488.122612
 20
638.0
 30
0.0
 40
5.0
100
AcDbArc
 50
3.561021
 51
90.0
  0
ARC
  5
13E
100
AcDbEntity
  8
スト－ル
  6
CONTINUOUS
 62
     2
100
AcDbCircle
 10
1557.498176
 20
638.0
 30
0.0
 40
5.0
100
AcDbArc
 50
90.0
 51
176.438979
  0
LINE
  5
13F
100
AcDbEntity
  8
スト－ル
  6
CONTINUOUS
 62
     2
100
AcDbLine
 10
1452.42833
 20
638.415227
 30
0.0
 11
1447.810394
 21
583.0
 31
0.0
  0
LINE
  5
140
100
AcDbEntity
  8
スト－ル
  6
CONTINUOUS
 62
     2
100
AcDbLine
 10
1488.122612
 20
643.0
 30
0.0
 11
1457.411058
 21
643.0
 31
0.0
  0
LINE
  5
141
100
AcDbEntity
  8
スト－ル
  6
CONTINUOUS
 62
     2
100
AcDbLine
 10
1550.310394
 20
603.0
 30
0.0
 11
1552.50783
 21
638.310558
 31
0.0
  0
LINE
  5
142
100
AcDbEntity
  8
スト－ル
  6
CONTINUOUS
 62
     2
100
AcDbLine
 10
1495.310394
 20
603.0
 30
0.0
 11
1493.112958
 21
638.310558
 31
0.0
  0
LINE
  5
143
100
AcDbEntity
  8
スト－ル
  6
CONTINUOUS
 62
     2
100
AcDbLine
 10
1492.821126
 20
643.0
 30
0.0
 11
1492.261041
 21
652.0
 31
0.0
  0
LINE
  5
144
100
AcDbEntity
  8
スト－ル
  6
CONTINUOUS
 62
     2
100
AcDbLine
 10
1552.799662
 20
643.0
 30
0.0
 11
1553.359747
 21
652.0
 31
0.0
  0
ARC
  5
145
100
AcDbEntity
  8
スト－ル
  6
CONTINUOUS
 62
     2
100
AcDbCircle
 10
1489.158109
 20
695.104581
 30
0.0
 40
14.0
100
AcDbArc
 50
270.0
 51
288.398371
  0
ARC
  5
146
100
AcDbEntity
  8
スト－ル
  6
CONTINUOUS
 62
     2
100
AcDbCircle
 10
1556.462679
 20
695.104581
 30
0.0
 40
14.0
100
AcDbArc
 50
251.601629
 51
270.0
  0
LINE
  5
147
100
AcDbEntity
  8
スト－ル
  6
CONTINUOUS
 62
     2
100
AcDbLine
 10
1584.683565
 20
681.104581
 30
0.0
 11
1556.462679
 21
681.104581
 31
0.0
  0
ARC
  5
148
100
AcDbEntity
  8
スト－ル
  6
CONTINUOUS
 62
     2
100
AcDbCircle
 10
1457.411058
 20
638.0
 30
0.0
 40
14.0
100
AcDbArc
 50
90.0
 51
175.236358
  0
ARC
  5
149
100
AcDbEntity
  8
スト－ル
  6
CONTINUOUS
 62
     2
100
AcDbCircle
 10
1488.122612
 20
638.0
 30
0.0
 40
14.0
100
AcDbArc
 50
72.636188
 51
90.0
  0
LINE
  5
14A
100
AcDbEntity
  8
スト－ル
  6
CONTINUOUS
 62
     2
100
AcDbLine
 10
1488.122612
 20
652.0
 30
0.0
 11
1457.411058
 21
652.0
 31
0.0
  0
ARC
  5
14B
100
AcDbEntity
  8
スト－ル
  6
CONTINUOUS
 62
     2
100
AcDbCircle
 10
1557.498176
 20
638.0
 30
0.0
 40
14.0
100
AcDbArc
 50
90.0
 51
107.363812
  0
LINE
  5
14C
100
AcDbEntity
  8
スト－ル
  6
CONTINUOUS
 62
     2
100
AcDbLine
 10
1492.261041
 20
652.0
 30
0.0
 11
1493.942355
 21
690.104581
 31
0.0
  0
LINE
  5
14D
100
AcDbEntity
  8
スト－ル
  6
CONTINUOUS
 62
     2
100
AcDbLine
 10
1494.153249
 20
694.884177
 30
0.0
 11
1496.810394
 21
755.104581
 31
0.0
  0
LINE
  5
14E
100
AcDbEntity
  8
スト－ル
  6
CONTINUOUS
 62
     2
100
AcDbLine
 10
1551.467539
 20
694.884177
 30
0.0
 11
1548.810394
 21
755.104581
 31
0.0
  0
LINE
  5
14F
100
AcDbEntity
  8
スト－ル
  6
CONTINUOUS
 62
     2
100
AcDbLine
 10
1553.359747
 20
652.0
 30
0.0
 11
1551.678433
 21
690.104581
 31
0.0
  0
ARC
  5
150
100
AcDbEntity
  8
スト－ル
  6
CONTINUOUS
 62
     2
100
AcDbCircle
 10
1577.000285
 20
695.104581
 30
0.0
 40
5.0
100
AcDbArc
 50
270.0
 51
357.782167
  0
LINE
  5
151
100
AcDbEntity
  8
スト－ル
  6
CONTINUOUS
 62
     2
100
AcDbLine
 10
1593.801405
 20
689.640195
 30
0.0
 11
1597.389611
 21
782.292053
 31
0.0
  0
ARC
  5
152
100
AcDbEntity
  8
スト－ル
  6
CONTINUOUS
 62
     2
100
AcDbCircle
 10
9517.501329
 20
552.188946
 30
0.0
 40
8000.0
100
AcDbArc
 50
173.471637
 51
176.378017
  0
LINE
  5
153
100
AcDbEntity
  8
スト－ル
  6
CONTINUOUS
 62
     2
100
AcDbLine
 10
1556.462679
 20
690.104581
 30
0.0
 11
1577.000285
 21
690.104581
 31
0.0
  0
LINE
  5
154
100
AcDbEntity
  8
スト－ル
  6
CONTINUOUS
 62
     2
100
AcDbLine
 10
1431.111823
 20
597.0
 30
0.0
 11
1409.508965
 21
597.0
 31
0.0
  0
ARC
  5
155
100
AcDbEntity
  8
スト－ル
  6
CONTINUOUS
 62
     2
100
AcDbCircle
 10
-1604.433998
 20
454.446289
 30
0.0
 40
3009.0
100
AcDbArc
 50
2.654226
 51
6.463755
  0
ARC
  5
156
100
AcDbEntity
  8
スト－ル
  6
CONTINUOUS
 62
     2
100
AcDbCircle
 10
1409.508965
 20
585.0
 30
0.0
 40
12.0
100
AcDbArc
 50
90.0
 51
132.915625
  0
ARC
  5
157
100
AcDbEntity
  8
スト－ル
  6
CONTINUOUS
 62
     2
100
AcDbCircle
 10
1431.111823
 20
585.0
 30
0.0
 40
12.0
100
AcDbArc
 50
44.650879
 51
90.0
  0
LINE
  5
158
100
AcDbEntity
  8
スト－ル
  6
CONTINUOUS
 62
     2
100
AcDbLine
 10
1443.459418
 20
639.162637
 30
0.0
 11
1439.64865
 21
593.433421
 31
0.0
  0
LINE
  5
159
100
AcDbEntity
  8
スト－ル
  6
CONTINUOUS
 62
     2
100
AcDbLine
 10
1557.498176
 20
643.0
 30
0.0
 11
1593.163273
 21
643.0
 31
0.0
  0
ARC
  5
15A
100
AcDbEntity
  8
スト－ル
  6
CONTINUOUS
 62
     2
100
AcDbCircle
 10
1654.34956
 20
630.346479
 30
0.0
 40
10.0
100
AcDbArc
 50
9.952559
 51
87.515009
  0
LINE
  5
15B
100
AcDbEntity
  8
スト－ル
  6
CONTINUOUS
 62
     2
100
AcDbLine
 10
1410.310394
 20
588.0
 30
0.0
 11
1410.310394
 21
597.0
 31
0.0
  0
LINE
  5
15C
100
AcDbEntity
  8
スト－ル
  6
CONTINUOUS
 62
     2
100
AcDbLine
 10
1430.310394
 20
588.0
 30
0.0
 11
1430.310394
 21
596.973208
 31
0.0
  0
ARC
  5
15D
100
AcDbEntity
  8
スト－ル
  6
CONTINUOUS
 62
     2
100
AcDbCircle
 10
1408.269806
 20
585.0
 30
0.0
 40
3.0
100
AcDbArc
 50
90.0
 51
168.690068
  0
ARC
  5
15E
100
AcDbEntity
  8
スト－ル
  6
CONTINUOUS
 62
     2
100
AcDbCircle
 10
1432.350982
 20
585.0
 30
0.0
 40
3.0
100
AcDbArc
 50
11.309932
 51
90.0
  0
LINE
  5
15F
100
AcDbEntity
  8
スト－ル
  6
CONTINUOUS
 62
     2
100
AcDbLine
 10
1404.810394
 20
583.0
 30
0.0
 11
1405.328064
 21
585.588348
 31
0.0
  0
LINE
  5
160
100
AcDbEntity
  8
スト－ル
  6
CONTINUOUS
 62
     2
100
AcDbLine
 10
1432.350982
 20
588.0
 30
0.0
 11
1408.269806
 21
588.0
 31
0.0
  0
LINE
  5
161
100
AcDbEntity
  8
スト－ル
  6
CONTINUOUS
 62
     2
100
AcDbLine
 10
1435.810394
 20
583.0
 30
0.0
 11
1435.292724
 21
585.588348
 31
0.0
  0
ARC
  5
162
100
AcDbEntity
  8
スト－ル
  6
CONTINUOUS
 62
     2
100
AcDbCircle
 10
1654.164809
 20
630.354497
 30
0.0
 40
22.0
100
AcDbArc
 50
9.952559
 51
87.515009
  0
LINE
  5
163
100
AcDbEntity
  8
スト－ル
  6
CONTINUOUS
 62
     2
100
AcDbLine
 10
1593.163273
 20
643.011285
 30
0.0
 11
1654.783137
 21
640.337076
 31
0.0
  0
LINE
  5
164
100
AcDbEntity
  8
スト－ル
  6
CONTINUOUS
 62
     2
100
AcDbLine
 10
1672.810394
 20
583.0
 30
0.0
 11
1664.199072
 21
632.074806
 31
0.0
  0
LINE
  5
165
100
AcDbEntity
  8
スト－ル
  6
CONTINUOUS
 62
     2
100
AcDbLine
 10
1684.810394
 20
583.0
 30
0.0
 11
1675.833735
 21
634.156817
 31
0.0
  0
ARC
  5
166
100
AcDbEntity
  8
スト－ル
  6
CONTINUOUS
 62
     2
100
AcDbCircle
 10
1603.683565
 20
664.575428
 30
0.0
 40
10.0
100
AcDbArc
 50
180.0
 51
267.515009
  0
LINE
  5
167
100
AcDbEntity
  8
スト－ル
  6
CONTINUOUS
 62
     2
100
AcDbLine
 10
1584.683565
 20
658.33043
 30
0.0
 11
1584.683565
 21
681.104581
 31
0.0
  0
LINE
  5
168
100
AcDbEntity
  8
スト－ル
  6
CONTINUOUS
 62
     2
100
AcDbLine
 10
1588.131761
 20
652.0
 30
0.0
 11
1557.498176
 21
652.0
 31
0.0
  0
ARC
  5
169
100
AcDbEntity
  8
スト－ル
  6
CONTINUOUS
 62
     2
100
AcDbCircle
 10
1603.683565
 20
664.575428
 30
0.0
 40
20.0
100
AcDbArc
 50
198.194872
 51
218.959536
  0
LINE
  5
16A
100
AcDbEntity
  8
スト－ル
  6
CONTINUOUS
 62
     2
100
AcDbLine
 10
1593.683565
 20
690.104581
 30
0.0
 11
1593.683565
 21
664.575428
 31
0.0
  0
LINE
  5
16B
100
AcDbEntity
  8
スト－ル
  6
CONTINUOUS
 62
     2
100
AcDbLine
 10
1603.249988
 20
654.584832
 30
0.0
 11
1655.118678
 21
652.333809
 31
0.0
  0
LINE
  5
16C
100
AcDbEntity
  8
スト－ル
  6
CONTINUOUS
 62
     2
100
AcDbLine
 10
1452.810394
 20
643.0
 30
0.0
 11
1452.42833
 21
638.415227
 31
0.0
  0
LINE
  5
16D
100
AcDbEntity
  8
スト－ル
  6
CONTINUOUS
 62
     2
100
AcDbLine
 10
1457.411058
 20
643.0
 30
0.0
 11
1452.810394
 21
643.0
 31
0.0
  0
LINE
  5
16E
100
AcDbEntity
  8
スト－ル
  6
CONTINUOUS
 62
     2
100
AcDbLine
 10
1492.821126
 20
643.0
 30
0.0
 11
1488.122612
 21
643.0
 31
0.0
  0
LINE
  5
16F
100
AcDbEntity
  8
スト－ル
  6
CONTINUOUS
 62
     2
100
AcDbLine
 10
1557.498176
 20
643.0
 30
0.0
 11
1552.799662
 21
643.0
 31
0.0
  0
LINE
  5
170
100
AcDbEntity
  8
スト－ル
  6
CONTINUOUS
 62
     2
100
AcDbLine
 10
1552.50783
 20
638.310558
 30
0.0
 11
1552.799662
 21
643.0
 31
0.0
  0
LINE
  5
171
100
AcDbEntity
  8
スト－ル
  6
CONTINUOUS
 62
     2
100
AcDbLine
 10
1493.112958
 20
638.310558
 30
0.0
 11
1492.821126
 21
643.0
 31
0.0
  0
LINE
  5
172
100
AcDbEntity
  8
スト－ル
  6
CONTINUOUS
 62
     2
100
AcDbLine
 10
1489.158109
 20
690.104581
 30
0.0
 11
1493.942355
 21
690.104581
 31
0.0
  0
LINE
  5
173
100
AcDbEntity
  8
スト－ル
  6
CONTINUOUS
 62
     2
100
AcDbLine
 10
1493.942355
 20
690.104581
 30
0.0
 11
1494.153249
 21
694.884177
 31
0.0
  0
LINE
  5
174
100
AcDbEntity
  8
スト－ル
  6
CONTINUOUS
 62
     2
100
AcDbLine
 10
1551.678433
 20
690.104581
 30
0.0
 11
1551.467539
 21
694.884177
 31
0.0
  0
LINE
  5
175
100
AcDbEntity
  8
スト－ル
  6
CONTINUOUS
 62
     2
100
AcDbLine
 10
1551.678433
 20
690.104581
 30
0.0
 11
1556.462679
 21
690.104581
 31
0.0
  0
LINE
  5
176
100
AcDbEntity
  8
スト－ル
  6
CONTINUOUS
 62
     2
100
AcDbLine
 10
1581.810394
 20
690.104581
 30
0.0
 11
1581.99654
 21
694.911087
 31
0.0
  0
LINE
  5
177
100
AcDbEntity
  8
スト－ル
  6
CONTINUOUS
 62
     2
100
AcDbLine
 10
1577.000285
 20
690.104581
 30
0.0
 11
1581.810394
 21
690.104581
 31
0.0
  0
LINE
  5
178
100
AcDbEntity
  8
スト－ル
  6
CONTINUOUS
 62
     2
100
AcDbLine
 10
1408.269806
 20
588.0
 30
0.0
 11
1405.810394
 21
588.0
 31
0.0
  0
LINE
  5
179
100
AcDbEntity
  8
スト－ル
  6
CONTINUOUS
 62
     2
100
AcDbLine
 10
1405.328064
 20
585.588348
 30
0.0
 11
1405.810394
 21
588.0
 31
0.0
  0
LINE
  5
17A
100
AcDbEntity
  8
スト－ル
  6
CONTINUOUS
 62
     2
100
AcDbLine
 10
1434.810394
 20
588.0
 30
0.0
 11
1432.350982
 21
588.0
 31
0.0
  0
LINE
  5
17B
100
AcDbEntity
  8
スト－ル
  6
CONTINUOUS
 62
     2
100
AcDbLine
 10
1435.292724
 20
585.588348
 30
0.0
 11
1434.810394
 21
588.0
 31
0.0
  0
LINE
  5
17C
100
AcDbEntity
  8
スト－ル
  6
CONTINUOUS
 62
     2
100
AcDbLine
 10
1655.118678
 20
652.333809
 30
0.0
 11
1672.778643
 21
651.567393
 31
0.0
  0
LINE
  5
17D
100
AcDbEntity
  8
スト－ル
  6
CONTINUOUS
 62
     2
100
AcDbLine
 10
1675.833735
 20
634.156817
 30
0.0
 11
1672.778643
 21
651.567393
 31
0.0
  0
LINE
  5
17E
100
AcDbEntity
  8
スト－ル
  6
CONTINUOUS
 62
     2
100
AcDbLine
 10
1654.783137
 20
640.337076
 30
0.0
 11
1662.810394
 21
639.988705
 31
0.0
  0
LINE
  5
17F
100
AcDbEntity
  8
スト－ル
  6
CONTINUOUS
 62
     2
100
AcDbLine
 10
1664.199072
 20
632.074806
 30
0.0
 11
1662.810394
 21
639.988705
 31
0.0
  0
LINE
  5
180
100
AcDbEntity
  8
スト－ル
  6
CONTINUOUS
 62
     2
100
AcDbLine
 10
1593.683565
 20
664.575428
 30
0.0
 11
1593.683565
 21
655.0
 31
0.0
  0
LINE
  5
181
100
AcDbEntity
  8
スト－ル
  6
CONTINUOUS
 62
     2
100
AcDbLine
 10
1593.683565
 20
655.0
 30
0.0
 11
1603.249988
 21
654.584832
 31
0.0
  0
ARC
  5
182
100
AcDbEntity
  8
スト－ル
  6
CONTINUOUS
 62
     2
100
AcDbCircle
 10
1593.222353
 20
797.742659
 30
0.0
 40
3.0
100
AcDbArc
 50
280.0
 51
349.958008
  0
ARC
  5
183
100
AcDbEntity
  8
スト－ル
  6
CONTINUOUS
 62
     2
100
AcDbCircle
 10
1601.562109
 20
810.428294
 30
0.0
 40
3.0
100
AcDbArc
 50
127.885943
 51
169.958008
  0
LINE
  5
184
100
AcDbEntity
  8
スト－ル
  6
CONTINUOUS
 62
     2
100
AcDbLine
 10
1596.176394
 20
797.219549
 30
0.0
 11
1598.608069
 21
810.951404
 31
0.0
  0
LINE
  5
185
100
AcDbEntity
  8
スト－ル
  6
CONTINUOUS
 62
     2
100
AcDbLine
 10
1593.743298
 20
794.788235
 30
0.0
 11
1595.810394
 21
795.15272
 31
0.0
  0
LINE
  5
186
100
AcDbEntity
  8
スト－ル
  6
CONTINUOUS
 62
     2
100
AcDbLine
 10
1595.810394
 20
795.15272
 30
0.0
 11
1596.176394
 21
797.219549
 31
0.0
  0
LINE
  5
187
100
AcDbEntity
  8
スト－ル
  6
CONTINUOUS
 62
     2
100
AcDbLine
 10
1598.608069
 20
810.951404
 30
0.0
 11
1598.810394
 21
812.093952
 31
0.0
  0
ARC
  5
188
100
AcDbEntity
  8
スト－ル
  6
CONTINUOUS
 62
     2
100
AcDbCircle
 10
1507.606096
 20
931.181214
 30
0.0
 40
150.0
100
AcDbArc
 50
307.447098
 51
307.885943
  0
LINE
  5
189
100
AcDbEntity
  8
スト－ル
  6
CONTINUOUS
 62
     2
100
AcDbLine
 10
1608.977237
 20
794.95274
 30
0.0
 11
1610.750437
 21
804.96614
 31
0.0
  0
ARC
  5
18A
100
AcDbEntity
  8
スト－ル
  6
CONTINUOUS
 62
     2
100
AcDbCircle
 10
1593.222353
 20
797.742659
 30
0.0
 40
16.0
100
AcDbArc
 50
285.097392
 51
349.958008
  0
LINE
  5
18B
100
AcDbEntity
  8
スト－ル
  6
CONTINUOUS
 62
     2
100
AcDbLine
 10
1742.810394
 20
1503.0
 30
0.0
 11
1612.882494
 21
1503.0
 31
0.0
  0
ARC
  5
18C
100
AcDbEntity
  8
スト－ル
  6
CONTINUOUS
 62
     2
100
AcDbCircle
 10
1588.714499
 20
790.855242
 30
0.0
 40
3.0
100
AcDbArc
 50
100.0
 51
177.782167
  0
LINE
  5
18D
100
AcDbEntity
  8
スト－ル
  6
CONTINUOUS
 62
     2
100
AcDbLine
 10
1581.99654
 20
694.911087
 30
0.0
 11
1585.716746
 21
790.971339
 31
0.0
  0
LINE
  5
18E
100
AcDbEntity
  8
スト－ル
  6
CONTINUOUS
 62
     2
100
AcDbLine
 10
1588.193554
 20
793.809666
 30
0.0
 11
1593.743298
 21
794.788235
 31
0.0
  0
LINE
  5
18F
100
AcDbEntity
  8
スト－ル
  6
CONTINUOUS
 62
     2
100
AcDbLine
 10
1585.716746
 20
790.971339
 30
0.0
 11
1585.810394
 21
793.38945
 31
0.0
  0
LINE
  5
190
100
AcDbEntity
  8
スト－ル
  6
CONTINUOUS
 62
     2
100
AcDbLine
 10
1585.810394
 20
793.38945
 30
0.0
 11
1588.193554
 21
793.809666
 31
0.0
  0
ARC
  5
191
100
AcDbEntity
  8
スト－ル
  6
CONTINUOUS
 62
     2
100
AcDbCircle
 10
1434.265525
 20
779.900732
 30
0.0
 40
3.0
100
AcDbArc
 50
10.695908
 51
81.882244
  0
ARC
  5
192
100
AcDbEntity
  8
スト－ル
  6
CONTINUOUS
 62
     2
100
AcDbCircle
 10
1442.518061
 20
768.536522
 30
0.0
 40
3.0
100
AcDbArc
 50
190.695908
 51
253.300756
  0
ARC
  5
193
100
AcDbEntity
  8
スト－ル
  6
CONTINUOUS
 62
     2
100
AcDbCircle
 10
1450.130425
 20
759.988629
 30
0.0
 40
3.0
100
AcDbArc
 50
8.661223
 51
73.300756
  0
ARC
  5
194
100
AcDbEntity
  8
スト－ル
  6
CONTINUOUS
 62
     2
100
AcDbCircle
 10
1468.106427
 20
695.104581
 30
0.0
 40
5.0
100
AcDbArc
 50
188.661223
 51
270.0
  0
ARC
  5
195
100
AcDbEntity
  8
スト－ル
  6
CONTINUOUS
 62
     2
100
AcDbCircle
 10
1448.809953
 20
881.868667
 30
0.0
 40
100.0
100
AcDbArc
 50
232.062947
 51
261.882244
  0
LINE
  5
196
100
AcDbEntity
  8
スト－ル
  6
CONTINUOUS
 62
     2
100
AcDbLine
 10
1439.570183
 20
767.979733
 30
0.0
 11
1437.213403
 21
780.457522
 31
0.0
  0
LINE
  5
197
100
AcDbEntity
  8
スト－ル
  6
CONTINUOUS
 62
     2
100
AcDbLine
 10
1441.656018
 20
765.663043
 30
0.0
 11
1450.992468
 21
762.862108
 31
0.0
  0
LINE
  5
198
100
AcDbEntity
  8
スト－ル
  6
CONTINUOUS
 62
     2
100
AcDbLine
 10
1453.096213
 20
760.440404
 30
0.0
 11
1463.163447
 21
694.351622
 31
0.0
  0
LINE
  5
199
100
AcDbEntity
  8
スト－ル
  6
CONTINUOUS
 62
     2
100
AcDbLine
 10
1468.106427
 20
690.104581
 30
0.0
 11
1489.158109
 21
690.104581
 31
0.0
  0
LINE
  5
19A
100
AcDbEntity
  8
スト－ル
  6
CONTINUOUS
 62
     2
100
AcDbLine
 10
1463.810394
 20
690.104581
 30
0.0
 11
1468.106427
 21
690.104581
 31
0.0
  0
LINE
  5
19B
100
AcDbEntity
  8
スト－ル
  6
CONTINUOUS
 62
     2
100
AcDbLine
 10
1463.163447
 20
694.351622
 30
0.0
 11
1463.810394
 21
690.104581
 31
0.0
  0
LINE
  5
19C
100
AcDbEntity
  8
スト－ル
  6
CONTINUOUS
 62
     2
100
AcDbLine
 10
1450.992468
 20
762.862108
 30
0.0
 11
1452.810394
 21
762.31673
 31
0.0
  0
LINE
  5
19D
100
AcDbEntity
  8
スト－ル
  6
CONTINUOUS
 62
     2
100
AcDbLine
 10
1452.810394
 20
762.31673
 30
0.0
 11
1453.096213
 21
760.440404
 31
0.0
  0
LINE
  5
19E
100
AcDbEntity
  8
スト－ル
  6
CONTINUOUS
 62
     2
100
AcDbLine
 10
1439.908749
 20
766.187224
 30
0.0
 11
1439.570183
 21
767.979733
 31
0.0
  0
LINE
  5
19F
100
AcDbEntity
  8
スト－ル
  6
CONTINUOUS
 62
     2
100
AcDbLine
 10
1439.908749
 20
766.187224
 30
0.0
 11
1441.656018
 21
765.663043
 31
0.0
  0
LINE
  5
1A0
100
AcDbEntity
  8
スト－ル
  6
CONTINUOUS
 62
     2
100
AcDbLine
 10
1437.213403
 20
780.457522
 30
0.0
 11
1436.810394
 21
782.591224
 31
0.0
  0
ARC
  5
1A1
100
AcDbEntity
  8
スト－ル
  6
CONTINUOUS
 62
     2
100
AcDbCircle
 10
1448.809953
 20
881.868667
 30
0.0
 40
100.0
100
AcDbArc
 50
261.882244
 51
263.108152
  0
ARC
  5
1A2
100
AcDbEntity
  8
スト－ル
  6
CONTINUOUS
 62
     2
100
AcDbCircle
 10
1442.518061
 20
768.536522
 30
0.0
 40
12.0
100
AcDbArc
 50
190.695908
 51
253.300756
  0
ARC
  5
1A3
100
AcDbEntity
  8
スト－ル
  6
CONTINUOUS
 62
     2
100
AcDbCircle
 10
1468.106427
 20
695.104581
 30
0.0
 40
14.0
100
AcDbArc
 50
188.661223
 51
270.0
  0
LINE
  5
1A4
100
AcDbEntity
  8
スト－ル
  6
CONTINUOUS
 62
     2
100
AcDbLine
 10
1489.158109
 20
681.104581
 30
0.0
 11
1468.106427
 21
681.104581
 31
0.0
  0
LINE
  5
1A5
100
AcDbEntity
  8
スト－ル
  6
CONTINUOUS
 62
     2
100
AcDbLine
 10
1444.770486
 20
755.332427
 30
0.0
 11
1454.266082
 21
692.996296
 31
0.0
  0
LINE
  5
1A6
100
AcDbEntity
  8
スト－ル
  6
CONTINUOUS
 62
     2
100
AcDbLine
 10
1439.069887
 20
757.042607
 30
0.0
 11
1444.770486
 21
755.332427
 31
0.0
  0
ARC
  5
1A7
100
AcDbEntity
  8
スト－ル
  6
CONTINUOUS
 62
     2
100
AcDbCircle
 10
1448.809953
 20
881.868667
 30
0.0
 40
109.0
100
AcDbArc
 50
234.451734
 51
259.608885
  0
LINE
  5
1A8
100
AcDbEntity
  8
スト－ル
  6
CONTINUOUS
 62
     2
100
AcDbLine
 10
1429.149991
 20
774.656326
 30
0.0
 11
1430.726549
 21
766.309365
 31
0.0
  0
LINE
  5
1A9
100
AcDbEntity
  8
スト－ル
  6
CONTINUOUS
 62
     2
100
AcDbLine
 10
1445.942153
 20
778.881172
 30
0.0
 11
1441.810394
 21
778.152631
 31
0.0
  0
LINE
  5
1AA
100
AcDbEntity
  8
スト－ル
  6
CONTINUOUS
 62
     2
100
AcDbLine
 10
1441.810394
 20
773.957133
 30
0.0
 11
1441.810394
 21
778.152631
 31
0.0
  0
ARC
  5
1AB
100
AcDbEntity
  8
スト－ル
  6
CONTINUOUS
 62
     2
100
AcDbCircle
 10
1446.810394
 20
773.957133
 30
0.0
 40
5.0
100
AcDbArc
 50
100.0
 51
280.0
  0
LINE
  5
1AC
100
AcDbEntity
  8
スト－ル
  6
CONTINUOUS
 62
     2
100
AcDbLine
 10
1441.810394
 20
767.998365
 30
0.0
 11
1441.810394
 21
773.957133
 31
0.0
  0
LINE
  5
1AD
100
AcDbEntity
  8
スト－ル
  6
CONTINUOUS
 62
     2
100
AcDbLine
 10
1441.810394
 20
767.998365
 30
0.0
 11
1447.678635
 21
769.033094
 31
0.0
  0
LINE
  5
1AE
100
AcDbEntity
  8
スト－ル
  6
CONTINUOUS
 62
     2
100
AcDbLine
 10
1447.678635
 20
769.033094
 30
0.0
 11
1469.77825
 21
772.929853
 31
0.0
  0
ARC
  5
1AF
100
AcDbEntity
  8
スト－ル
  6
CONTINUOUS
 62
     2
100
AcDbCircle
 10
1470.64649
 20
768.005814
 30
0.0
 40
5.0
100
AcDbArc
 50
358.449516
 51
100.0
  0
LINE
  5
1B0
100
AcDbEntity
  8
スト－ル
  6
CONTINUOUS
 62
     2
100
AcDbLine
 10
1469.77825
 20
772.929853
 30
0.0
 11
1475.810394
 21
773.993482
 31
0.0
  0
LINE
  5
1B1
100
AcDbEntity
  8
スト－ル
  6
CONTINUOUS
 62
     2
100
AcDbLine
 10
1475.64466
 20
767.870525
 30
0.0
 11
1475.810394
 21
773.993482
 31
0.0
  0
LINE
  5
1B2
100
AcDbEntity
  8
スト－ル
  6
CONTINUOUS
 62
     2
100
AcDbLine
 10
1473.949301
 20
705.236415
 30
0.0
 11
1475.64466
 21
767.870525
 31
0.0
  0
ARC
  5
1B3
100
AcDbEntity
  8
スト－ル
  6
CONTINUOUS
 62
     2
100
AcDbCircle
 10
1478.944107
 20
705.101217
 30
0.0
 40
4.996636
100
AcDbArc
 50
178.449516
 51
358.485637
  0
LINE
  5
1B4
100
AcDbEntity
  8
スト－ル
  6
CONTINUOUS
 62
     2
100
AcDbLine
 10
1473.810394
 20
700.104581
 30
0.0
 11
1473.949301
 21
705.236415
 31
0.0
  0
LINE
  5
1B5
100
AcDbEntity
  8
スト－ル
  6
CONTINUOUS
 62
     2
100
AcDbLine
 10
1483.810394
 20
700.104581
 30
0.0
 11
1473.810394
 21
700.104581
 31
0.0
  0
LINE
  5
1B6
100
AcDbEntity
  8
スト－ル
  6
CONTINUOUS
 62
     2
100
AcDbLine
 10
1483.810394
 20
700.104581
 30
0.0
 11
1483.938998
 21
704.969168
 31
0.0
  0
LINE
  5
1B7
100
AcDbEntity
  8
スト－ル
  6
CONTINUOUS
 62
     2
100
AcDbLine
 10
1561.7002
 20
704.991726
 30
0.0
 11
1561.810394
 21
700.104581
 31
0.0
  0
ARC
  5
1B8
100
AcDbEntity
  8
スト－ル
  6
CONTINUOUS
 62
     2
100
AcDbCircle
 10
1566.698781
 20
705.104433
 30
0.0
 40
4.999852
100
AcDbArc
 50
181.291676
 51
1.266508
  0
LINE
  5
1B9
100
AcDbEntity
  8
スト－ル
  6
CONTINUOUS
 62
     2
100
AcDbLine
 10
1571.810394
 20
700.104581
 30
0.0
 11
1561.730394
 21
700.104581
 31
0.0
  0
LINE
  5
1BA
100
AcDbEntity
  8
スト－ル
  6
CONTINUOUS
 62
     2
100
AcDbLine
 10
1571.697412
 20
705.214945
 30
0.0
 11
1571.810394
 21
700.104581
 31
0.0
  0
LINE
  5
1BB
100
AcDbEntity
  8
スト－ル
  6
CONTINUOUS
 62
     2
100
AcDbLine
 10
1569.905228
 20
786.278712
 30
0.0
 11
1571.697412
 21
705.214945
 31
0.0
  0
LINE
  5
1BC
100
AcDbEntity
  8
スト－ル
  6
CONTINUOUS
 62
     2
100
AcDbLine
 10
1569.810394
 20
790.568219
 30
0.0
 11
1569.905228
 21
786.278712
 31
0.0
  0
ARC
  5
1BD
100
AcDbEntity
  8
スト－ル
  6
CONTINUOUS
 62
     2
100
AcDbCircle
 10
1574.904006
 20
786.389227
 30
0.0
 40
5.0
100
AcDbArc
 50
100.0
 51
181.266508
  0
LINE
  5
1BE
100
AcDbEntity
  8
スト－ル
  6
CONTINUOUS
 62
     2
100
AcDbLine
 10
1569.810394
 20
790.568219
 30
0.0
 11
1574.035765
 21
791.313266
 31
0.0
  0
LINE
  5
1BF
100
AcDbEntity
  8
スト－ル
  6
CONTINUOUS
 62
     2
100
AcDbLine
 10
1574.035765
 20
791.313266
 30
0.0
 11
1585.810394
 21
793.38945
 31
0.0
  0
LINE
  5
1C0
100
AcDbEntity
  8
スト－ル
  6
CONTINUOUS
 62
     2
100
AcDbLine
 10
1592.810394
 20
804.778005
 30
0.0
 11
1586.942153
 21
803.743276
 31
0.0
  0
ARC
  5
1C1
100
AcDbEntity
  8
スト－ル
  6
CONTINUOUS
 62
     2
100
AcDbCircle
 10
1587.810394
 20
798.819237
 30
0.0
 40
5.0
100
AcDbArc
 50
0.0
 51
100.0
  0
LINE
  5
1C2
100
AcDbEntity
  8
スト－ル
  6
CONTINUOUS
 62
     2
100
AcDbLine
 10
1592.810394
 20
798.819237
 30
0.0
 11
1592.810394
 21
804.778005
 31
0.0
  0
LINE
  5
1C3
100
AcDbEntity
  8
スト－ル
  6
CONTINUOUS
 62
     2
100
AcDbLine
 10
1592.810394
 20
794.623739
 30
0.0
 11
1592.810394
 21
798.819237
 31
0.0
  0
ARC
  5
1C4
100
AcDbEntity
  8
スト－ル
  6
CONTINUOUS
 62
     2
100
AcDbCircle
 10
1587.810394
 20
798.819237
 30
0.0
 40
5.0
100
AcDbArc
 50
280.0
 51
0.0
  0
LINE
  5
1C5
100
AcDbEntity
  8
スト－ル
  6
CONTINUOUS
 62
     2
100
AcDbLine
 10
1585.810394
 20
793.38945
 30
0.0
 11
1588.193554
 21
793.809666
 31
0.0
  0
LINE
  5
1C6
100
AcDbEntity
  8
スト－ル
  6
CONTINUOUS
 62
     2
100
AcDbLine
 10
1475.534224
 20
763.79052
 30
0.0
 11
1453.186156
 21
759.849953
 31
0.0
  0
LINE
  5
1C7
100
AcDbEntity
  8
スト－ル
  6
CONTINUOUS
 62
     2
100
AcDbLine
 10
1453.186156
 20
759.849953
 30
0.0
 11
1451.449674
 21
769.69803
 31
0.0
  0
LINE
  5
1C8
100
AcDbEntity
  8
スト－ル
  6
CONTINUOUS
 62
     2
100
AcDbLine
 10
1453.997315
 20
761.008409
 30
0.0
 11
1452.434482
 21
769.871678
 31
0.0
  0
LINE
  5
1C9
100
AcDbEntity
  8
スト－ル
  6
CONTINUOUS
 62
     2
100
AcDbLine
 10
1475.561841
 20
764.810816
 30
0.0
 11
1453.997315
 21
761.008409
 31
0.0
  0
LINE
  5
1CA
100
AcDbEntity
  8
スト－ル
  6
CONTINUOUS
 62
     2
100
AcDbLine
 10
1453.186156
 20
759.849953
 30
0.0
 11
1453.997315
 21
761.008409
 31
0.0
  0
LINE
  5
1CB
100
AcDbEntity
  8
スト－ル
  6
CONTINUOUS
 62
     2
100
AcDbLine
 10
1742.810394
 20
583.0
 30
0.0
 11
1742.810394
 21
2024.0
 31
0.0
  0
ARC
  5
1CC
100
AcDbEntity
  8
スト－ル
  6
CONTINUOUS
 62
     2
100
AcDbCircle
 10
1604.148811
 20
1457.769933
 30
0.0
 40
35.0
100
AcDbArc
 50
114.07741
 51
173.471637
  0
ARC
  5
1CD
100
AcDbEntity
  8
スト－ル
  6
CONTINUOUS
 62
     2
100
AcDbCircle
 10
649.186931
 20
2334.631555
 30
0.0
 40
5.0
100
AcDbArc
 50
270.000135
 51
320.000135
  0
LINE
  5
1CE
100
AcDbEntity
  8
スト－ル
  6
CONTINUOUS
 62
     2
100
AcDbLine
 10
624.000461
 20
2329.631496
 30
0.0
 11
649.186931
 21
2329.631496
 31
0.0
  0
LINE
  5
1CF
100
AcDbEntity
  8
スト－ル
  6
CONTINUOUS
 62
     2
100
AcDbLine
 10
680.623572
 20
2364.318452
 30
0.0
 11
652.971093
 21
2331.363511
 31
0.0
  0
CIRCLE
  5
1D0
100
AcDbEntity
  8
スト－ル
  6
CONTINUOUS
 62
     2
100
AcDbCircle
 10
1712.810394
 20
1353.0
 30
0.0
 40
7.5
  0
POLYLINE
  5
1D1
100
AcDbEntity
  8
スト－ル
  6
CONTINUOUS
 62
     4
100
AcDb2dPolyline
 66
     1
 10
0.0
 20
0.0
 30
0.0
 70
   128
  0
VERTEX
  5
1D2
100
AcDbEntity
  8
スト－ル
  6
CONTINUOUS
 62
     4
100
AcDbVertex
100
AcDb2dVertex
 10
1494.326512
 20
960.898626
 30
0.0
  0
VERTEX
  5
1D3
100
AcDbEntity
  8
スト－ル
  6
CONTINUOUS
 62
     4
100
AcDbVertex
100
AcDb2dVertex
 10
1495.217461
 20
961.253305
 30
0.0
  0
VERTEX
  5
1D4
100
AcDbEntity
  8
スト－ル
  6
CONTINUOUS
 62
     4
100
AcDbVertex
100
AcDb2dVertex
 10
1497.732964
 20
962.192968
 30
0.0
  0
VERTEX
  5
1D5
100
AcDbEntity
  8
スト－ル
  6
CONTINUOUS
 62
     4
100
AcDbVertex
100
AcDb2dVertex
 10
1501.637008
 20
963.531052
 30
0.0
  0
VERTEX
  5
1D6
100
AcDbEntity
  8
スト－ル
  6
CONTINUOUS
 62
     4
100
AcDbVertex
100
AcDb2dVertex
 10
1506.693575
 20
965.080996
 30
0.0
  0
VERTEX
  5
1D7
100
AcDbEntity
  8
スト－ル
  6
CONTINUOUS
 62
     4
100
AcDbVertex
100
AcDb2dVertex
 10
1512.666652
 20
966.656239
 30
0.0
  0
VERTEX
  5
1D8
100
AcDbEntity
  8
スト－ル
  6
CONTINUOUS
 62
     4
100
AcDbVertex
100
AcDb2dVertex
 10
1519.320222
 20
968.070219
 30
0.0
  0
VERTEX
  5
1D9
100
AcDbEntity
  8
スト－ル
  6
CONTINUOUS
 62
     4
100
AcDbVertex
100
AcDb2dVertex
 10
1526.418272
 20
969.136374
 30
0.0
  0
VERTEX
  5
1DA
100
AcDbEntity
  8
スト－ル
  6
CONTINUOUS
 62
     4
100
AcDbVertex
100
AcDb2dVertex
 10
1533.724785
 20
969.668144
 30
0.0
  0
VERTEX
  5
1DB
100
AcDbEntity
  8
スト－ル
  6
CONTINUOUS
 62
     4
100
AcDbVertex
100
AcDb2dVertex
 10
1541.003746
 20
969.478965
 30
0.0
  0
VERTEX
  5
1DC
100
AcDbEntity
  8
スト－ル
  6
CONTINUOUS
 62
     4
100
AcDbVertex
100
AcDb2dVertex
 10
1548.019141
 20
968.382277
 30
0.0
  0
VERTEX
  5
1DD
100
AcDbEntity
  8
スト－ル
  6
CONTINUOUS
 62
     4
100
AcDbVertex
100
AcDb2dVertex
 10
1554.534954
 20
966.191518
 30
0.0
  0
VERTEX
  5
1DE
100
AcDbEntity
  8
スト－ル
  6
CONTINUOUS
 62
     4
100
AcDbVertex
100
AcDb2dVertex
 10
1560.970627
 20
962.342309
 30
0.0
  0
VERTEX
  5
1DF
100
AcDbEntity
  8
スト－ル
  6
CONTINUOUS
 62
     4
100
AcDbVertex
100
AcDb2dVertex
 10
1566.611299
 20
957.210728
 30
0.0
  0
VERTEX
  5
1E0
100
AcDbEntity
  8
スト－ル
  6
CONTINUOUS
 62
     4
100
AcDbVertex
100
AcDb2dVertex
 10
1571.56897
 20
951.093441
 30
0.0
  0
VERTEX
  5
1E1
100
AcDbEntity
  8
スト－ル
  6
CONTINUOUS
 62
     4
100
AcDbVertex
100
AcDb2dVertex
 10
1575.955642
 20
944.287113
 30
0.0
  0
VERTEX
  5
1E2
100
AcDbEntity
  8
スト－ル
  6
CONTINUOUS
 62
     4
100
AcDbVertex
100
AcDb2dVertex
 10
1579.883315
 20
937.088411
 30
0.0
  0
VERTEX
  5
1E3
100
AcDbEntity
  8
スト－ル
  6
CONTINUOUS
 62
     4
100
AcDbVertex
100
AcDb2dVertex
 10
1583.46399
 20
929.794001
 30
0.0
  0
VERTEX
  5
1E4
100
AcDbEntity
  8
スト－ル
  6
CONTINUOUS
 62
     4
100
AcDbVertex
100
AcDb2dVertex
 10
1586.809667
 20
922.70055
 30
0.0
  0
VERTEX
  5
1E5
100
AcDbEntity
  8
スト－ル
  6
CONTINUOUS
 62
     4
100
AcDbVertex
100
AcDb2dVertex
 10
1590.032347
 20
916.104722
 30
0.0
  0
VERTEX
  5
1E6
100
AcDbEntity
  8
スト－ル
  6
CONTINUOUS
 62
     4
100
AcDbVertex
100
AcDb2dVertex
 10
1593.244031
 20
910.303186
 30
0.0
  0
VERTEX
  5
1E7
100
AcDbEntity
  8
スト－ル
  6
CONTINUOUS
 62
     4
100
AcDbVertex
100
AcDb2dVertex
 10
1596.556719
 20
905.592606
 30
0.0
  0
VERTEX
  5
1E8
100
AcDbEntity
  8
スト－ル
  6
CONTINUOUS
 62
     4
100
AcDbVertex
100
AcDb2dVertex
 10
1600.082413
 20
902.269649
 30
0.0
  0
VERTEX
  5
1E9
100
AcDbEntity
  8
スト－ル
  6
CONTINUOUS
 62
     4
100
AcDbVertex
100
AcDb2dVertex
 10
1601.097754
 20
901.639529
 30
0.0
  0
VERTEX
  5
1EA
100
AcDbEntity
  8
スト－ル
  6
CONTINUOUS
 62
     4
100
AcDbVertex
100
AcDb2dVertex
 10
1602.142872
 20
901.124063
 30
0.0
  0
VERTEX
  5
1EB
100
AcDbEntity
  8
スト－ル
  6
CONTINUOUS
 62
     4
100
AcDbVertex
100
AcDb2dVertex
 10
1603.223299
 20
900.712246
 30
0.0
  0
VERTEX
  5
1EC
100
AcDbEntity
  8
スト－ル
  6
CONTINUOUS
 62
     4
100
AcDbVertex
100
AcDb2dVertex
 10
1604.344564
 20
900.393074
 30
0.0
  0
VERTEX
  5
1ED
100
AcDbEntity
  8
スト－ル
  6
CONTINUOUS
 62
     4
100
AcDbVertex
100
AcDb2dVertex
 10
1605.512198
 20
900.155544
 30
0.0
  0
VERTEX
  5
1EE
100
AcDbEntity
  8
スト－ル
  6
CONTINUOUS
 62
     4
100
AcDbVertex
100
AcDb2dVertex
 10
1606.731732
 20
899.988652
 30
0.0
  0
VERTEX
  5
1EF
100
AcDbEntity
  8
スト－ル
  6
CONTINUOUS
 62
     4
100
AcDbVertex
100
AcDb2dVertex
 10
1608.008696
 20
899.881394
 30
0.0
  0
VERTEX
  5
1F0
100
AcDbEntity
  8
スト－ル
  6
CONTINUOUS
 62
     4
100
AcDbVertex
100
AcDb2dVertex
 10
1609.34862
 20
899.822765
 30
0.0
  0
VERTEX
  5
1F1
100
AcDbEntity
  8
スト－ル
  6
CONTINUOUS
 62
     4
100
AcDbVertex
100
AcDb2dVertex
 10
1610.757036
 20
899.801763
 30
0.0
  0
VERTEX
  5
1F2
100
AcDbEntity
  8
スト－ル
  6
CONTINUOUS
 62
     4
100
AcDbVertex
100
AcDb2dVertex
 10
1612.239472
 20
899.807383
 30
0.0
  0
VERTEX
  5
1F3
100
AcDbEntity
  8
スト－ル
  6
CONTINUOUS
 62
     4
100
AcDbVertex
100
AcDb2dVertex
 10
1613.801461
 20
899.828622
 30
0.0
  0
VERTEX
  5
1F4
100
AcDbEntity
  8
スト－ル
  6
CONTINUOUS
 62
     4
100
AcDbVertex
100
AcDb2dVertex
 10
1616.44365
 20
899.874877
 30
0.0
  0
VERTEX
  5
1F5
100
AcDbEntity
  8
スト－ル
  6
CONTINUOUS
 62
     4
100
AcDbVertex
100
AcDb2dVertex
 10
1619.283862
 20
899.934526
 30
0.0
  0
VERTEX
  5
1F6
100
AcDbEntity
  8
スト－ル
  6
CONTINUOUS
 62
     4
100
AcDbVertex
100
AcDb2dVertex
 10
1622.306975
 20
900.009402
 30
0.0
  0
VERTEX
  5
1F7
100
AcDbEntity
  8
スト－ル
  6
CONTINUOUS
 62
     4
100
AcDbVertex
100
AcDb2dVertex
 10
1625.497869
 20
900.101339
 30
0.0
  0
VERTEX
  5
1F8
100
AcDbEntity
  8
スト－ル
  6
CONTINUOUS
 62
     4
100
AcDbVertex
100
AcDb2dVertex
 10
1628.841423
 20
900.212169
 30
0.0
  0
VERTEX
  5
1F9
100
AcDbEntity
  8
スト－ル
  6
CONTINUOUS
 62
     4
100
AcDbVertex
100
AcDb2dVertex
 10
1632.322515
 20
900.343727
 30
0.0
  0
VERTEX
  5
1FA
100
AcDbEntity
  8
スト－ル
  6
CONTINUOUS
 62
     4
100
AcDbVertex
100
AcDb2dVertex
 10
1635.926024
 20
900.497845
 30
0.0
  0
VERTEX
  5
1FB
100
AcDbEntity
  8
スト－ル
  6
CONTINUOUS
 62
     4
100
AcDbVertex
100
AcDb2dVertex
 10
1639.63683
 20
900.676358
 30
0.0
  0
VERTEX
  5
1FC
100
AcDbEntity
  8
スト－ル
  6
CONTINUOUS
 62
     4
100
AcDbVertex
100
AcDb2dVertex
 10
1643.43981
 20
900.881098
 30
0.0
  0
VERTEX
  5
1FD
100
AcDbEntity
  8
スト－ル
  6
CONTINUOUS
 62
     4
100
AcDbVertex
100
AcDb2dVertex
 10
1647.319844
 20
901.1139
 30
0.0
  0
VERTEX
  5
1FE
100
AcDbEntity
  8
スト－ル
  6
CONTINUOUS
 62
     4
100
AcDbVertex
100
AcDb2dVertex
 10
1651.261811
 20
901.376597
 30
0.0
  0
VERTEX
  5
1FF
100
AcDbEntity
  8
スト－ル
  6
CONTINUOUS
 62
     4
100
AcDbVertex
100
AcDb2dVertex
 10
1656.819868
 20
901.784205
 30
0.0
  0
VERTEX
  5
200
100
AcDbEntity
  8
スト－ル
  6
CONTINUOUS
 62
     4
100
AcDbVertex
100
AcDb2dVertex
 10
1662.409851
 20
902.19089
 30
0.0
  0
VERTEX
  5
201
100
AcDbEntity
  8
スト－ル
  6
CONTINUOUS
 62
     4
100
AcDbVertex
100
AcDb2dVertex
 10
1667.973009
 20
902.534268
 30
0.0
  0
VERTEX
  5
202
100
AcDbEntity
  8
スト－ル
  6
CONTINUOUS
 62
     4
100
AcDbVertex
100
AcDb2dVertex
 10
1673.450589
 20
902.751953
 30
0.0
  0
VERTEX
  5
203
100
AcDbEntity
  8
スト－ル
  6
CONTINUOUS
 62
     4
100
AcDbVertex
100
AcDb2dVertex
 10
1678.783839
 20
902.781563
 30
0.0
  0
VERTEX
  5
204
100
AcDbEntity
  8
スト－ル
  6
CONTINUOUS
 62
     4
100
AcDbVertex
100
AcDb2dVertex
 10
1683.914006
 20
902.560713
 30
0.0
  0
VERTEX
  5
205
100
AcDbEntity
  8
スト－ル
  6
CONTINUOUS
 62
     4
100
AcDbVertex
100
AcDb2dVertex
 10
1688.782338
 20
902.027019
 30
0.0
  0
VERTEX
  5
206
100
AcDbEntity
  8
スト－ル
  6
CONTINUOUS
 62
     4
100
AcDbVertex
100
AcDb2dVertex
 10
1693.330084
 20
901.118096
 30
0.0
  0
VERTEX
  5
207
100
AcDbEntity
  8
スト－ル
  6
CONTINUOUS
 62
     4
100
AcDbVertex
100
AcDb2dVertex
 10
1697.49849
 20
899.77156
 30
0.0
  0
VERTEX
  5
208
100
AcDbEntity
  8
スト－ル
  6
CONTINUOUS
 62
     4
100
AcDbVertex
100
AcDb2dVertex
 10
1701.228804
 20
897.925027
 30
0.0
  0
VERTEX
  5
209
100
AcDbEntity
  8
スト－ル
  6
CONTINUOUS
 62
     4
100
AcDbVertex
100
AcDb2dVertex
 10
1704.462275
 20
895.516114
 30
0.0
  0
VERTEX
  5
20A
100
AcDbEntity
  8
スト－ル
  6
CONTINUOUS
 62
     4
100
AcDbVertex
100
AcDb2dVertex
 10
1706.814179
 20
892.9793
 30
0.0
  0
VERTEX
  5
20B
100
AcDbEntity
  8
スト－ル
  6
CONTINUOUS
 62
     4
100
AcDbVertex
100
AcDb2dVertex
 10
1708.843298
 20
890.080979
 30
0.0
  0
VERTEX
  5
20C
100
AcDbEntity
  8
スト－ル
  6
CONTINUOUS
 62
     4
100
AcDbVertex
100
AcDb2dVertex
 10
1710.635015
 20
886.91863
 30
0.0
  0
VERTEX
  5
20D
100
AcDbEntity
  8
スト－ル
  6
CONTINUOUS
 62
     4
100
AcDbVertex
100
AcDb2dVertex
 10
1712.274717
 20
883.589732
 30
0.0
  0
VERTEX
  5
20E
100
AcDbEntity
  8
スト－ル
  6
CONTINUOUS
 62
     4
100
AcDbVertex
100
AcDb2dVertex
 10
1713.847787
 20
880.191766
 30
0.0
  0
VERTEX
  5
20F
100
AcDbEntity
  8
スト－ル
  6
CONTINUOUS
 62
     4
100
AcDbVertex
100
AcDb2dVertex
 10
1715.439612
 20
876.82221
 30
0.0
  0
VERTEX
  5
210
100
AcDbEntity
  8
スト－ル
  6
CONTINUOUS
 62
     4
100
AcDbVertex
100
AcDb2dVertex
 10
1717.135577
 20
873.578544
 30
0.0
  0
VERTEX
  5
211
100
AcDbEntity
  8
スト－ル
  6
CONTINUOUS
 62
     4
100
AcDbVertex
100
AcDb2dVertex
 10
1719.021066
 20
870.558247
 30
0.0
  0
VERTEX
  5
212
100
AcDbEntity
  8
スト－ル
  6
CONTINUOUS
 62
     4
100
AcDbVertex
100
AcDb2dVertex
 10
1721.181466
 20
867.8588
 30
0.0
  0
VERTEX
  5
213
100
AcDbEntity
  8
スト－ル
  6
CONTINUOUS
 62
     4
100
AcDbVertex
100
AcDb2dVertex
 10
1723.702161
 20
865.577681
 30
0.0
  0
VERTEX
  5
214
100
AcDbEntity
  8
スト－ル
  6
CONTINUOUS
 62
     4
100
AcDbVertex
100
AcDb2dVertex
 10
1726.668536
 20
863.812371
 30
0.0
  0
VERTEX
  5
215
100
AcDbEntity
  8
スト－ル
  6
CONTINUOUS
 62
     4
100
AcDbVertex
100
AcDb2dVertex
 10
1728.647973
 20
863.045034
 30
0.0
  0
VERTEX
  5
216
100
AcDbEntity
  8
スト－ル
  6
CONTINUOUS
 62
     4
100
AcDbVertex
100
AcDb2dVertex
 10
1730.747206
 20
862.466646
 30
0.0
  0
VERTEX
  5
217
100
AcDbEntity
  8
スト－ル
  6
CONTINUOUS
 62
     4
100
AcDbVertex
100
AcDb2dVertex
 10
1732.901272
 20
862.052793
 30
0.0
  0
VERTEX
  5
218
100
AcDbEntity
  8
スト－ル
  6
CONTINUOUS
 62
     4
100
AcDbVertex
100
AcDb2dVertex
 10
1735.045209
 20
861.779062
 30
0.0
  0
VERTEX
  5
219
100
AcDbEntity
  8
スト－ル
  6
CONTINUOUS
 62
     4
100
AcDbVertex
100
AcDb2dVertex
 10
1737.114055
 20
861.621038
 30
0.0
  0
VERTEX
  5
21A
100
AcDbEntity
  8
スト－ル
  6
CONTINUOUS
 62
     4
100
AcDbVertex
100
AcDb2dVertex
 10
1739.042846
 20
861.554307
 30
0.0
  0
VERTEX
  5
21B
100
AcDbEntity
  8
スト－ル
  6
CONTINUOUS
 62
     4
100
AcDbVertex
100
AcDb2dVertex
 10
1740.766622
 20
861.554455
 30
0.0
  0
VERTEX
  5
21C
100
AcDbEntity
  8
スト－ル
  6
CONTINUOUS
 62
     4
100
AcDbVertex
100
AcDb2dVertex
 10
1742.220419
 20
861.597069
 30
0.0
  0
VERTEX
  5
21D
100
AcDbEntity
  8
スト－ル
  6
CONTINUOUS
 62
     4
100
AcDbVertex
100
AcDb2dVertex
 10
1743.339274
 20
861.657734
 30
0.0
  0
VERTEX
  5
21E
100
AcDbEntity
  8
スト－ル
  6
CONTINUOUS
 62
     4
100
AcDbVertex
100
AcDb2dVertex
 10
1744.058227
 20
861.712037
 30
0.0
  0
VERTEX
  5
21F
100
AcDbEntity
  8
スト－ル
  6
CONTINUOUS
 62
     4
100
AcDbVertex
100
AcDb2dVertex
 10
1744.312314
 20
861.735563
 30
0.0
  0
SEQEND
  5
220
100
AcDbEntity
  8
スト－ル
  6
CONTINUOUS
 62
     4
  0
ARC
  5
221
100
AcDbEntity
  8
スト－ル
  6
CONTINUOUS
 62
     2
100
AcDbCircle
 10
624.00072
 20
2418.631496
 30
0.0
 40
67.0
100
AcDbArc
 50
90.0
 51
180.0
  0
LINE
  5
222
100
AcDbEntity
  8
スト－ル
  6
CONTINUOUS
 62
     2
100
AcDbLine
 10
557.00072
 20
2409.313585
 30
0.0
 11
557.00072
 21
2418.631496
 31
0.0
  0
ARC
  5
223
100
AcDbEntity
  8
スト－ル
  6
CONTINUOUS
 62
     2
100
AcDbCircle
 10
621.00072
 20
2409.313585
 30
0.0
 40
64.0
100
AcDbArc
 50
180.0
 51
220.0
  0
LINE
  5
224
100
AcDbEntity
  8
スト－ル
  6
CONTINUOUS
 62
     2
100
AcDbLine
 10
598.621683
 20
2336.417558
 30
0.0
 11
571.973876
 21
2368.175178
 31
0.0
  0
ARC
  5
225
100
AcDbEntity
  8
スト－ル
  6
CONTINUOUS
 62
     2
100
AcDbCircle
 10
602.451905
 20
2339.631496
 30
0.0
 40
5.0
100
AcDbArc
 50
220.0
 51
270.0
  0
LINE
  5
226
100
AcDbEntity
  8
スト－ル
  6
CONTINUOUS
 62
     2
100
AcDbLine
 10
645.549535
 20
2334.631496
 30
0.0
 11
602.451905
 21
2334.631496
 31
0.0
  0
ARC
  5
227
100
AcDbEntity
  8
スト－ル
  6
CONTINUOUS
 62
     2
100
AcDbCircle
 10
645.549535
 20
2339.631496
 30
0.0
 40
5.0
100
AcDbArc
 50
270.0
 51
320.0
  0
LINE
  5
228
100
AcDbEntity
  8
スト－ル
  6
CONTINUOUS
 62
     2
100
AcDbLine
 10
649.379757
 20
2336.417558
 30
0.0
 11
676.027564
 21
2368.175178
 31
0.0
  0
ARC
  5
229
100
AcDbEntity
  8
スト－ル
  6
CONTINUOUS
 62
     2
100
AcDbCircle
 10
627.00072
 20
2409.313585
 30
0.0
 40
64.0
100
AcDbArc
 50
320.0
 51
0.0
  0
LINE
  5
22A
100
AcDbEntity
  8
スト－ル
  6
CONTINUOUS
 62
     2
100
AcDbLine
 10
691.00072
 20
2409.313585
 30
0.0
 11
691.00072
 21
2418.631496
 31
0.0
  0
ARC
  5
22B
100
AcDbEntity
  8
スト－ル
  6
CONTINUOUS
 62
     2
100
AcDbCircle
 10
624.00072
 20
2418.631496
 30
0.0
 40
67.0
100
AcDbArc
 50
0.0
 51
90.0
  0
LINE
  5
22C
100
AcDbEntity
  8
スト－ル
  6
CONTINUOUS
 62
     2
100
AcDbLine
 10
591.00072
 20
2445.065253
 30
0.0
 11
616.00072
 21
2430.631496
 31
0.0
  0
LINE
  5
22D
100
AcDbEntity
  8
スト－ル
  6
CONTINUOUS
 62
     2
100
AcDbLine
 10
632.00072
 20
2430.631496
 30
0.0
 11
616.00072
 21
2430.631496
 31
0.0
  0
LINE
  5
22E
100
AcDbEntity
  8
スト－ル
  6
CONTINUOUS
 62
     2
100
AcDbLine
 10
657.00072
 20
2445.065253
 30
0.0
 11
632.00072
 21
2430.631496
 31
0.0
  0
LINE
  5
22F
100
AcDbEntity
  8
スト－ル
  6
CONTINUOUS
 62
     2
100
AcDbLine
 10
632.00072
 20
2410.631496
 30
0.0
 11
632.00072
 21
2430.631496
 31
0.0
  0
LINE
  5
230
100
AcDbEntity
  8
スト－ル
  6
CONTINUOUS
 62
     2
100
AcDbLine
 10
616.00072
 20
2410.631496
 30
0.0
 11
616.00072
 21
2430.631496
 31
0.0
  0
LINE
  5
231
100
AcDbEntity
  8
スト－ル
  6
CONTINUOUS
 62
     2
100
AcDbLine
 10
591.00072
 20
2396.197739
 30
0.0
 11
616.00072
 21
2410.631496
 31
0.0
  0
LINE
  5
232
100
AcDbEntity
  8
スト－ル
  6
CONTINUOUS
 62
     2
100
AcDbLine
 10
632.00072
 20
2410.631496
 30
0.0
 11
616.00072
 21
2410.631496
 31
0.0
  0
LINE
  5
233
100
AcDbEntity
  8
スト－ル
  6
CONTINUOUS
 62
     2
100
AcDbLine
 10
657.00072
 20
2396.197739
 30
0.0
 11
632.00072
 21
2410.631496
 31
0.0
  0
LINE
  5
234
100
AcDbEntity
  8
スト－ル
  6
EXLTYPE3
 62
     6
100
AcDbLine
 10
624.000977
 20
2196.999966
 30
0.0
 11
624.000421
 21
2669.630835
 31
0.0
  0
LINE
  5
235
100
AcDbEntity
  8
フラッシュバルブ
  6
EXLTYPE4
 62
     6
100
AcDbLine
 10
1550.15
 20
537.7
 30
0.0
 11
1550.15
 21
534.7
 31
0.0
  0
LINE
  5
236
100
AcDbEntity
  8
フラッシュバルブ
  6
EXLTYPE4
 62
     6
100
AcDbLine
 10
1547.15
 20
537.7
 30
0.0
 11
1547.15
 21
534.7
 31
0.0
  0
LINE
  5
237
100
AcDbEntity
  8
フラッシュバルブ
  6
EXLTYPE4
 62
     6
100
AcDbLine
 10
1550.15
 20
546.45
 30
0.0
 11
1550.15
 21
542.95
 31
0.0
  0
LINE
  5
238
100
AcDbEntity
  8
フラッシュバルブ
  6
EXLTYPE4
 62
     6
100
AcDbLine
 10
1547.15
 20
546.45
 30
0.0
 11
1547.15
 21
542.95
 31
0.0
  0
LINE
  5
239
100
AcDbEntity
  8
フラッシュバルブ
  6
EXLTYPE4
 62
     6
100
AcDbLine
 10
1550.15
 20
553.45
 30
0.0
 11
1550.15
 21
551.7
 31
0.0
  0
LINE
  5
23A
100
AcDbEntity
  8
フラッシュバルブ
  6
EXLTYPE4
 62
     6
100
AcDbLine
 10
1547.15
 20
553.45
 30
0.0
 11
1547.15
 21
551.7
 31
0.0
  0
LINE
  5
23B
100
AcDbEntity
  8
フラッシュバルブ
  6
EXLTYPE4
 62
     6
100
AcDbLine
 10
1550.15
 20
558.7
 30
0.0
 11
1550.15
 21
555.2
 31
0.0
  0
LINE
  5
23C
100
AcDbEntity
  8
フラッシュバルブ
  6
EXLTYPE4
 62
     6
100
AcDbLine
 10
1547.15
 20
558.7
 30
0.0
 11
1547.15
 21
555.2
 31
0.0
  0
LINE
  5
23D
100
AcDbEntity
  8
フラッシュバルブ
  6
EXLTYPE4
 62
     6
100
AcDbLine
 10
1496.25
 20
537.7
 30
0.0
 11
1496.25
 21
536.735685
 31
0.0
  0
LINE
  5
23E
100
AcDbEntity
  8
フラッシュバルブ
  6
EXLTYPE4
 62
     6
100
AcDbLine
 10
1496.25
 20
546.45
 30
0.0
 11
1496.25
 21
542.95
 31
0.0
  0
LINE
  5
23F
100
AcDbEntity
  8
フラッシュバルブ
  6
EXLTYPE4
 62
     6
100
AcDbLine
 10
1496.25
 20
553.45
 30
0.0
 11
1496.25
 21
551.7
 31
0.0
  0
LINE
  5
240
100
AcDbEntity
  8
フラッシュバルブ
  6
EXLTYPE4
 62
     6
100
AcDbLine
 10
1496.25
 20
558.7
 30
0.0
 11
1496.25
 21
555.2
 31
0.0
  0
LINE
  5
241
100
AcDbEntity
  8
フラッシュバルブ
  6
EXLTYPE4
 62
     6
100
AcDbLine
 10
1493.25
 20
537.7
 30
0.0
 11
1493.25
 21
534.7
 31
0.0
  0
LINE
  5
242
100
AcDbEntity
  8
フラッシュバルブ
  6
EXLTYPE4
 62
     6
100
AcDbLine
 10
1493.25
 20
546.45
 30
0.0
 11
1493.25
 21
542.95
 31
0.0
  0
LINE
  5
243
100
AcDbEntity
  8
フラッシュバルブ
  6
EXLTYPE4
 62
     6
100
AcDbLine
 10
1493.25
 20
553.45
 30
0.0
 11
1493.25
 21
551.7
 31
0.0
  0
LINE
  5
244
100
AcDbEntity
  8
フラッシュバルブ
  6
EXLTYPE4
 62
     6
100
AcDbLine
 10
1493.25
 20
558.7
 30
0.0
 11
1493.25
 21
555.2
 31
0.0
  0
ARC
  5
245
100
AcDbEntity
  8
フラッシュバルブ
  6
EXLTYPE4
 62
     6
100
AcDbCircle
 10
1535.925
 20
552.435062
 30
0.0
 40
22.735062
100
AcDbArc
 50
231.267478
 51
308.732522
  0
ARC
  5
246
100
AcDbEntity
  8
フラッシュバルブ
  6
EXLTYPE4
 62
     6
100
AcDbCircle
 10
1507.475
 20
516.964938
 30
0.0
 40
22.735062
100
AcDbArc
 50
51.267478
 51
128.732522
  0
LINE
  5
247
100
AcDbEntity
  8
フラッシュバルブ
  6
EXLTYPE4
 62
     6
100
AcDbLine
 10
1550.15
 20
558.7
 30
0.0
 11
1550.15
 21
583.0
 31
0.0
  0
LINE
  5
248
100
AcDbEntity
  8
フラッシュバルブ
  6
EXLTYPE4
 62
     6
100
AcDbLine
 10
1550.15
 20
558.7
 30
0.0
 11
1496.25
 21
558.7
 31
0.0
  0
LINE
  5
249
100
AcDbEntity
  8
フラッシュバルブ
  6
EXLTYPE4
 62
     6
100
AcDbLine
 10
1493.25
 20
558.7
 30
0.0
 11
1547.15
 21
558.7
 31
0.0
  0
LINE
  5
24A
100
AcDbEntity
  8
フラッシュバルブ
  6
EXLTYPE4
 62
     6
100
AcDbLine
 10
1493.25
 20
558.7
 30
0.0
 11
1493.25
 21
583.0
 31
0.0
  0
LINE
  5
24B
100
AcDbEntity
  8
フラッシュバルブ
  6
EXLTYPE4
 62
     6
100
AcDbLine
 10
1547.15
 20
583.0
 30
0.0
 11
1547.15
 21
558.7
 31
0.0
  0
LINE
  5
24C
100
AcDbEntity
  8
フラッシュバルブ
  6
EXLTYPE4
 62
     6
100
AcDbLine
 10
1496.25
 20
583.0
 30
0.0
 11
1496.25
 21
558.7
 31
0.0
  0
LINE
  5
24D
100
AcDbEntity
  8
フラッシュバルブ
  6
EXLTYPE4
 62
     6
100
AcDbLine
 10
1495.310394
 20
568.0
 30
0.0
 11
1550.310394
 21
568.0
 31
0.0
  0
LINE
  5
24E
100
AcDbEntity
  8
フラッシュバルブ
  6
CONTINUOUS
 62
     6
100
AcDbLine
 10
751.788475
 20
1388.142944
 30
0.0
 11
751.48977
 21
1386.448906
 31
0.0
  0
LINE
  5
24F
100
AcDbEntity
  8
フラッシュバルブ
  6
CONTINUOUS
 62
     6
100
AcDbLine
 10
750.363866
 20
1380.063585
 30
0.0
 11
750.045577
 21
1378.258479
 31
0.0
  0
LINE
  5
250
100
AcDbEntity
  8
フラッシュバルブ
  6
CONTINUOUS
 62
     6
100
AcDbLine
 10
750.0
 20
1374.86
 30
0.0
 11
750.0
 21
1377.737534
 31
0.0
  0
LINE
  5
251
100
AcDbEntity
  8
フラッシュバルブ
  6
CONTINUOUS
 62
     6
100
AcDbLine
 10
750.0
 20
1363.074503
 30
0.0
 11
750.0
 21
1368.436915
 31
0.0
  0
LINE
  5
252
100
AcDbEntity
  8
フラッシュバルブ
  6
CONTINUOUS
 62
     6
100
AcDbLine
 10
750.0
 20
1352.513832
 30
0.0
 11
750.0
 21
1357.808529
 31
0.0
  0
LINE
  5
253
100
AcDbEntity
  8
フラッシュバルブ
  6
CONTINUOUS
 62
     6
100
AcDbLine
 10
750.0
 20
1342.874717
 30
0.0
 11
750.0
 21
1347.92
 31
0.0
  0
LINE
  5
254
100
AcDbEntity
  8
フラッシュバルブ
  6
CONTINUOUS
 62
     6
100
AcDbLine
 10
750.0
 20
1332.346429
 30
0.0
 11
750.0
 21
1337.7
 31
0.0
  0
LINE
  5
255
100
AcDbEntity
  8
フラッシュバルブ
  6
CONTINUOUS
 62
     6
100
AcDbLine
 10
751.074459
 20
1321.906443
 30
0.0
 11
750.113503
 21
1327.356293
 31
0.0
  0
ARC
  5
256
100
AcDbEntity
  8
フラッシュバルブ
  6
CONTINUOUS
 62
     6
100
AcDbCircle
 10
754.742898
 20
1318.378001
 30
0.0
 40
3.0
100
AcDbArc
 50
209.881693
 51
221.321659
  0
ARC
  5
257
100
AcDbEntity
  8
フラッシュバルブ
  6
CONTINUOUS
 62
     6
100
AcDbCircle
 10
760.0
 20
1323.0
 30
0.0
 40
10.0
100
AcDbArc
 50
221.321659
 51
250.370204
  0
ARC
  5
258
100
AcDbEntity
  8
フラッシュバルブ
  6
CONTINUOUS
 62
     6
100
AcDbCircle
 10
760.0
 20
1323.0
 30
0.0
 40
10.0
100
AcDbArc
 50
289.885073
 51
318.678341
  0
ARC
  5
259
100
AcDbEntity
  8
フラッシュバルブ
  6
CONTINUOUS
 62
     6
100
AcDbCircle
 10
765.257102
 20
1318.378001
 30
0.0
 40
3.0
100
AcDbArc
 50
318.678341
 51
327.44337
  0
LINE
  5
25A
100
AcDbEntity
  8
フラッシュバルブ
  6
CONTINUOUS
 62
     6
100
AcDbLine
 10
768.844582
 20
1321.447303
 30
0.0
 11
769.882772
 21
1327.335168
 31
0.0
  0
LINE
  5
25B
100
AcDbEntity
  8
フラッシュバルブ
  6
CONTINUOUS
 62
     6
100
AcDbLine
 10
770.0
 20
1331.9
 30
0.0
 11
770.0
 21
1337.7
 31
0.0
  0
LINE
  5
25C
100
AcDbEntity
  8
フラッシュバルブ
  6
CONTINUOUS
 62
     6
100
AcDbLine
 10
770.0
 20
1342.3
 30
0.0
 11
770.0
 21
1347.4
 31
0.0
  0
LINE
  5
25D
100
AcDbEntity
  8
フラッシュバルブ
  6
CONTINUOUS
 62
     6
100
AcDbLine
 10
770.0
 20
1352.051711
 30
0.0
 11
770.0
 21
1357.824528
 31
0.0
  0
LINE
  5
25E
100
AcDbEntity
  8
フラッシュバルブ
  6
CONTINUOUS
 62
     6
100
AcDbLine
 10
770.0
 20
1363.2
 30
0.0
 11
770.0
 21
1368.285714
 31
0.0
  0
LINE
  5
25F
100
AcDbEntity
  8
フラッシュバルブ
  6
CONTINUOUS
 62
     6
100
AcDbLine
 10
770.0
 20
1369.880483
 30
0.0
 11
770.0
 21
1372.0
 31
0.0
  0
LINE
  5
260
100
AcDbEntity
  8
フラッシュバルブ
  6
CONTINUOUS
 62
     6
100
AcDbLine
 10
770.0
 20
1373.8
 30
0.0
 11
770.0
 21
1377.737534
 31
0.0
  0
LINE
  5
261
100
AcDbEntity
  8
フラッシュバルブ
  6
CONTINUOUS
 62
     6
100
AcDbLine
 10
769.824158
 20
1378.997247
 30
0.0
 11
769.954423
 21
1378.258479
 31
0.0
  0
LINE
  5
262
100
AcDbEntity
  8
フラッシュバルブ
  6
CONTINUOUS
 62
     6
100
AcDbLine
 10
768.211525
 20
1388.142944
 30
0.0
 11
768.893423
 21
1384.275707
 31
0.0
  0
ARC
  5
263
100
AcDbEntity
  8
フラッシュバルブ
  6
CONTINUOUS
 62
     6
100
AcDbCircle
 10
765.257102
 20
1387.621999
 30
0.0
 40
3.0
100
AcDbArc
 50
10.0
 51
30.717243
  0
ARC
  5
264
100
AcDbEntity
  8
フラッシュバルブ
  6
CONTINUOUS
 62
     6
100
AcDbCircle
 10
760.0
 20
1383.0
 30
0.0
 40
10.0
100
AcDbArc
 50
69.934164
 51
108.711975
  0
ARC
  5
265
100
AcDbEntity
  8
フラッシュバルブ
  6
CONTINUOUS
 62
     6
100
AcDbCircle
 10
767.0
 20
1377.737534
 30
0.0
 40
3.0
100
AcDbArc
 50
0.0
 51
10.0
  0
ARC
  5
266
100
AcDbEntity
  8
フラッシュバルブ
  6
CONTINUOUS
 62
     6
100
AcDbCircle
 10
753.0
 20
1377.737534
 30
0.0
 40
3.0
100
AcDbArc
 50
170.0
 51
180.0
  0
ARC
  5
267
100
AcDbEntity
  8
フラッシュバルブ
  6
CONTINUOUS
 62
     6
100
AcDbCircle
 10
754.742898
 20
1387.621999
 30
0.0
 40
3.0
100
AcDbArc
 50
138.678341
 51
170.0
  0
LINE
  5
268
100
AcDbEntity
  8
フラッシュバルブ
  6
CONTINUOUS
 62
     6
100
AcDbLine
 10
479.788475
 20
1388.142944
 30
0.0
 11
479.48977
 21
1386.448906
 31
0.0
  0
LINE
  5
269
100
AcDbEntity
  8
フラッシュバルブ
  6
CONTINUOUS
 62
     6
100
AcDbLine
 10
478.363866
 20
1380.063585
 30
0.0
 11
478.045577
 21
1378.258479
 31
0.0
  0
LINE
  5
26A
100
AcDbEntity
  8
フラッシュバルブ
  6
CONTINUOUS
 62
     6
100
AcDbLine
 10
478.0
 20
1374.86
 30
0.0
 11
478.0
 21
1377.737534
 31
0.0
  0
LINE
  5
26B
100
AcDbEntity
  8
フラッシュバルブ
  6
CONTINUOUS
 62
     6
100
AcDbLine
 10
478.0
 20
1363.074503
 30
0.0
 11
478.0
 21
1368.436915
 31
0.0
  0
LINE
  5
26C
100
AcDbEntity
  8
フラッシュバルブ
  6
CONTINUOUS
 62
     6
100
AcDbLine
 10
478.0
 20
1352.513832
 30
0.0
 11
478.0
 21
1357.808529
 31
0.0
  0
LINE
  5
26D
100
AcDbEntity
  8
フラッシュバルブ
  6
CONTINUOUS
 62
     6
100
AcDbLine
 10
478.0
 20
1342.874717
 30
0.0
 11
478.0
 21
1347.92
 31
0.0
  0
LINE
  5
26E
100
AcDbEntity
  8
フラッシュバルブ
  6
CONTINUOUS
 62
     6
100
AcDbLine
 10
478.0
 20
1332.346429
 30
0.0
 11
478.0
 21
1337.7
 31
0.0
  0
LINE
  5
26F
100
AcDbEntity
  8
フラッシュバルブ
  6
CONTINUOUS
 62
     6
100
AcDbLine
 10
479.074459
 20
1321.906443
 30
0.0
 11
478.113503
 21
1327.356293
 31
0.0
  0
ARC
  5
270
100
AcDbEntity
  8
フラッシュバルブ
  6
CONTINUOUS
 62
     6
100
AcDbCircle
 10
488.0
 20
1323.0
 30
0.0
 40
10.0
100
AcDbArc
 50
221.321659
 51
250.370204
  0
ARC
  5
271
100
AcDbEntity
  8
フラッシュバルブ
  6
CONTINUOUS
 62
     6
100
AcDbCircle
 10
488.0
 20
1323.0
 30
0.0
 40
10.0
100
AcDbArc
 50
289.885073
 51
318.678341
  0
ARC
  5
272
100
AcDbEntity
  8
フラッシュバルブ
  6
CONTINUOUS
 62
     6
100
AcDbCircle
 10
493.257102
 20
1318.378001
 30
0.0
 40
3.0
100
AcDbArc
 50
318.678341
 51
327.44337
  0
LINE
  5
273
100
AcDbEntity
  8
フラッシュバルブ
  6
CONTINUOUS
 62
     6
100
AcDbLine
 10
496.844582
 20
1321.447303
 30
0.0
 11
497.882772
 21
1327.335168
 31
0.0
  0
LINE
  5
274
100
AcDbEntity
  8
フラッシュバルブ
  6
CONTINUOUS
 62
     6
100
AcDbLine
 10
498.0
 20
1331.9
 30
0.0
 11
498.0
 21
1337.7
 31
0.0
  0
LINE
  5
275
100
AcDbEntity
  8
フラッシュバルブ
  6
CONTINUOUS
 62
     6
100
AcDbLine
 10
498.0
 20
1342.3
 30
0.0
 11
498.0
 21
1347.4
 31
0.0
  0
LINE
  5
276
100
AcDbEntity
  8
フラッシュバルブ
  6
CONTINUOUS
 62
     6
100
AcDbLine
 10
498.0
 20
1352.051711
 30
0.0
 11
498.0
 21
1357.824528
 31
0.0
  0
LINE
  5
277
100
AcDbEntity
  8
フラッシュバルブ
  6
CONTINUOUS
 62
     6
100
AcDbLine
 10
498.0
 20
1363.2
 30
0.0
 11
498.0
 21
1368.285714
 31
0.0
  0
LINE
  5
278
100
AcDbEntity
  8
フラッシュバルブ
  6
CONTINUOUS
 62
     6
100
AcDbLine
 10
498.0
 20
1373.8
 30
0.0
 11
498.0
 21
1377.737534
 31
0.0
  0
LINE
  5
279
100
AcDbEntity
  8
フラッシュバルブ
  6
CONTINUOUS
 62
     6
100
AcDbLine
 10
497.824158
 20
1378.997247
 30
0.0
 11
497.954423
 21
1378.258479
 31
0.0
  0
LINE
  5
27A
100
AcDbEntity
  8
フラッシュバルブ
  6
CONTINUOUS
 62
     6
100
AcDbLine
 10
496.211525
 20
1388.142944
 30
0.0
 11
496.893423
 21
1384.275707
 31
0.0
  0
ARC
  5
27B
100
AcDbEntity
  8
フラッシュバルブ
  6
CONTINUOUS
 62
     6
100
AcDbCircle
 10
493.257102
 20
1387.621999
 30
0.0
 40
3.0
100
AcDbArc
 50
10.0
 51
30.717243
  0
ARC
  5
27C
100
AcDbEntity
  8
フラッシュバルブ
  6
CONTINUOUS
 62
     6
100
AcDbCircle
 10
488.0
 20
1383.0
 30
0.0
 40
10.0
100
AcDbArc
 50
135.007113
 51
138.678341
  0
ARC
  5
27D
100
AcDbEntity
  8
フラッシュバルブ
  6
CONTINUOUS
 62
     6
100
AcDbCircle
 10
488.0
 20
1383.0
 30
0.0
 40
10.0
100
AcDbArc
 50
69.934164
 51
108.711975
  0
ARC
  5
27E
100
AcDbEntity
  8
フラッシュバルブ
  6
CONTINUOUS
 62
     6
100
AcDbCircle
 10
495.0
 20
1377.737534
 30
0.0
 40
3.0
100
AcDbArc
 50
0.0
 51
10.0
  0
ARC
  5
27F
100
AcDbEntity
  8
フラッシュバルブ
  6
CONTINUOUS
 62
     6
100
AcDbCircle
 10
481.0
 20
1377.737534
 30
0.0
 40
3.0
100
AcDbArc
 50
170.0
 51
180.0
  0
ARC
  5
280
100
AcDbEntity
  8
フラッシュバルブ
  6
CONTINUOUS
 62
     6
100
AcDbCircle
 10
482.742898
 20
1387.621999
 30
0.0
 40
3.0
100
AcDbArc
 50
138.678341
 51
170.0
  0
LINE
  5
281
100
AcDbEntity
  8
フラッシュバルブ
  6
CONTINUOUS
 62
     6
100
AcDbLine
 10
1553.560394
 20
625.0
 30
0.0
 11
1551.569353
 21
623.230186
 31
0.0
  0
LINE
  5
282
100
AcDbEntity
  8
フラッシュバルブ
  6
CONTINUOUS
 62
     6
100
AcDbLine
 10
1554.310394
 20
629.0
 30
0.0
 11
1551.788939
 21
626.758706
 31
0.0
  0
LINE
  5
283
100
AcDbEntity
  8
フラッシュバルブ
  6
CONTINUOUS
 62
     6
100
AcDbLine
 10
1492.060394
 20
625.0
 30
0.0
 11
1494.051435
 21
623.230186
 31
0.0
  0
LINE
  5
284
100
AcDbEntity
  8
フラッシュバルブ
  6
CONTINUOUS
 62
     6
100
AcDbLine
 10
1491.310394
 20
629.0
 30
0.0
 11
1493.83185
 21
626.758706
 31
0.0
  0
LINE
  5
285
100
AcDbEntity
  8
フラッシュバルブ
  6
CONTINUOUS
 62
     6
100
AcDbLine
 10
1551.928418
 20
629.0
 30
0.0
 11
1557.560394
 21
629.0
 31
0.0
  0
LINE
  5
286
100
AcDbEntity
  8
フラッシュバルブ
  6
CONTINUOUS
 62
     6
100
AcDbLine
 10
1493.69237
 20
629.0
 30
0.0
 11
1488.060394
 21
629.0
 31
0.0
  0
LINE
  5
287
100
AcDbEntity
  8
フラッシュバルブ
  6
CONTINUOUS
 62
     6
100
AcDbLine
 10
1562.310394
 20
634.0
 30
0.0
 11
1552.239577
 21
634.0
 31
0.0
  0
LINE
  5
288
100
AcDbEntity
  8
フラッシュバルブ
  6
CONTINUOUS
 62
     6
100
AcDbLine
 10
1483.310394
 20
634.0
 30
0.0
 11
1493.381212
 21
634.0
 31
0.0
  0
LINE
  5
289
100
AcDbEntity
  8
フラッシュバルブ
  6
CONTINUOUS
 62
     6
100
AcDbLine
 10
1587.310394
 20
587.0
 30
0.0
 11
1578.310394
 21
587.0
 31
0.0
  0
LINE
  5
28A
100
AcDbEntity
  8
フラッシュバルブ
  6
CONTINUOUS
 62
     6
100
AcDbLine
 10
1545.810394
 20
568.0
 30
0.0
 11
1546.475382
 21
593.079518
 31
0.0
  0
ARC
  5
28B
100
AcDbEntity
  8
フラッシュバルブ
  6
CONTINUOUS
 62
     6
100
AcDbCircle
 10
1549.474327
 20
593.0
 30
0.0
 40
3.0
100
AcDbArc
 50
90.0
 51
178.48115
  0
LINE
  5
28C
100
AcDbEntity
  8
フラッシュバルブ
  6
CONTINUOUS
 62
     6
100
AcDbLine
 10
1557.810394
 20
596.0
 30
0.0
 11
1522.810394
 21
596.0
 31
0.0
  0
LINE
  5
28D
100
AcDbEntity
  8
フラッシュバルブ
  6
CONTINUOUS
 62
     6
100
AcDbLine
 10
1560.810394
 20
588.0
 30
0.0
 11
1560.810394
 21
593.0
 31
0.0
  0
ARC
  5
28E
100
AcDbEntity
  8
フラッシュバルブ
  6
CONTINUOUS
 62
     6
100
AcDbCircle
 10
1557.810394
 20
593.0
 30
0.0
 40
3.0
100
AcDbArc
 50
0.0
 51
90.0
  0
LINE
  5
28F
100
AcDbEntity
  8
フラッシュバルブ
  6
CONTINUOUS
 62
     6
100
AcDbLine
 10
1567.960394
 20
589.0
 30
0.0
 11
1567.960394
 21
628.0
 31
0.0
  0
LINE
  5
290
100
AcDbEntity
  8
フラッシュバルブ
  6
CONTINUOUS
 62
     6
100
AcDbLine
 10
1592.810394
 20
587.0
 30
0.0
 11
1569.960394
 21
587.0
 31
0.0
  0
ARC
  5
291
100
AcDbEntity
  8
フラッシュバルブ
  6
CONTINUOUS
 62
     6
100
AcDbCircle
 10
1569.960394
 20
589.0
 30
0.0
 40
2.0
100
AcDbArc
 50
180.0
 51
270.0
  0
LINE
  5
292
100
AcDbEntity
  8
フラッシュバルブ
  6
CONTINUOUS
 62
     6
100
AcDbLine
 10
1564.960394
 20
588.0
 30
0.0
 11
1564.960394
 21
628.0
 31
0.0
  0
LINE
  5
293
100
AcDbEntity
  8
フラッシュバルブ
  6
CONTINUOUS
 62
     6
100
AcDbLine
 10
1563.960394
 20
587.0
 30
0.0
 11
1561.810394
 21
587.0
 31
0.0
  0
ARC
  5
294
100
AcDbEntity
  8
フラッシュバルブ
  6
CONTINUOUS
 62
     6
100
AcDbCircle
 10
1563.960394
 20
588.0
 30
0.0
 40
1.0
100
AcDbArc
 50
270.0
 51
0.0
  0
LINE
  5
295
100
AcDbEntity
  8
フラッシュバルブ
  6
CONTINUOUS
 62
     6
100
AcDbLine
 10
1522.810394
 20
598.0
 30
0.0
 11
1554.310394
 21
598.0
 31
0.0
  0
LINE
  5
296
100
AcDbEntity
  8
フラッシュバルブ
  6
CONTINUOUS
 62
     6
100
AcDbLine
 10
1555.310394
 20
599.0
 30
0.0
 11
1555.310394
 21
626.0
 31
0.0
  0
ARC
  5
297
100
AcDbEntity
  8
フラッシュバルブ
  6
CONTINUOUS
 62
     6
100
AcDbCircle
 10
1554.310394
 20
599.0
 30
0.0
 40
1.0
100
AcDbArc
 50
270.0
 51
0.0
  0
LINE
  5
298
100
AcDbEntity
  8
フラッシュバルブ
  6
CONTINUOUS
 62
     6
100
AcDbLine
 10
1557.310394
 20
597.0
 30
0.0
 11
1557.310394
 21
627.0
 31
0.0
  0
ARC
  5
299
100
AcDbEntity
  8
フラッシュバルブ
  6
CONTINUOUS
 62
     6
100
AcDbCircle
 10
1556.310394
 20
597.0
 30
0.0
 40
1.0
100
AcDbArc
 50
270.0
 51
0.0
  0
ARC
  5
29A
100
AcDbEntity
  8
フラッシュバルブ
  6
CONTINUOUS
 62
     6
100
AcDbCircle
 10
1556.310394
 20
626.0
 30
0.0
 40
1.0
100
AcDbArc
 50
90.0
 51
180.0
  0
ARC
  5
29B
100
AcDbEntity
  8
フラッシュバルブ
  6
CONTINUOUS
 62
     6
100
AcDbCircle
 10
1556.310394
 20
626.0
 30
0.0
 40
1.0
100
AcDbArc
 50
0.0
 51
90.0
  0
LINE
  5
29C
100
AcDbEntity
  8
フラッシュバルブ
  6
CONTINUOUS
 62
     6
100
AcDbLine
 10
1554.810394
 20
627.0
 30
0.0
 11
1557.310394
 21
627.0
 31
0.0
  0
LINE
  5
29D
100
AcDbEntity
  8
フラッシュバルブ
  6
CONTINUOUS
 62
     6
100
AcDbLine
 10
1553.560394
 20
625.0
 30
0.0
 11
1554.810394
 21
625.0
 31
0.0
  0
LINE
  5
29E
100
AcDbEntity
  8
フラッシュバルブ
  6
CONTINUOUS
 62
     6
100
AcDbLine
 10
1554.810394
 20
625.0
 30
0.0
 11
1554.810394
 21
627.0
 31
0.0
  0
LINE
  5
29F
100
AcDbEntity
  8
フラッシュバルブ
  6
CONTINUOUS
 62
     6
100
AcDbLine
 10
1558.810394
 20
614.0
 30
0.0
 11
1558.810394
 21
629.0
 31
0.0
  0
LINE
  5
2A0
100
AcDbEntity
  8
フラッシュバルブ
  6
CONTINUOUS
 62
     6
100
AcDbLine
 10
1557.310394
 20
614.0
 30
0.0
 11
1558.810394
 21
614.0
 31
0.0
  0
LINE
  5
2A1
100
AcDbEntity
  8
フラッシュバルブ
  6
CONTINUOUS
 62
     6
100
AcDbLine
 10
1562.098856
 20
632.461538
 30
0.0
 11
1558.810394
 21
629.0
 31
0.0
  0
LINE
  5
2A2
100
AcDbEntity
  8
フラッシュバルブ
  6
CONTINUOUS
 62
     6
100
AcDbLine
 10
1562.098856
 20
632.461538
 30
0.0
 11
1564.960394
 21
630.0
 31
0.0
  0
LINE
  5
2A3
100
AcDbEntity
  8
フラッシュバルブ
  6
CONTINUOUS
 62
     6
100
AcDbLine
 10
1557.560394
 20
629.0
 30
0.0
 11
1562.310394
 21
634.0
 31
0.0
  0
LINE
  5
2A4
100
AcDbEntity
  8
フラッシュバルブ
  6
CONTINUOUS
 62
     6
100
AcDbLine
 10
1564.960394
 20
628.0
 30
0.0
 11
1564.960394
 21
630.0
 31
0.0
  0
LINE
  5
2A5
100
AcDbEntity
  8
フラッシュバルブ
  6
CONTINUOUS
 62
     6
100
AcDbLine
 10
1564.960394
 20
628.0
 30
0.0
 11
1567.960394
 21
628.0
 31
0.0
  0
LINE
  5
2A6
100
AcDbEntity
  8
フラッシュバルブ
  6
CONTINUOUS
 62
     6
100
AcDbLine
 10
1570.960394
 20
608.0
 30
0.0
 11
1567.960394
 21
608.0
 31
0.0
  0
LINE
  5
2A7
100
AcDbEntity
  8
フラッシュバルブ
  6
CONTINUOUS
 62
     6
100
AcDbLine
 10
1570.960394
 20
630.0
 30
0.0
 11
1570.960394
 21
608.0
 31
0.0
  0
LINE
  5
2A8
100
AcDbEntity
  8
フラッシュバルブ
  6
CONTINUOUS
 62
     6
100
AcDbLine
 10
1566.960394
 20
630.0
 30
0.0
 11
1570.960394
 21
630.0
 31
0.0
  0
LINE
  5
2A9
100
AcDbEntity
  8
フラッシュバルブ
  6
CONTINUOUS
 62
     6
100
AcDbLine
 10
1562.310394
 20
634.0
 30
0.0
 11
1566.960394
 21
630.0
 31
0.0
  0
ARC
  5
2AA
100
AcDbEntity
  8
フラッシュバルブ
  6
CONTINUOUS
 62
     6
100
AcDbCircle
 10
1561.810394
 20
588.0
 30
0.0
 40
1.0
100
AcDbArc
 50
180.0
 51
270.0
  0
LINE
  5
2AB
100
AcDbEntity
  8
フラッシュバルブ
  6
CONTINUOUS
 62
     6
100
AcDbLine
 10
1592.810394
 20
583.0
 30
0.0
 11
1592.810394
 21
587.0
 31
0.0
  0
LINE
  5
2AC
100
AcDbEntity
  8
フラッシュバルブ
  6
CONTINUOUS
 62
     6
100
AcDbLine
 10
1557.810394
 20
583.0
 30
0.0
 11
1592.810394
 21
583.0
 31
0.0
  0
LINE
  5
2AD
100
AcDbEntity
  8
フラッシュバルブ
  6
CONTINUOUS
 62
     6
100
AcDbLine
 10
1557.810394
 20
593.0
 30
0.0
 11
1557.810394
 21
583.0
 31
0.0
  0
LINE
  5
2AE
100
AcDbEntity
  8
フラッシュバルブ
  6
CONTINUOUS
 62
     6
100
AcDbLine
 10
1548.560394
 20
593.0
 30
0.0
 11
1557.810394
 21
593.0
 31
0.0
  0
LINE
  5
2AF
100
AcDbEntity
  8
フラッシュバルブ
  6
CONTINUOUS
 62
     6
100
AcDbLine
 10
1547.810394
 20
568.0
 30
0.0
 11
1548.560394
 21
593.0
 31
0.0
  0
LINE
  5
2B0
100
AcDbEntity
  8
フラッシュバルブ
  6
CONTINUOUS
 62
     6
100
AcDbLine
 10
1551.060394
 20
593.0
 30
0.0
 11
1550.310394
 21
568.0
 31
0.0
  0
LINE
  5
2B1
100
AcDbEntity
  8
フラッシュバルブ
  6
CONTINUOUS
 62
     6
100
AcDbLine
 10
1458.310394
 20
587.0
 30
0.0
 11
1467.310394
 21
587.0
 31
0.0
  0
LINE
  5
2B2
100
AcDbEntity
  8
フラッシュバルブ
  6
CONTINUOUS
 62
     6
100
AcDbLine
 10
1499.810394
 20
568.0
 30
0.0
 11
1499.145407
 21
593.079518
 31
0.0
  0
ARC
  5
2B3
100
AcDbEntity
  8
フラッシュバルブ
  6
CONTINUOUS
 62
     6
100
AcDbCircle
 10
1496.146461
 20
593.0
 30
0.0
 40
3.0
100
AcDbArc
 50
1.51885
 51
90.0
  0
LINE
  5
2B4
100
AcDbEntity
  8
フラッシュバルブ
  6
CONTINUOUS
 62
     6
100
AcDbLine
 10
1487.810394
 20
596.0
 30
0.0
 11
1522.810394
 21
596.0
 31
0.0
  0
LINE
  5
2B5
100
AcDbEntity
  8
フラッシュバルブ
  6
CONTINUOUS
 62
     6
100
AcDbLine
 10
1484.810394
 20
588.0
 30
0.0
 11
1484.810394
 21
593.0
 31
0.0
  0
ARC
  5
2B6
100
AcDbEntity
  8
フラッシュバルブ
  6
CONTINUOUS
 62
     6
100
AcDbCircle
 10
1487.810394
 20
593.0
 30
0.0
 40
3.0
100
AcDbArc
 50
90.0
 51
180.0
  0
LINE
  5
2B7
100
AcDbEntity
  8
フラッシュバルブ
  6
CONTINUOUS
 62
     6
100
AcDbLine
 10
1477.660394
 20
589.0
 30
0.0
 11
1477.660394
 21
628.0
 31
0.0
  0
LINE
  5
2B8
100
AcDbEntity
  8
フラッシュバルブ
  6
CONTINUOUS
 62
     6
100
AcDbLine
 10
1452.810394
 20
587.0
 30
0.0
 11
1475.660394
 21
587.0
 31
0.0
  0
ARC
  5
2B9
100
AcDbEntity
  8
フラッシュバルブ
  6
CONTINUOUS
 62
     6
100
AcDbCircle
 10
1475.660394
 20
589.0
 30
0.0
 40
2.0
100
AcDbArc
 50
270.0
 51
0.0
  0
LINE
  5
2BA
100
AcDbEntity
  8
フラッシュバルブ
  6
CONTINUOUS
 62
     6
100
AcDbLine
 10
1480.660394
 20
588.0
 30
0.0
 11
1480.660394
 21
628.0
 31
0.0
  0
LINE
  5
2BB
100
AcDbEntity
  8
フラッシュバルブ
  6
CONTINUOUS
 62
     6
100
AcDbLine
 10
1481.660394
 20
587.0
 30
0.0
 11
1483.810394
 21
587.0
 31
0.0
  0
ARC
  5
2BC
100
AcDbEntity
  8
フラッシュバルブ
  6
CONTINUOUS
 62
     6
100
AcDbCircle
 10
1481.660394
 20
588.0
 30
0.0
 40
1.0
100
AcDbArc
 50
180.0
 51
270.0
  0
LINE
  5
2BD
100
AcDbEntity
  8
フラッシュバルブ
  6
CONTINUOUS
 62
     6
100
AcDbLine
 10
1522.810394
 20
598.0
 30
0.0
 11
1491.310394
 21
598.0
 31
0.0
  0
LINE
  5
2BE
100
AcDbEntity
  8
フラッシュバルブ
  6
CONTINUOUS
 62
     6
100
AcDbLine
 10
1490.310394
 20
599.0
 30
0.0
 11
1490.310394
 21
626.0
 31
0.0
  0
ARC
  5
2BF
100
AcDbEntity
  8
フラッシュバルブ
  6
CONTINUOUS
 62
     6
100
AcDbCircle
 10
1491.310394
 20
599.0
 30
0.0
 40
1.0
100
AcDbArc
 50
180.0
 51
270.0
  0
LINE
  5
2C0
100
AcDbEntity
  8
フラッシュバルブ
  6
CONTINUOUS
 62
     6
100
AcDbLine
 10
1488.310394
 20
597.0
 30
0.0
 11
1488.310394
 21
627.0
 31
0.0
  0
ARC
  5
2C1
100
AcDbEntity
  8
フラッシュバルブ
  6
CONTINUOUS
 62
     6
100
AcDbCircle
 10
1489.310394
 20
597.0
 30
0.0
 40
1.0
100
AcDbArc
 50
180.0
 51
270.0
  0
ARC
  5
2C2
100
AcDbEntity
  8
フラッシュバルブ
  6
CONTINUOUS
 62
     6
100
AcDbCircle
 10
1489.310394
 20
626.0
 30
0.0
 40
1.0
100
AcDbArc
 50
0.0
 51
90.0
  0
ARC
  5
2C3
100
AcDbEntity
  8
フラッシュバルブ
  6
CONTINUOUS
 62
     6
100
AcDbCircle
 10
1489.310394
 20
626.0
 30
0.0
 40
1.0
100
AcDbArc
 50
90.0
 51
180.0
  0
LINE
  5
2C4
100
AcDbEntity
  8
フラッシュバルブ
  6
CONTINUOUS
 62
     6
100
AcDbLine
 10
1490.810394
 20
627.0
 30
0.0
 11
1488.310394
 21
627.0
 31
0.0
  0
LINE
  5
2C5
100
AcDbEntity
  8
フラッシュバルブ
  6
CONTINUOUS
 62
     6
100
AcDbLine
 10
1492.060394
 20
625.0
 30
0.0
 11
1490.810394
 21
625.0
 31
0.0
  0
LINE
  5
2C6
100
AcDbEntity
  8
フラッシュバルブ
  6
CONTINUOUS
 62
     6
100
AcDbLine
 10
1490.810394
 20
625.0
 30
0.0
 11
1490.810394
 21
627.0
 31
0.0
  0
LINE
  5
2C7
100
AcDbEntity
  8
フラッシュバルブ
  6
CONTINUOUS
 62
     6
100
AcDbLine
 10
1486.810394
 20
614.0
 30
0.0
 11
1486.810394
 21
629.0
 31
0.0
  0
LINE
  5
2C8
100
AcDbEntity
  8
フラッシュバルブ
  6
CONTINUOUS
 62
     6
100
AcDbLine
 10
1488.310394
 20
614.0
 30
0.0
 11
1486.810394
 21
614.0
 31
0.0
  0
LINE
  5
2C9
100
AcDbEntity
  8
フラッシュバルブ
  6
CONTINUOUS
 62
     6
100
AcDbLine
 10
1483.521933
 20
632.461538
 30
0.0
 11
1486.810394
 21
629.0
 31
0.0
  0
LINE
  5
2CA
100
AcDbEntity
  8
フラッシュバルブ
  6
CONTINUOUS
 62
     6
100
AcDbLine
 10
1483.521933
 20
632.461538
 30
0.0
 11
1480.660394
 21
630.0
 31
0.0
  0
LINE
  5
2CB
100
AcDbEntity
  8
フラッシュバルブ
  6
CONTINUOUS
 62
     6
100
AcDbLine
 10
1488.060394
 20
629.0
 30
0.0
 11
1483.310394
 21
634.0
 31
0.0
  0
LINE
  5
2CC
100
AcDbEntity
  8
フラッシュバルブ
  6
CONTINUOUS
 62
     6
100
AcDbLine
 10
1480.660394
 20
628.0
 30
0.0
 11
1480.660394
 21
630.0
 31
0.0
  0
LINE
  5
2CD
100
AcDbEntity
  8
フラッシュバルブ
  6
CONTINUOUS
 62
     6
100
AcDbLine
 10
1480.660394
 20
628.0
 30
0.0
 11
1477.660394
 21
628.0
 31
0.0
  0
LINE
  5
2CE
100
AcDbEntity
  8
フラッシュバルブ
  6
CONTINUOUS
 62
     6
100
AcDbLine
 10
1474.660394
 20
608.0
 30
0.0
 11
1477.660394
 21
608.0
 31
0.0
  0
LINE
  5
2CF
100
AcDbEntity
  8
フラッシュバルブ
  6
CONTINUOUS
 62
     6
100
AcDbLine
 10
1474.660394
 20
630.0
 30
0.0
 11
1474.660394
 21
608.0
 31
0.0
  0
LINE
  5
2D0
100
AcDbEntity
  8
フラッシュバルブ
  6
CONTINUOUS
 62
     6
100
AcDbLine
 10
1478.660394
 20
630.0
 30
0.0
 11
1474.660394
 21
630.0
 31
0.0
  0
LINE
  5
2D1
100
AcDbEntity
  8
フラッシュバルブ
  6
CONTINUOUS
 62
     6
100
AcDbLine
 10
1483.310394
 20
634.0
 30
0.0
 11
1478.660394
 21
630.0
 31
0.0
  0
ARC
  5
2D2
100
AcDbEntity
  8
フラッシュバルブ
  6
CONTINUOUS
 62
     6
100
AcDbCircle
 10
1483.810394
 20
588.0
 30
0.0
 40
1.0
100
AcDbArc
 50
270.0
 51
0.0
  0
LINE
  5
2D3
100
AcDbEntity
  8
フラッシュバルブ
  6
CONTINUOUS
 62
     6
100
AcDbLine
 10
1452.810394
 20
583.0
 30
0.0
 11
1452.810394
 21
587.0
 31
0.0
  0
LINE
  5
2D4
100
AcDbEntity
  8
フラッシュバルブ
  6
CONTINUOUS
 62
     6
100
AcDbLine
 10
1487.810394
 20
583.0
 30
0.0
 11
1452.810394
 21
583.0
 31
0.0
  0
LINE
  5
2D5
100
AcDbEntity
  8
フラッシュバルブ
  6
CONTINUOUS
 62
     6
100
AcDbLine
 10
1487.810394
 20
593.0
 30
0.0
 11
1487.810394
 21
583.0
 31
0.0
  0
LINE
  5
2D6
100
AcDbEntity
  8
フラッシュバルブ
  6
CONTINUOUS
 62
     6
100
AcDbLine
 10
1497.060394
 20
593.0
 30
0.0
 11
1487.810394
 21
593.0
 31
0.0
  0
LINE
  5
2D7
100
AcDbEntity
  8
フラッシュバルブ
  6
CONTINUOUS
 62
     6
100
AcDbLine
 10
1497.810394
 20
568.0
 30
0.0
 11
1497.060394
 21
593.0
 31
0.0
  0
LINE
  5
2D8
100
AcDbEntity
  8
フラッシュバルブ
  6
CONTINUOUS
 62
     6
100
AcDbLine
 10
1494.560394
 20
593.0
 30
0.0
 11
1495.310394
 21
568.0
 31
0.0
  0
LINE
  5
2D9
100
AcDbEntity
  8
フラッシュバルブ
  6
CONTINUOUS
 62
     6
100
AcDbLine
 10
614.722837
 20
2649.631376
 30
0.0
 11
633.277817
 21
2649.631376
 31
0.0
  0
LINE
  5
2DA
100
AcDbEntity
  8
フラッシュバルブ
  6
CONTINUOUS
 62
     6
100
AcDbLine
 10
614.684837
 20
2635.631506
 30
0.0
 11
614.684837
 21
2649.593356
 31
0.0
  0
LINE
  5
2DB
100
AcDbEntity
  8
フラッシュバルブ
  6
CONTINUOUS
 62
     6
100
AcDbLine
 10
613.522837
 20
2648.431366
 30
0.0
 11
614.722837
 21
2649.631376
 31
0.0
  0
LINE
  5
2DC
100
AcDbEntity
  8
フラッシュバルブ
  6
CONTINUOUS
 62
     6
100
AcDbLine
 10
633.277817
 20
2649.631376
 30
0.0
 11
634.477827
 21
2648.431366
 31
0.0
  0
LINE
  5
2DD
100
AcDbEntity
  8
フラッシュバルブ
  6
CONTINUOUS
 62
     6
100
AcDbLine
 10
633.315837
 20
2635.631486
 30
0.0
 11
633.315837
 21
2649.593356
 31
0.0
  0
LINE
  5
2DE
100
AcDbEntity
  8
フラッシュバルブ
  6
CONTINUOUS
 62
     6
100
AcDbLine
 10
613.522837
 20
2648.431366
 30
0.0
 11
634.477827
 21
2648.431366
 31
0.0
  0
LINE
  5
2DF
100
AcDbEntity
  8
フラッシュバルブ
  6
CONTINUOUS
 62
     6
100
AcDbLine
 10
634.477827
 20
2623.754696
 30
0.0
 11
634.477827
 21
2626.131376
 31
0.0
  0
LINE
  5
2E0
100
AcDbEntity
  8
フラッシュバルブ
  6
CONTINUOUS
 62
     6
100
AcDbLine
 10
600.250337
 20
2632.232786
 30
0.0
 11
600.250337
 21
2635.631496
 31
0.0
  0
LINE
  5
2E1
100
AcDbEntity
  8
フラッシュバルブ
  6
CONTINUOUS
 62
     6
100
AcDbLine
 10
601.348517
 20
2631.131376
 30
0.0
 11
646.652167
 21
2631.131376
 31
0.0
  0
LINE
  5
2E2
100
AcDbEntity
  8
フラッシュバルブ
  6
CONTINUOUS
 62
     6
100
AcDbLine
 10
647.750337
 20
2632.232786
 30
0.0
 11
647.750337
 21
2635.631496
 31
0.0
  0
LINE
  5
2E3
100
AcDbEntity
  8
フラッシュバルブ
  6
CONTINUOUS
 62
     6
100
AcDbLine
 10
609.480397
 20
2626.131376
 30
0.0
 11
638.520297
 21
2626.131376
 31
0.0
  0
LINE
  5
2E4
100
AcDbEntity
  8
フラッシュバルブ
  6
CONTINUOUS
 62
     6
100
AcDbLine
 10
613.522837
 20
2648.431366
 30
0.0
 11
613.522837
 21
2635.631516
 31
0.0
  0
LINE
  5
2E5
100
AcDbEntity
  8
フラッシュバルブ
  6
CONTINUOUS
 62
     6
100
AcDbLine
 10
608.500327
 20
2524.131346
 30
0.0
 11
639.500327
 21
2524.131346
 31
0.0
  0
LINE
  5
2E6
100
AcDbEntity
  8
フラッシュバルブ
  6
CONTINUOUS
 62
     6
100
AcDbLine
 10
608.500327
 20
2534.131346
 30
0.0
 11
639.500327
 21
2534.131346
 31
0.0
  0
LINE
  5
2E7
100
AcDbEntity
  8
フラッシュバルブ
  6
CONTINUOUS
 62
     6
100
AcDbLine
 10
630.500327
 20
2517.631346
 30
0.0
 11
617.500327
 21
2517.631346
 31
0.0
  0
LINE
  5
2E8
100
AcDbEntity
  8
フラッシュバルブ
  6
CONTINUOUS
 62
     6
100
AcDbLine
 10
615.000327
 20
2512.631346
 30
0.0
 11
633.000327
 21
2512.631346
 31
0.0
  0
LINE
  5
2E9
100
AcDbEntity
  8
フラッシュバルブ
  6
CONTINUOUS
 62
     6
100
AcDbLine
 10
618.500327
 20
2512.631346
 30
0.0
 11
618.500327
 21
2517.631346
 31
0.0
  0
LINE
  5
2EA
100
AcDbEntity
  8
フラッシュバルブ
  6
CONTINUOUS
 62
     6
100
AcDbLine
 10
629.500327
 20
2512.631346
 30
0.0
 11
629.500327
 21
2517.631346
 31
0.0
  0
LINE
  5
2EB
100
AcDbEntity
  8
フラッシュバルブ
  6
CONTINUOUS
 62
     6
100
AcDbLine
 10
633.000327
 20
2509.631346
 30
0.0
 11
615.000327
 21
2509.631346
 31
0.0
  0
LINE
  5
2EC
100
AcDbEntity
  8
フラッシュバルブ
  6
CONTINUOUS
 62
     6
100
AcDbLine
 10
632.500327
 20
2519.631346
 30
0.0
 11
632.500327
 21
2524.131346
 31
0.0
  0
LINE
  5
2ED
100
AcDbEntity
  8
フラッシュバルブ
  6
CONTINUOUS
 62
     6
100
AcDbLine
 10
615.500327
 20
2519.631346
 30
0.0
 11
615.500327
 21
2524.131346
 31
0.0
  0
LINE
  5
2EE
100
AcDbEntity
  8
フラッシュバルブ
  6
CONTINUOUS
 62
     6
100
AcDbLine
 10
635.500337
 20
2587.199675
 30
0.0
 11
635.500337
 21
2581.631346
 31
0.0
  0
LINE
  5
2EF
100
AcDbEntity
  8
フラッシュバルブ
  6
CONTINUOUS
 62
     6
100
AcDbLine
 10
610.000327
 20
2536.911316
 30
0.0
 11
610.739327
 21
2535.631346
 31
0.0
  0
LINE
  5
2F0
100
AcDbEntity
  8
フラッシュバルブ
  6
CONTINUOUS
 62
     6
100
AcDbLine
 10
610.739327
 20
2535.631346
 30
0.0
 11
610.739327
 21
2534.131346
 31
0.0
  0
LINE
  5
2F1
100
AcDbEntity
  8
フラッシュバルブ
  6
CONTINUOUS
 62
     6
100
AcDbLine
 10
638.000327
 20
2536.911316
 30
0.0
 11
637.261327
 21
2535.631346
 31
0.0
  0
LINE
  5
2F2
100
AcDbEntity
  8
フラッシュバルブ
  6
CONTINUOUS
 62
     6
100
AcDbLine
 10
609.969007
 20
2535.631346
 30
0.0
 11
638.000327
 21
2535.631346
 31
0.0
  0
LINE
  5
2F3
100
AcDbEntity
  8
フラッシュバルブ
  6
CONTINUOUS
 62
     6
100
AcDbLine
 10
637.261327
 20
2535.631346
 30
0.0
 11
637.261327
 21
2534.131346
 31
0.0
  0
LINE
  5
2F4
100
AcDbEntity
  8
フラッシュバルブ
  6
CONTINUOUS
 62
     6
100
AcDbLine
 10
638.000327
 20
2534.131346
 30
0.0
 11
638.000327
 21
2541.75676
 31
0.0
  0
LINE
  5
2F5
100
AcDbEntity
  8
フラッシュバルブ
  6
CONTINUOUS
 62
     6
100
AcDbLine
 10
634.477837
 20
2624.618746
 30
0.0
 11
633.604517
 21
2626.131376
 31
0.0
  0
LINE
  5
2F6
100
AcDbEntity
  8
フラッシュバルブ
  6
CONTINUOUS
 62
     6
100
AcDbLine
 10
634.477827
 20
2635.631486
 30
0.0
 11
634.477827
 21
2648.431366
 31
0.0
  0
ARC
  5
2F7
100
AcDbEntity
  8
フラッシュバルブ
  6
CONTINUOUS
 62
     6
100
AcDbCircle
 10
597.000337
 20
2603.631346
 30
0.0
 40
40.5
100
AcDbArc
 50
346.1206
 51
17.0839
  0
ARC
  5
2F8
100
AcDbEntity
  8
フラッシュバルブ
  6
CONTINUOUS
 62
     6
100
AcDbCircle
 10
663.500337
 20
2587.199675
 30
0.0
 40
28.0
100
AcDbArc
 50
166.12064
 51
180.0
  0
ARC
  5
2F9
100
AcDbEntity
  8
フラッシュバルブ
  6
CONTINUOUS
 62
     6
100
AcDbCircle
 10
662.477827
 20
2623.754666
 30
0.0
 40
28.0
100
AcDbArc
 50
180.0
 51
197.0839
  0
ARC
  5
2FA
100
AcDbEntity
  8
フラッシュバルブ
  6
CONTINUOUS
 62
     6
100
AcDbCircle
 10
654.176207
 20
2715.345376
 30
0.0
 40
100.0
100
AcDbArc
 50
238.0043
 51
242.8656
  0
ARC
  5
2FB
100
AcDbEntity
  8
フラッシュバルブ
  6
CONTINUOUS
 62
     6
100
AcDbCircle
 10
602.250337
 20
2632.232786
 30
0.0
 40
2.0
100
AcDbArc
 50
180.0
 51
238.0043
  0
ARC
  5
2FC
100
AcDbEntity
  8
フラッシュバルブ
  6
CONTINUOUS
 62
     6
100
AcDbCircle
 10
593.824477
 20
2715.345376
 30
0.0
 40
100.0
100
AcDbArc
 50
297.1344
 51
301.9957
  0
ARC
  5
2FD
100
AcDbEntity
  8
フラッシュバルブ
  6
CONTINUOUS
 62
     6
100
AcDbCircle
 10
645.750337
 20
2632.232786
 30
0.0
 40
2.0
100
AcDbArc
 50
301.9957
 51
0.0
  0
ARC
  5
2FE
100
AcDbEntity
  8
フラッシュバルブ
  6
CONTINUOUS
 62
     6
100
AcDbCircle
 10
609.480397
 20
2628.131376
 30
0.0
 40
2.0
100
AcDbArc
 50
242.8656
 51
270.0
  0
ARC
  5
2FF
100
AcDbEntity
  8
フラッシュバルブ
  6
CONTINUOUS
 62
     6
100
AcDbCircle
 10
638.520277
 20
2628.131376
 30
0.0
 40
2.0
100
AcDbArc
 50
270.0007
 51
297.1344
  0
ARC
  5
300
100
AcDbEntity
  8
フラッシュバルブ
  6
CONTINUOUS
 62
     6
100
AcDbCircle
 10
620.296985
 20
2531.931336
 30
0.0
 40
2.0
100
AcDbArc
 50
0.0
 51
87.6201
  0
ARC
  5
301
100
AcDbEntity
  8
フラッシュバルブ
  6
CONTINUOUS
 62
     6
100
AcDbCircle
 10
620.296985
 20
2526.331356
 30
0.0
 40
2.0
100
AcDbArc
 50
272.3799
 51
0.0
  0
ARC
  5
302
100
AcDbEntity
  8
フラッシュバルブ
  6
CONTINUOUS
 62
     6
100
AcDbCircle
 10
633.000327
 20
2511.131346
 30
0.0
 40
1.5
100
AcDbArc
 50
270.0
 51
90.0
  0
ARC
  5
303
100
AcDbEntity
  8
フラッシュバルブ
  6
CONTINUOUS
 62
     6
100
AcDbCircle
 10
615.000327
 20
2511.131346
 30
0.0
 40
1.5
100
AcDbArc
 50
90.0
 51
270.0
  0
ARC
  5
304
100
AcDbEntity
  8
フラッシュバルブ
  6
CONTINUOUS
 62
     6
100
AcDbCircle
 10
630.500327
 20
2519.631346
 30
0.0
 40
2.0
100
AcDbArc
 50
270.0
 51
0.0
  0
ARC
  5
305
100
AcDbEntity
  8
フラッシュバルブ
  6
CONTINUOUS
 62
     6
100
AcDbCircle
 10
617.500327
 20
2519.631346
 30
0.0
 40
2.0
100
AcDbArc
 50
180.0
 51
270.0
  0
ARC
  5
306
100
AcDbEntity
  8
フラッシュバルブ
  6
CONTINUOUS
 62
     6
100
AcDbCircle
 10
612.203639
 20
2526.331356
 30
0.0
 40
2.0
100
AcDbArc
 50
180.0
 51
267.62
  0
ARC
  5
307
100
AcDbEntity
  8
フラッシュバルブ
  6
CONTINUOUS
 62
     6
100
AcDbCircle
 10
612.203639
 20
2531.931336
 30
0.0
 40
2.0
100
AcDbArc
 50
92.379883
 51
180.0
  0
LINE
  5
308
100
AcDbEntity
  8
フラッシュバルブ
  6
CONTINUOUS
 62
     6
100
AcDbLine
 10
613.522827
 20
2623.754696
 30
0.0
 11
613.522827
 21
2626.131376
 31
0.0
  0
LINE
  5
309
100
AcDbEntity
  8
フラッシュバルブ
  6
CONTINUOUS
 62
     6
100
AcDbLine
 10
613.522817
 20
2624.618746
 30
0.0
 11
614.396137
 21
2626.131376
 31
0.0
  0
ARC
  5
30A
100
AcDbEntity
  8
フラッシュバルブ
  6
CONTINUOUS
 62
     6
100
AcDbCircle
 10
609.480377
 20
2628.131376
 30
0.0
 40
2.0
100
AcDbArc
 50
242.8656
 51
269.9993
  0
LINE
  5
30B
100
AcDbEntity
  8
フラッシュバルブ
  6
CONTINUOUS
 62
     6
100
AcDbLine
 10
612.500317
 20
2587.199675
 30
0.0
 11
612.500317
 21
2581.631346
 31
0.0
  0
ARC
  5
30C
100
AcDbEntity
  8
フラッシュバルブ
  6
CONTINUOUS
 62
     6
100
AcDbCircle
 10
651.000317
 20
2603.631346
 30
0.0
 40
40.5
100
AcDbArc
 50
162.9161
 51
193.8794
  0
ARC
  5
30D
100
AcDbEntity
  8
フラッシュバルブ
  6
CONTINUOUS
 62
     6
100
AcDbCircle
 10
584.500317
 20
2587.199675
 30
0.0
 40
28.0
100
AcDbArc
 50
0.0
 51
13.87936
  0
ARC
  5
30E
100
AcDbEntity
  8
フラッシュバルブ
  6
CONTINUOUS
 62
     6
100
AcDbCircle
 10
585.522827
 20
2623.754666
 30
0.0
 40
28.0
100
AcDbArc
 50
342.9161
 51
0.0
  0
CIRCLE
  5
30F
100
AcDbEntity
  8
フラッシュバルブ
  6
CONTINUOUS
 62
     6
100
AcDbCircle
 10
624.000327
 20
2603.631347
 30
0.0
 40
4.358896
  0
CIRCLE
  5
310
100
AcDbEntity
  8
フラッシュバルブ
  6
CONTINUOUS
 62
     6
100
AcDbCircle
 10
624.000327
 20
2603.631347
 30
0.0
 40
7.499999
  0
LINE
  5
311
100
AcDbEntity
  8
フラッシュバルブ
  6
CONTINUOUS
 62
     6
100
AcDbLine
 10
634.50032
 20
2608.321776
 30
0.0
 11
634.50032
 21
2598.940918
 31
0.0
  0
LINE
  5
312
100
AcDbEntity
  8
フラッシュバルブ
  6
CONTINUOUS
 62
     6
100
AcDbLine
 10
625.188293
 20
2615.069822
 30
0.0
 11
633.312354
 21
2610.379393
 31
0.0
  0
LINE
  5
313
100
AcDbEntity
  8
フラッシュバルブ
  6
CONTINUOUS
 62
     6
100
AcDbLine
 10
614.6883
 20
2610.379393
 30
0.0
 11
622.812361
 21
2615.069822
 31
0.0
  0
LINE
  5
314
100
AcDbEntity
  8
フラッシュバルブ
  6
CONTINUOUS
 62
     6
100
AcDbLine
 10
613.500334
 20
2598.940918
 30
0.0
 11
613.500334
 21
2608.321776
 31
0.0
  0
LINE
  5
315
100
AcDbEntity
  8
フラッシュバルブ
  6
CONTINUOUS
 62
     6
100
AcDbLine
 10
622.812361
 20
2592.192872
 30
0.0
 11
614.6883
 21
2596.883301
 31
0.0
  0
LINE
  5
316
100
AcDbEntity
  8
フラッシュバルブ
  6
CONTINUOUS
 62
     6
100
AcDbLine
 10
633.312354
 20
2596.883301
 30
0.0
 11
625.188293
 21
2592.192872
 31
0.0
  0
ARC
  5
317
100
AcDbEntity
  8
フラッシュバルブ
  6
CONTINUOUS
 62
     6
100
AcDbCircle
 10
624.000327
 20
2603.631347
 30
0.0
 40
11.499999
100
AcDbArc
 50
144.070689
 51
155.929311
  0
ARC
  5
318
100
AcDbEntity
  8
フラッシュバルブ
  6
CONTINUOUS
 62
     6
100
AcDbCircle
 10
624.000327
 20
2603.631347
 30
0.0
 40
11.499999
100
AcDbArc
 50
204.070689
 51
215.929311
  0
ARC
  5
319
100
AcDbEntity
  8
フラッシュバルブ
  6
CONTINUOUS
 62
     6
100
AcDbCircle
 10
624.000327
 20
2603.631347
 30
0.0
 40
11.499999
100
AcDbArc
 50
264.070689
 51
275.929311
  0
ARC
  5
31A
100
AcDbEntity
  8
フラッシュバルブ
  6
CONTINUOUS
 62
     6
100
AcDbCircle
 10
624.000327
 20
2603.631347
 30
0.0
 40
11.499999
100
AcDbArc
 50
324.070689
 51
335.929311
  0
ARC
  5
31B
100
AcDbEntity
  8
フラッシュバルブ
  6
CONTINUOUS
 62
     6
100
AcDbCircle
 10
624.000327
 20
2603.631347
 30
0.0
 40
11.499999
100
AcDbArc
 50
24.070689
 51
35.929311
  0
ARC
  5
31C
100
AcDbEntity
  8
フラッシュバルブ
  6
CONTINUOUS
 62
     6
100
AcDbCircle
 10
624.000327
 20
2603.631347
 30
0.0
 40
11.499999
100
AcDbArc
 50
84.070689
 51
95.929311
  0
LINE
  5
31D
100
AcDbEntity
  8
フラッシュバルブ
  6
CONTINUOUS
 62
     6
100
AcDbLine
 10
619.698007
 20
2604.331356
 30
0.0
 11
628.302647
 21
2604.331356
 31
0.0
  0
LINE
  5
31E
100
AcDbEntity
  8
フラッシュバルブ
  6
CONTINUOUS
 62
     6
100
AcDbLine
 10
619.698007
 20
2602.931338
 30
0.0
 11
628.302647
 21
2602.931338
 31
0.0
  0
CIRCLE
  5
31F
100
AcDbEntity
  8
フラッシュバルブ
  6
CONTINUOUS
 62
     6
100
AcDbCircle
 10
624.000327
 20
2560.631346
 30
0.0
 40
23.5
  0
CIRCLE
  5
320
100
AcDbEntity
  8
フラッシュバルブ
  6
CONTINUOUS
 62
     6
100
AcDbCircle
 10
624.000327
 20
2560.631346
 30
0.0
 40
6.40002
  0
LINE
  5
321
100
AcDbEntity
  8
フラッシュバルブ
  6
CONTINUOUS
 62
     6
100
AcDbLine
 10
633.985936
 20
2565.785216
 30
0.0
 11
633.985936
 21
2555.477476
 31
0.0
  0
LINE
  5
322
100
AcDbEntity
  8
フラッシュバルブ
  6
CONTINUOUS
 62
     6
100
AcDbLine
 10
624.529749
 20
2571.856072
 30
0.0
 11
633.456514
 21
2566.702202
 31
0.0
  0
LINE
  5
323
100
AcDbEntity
  8
フラッシュバルブ
  6
CONTINUOUS
 62
     6
100
AcDbLine
 10
614.54414
 20
2566.702202
 30
0.0
 11
623.470905
 21
2571.856072
 31
0.0
  0
LINE
  5
324
100
AcDbEntity
  8
フラッシュバルブ
  6
CONTINUOUS
 62
     6
100
AcDbLine
 10
614.014718
 20
2555.477476
 30
0.0
 11
614.014718
 21
2565.785216
 31
0.0
  0
LINE
  5
325
100
AcDbEntity
  8
フラッシュバルブ
  6
CONTINUOUS
 62
     6
100
AcDbLine
 10
623.470905
 20
2549.40662
 30
0.0
 11
614.54414
 21
2554.56049
 31
0.0
  0
LINE
  5
326
100
AcDbEntity
  8
フラッシュバルブ
  6
CONTINUOUS
 62
     6
100
AcDbLine
 10
633.456514
 20
2554.56049
 30
0.0
 11
624.529749
 21
2549.40662
 31
0.0
  0
ARC
  5
327
100
AcDbEntity
  8
フラッシュバルブ
  6
CONTINUOUS
 62
     6
100
AcDbCircle
 10
624.000327
 20
2560.631346
 30
0.0
 40
11.237204
100
AcDbArc
 50
87.299606
 51
92.700394
  0
ARC
  5
328
100
AcDbEntity
  8
フラッシュバルブ
  6
CONTINUOUS
 62
     6
100
AcDbCircle
 10
624.000327
 20
2560.631346
 30
0.0
 40
11.237204
100
AcDbArc
 50
147.299606
 51
152.700394
  0
ARC
  5
329
100
AcDbEntity
  8
フラッシュバルブ
  6
CONTINUOUS
 62
     6
100
AcDbCircle
 10
624.000327
 20
2560.631346
 30
0.0
 40
11.237204
100
AcDbArc
 50
207.299606
 51
212.700394
  0
ARC
  5
32A
100
AcDbEntity
  8
フラッシュバルブ
  6
CONTINUOUS
 62
     6
100
AcDbCircle
 10
624.000327
 20
2560.631346
 30
0.0
 40
11.237204
100
AcDbArc
 50
267.299606
 51
272.700394
  0
ARC
  5
32B
100
AcDbEntity
  8
フラッシュバルブ
  6
CONTINUOUS
 62
     6
100
AcDbCircle
 10
624.000327
 20
2560.631346
 30
0.0
 40
11.237204
100
AcDbArc
 50
327.299606
 51
332.700394
  0
ARC
  5
32C
100
AcDbEntity
  8
フラッシュバルブ
  6
CONTINUOUS
 62
     6
100
AcDbCircle
 10
624.000327
 20
2560.631346
 30
0.0
 40
11.237204
100
AcDbArc
 50
27.299606
 51
32.700394
  0
CIRCLE
  5
32D
100
AcDbEntity
  8
フラッシュバルブ
  6
CONTINUOUS
 62
     6
100
AcDbCircle
 10
624.000327
 20
2560.631346
 30
0.0
 40
8.5
  0
LINE
  5
32E
100
AcDbEntity
  8
フラッシュバルブ
  6
CONTINUOUS
 62
     6
100
AcDbLine
 10
610.000327
 20
2534.131346
 30
0.0
 11
610.000327
 21
2541.75676
 31
0.0
  0
LINE
  5
32F
100
AcDbEntity
  8
フラッシュバルブ
  6
CONTINUOUS
 62
     6
100
AcDbLine
 10
608.500311
 20
2524.331356
 30
0.0
 11
608.500311
 21
2533.931336
 31
0.0
  0
LINE
  5
330
100
AcDbEntity
  8
フラッシュバルブ
  6
CONTINUOUS
 62
     6
100
AcDbLine
 10
639.500343
 20
2524.331356
 30
0.0
 11
639.500343
 21
2533.931336
 31
0.0
  0
LINE
  5
331
100
AcDbEntity
  8
フラッシュバルブ
  6
CONTINUOUS
 62
     6
100
AcDbLine
 10
610.203639
 20
2531.931336
 30
0.0
 11
610.203639
 21
2526.331356
 31
0.0
  0
LINE
  5
332
100
AcDbEntity
  8
フラッシュバルブ
  6
CONTINUOUS
 62
     6
100
AcDbLine
 10
622.296985
 20
2531.931336
 30
0.0
 11
622.296985
 21
2526.331356
 31
0.0
  0
LINE
  5
333
100
AcDbEntity
  8
フラッシュバルブ
  6
CONTINUOUS
 62
     6
100
AcDbLine
 10
612.120589
 20
2533.929611
 30
0.0
 11
620.380036
 21
2533.929611
 31
0.0
  0
LINE
  5
334
100
AcDbEntity
  8
フラッシュバルブ
  6
CONTINUOUS
 62
     6
100
AcDbLine
 10
612.120585
 20
2524.333081
 30
0.0
 11
620.380036
 21
2524.333081
 31
0.0
  0
ARC
  5
335
100
AcDbEntity
  8
フラッシュバルブ
  6
CONTINUOUS
 62
     6
100
AcDbCircle
 10
635.797015
 20
2531.931336
 30
0.0
 40
2.0
100
AcDbArc
 50
0.0
 51
87.620117
  0
ARC
  5
336
100
AcDbEntity
  8
フラッシュバルブ
  6
CONTINUOUS
 62
     6
100
AcDbCircle
 10
627.703669
 20
2531.931336
 30
0.0
 40
2.0
100
AcDbArc
 50
92.3799
 51
180.0
  0
ARC
  5
337
100
AcDbEntity
  8
フラッシュバルブ
  6
CONTINUOUS
 62
     6
100
AcDbCircle
 10
635.797015
 20
2526.331356
 30
0.0
 40
2.0
100
AcDbArc
 50
272.38
 51
0.0
  0
ARC
  5
338
100
AcDbEntity
  8
フラッシュバルブ
  6
CONTINUOUS
 62
     6
100
AcDbCircle
 10
627.703669
 20
2526.331356
 30
0.0
 40
2.0
100
AcDbArc
 50
180.0
 51
267.6201
  0
LINE
  5
339
100
AcDbEntity
  8
フラッシュバルブ
  6
CONTINUOUS
 62
     6
100
AcDbLine
 10
637.797015
 20
2531.931336
 30
0.0
 11
637.797015
 21
2526.331356
 31
0.0
  0
LINE
  5
33A
100
AcDbEntity
  8
フラッシュバルブ
  6
CONTINUOUS
 62
     6
100
AcDbLine
 10
625.703669
 20
2531.931336
 30
0.0
 11
625.703669
 21
2526.331356
 31
0.0
  0
LINE
  5
33B
100
AcDbEntity
  8
フラッシュバルブ
  6
CONTINUOUS
 62
     6
100
AcDbLine
 10
635.880065
 20
2533.929611
 30
0.0
 11
627.620618
 21
2533.929611
 31
0.0
  0
LINE
  5
33C
100
AcDbEntity
  8
フラッシュバルブ
  6
CONTINUOUS
 62
     6
100
AcDbLine
 10
635.880069
 20
2524.333081
 30
0.0
 11
627.620618
 21
2524.333081
 31
0.0
  0
LINE
  5
33D
100
AcDbEntity
  8
フラッシュバルブ
  6
CONTINUOUS
 62
     6
100
AcDbLine
 10
617.650504
 20
2561.431346
 30
0.0
 11
630.35015
 21
2561.431346
 31
0.0
  0
LINE
  5
33E
100
AcDbEntity
  8
フラッシュバルブ
  6
CONTINUOUS
 62
     6
100
AcDbLine
 10
617.650504
 20
2559.831346
 30
0.0
 11
630.35015
 21
2559.831346
 31
0.0
  0
ARC
  5
33F
100
AcDbEntity
  8
フラッシュバルブ
  6
CONTINUOUS
 62
     6
100
AcDbCircle
 10
671.500415
 20
2551.572922
 30
0.0
 40
4.75
100
AcDbArc
 50
65.098938
 51
114.901062
  0
LINE
  5
340
100
AcDbEntity
  8
フラッシュバルブ
  6
CONTINUOUS
 62
     6
100
AcDbLine
 10
673.500415
 20
2555.881344
 30
0.0
 11
674.500415
 21
2555.881344
 31
0.0
  0
LINE
  5
341
100
AcDbEntity
  8
フラッシュバルブ
  6
CONTINUOUS
 62
     6
100
AcDbLine
 10
665.500415
 20
2555.881344
 30
0.0
 11
669.500415
 21
2555.881344
 31
0.0
  0
LINE
  5
342
100
AcDbEntity
  8
フラッシュバルブ
  6
CONTINUOUS
 62
     6
100
AcDbLine
 10
673.500415
 20
2565.381344
 30
0.0
 11
674.500415
 21
2565.381344
 31
0.0
  0
LINE
  5
343
100
AcDbEntity
  8
フラッシュバルブ
  6
CONTINUOUS
 62
     6
100
AcDbLine
 10
665.500415
 20
2565.381344
 30
0.0
 11
669.500415
 21
2565.381344
 31
0.0
  0
ARC
  5
344
100
AcDbEntity
  8
フラッシュバルブ
  6
CONTINUOUS
 62
     6
100
AcDbCircle
 10
671.500415
 20
2569.689766
 30
0.0
 40
4.75
100
AcDbArc
 50
245.098938
 51
294.901062
  0
ARC
  5
345
100
AcDbEntity
  8
フラッシュバルブ
  6
CONTINUOUS
 62
     6
100
AcDbCircle
 10
655.100415
 20
2571.152024
 30
0.0
 40
3.531508
100
AcDbArc
 50
20.21686
 51
159.7831
  0
ARC
  5
346
100
AcDbEntity
  8
フラッシュバルブ
  6
CONTINUOUS
 62
     6
100
AcDbCircle
 10
653.097315
 20
2571.889674
 30
0.0
 40
1.396928
100
AcDbArc
 50
159.7834
 51
200.2168
  0
ARC
  5
347
100
AcDbEntity
  8
フラッシュバルブ
  6
CONTINUOUS
 62
     6
100
AcDbCircle
 10
657.103515
 20
2571.889674
 30
0.0
 40
1.396928
100
AcDbArc
 50
339.7832
 51
20.21652
  0
ARC
  5
348
100
AcDbEntity
  8
フラッシュバルブ
  6
CONTINUOUS
 62
     6
100
AcDbCircle
 10
655.100415
 20
2572.627324
 30
0.0
 40
3.531508
100
AcDbArc
 50
200.2167
 51
339.7833
  0
ARC
  5
349
100
AcDbEntity
  8
フラッシュバルブ
  6
CONTINUOUS
 62
     6
100
AcDbCircle
 10
655.100415
 20
2564.519054
 30
0.0
 40
1.700001
100
AcDbArc
 50
47.23737
 51
132.7626
  0
ARC
  5
34A
100
AcDbEntity
  8
フラッシュバルブ
  6
CONTINUOUS
 62
     6
100
AcDbCircle
 10
655.100415
 20
2556.743634
 30
0.0
 40
1.700001
100
AcDbArc
 50
227.2374
 51
312.7626
  0
ARC
  5
34B
100
AcDbEntity
  8
フラッシュバルブ
  6
CONTINUOUS
 62
     6
100
AcDbCircle
 10
651.505015
 20
2560.631344
 30
0.0
 40
6.995371
100
AcDbArc
 50
312.7627
 51
47.23727
  0
ARC
  5
34C
100
AcDbEntity
  8
フラッシュバルブ
  6
CONTINUOUS
 62
     6
100
AcDbCircle
 10
657.103515
 20
2549.373014
 30
0.0
 40
1.396928
100
AcDbArc
 50
339.7833
 51
20.21667
  0
CIRCLE
  5
34D
100
AcDbEntity
  8
フラッシュバルブ
  6
CONTINUOUS
 62
     6
100
AcDbCircle
 10
671.500415
 20
2560.631344
 30
0.0
 40
2.0
  0
ARC
  5
34E
100
AcDbEntity
  8
フラッシュバルブ
  6
CONTINUOUS
 62
     6
100
AcDbCircle
 10
674.500415
 20
2563.881344
 30
0.0
 40
1.5
100
AcDbArc
 50
0.0
 51
90.0
  0
ARC
  5
34F
100
AcDbEntity
  8
フラッシュバルブ
  6
CONTINUOUS
 62
     6
100
AcDbCircle
 10
674.500415
 20
2557.381344
 30
0.0
 40
1.5
100
AcDbArc
 50
270.0
 51
0.0
  0
ARC
  5
350
100
AcDbEntity
  8
フラッシュバルブ
  6
CONTINUOUS
 62
     6
100
AcDbCircle
 10
655.100415
 20
2548.635364
 30
0.0
 40
3.531508
100
AcDbArc
 50
20.2168
 51
159.7832
  0
ARC
  5
351
100
AcDbEntity
  8
フラッシュバルブ
  6
CONTINUOUS
 62
     6
100
AcDbCircle
 10
655.100415
 20
2550.110664
 30
0.0
 40
3.531508
100
AcDbArc
 50
200.2169
 51
339.7831
  0
ARC
  5
352
100
AcDbEntity
  8
フラッシュバルブ
  6
CONTINUOUS
 62
     6
100
AcDbCircle
 10
653.097315
 20
2549.373014
 30
0.0
 40
1.396928
100
AcDbArc
 50
159.7833
 51
200.2167
  0
ARC
  5
353
100
AcDbEntity
  8
フラッシュバルブ
  6
CONTINUOUS
 62
     6
100
AcDbCircle
 10
658.695815
 20
2560.631344
 30
0.0
 40
6.995371
100
AcDbArc
 50
132.7627
 51
227.2373
  0
ARC
  5
354
100
AcDbEntity
  8
フラッシュバルブ
  6
CONTINUOUS
 62
     6
100
AcDbCircle
 10
655.059915
 20
2552.096774
 30
0.0
 40
5.632679
100
AcDbArc
 50
230.8067
 51
322.031
  0
ARC
  5
355
100
AcDbEntity
  8
フラッシュバルブ
  6
CONTINUOUS
 62
     6
100
AcDbCircle
 10
655.059915
 20
2569.165914
 30
0.0
 40
5.632679
100
AcDbArc
 50
37.96893
 51
129.1934
  0
LINE
  5
356
100
AcDbEntity
  8
フラッシュバルブ
  6
CONTINUOUS
 62
     6
100
AcDbLine
 10
659.500415
 20
2572.631324
 30
0.0
 11
659.500415
 21
2548.631344
 31
0.0
  0
LINE
  5
357
100
AcDbEntity
  8
フラッシュバルブ
  6
CONTINUOUS
 62
     6
100
AcDbLine
 10
660.000415
 20
2548.631344
 30
0.0
 11
660.000415
 21
2572.631344
 31
0.0
  0
LINE
  5
358
100
AcDbEntity
  8
フラッシュバルブ
  6
CONTINUOUS
 62
     6
100
AcDbLine
 10
659.500415
 20
2548.631344
 30
0.0
 11
660.000415
 21
2548.631344
 31
0.0
  0
LINE
  5
359
100
AcDbEntity
  8
フラッシュバルブ
  6
CONTINUOUS
 62
     6
100
AcDbLine
 10
659.500415
 20
2572.631344
 30
0.0
 11
660.000415
 21
2572.631344
 31
0.0
  0
LINE
  5
35A
100
AcDbEntity
  8
フラッシュバルブ
  6
CONTINUOUS
 62
     6
100
AcDbLine
 10
660.000415
 20
2572.631344
 30
0.0
 11
665.500415
 21
2566.131344
 31
0.0
  0
LINE
  5
35B
100
AcDbEntity
  8
フラッシュバルブ
  6
CONTINUOUS
 62
     6
100
AcDbLine
 10
660.000415
 20
2548.631344
 30
0.0
 11
665.500415
 21
2555.131344
 31
0.0
  0
LINE
  5
35C
100
AcDbEntity
  8
フラッシュバルブ
  6
CONTINUOUS
 62
     6
100
AcDbLine
 10
676.000415
 20
2563.881344
 30
0.0
 11
676.000415
 21
2557.381344
 31
0.0
  0
LINE
  5
35D
100
AcDbEntity
  8
フラッシュバルブ
  6
CONTINUOUS
 62
     6
100
AcDbLine
 10
665.500415
 20
2566.131344
 30
0.0
 11
665.500415
 21
2555.131344
 31
0.0
  0
LINE
  5
35E
100
AcDbEntity
  8
フラッシュバルブ
  6
CONTINUOUS
 62
     6
100
AcDbLine
 10
651.500415
 20
2573.531344
 30
0.0
 11
651.500415
 21
2547.731344
 31
0.0
  0
LINE
  5
35F
100
AcDbEntity
  8
フラッシュバルブ
  6
CONTINUOUS
 62
     6
100
AcDbLine
 10
649.092315
 20
2572.631344
 30
0.0
 11
650.500415
 21
2571.818344
 31
0.0
  0
LINE
  5
360
100
AcDbEntity
  8
フラッシュバルブ
  6
CONTINUOUS
 62
     6
100
AcDbLine
 10
649.092315
 20
2548.631344
 30
0.0
 11
650.500415
 21
2549.444344
 31
0.0
  0
LINE
  5
361
100
AcDbEntity
  8
フラッシュバルブ
  6
CONTINUOUS
 62
     6
100
AcDbLine
 10
650.500415
 20
2548.631344
 30
0.0
 11
650.500415
 21
2572.631344
 31
0.0
  0
LINE
  5
362
100
AcDbEntity
  8
フラッシュバルブ
  6
CONTINUOUS
 62
     6
100
AcDbLine
 10
650.500415
 20
2549.444344
 30
0.0
 11
651.500415
 21
2549.444344
 31
0.0
  0
LINE
  5
363
100
AcDbEntity
  8
フラッシュバルブ
  6
CONTINUOUS
 62
     6
100
AcDbLine
 10
650.500415
 20
2571.818344
 30
0.0
 11
651.500415
 21
2571.818344
 31
0.0
  0
LINE
  5
364
100
AcDbEntity
  8
フラッシュバルブ
  6
CONTINUOUS
 62
     6
100
AcDbLine
 10
651.500415
 20
2572.631344
 30
0.0
 11
644.205525
 21
2572.631344
 31
0.0
  0
LINE
  5
365
100
AcDbEntity
  8
フラッシュバルブ
  6
CONTINUOUS
 62
     6
100
AcDbLine
 10
644.205523
 20
2548.631344
 30
0.0
 11
651.500415
 21
2548.631344
 31
0.0
  0
LINE
  5
366
100
AcDbEntity
  8
フラッシュバルブ
  6
CONTINUOUS
 62
     6
100
AcDbLine
 10
606.5
 20
1488.004422
 30
0.0
 11
606.5
 21
1486.004422
 31
0.0
  0
LINE
  5
367
100
AcDbEntity
  8
フラッシュバルブ
  6
CONTINUOUS
 62
     6
100
AcDbLine
 10
641.5
 20
1486.004422
 30
0.0
 11
641.5
 21
1488.004422
 31
0.0
  0
LINE
  5
368
100
AcDbEntity
  8
フラッシュバルブ
  6
CONTINUOUS
 62
     6
100
AcDbLine
 10
613.5
 20
1478.004422
 30
0.0
 11
613.5
 21
1471.205985
 31
0.0
  0
LINE
  5
369
100
AcDbEntity
  8
フラッシュバルブ
  6
CONTINUOUS
 62
     6
100
AcDbLine
 10
634.5
 20
1471.194838
 30
0.0
 11
634.5
 21
1478.004422
 31
0.0
  0
LINE
  5
36A
100
AcDbEntity
  8
フラッシュバルブ
  6
CONTINUOUS
 62
     6
100
AcDbLine
 10
615.0
 20
1486.004422
 30
0.0
 11
615.0
 21
1478.004422
 31
0.0
  0
LINE
  5
36B
100
AcDbEntity
  8
フラッシュバルブ
  6
CONTINUOUS
 62
     6
100
AcDbLine
 10
633.0
 20
1478.004422
 30
0.0
 11
633.0
 21
1486.004422
 31
0.0
  0
LINE
  5
36C
100
AcDbEntity
  8
フラッシュバルブ
  6
CONTINUOUS
 62
     6
100
AcDbLine
 10
604.0
 20
1488.004422
 30
0.0
 11
644.0
 21
1488.004422
 31
0.0
  0
LINE
  5
36D
100
AcDbEntity
  8
フラッシュバルブ
  6
CONTINUOUS
 62
     6
100
AcDbLine
 10
606.5
 20
1486.004422
 30
0.0
 11
641.5
 21
1486.004422
 31
0.0
  0
CIRCLE
  5
36E
100
AcDbEntity
  8
フラッシュバルブ
  6
CONTINUOUS
 62
     6
100
AcDbCircle
 10
624.0
 20
1466.504422
 30
0.0
 40
11.5
  0
LINE
  5
36F
100
AcDbEntity
  8
フラッシュバルブ
  6
CONTINUOUS
 62
     6
100
AcDbLine
 10
613.5
 20
1478.004422
 30
0.0
 11
624.0
 21
1478.004422
 31
0.0
  0
LINE
  5
370
100
AcDbEntity
  8
フラッシュバルブ
  6
CONTINUOUS
 62
     6
100
AcDbLine
 10
624.0
 20
1478.004422
 30
0.0
 11
634.5
 21
1478.004422
 31
0.0
  0
LINE
  5
371
100
AcDbEntity
  8
フラッシュバルブ
  6
CONTINUOUS
 62
     6
100
AcDbLine
 10
637.5
 20
1466.504422
 30
0.0
 11
635.488328
 21
1467.022428
 31
0.0
  0
LINE
  5
372
100
AcDbEntity
  8
フラッシュバルブ
  6
CONTINUOUS
 62
     6
100
AcDbLine
 10
610.5
 20
1466.504422
 30
0.0
 11
612.511672
 21
1467.022428
 31
0.0
  0
ARC
  5
373
100
AcDbEntity
  8
フラッシュバルブ
  6
CONTINUOUS
 62
     6
100
AcDbCircle
 10
624.0
 20
1466.504422
 30
0.0
 40
13.5
100
AcDbArc
 50
360.0
 51
38.942441
  0
ARC
  5
374
100
AcDbEntity
  8
フラッシュバルブ
  6
CONTINUOUS
 62
     6
100
AcDbCircle
 10
624.0
 20
1466.504422
 30
0.0
 40
13.5
100
AcDbArc
 50
141.057558
 51
180.0
  0
LINE
  5
375
100
AcDbEntity
  8
フラッシュバルブ
  6
CONTINUOUS
 62
     6
100
AcDbLine
 10
599.0
 20
1471.504422
 30
0.0
 11
599.0
 21
1466.504422
 31
0.0
  0
ARC
  5
376
100
AcDbEntity
  8
フラッシュバルブ
  6
CONTINUOUS
 62
     6
100
AcDbCircle
 10
624.0
 20
1438.989716
 30
0.0
 40
41.014706
100
AcDbArc
 50
102.675761
 51
127.556066
  0
LINE
  5
377
100
AcDbEntity
  8
フラッシュバルブ
  6
CONTINUOUS
 62
     6
100
AcDbLine
 10
610.5
 20
1466.504422
 30
0.0
 11
599.0
 21
1466.504422
 31
0.0
  0
ARC
  5
378
100
AcDbEntity
  8
フラッシュバルブ
  6
CONTINUOUS
 62
     6
100
AcDbCircle
 10
624.0
 20
1438.989716
 30
0.0
 40
41.014706
100
AcDbArc
 50
52.443934
 51
77.324239
  0
LINE
  5
379
100
AcDbEntity
  8
フラッシュバルブ
  6
CONTINUOUS
 62
     6
100
AcDbLine
 10
649.0
 20
1471.504422
 30
0.0
 11
649.0
 21
1466.504422
 31
0.0
  0
LINE
  5
37A
100
AcDbEntity
  8
フラッシュバルブ
  6
CONTINUOUS
 62
     6
100
AcDbLine
 10
649.0
 20
1466.504422
 30
0.0
 11
637.5
 21
1466.504422
 31
0.0
  0
LINE
  5
37B
100
AcDbEntity
  8
フラッシュバルブ
  6
CONTINUOUS
 62
     6
100
AcDbLine
 10
612.675248
 20
1464.504422
 30
0.0
 11
610.733501
 21
1464.004422
 31
0.0
  0
ARC
  5
37C
100
AcDbEntity
  8
フラッシュバルブ
  6
CONTINUOUS
 62
     6
100
AcDbCircle
 10
624.0
 20
1466.504422
 30
0.0
 40
13.5
100
AcDbArc
 50
180.0
 51
190.671929
  0
LINE
  5
37D
100
AcDbEntity
  8
フラッシュバルブ
  6
CONTINUOUS
 62
     6
100
AcDbLine
 10
635.324752
 20
1464.504422
 30
0.0
 11
637.266499
 21
1464.004422
 31
0.0
  0
ARC
  5
37E
100
AcDbEntity
  8
フラッシュバルブ
  6
CONTINUOUS
 62
     6
100
AcDbCircle
 10
624.0
 20
1466.504422
 30
0.0
 40
13.5
100
AcDbArc
 50
349.328071
 51
0.0
  0
CIRCLE
  5
37F
100
AcDbEntity
  8
フラッシュバルブ
  6
CONTINUOUS
 62
     6
100
AcDbCircle
 10
624.0
 20
1465.888114
 30
0.0
 40
10.5
  0
LINE
  5
380
100
AcDbEntity
  8
フラッシュバルブ
  6
CONTINUOUS
 62
     6
100
AcDbLine
 10
604.0
 20
1490.924035
 30
0.0
 11
604.0
 21
1488.004422
 31
0.0
  0
LINE
  5
381
100
AcDbEntity
  8
フラッシュバルブ
  6
CONTINUOUS
 62
     6
100
AcDbLine
 10
644.0
 20
1488.004422
 30
0.0
 11
644.0
 21
1490.924035
 31
0.0
  0
LINE
  5
382
100
AcDbEntity
  8
フラッシュバルブ
  6
CONTINUOUS
 62
     6
100
AcDbLine
 10
637.500335
 20
1518.732118
 30
0.0
 11
637.500335
 21
1529.267701
 31
0.0
  0
ARC
  5
383
100
AcDbEntity
  8
フラッシュバルブ
  6
CONTINUOUS
 62
     6
100
AcDbCircle
 10
628.999969
 20
1523.99991
 30
0.0
 40
10.000286
100
AcDbArc
 50
31.787048
 51
36.869019
  0
LINE
  5
384
100
AcDbEntity
  8
フラッシュバルブ
  6
CONTINUOUS
 62
     6
100
AcDbLine
 10
611.000243
 20
1529.999971
 30
0.0
 11
637.000304
 21
1529.999971
 31
0.0
  0
ARC
  5
385
100
AcDbEntity
  8
フラッシュバルブ
  6
CONTINUOUS
 62
     6
100
AcDbCircle
 10
619.000579
 20
1523.99991
 30
0.0
 40
10.000305
100
AcDbArc
 50
143.130981
 51
148.212967
  0
LINE
  5
386
100
AcDbEntity
  8
フラッシュバルブ
  6
CONTINUOUS
 62
     6
100
AcDbLine
 10
610.500213
 20
1518.732118
 30
0.0
 11
610.500213
 21
1529.267701
 31
0.0
  0
ARC
  5
387
100
AcDbEntity
  8
フラッシュバルブ
  6
CONTINUOUS
 62
     6
100
AcDbCircle
 10
619.000579
 20
1523.99991
 30
0.0
 40
10.000286
100
AcDbArc
 50
211.787033
 51
216.869019
  0
LINE
  5
388
100
AcDbEntity
  8
フラッシュバルブ
  6
CONTINUOUS
 62
     6
100
AcDbLine
 10
611.000243
 20
1517.999849
 30
0.0
 11
637.000304
 21
1517.999849
 31
0.0
  0
ARC
  5
389
100
AcDbEntity
  8
フラッシュバルブ
  6
CONTINUOUS
 62
     6
100
AcDbCircle
 10
628.999969
 20
1523.99991
 30
0.0
 40
10.000305
100
AcDbArc
 50
323.130981
 51
328.212952
  0
POLYLINE
  5
38A
100
AcDbEntity
  8
フラッシュバルブ
  6
CONTINUOUS
 62
     6
100
AcDb2dPolyline
 66
     1
 10
0.0
 20
0.0
 30
0.0
 70
   128
  0
VERTEX
  5
38B
100
AcDbEntity
  8
フラッシュバルブ
  6
CONTINUOUS
 62
     6
100
AcDbVertex
100
AcDb2dVertex
 10
636.412383
 20
1524.000215
 30
0.0
  0
VERTEX
  5
38C
100
AcDbEntity
  8
フラッシュバルブ
  6
CONTINUOUS
 62
     6
100
AcDbVertex
100
AcDb2dVertex
 10
636.390716
 20
1524.459352
 30
0.0
  0
VERTEX
  5
38D
100
AcDbEntity
  8
フラッシュバルブ
  6
CONTINUOUS
 62
     6
100
AcDbVertex
100
AcDb2dVertex
 10
636.326324
 20
1524.915284
 30
0.0
  0
VERTEX
  5
38E
100
AcDbEntity
  8
フラッシュバルブ
  6
CONTINUOUS
 62
     6
100
AcDbVertex
100
AcDb2dVertex
 10
636.219359
 20
1525.363588
 30
0.0
  0
VERTEX
  5
38F
100
AcDbEntity
  8
フラッシュバルブ
  6
CONTINUOUS
 62
     6
100
AcDbVertex
100
AcDb2dVertex
 10
636.070739
 20
1525.80182
 30
0.0
  0
VERTEX
  5
390
100
AcDbEntity
  8
フラッシュバルブ
  6
CONTINUOUS
 62
     6
100
AcDbVertex
100
AcDb2dVertex
 10
635.881835
 20
1526.226625
 30
0.0
  0
VERTEX
  5
391
100
AcDbEntity
  8
フラッシュバルブ
  6
CONTINUOUS
 62
     6
100
AcDbVertex
100
AcDb2dVertex
 10
635.653869
 20
1526.634034
 30
0.0
  0
VERTEX
  5
392
100
AcDbEntity
  8
フラッシュバルブ
  6
CONTINUOUS
 62
     6
100
AcDbVertex
100
AcDb2dVertex
 10
635.388366
 20
1527.021608
 30
0.0
  0
VERTEX
  5
393
100
AcDbEntity
  8
フラッシュバルブ
  6
CONTINUOUS
 62
     6
100
AcDbVertex
100
AcDb2dVertex
 10
635.087768
 20
1527.386445
 30
0.0
  0
VERTEX
  5
394
100
AcDbEntity
  8
フラッシュバルブ
  6
CONTINUOUS
 62
     6
100
AcDbVertex
100
AcDb2dVertex
 10
634.754058
 20
1527.725038
 30
0.0
  0
VERTEX
  5
395
100
AcDbEntity
  8
フラッシュバルブ
  6
CONTINUOUS
 62
     6
100
AcDbVertex
100
AcDb2dVertex
 10
634.389831
 20
1528.035554
 30
0.0
  0
VERTEX
  5
396
100
AcDbEntity
  8
フラッシュバルブ
  6
CONTINUOUS
 62
     6
100
AcDbVertex
100
AcDb2dVertex
 10
633.997985
 20
1528.315248
 30
0.0
  0
VERTEX
  5
397
100
AcDbEntity
  8
フラッシュバルブ
  6
CONTINUOUS
 62
     6
100
AcDbVertex
100
AcDb2dVertex
 10
633.58142
 20
1528.562135
 30
0.0
  0
VERTEX
  5
398
100
AcDbEntity
  8
フラッシュバルブ
  6
CONTINUOUS
 62
     6
100
AcDbVertex
100
AcDb2dVertex
 10
633.14334
 20
1528.774385
 30
0.0
  0
VERTEX
  5
399
100
AcDbEntity
  8
フラッシュバルブ
  6
CONTINUOUS
 62
     6
100
AcDbVertex
100
AcDb2dVertex
 10
632.68695
 20
1528.950318
 30
0.0
  0
VERTEX
  5
39A
100
AcDbEntity
  8
フラッシュバルブ
  6
CONTINUOUS
 62
     6
100
AcDbVertex
100
AcDb2dVertex
 10
632.215911
 20
1529.088258
 30
0.0
  0
VERTEX
  5
39B
100
AcDbEntity
  8
フラッシュバルブ
  6
CONTINUOUS
 62
     6
100
AcDbVertex
100
AcDb2dVertex
 10
631.733733
 20
1529.187745
 30
0.0
  0
VERTEX
  5
39C
100
AcDbEntity
  8
フラッシュバルブ
  6
CONTINUOUS
 62
     6
100
AcDbVertex
100
AcDb2dVertex
 10
631.243926
 20
1529.247712
 30
0.0
  0
VERTEX
  5
39D
100
AcDbEntity
  8
フラッシュバルブ
  6
CONTINUOUS
 62
     6
100
AcDbVertex
100
AcDb2dVertex
 10
630.750457
 20
1529.267854
 30
0.0
  0
VERTEX
  5
39E
100
AcDbEntity
  8
フラッシュバルブ
  6
CONTINUOUS
 62
     6
100
AcDbVertex
100
AcDb2dVertex
 10
630.256988
 20
1529.247865
 30
0.0
  0
VERTEX
  5
39F
100
AcDbEntity
  8
フラッシュバルブ
  6
CONTINUOUS
 62
     6
100
AcDbVertex
100
AcDb2dVertex
 10
629.76718
 20
1529.187898
 30
0.0
  0
VERTEX
  5
3A0
100
AcDbEntity
  8
フラッシュバルブ
  6
CONTINUOUS
 62
     6
100
AcDbVertex
100
AcDb2dVertex
 10
629.285003
 20
1529.088258
 30
0.0
  0
VERTEX
  5
3A1
100
AcDbEntity
  8
フラッシュバルブ
  6
CONTINUOUS
 62
     6
100
AcDbVertex
100
AcDb2dVertex
 10
628.813964
 20
1528.950013
 30
0.0
  0
VERTEX
  5
3A2
100
AcDbEntity
  8
フラッシュバルブ
  6
CONTINUOUS
 62
     6
100
AcDbVertex
100
AcDb2dVertex
 10
628.357574
 20
1528.774079
 30
0.0
  0
VERTEX
  5
3A3
100
AcDbEntity
  8
フラッシュバルブ
  6
CONTINUOUS
 62
     6
100
AcDbVertex
100
AcDb2dVertex
 10
627.919341
 20
1528.562135
 30
0.0
  0
VERTEX
  5
3A4
100
AcDbEntity
  8
フラッシュバルブ
  6
CONTINUOUS
 62
     6
100
AcDbVertex
100
AcDb2dVertex
 10
627.502776
 20
1528.315248
 30
0.0
  0
VERTEX
  5
3A5
100
AcDbEntity
  8
フラッシュバルブ
  6
CONTINUOUS
 62
     6
100
AcDbVertex
100
AcDb2dVertex
 10
627.11093
 20
1528.035554
 30
0.0
  0
VERTEX
  5
3A6
100
AcDbEntity
  8
フラッシュバルブ
  6
CONTINUOUS
 62
     6
100
AcDbVertex
100
AcDb2dVertex
 10
626.746703
 20
1527.725038
 30
0.0
  0
VERTEX
  5
3A7
100
AcDbEntity
  8
フラッシュバルブ
  6
CONTINUOUS
 62
     6
100
AcDbVertex
100
AcDb2dVertex
 10
626.412993
 20
1527.386293
 30
0.0
  0
VERTEX
  5
3A8
100
AcDbEntity
  8
フラッシュバルブ
  6
CONTINUOUS
 62
     6
100
AcDbVertex
100
AcDb2dVertex
 10
626.112395
 20
1527.02176
 30
0.0
  0
VERTEX
  5
3A9
100
AcDbEntity
  8
フラッシュバルブ
  6
CONTINUOUS
 62
     6
100
AcDbVertex
100
AcDb2dVertex
 10
625.847045
 20
1526.634034
 30
0.0
  0
VERTEX
  5
3AA
100
AcDbEntity
  8
フラッシュバルブ
  6
CONTINUOUS
 62
     6
100
AcDbVertex
100
AcDb2dVertex
 10
625.619079
 20
1526.226472
 30
0.0
  0
VERTEX
  5
3AB
100
AcDbEntity
  8
フラッシュバルブ
  6
CONTINUOUS
 62
     6
100
AcDbVertex
100
AcDb2dVertex
 10
625.430022
 20
1525.801973
 30
0.0
  0
VERTEX
  5
3AC
100
AcDbEntity
  8
フラッシュバルブ
  6
CONTINUOUS
 62
     6
100
AcDbVertex
100
AcDb2dVertex
 10
625.281402
 20
1525.363588
 30
0.0
  0
VERTEX
  5
3AD
100
AcDbEntity
  8
フラッシュバルブ
  6
CONTINUOUS
 62
     6
100
AcDbVertex
100
AcDb2dVertex
 10
625.17459
 20
1524.914979
 30
0.0
  0
VERTEX
  5
3AE
100
AcDbEntity
  8
フラッシュバルブ
  6
CONTINUOUS
 62
     6
100
AcDbVertex
100
AcDb2dVertex
 10
625.110045
 20
1524.459352
 30
0.0
  0
VERTEX
  5
3AF
100
AcDbEntity
  8
フラッシュバルブ
  6
CONTINUOUS
 62
     6
100
AcDbVertex
100
AcDb2dVertex
 10
625.088531
 20
1524.000215
 30
0.0
  0
VERTEX
  5
3B0
100
AcDbEntity
  8
フラッシュバルブ
  6
CONTINUOUS
 62
     6
100
AcDbVertex
100
AcDb2dVertex
 10
625.110198
 20
1523.54123
 30
0.0
  0
VERTEX
  5
3B1
100
AcDbEntity
  8
フラッシュバルブ
  6
CONTINUOUS
 62
     6
100
AcDbVertex
100
AcDb2dVertex
 10
625.17459
 20
1523.085755
 30
0.0
  0
VERTEX
  5
3B2
100
AcDbEntity
  8
フラッシュバルブ
  6
CONTINUOUS
 62
     6
100
AcDbVertex
100
AcDb2dVertex
 10
625.281402
 20
1522.636537
 30
0.0
  0
VERTEX
  5
3B3
100
AcDbEntity
  8
フラッシュバルブ
  6
CONTINUOUS
 62
     6
100
AcDbVertex
100
AcDb2dVertex
 10
625.430022
 20
1522.198304
 30
0.0
  0
VERTEX
  5
3B4
100
AcDbEntity
  8
フラッシュバルブ
  6
CONTINUOUS
 62
     6
100
AcDbVertex
100
AcDb2dVertex
 10
625.618926
 20
1521.7735
 30
0.0
  0
VERTEX
  5
3B5
100
AcDbEntity
  8
フラッシュバルブ
  6
CONTINUOUS
 62
     6
100
AcDbVertex
100
AcDb2dVertex
 10
625.847045
 20
1521.365937
 30
0.0
  0
VERTEX
  5
3B6
100
AcDbEntity
  8
フラッシュバルブ
  6
CONTINUOUS
 62
     6
100
AcDbVertex
100
AcDb2dVertex
 10
626.112548
 20
1520.978364
 30
0.0
  0
VERTEX
  5
3B7
100
AcDbEntity
  8
フラッシュバルブ
  6
CONTINUOUS
 62
     6
100
AcDbVertex
100
AcDb2dVertex
 10
626.413146
 20
1520.613526
 30
0.0
  0
VERTEX
  5
3B8
100
AcDbEntity
  8
フラッシュバルブ
  6
CONTINUOUS
 62
     6
100
AcDbVertex
100
AcDb2dVertex
 10
626.746703
 20
1520.275087
 30
0.0
  0
VERTEX
  5
3B9
100
AcDbEntity
  8
フラッシュバルブ
  6
CONTINUOUS
 62
     6
100
AcDbVertex
100
AcDb2dVertex
 10
627.11093
 20
1519.96457
 30
0.0
  0
VERTEX
  5
3BA
100
AcDbEntity
  8
フラッシュバルブ
  6
CONTINUOUS
 62
     6
100
AcDbVertex
100
AcDb2dVertex
 10
627.502776
 20
1519.684877
 30
0.0
  0
VERTEX
  5
3BB
100
AcDbEntity
  8
フラッシュバルブ
  6
CONTINUOUS
 62
     6
100
AcDbVertex
100
AcDb2dVertex
 10
627.919341
 20
1519.437989
 30
0.0
  0
VERTEX
  5
3BC
100
AcDbEntity
  8
フラッシュバルブ
  6
CONTINUOUS
 62
     6
100
AcDbVertex
100
AcDb2dVertex
 10
628.357421
 20
1519.22574
 30
0.0
  0
VERTEX
  5
3BD
100
AcDbEntity
  8
フラッシュバルブ
  6
CONTINUOUS
 62
     6
100
AcDbVertex
100
AcDb2dVertex
 10
628.813811
 20
1519.049806
 30
0.0
  0
VERTEX
  5
3BE
100
AcDbEntity
  8
フラッシュバルブ
  6
CONTINUOUS
 62
     6
100
AcDbVertex
100
AcDb2dVertex
 10
629.285003
 20
1518.911714
 30
0.0
  0
VERTEX
  5
3BF
100
AcDbEntity
  8
フラッシュバルブ
  6
CONTINUOUS
 62
     6
100
AcDbVertex
100
AcDb2dVertex
 10
629.767333
 20
1518.812226
 30
0.0
  0
VERTEX
  5
3C0
100
AcDbEntity
  8
フラッシュバルブ
  6
CONTINUOUS
 62
     6
100
AcDbVertex
100
AcDb2dVertex
 10
630.256988
 20
1518.752259
 30
0.0
  0
VERTEX
  5
3C1
100
AcDbEntity
  8
フラッシュバルブ
  6
CONTINUOUS
 62
     6
100
AcDbVertex
100
AcDb2dVertex
 10
630.750457
 20
1518.731965
 30
0.0
  0
VERTEX
  5
3C2
100
AcDbEntity
  8
フラッシュバルブ
  6
CONTINUOUS
 62
     6
100
AcDbVertex
100
AcDb2dVertex
 10
631.243926
 20
1518.751954
 30
0.0
  0
VERTEX
  5
3C3
100
AcDbEntity
  8
フラッシュバルブ
  6
CONTINUOUS
 62
     6
100
AcDbVertex
100
AcDb2dVertex
 10
631.733733
 20
1518.811921
 30
0.0
  0
VERTEX
  5
3C4
100
AcDbEntity
  8
フラッシュバルブ
  6
CONTINUOUS
 62
     6
100
AcDbVertex
100
AcDb2dVertex
 10
632.215911
 20
1518.911714
 30
0.0
  0
VERTEX
  5
3C5
100
AcDbEntity
  8
フラッシュバルブ
  6
CONTINUOUS
 62
     6
100
AcDbVertex
100
AcDb2dVertex
 10
632.68695
 20
1519.049958
 30
0.0
  0
VERTEX
  5
3C6
100
AcDbEntity
  8
フラッシュバルブ
  6
CONTINUOUS
 62
     6
100
AcDbVertex
100
AcDb2dVertex
 10
633.14334
 20
1519.225892
 30
0.0
  0
SEQEND
  5
3C7
100
AcDbEntity
  8
フラッシュバルブ
  6
CONTINUOUS
 62
     6
  0
POLYLINE
  5
3C8
100
AcDbEntity
  8
フラッシュバルブ
  6
CONTINUOUS
 62
     6
100
AcDb2dPolyline
 66
     1
 10
0.0
 20
0.0
 30
0.0
 70
   128
  0
VERTEX
  5
3C9
100
AcDbEntity
  8
フラッシュバルブ
  6
CONTINUOUS
 62
     6
100
AcDbVertex
100
AcDb2dVertex
 10
633.14334
 20
1519.225892
 30
0.0
  0
VERTEX
  5
3CA
100
AcDbEntity
  8
フラッシュバルブ
  6
CONTINUOUS
 62
     6
100
AcDbVertex
100
AcDb2dVertex
 10
633.58142
 20
1519.437989
 30
0.0
  0
VERTEX
  5
3CB
100
AcDbEntity
  8
フラッシュバルブ
  6
CONTINUOUS
 62
     6
100
AcDbVertex
100
AcDb2dVertex
 10
633.997985
 20
1519.684877
 30
0.0
  0
VERTEX
  5
3CC
100
AcDbEntity
  8
フラッシュバルブ
  6
CONTINUOUS
 62
     6
100
AcDbVertex
100
AcDb2dVertex
 10
634.389831
 20
1519.96457
 30
0.0
  0
VERTEX
  5
3CD
100
AcDbEntity
  8
フラッシュバルブ
  6
CONTINUOUS
 62
     6
100
AcDbVertex
100
AcDb2dVertex
 10
634.754058
 20
1520.275087
 30
0.0
  0
VERTEX
  5
3CE
100
AcDbEntity
  8
フラッシュバルブ
  6
CONTINUOUS
 62
     6
100
AcDbVertex
100
AcDb2dVertex
 10
635.087768
 20
1520.613832
 30
0.0
  0
VERTEX
  5
3CF
100
AcDbEntity
  8
フラッシュバルブ
  6
CONTINUOUS
 62
     6
100
AcDbVertex
100
AcDb2dVertex
 10
635.388366
 20
1520.978364
 30
0.0
  0
VERTEX
  5
3D0
100
AcDbEntity
  8
フラッシュバルブ
  6
CONTINUOUS
 62
     6
100
AcDbVertex
100
AcDb2dVertex
 10
635.653869
 20
1521.365937
 30
0.0
  0
VERTEX
  5
3D1
100
AcDbEntity
  8
フラッシュバルブ
  6
CONTINUOUS
 62
     6
100
AcDbVertex
100
AcDb2dVertex
 10
635.881835
 20
1521.7735
 30
0.0
  0
VERTEX
  5
3D2
100
AcDbEntity
  8
フラッシュバルブ
  6
CONTINUOUS
 62
     6
100
AcDbVertex
100
AcDb2dVertex
 10
636.070891
 20
1522.197999
 30
0.0
  0
VERTEX
  5
3D3
100
AcDbEntity
  8
フラッシュバルブ
  6
CONTINUOUS
 62
     6
100
AcDbVertex
100
AcDb2dVertex
 10
636.219359
 20
1522.636537
 30
0.0
  0
SEQEND
  5
3D4
100
AcDbEntity
  8
フラッシュバルブ
  6
CONTINUOUS
 62
     6
  0
POLYLINE
  5
3D5
100
AcDbEntity
  8
フラッシュバルブ
  6
CONTINUOUS
 62
     6
100
AcDb2dPolyline
 66
     1
 10
0.0
 20
0.0
 30
0.0
 70
   128
  0
VERTEX
  5
3D6
100
AcDbEntity
  8
フラッシュバルブ
  6
CONTINUOUS
 62
     6
100
AcDbVertex
100
AcDb2dVertex
 10
636.219359
 20
1522.636537
 30
0.0
  0
VERTEX
  5
3D7
100
AcDbEntity
  8
フラッシュバルブ
  6
CONTINUOUS
 62
     6
100
AcDbVertex
100
AcDb2dVertex
 10
636.326171
 20
1523.085145
 30
0.0
  0
VERTEX
  5
3D8
100
AcDbEntity
  8
フラッシュバルブ
  6
CONTINUOUS
 62
     6
100
AcDbVertex
100
AcDb2dVertex
 10
636.390716
 20
1523.540773
 30
0.0
  0
VERTEX
  5
3D9
100
AcDbEntity
  8
フラッシュバルブ
  6
CONTINUOUS
 62
     6
100
AcDbVertex
100
AcDb2dVertex
 10
636.412231
 20
1523.999604
 30
0.0
  0
SEQEND
  5
3DA
100
AcDbEntity
  8
フラッシュバルブ
  6
CONTINUOUS
 62
     6
  0
POLYLINE
  5
3DB
100
AcDbEntity
  8
フラッシュバルブ
  6
CONTINUOUS
 62
     6
100
AcDb2dPolyline
 66
     1
 10
0.0
 20
0.0
 30
0.0
 70
   128
  0
VERTEX
  5
3DC
100
AcDbEntity
  8
フラッシュバルブ
  6
CONTINUOUS
 62
     6
100
AcDbVertex
100
AcDb2dVertex
 10
622.912627
 20
1524.000215
 30
0.0
  0
VERTEX
  5
3DD
100
AcDbEntity
  8
フラッシュバルブ
  6
CONTINUOUS
 62
     6
100
AcDbVertex
100
AcDb2dVertex
 10
622.89096
 20
1524.459352
 30
0.0
  0
VERTEX
  5
3DE
100
AcDbEntity
  8
フラッシュバルブ
  6
CONTINUOUS
 62
     6
100
AcDbVertex
100
AcDb2dVertex
 10
622.826568
 20
1524.915284
 30
0.0
  0
VERTEX
  5
3DF
100
AcDbEntity
  8
フラッシュバルブ
  6
CONTINUOUS
 62
     6
100
AcDbVertex
100
AcDb2dVertex
 10
622.719756
 20
1525.363588
 30
0.0
  0
VERTEX
  5
3E0
100
AcDbEntity
  8
フラッシュバルブ
  6
CONTINUOUS
 62
     6
100
AcDbVertex
100
AcDb2dVertex
 10
622.571136
 20
1525.80182
 30
0.0
  0
VERTEX
  5
3E1
100
AcDbEntity
  8
フラッシュバルブ
  6
CONTINUOUS
 62
     6
100
AcDbVertex
100
AcDb2dVertex
 10
622.382232
 20
1526.226625
 30
0.0
  0
VERTEX
  5
3E2
100
AcDbEntity
  8
フラッシュバルブ
  6
CONTINUOUS
 62
     6
100
AcDbVertex
100
AcDb2dVertex
 10
622.154113
 20
1526.634034
 30
0.0
  0
VERTEX
  5
3E3
100
AcDbEntity
  8
フラッシュバルブ
  6
CONTINUOUS
 62
     6
100
AcDbVertex
100
AcDb2dVertex
 10
621.88861
 20
1527.021608
 30
0.0
  0
VERTEX
  5
3E4
100
AcDbEntity
  8
フラッシュバルブ
  6
CONTINUOUS
 62
     6
100
AcDbVertex
100
AcDb2dVertex
 10
621.587859
 20
1527.386445
 30
0.0
  0
VERTEX
  5
3E5
100
AcDbEntity
  8
フラッシュバルブ
  6
CONTINUOUS
 62
     6
100
AcDbVertex
100
AcDb2dVertex
 10
621.254149
 20
1527.725038
 30
0.0
  0
VERTEX
  5
3E6
100
AcDbEntity
  8
フラッシュバルブ
  6
CONTINUOUS
 62
     6
100
AcDbVertex
100
AcDb2dVertex
 10
620.889922
 20
1528.035554
 30
0.0
  0
VERTEX
  5
3E7
100
AcDbEntity
  8
フラッシュバルブ
  6
CONTINUOUS
 62
     6
100
AcDbVertex
100
AcDb2dVertex
 10
620.498076
 20
1528.315248
 30
0.0
  0
VERTEX
  5
3E8
100
AcDbEntity
  8
フラッシュバルブ
  6
CONTINUOUS
 62
     6
100
AcDbVertex
100
AcDb2dVertex
 10
620.081512
 20
1528.562135
 30
0.0
  0
VERTEX
  5
3E9
100
AcDbEntity
  8
フラッシュバルブ
  6
CONTINUOUS
 62
     6
100
AcDbVertex
100
AcDb2dVertex
 10
619.643279
 20
1528.774385
 30
0.0
  0
VERTEX
  5
3EA
100
AcDbEntity
  8
フラッシュバルブ
  6
CONTINUOUS
 62
     6
100
AcDbVertex
100
AcDb2dVertex
 10
619.186889
 20
1528.950318
 30
0.0
  0
VERTEX
  5
3EB
100
AcDbEntity
  8
フラッシュバルブ
  6
CONTINUOUS
 62
     6
100
AcDbVertex
100
AcDb2dVertex
 10
618.71585
 20
1529.088258
 30
0.0
  0
VERTEX
  5
3EC
100
AcDbEntity
  8
フラッシュバルブ
  6
CONTINUOUS
 62
     6
100
AcDbVertex
100
AcDb2dVertex
 10
618.23352
 20
1529.187745
 30
0.0
  0
VERTEX
  5
3ED
100
AcDbEntity
  8
フラッシュバルブ
  6
CONTINUOUS
 62
     6
100
AcDbVertex
100
AcDb2dVertex
 10
617.743865
 20
1529.247712
 30
0.0
  0
VERTEX
  5
3EE
100
AcDbEntity
  8
フラッシュバルブ
  6
CONTINUOUS
 62
     6
100
AcDbVertex
100
AcDb2dVertex
 10
617.250243
 20
1529.267854
 30
0.0
  0
VERTEX
  5
3EF
100
AcDbEntity
  8
フラッシュバルブ
  6
CONTINUOUS
 62
     6
100
AcDbVertex
100
AcDb2dVertex
 10
616.756774
 20
1529.247865
 30
0.0
  0
VERTEX
  5
3F0
100
AcDbEntity
  8
フラッシュバルブ
  6
CONTINUOUS
 62
     6
100
AcDbVertex
100
AcDb2dVertex
 10
616.266967
 20
1529.187898
 30
0.0
  0
VERTEX
  5
3F1
100
AcDbEntity
  8
フラッシュバルブ
  6
CONTINUOUS
 62
     6
100
AcDbVertex
100
AcDb2dVertex
 10
615.784789
 20
1529.088258
 30
0.0
  0
VERTEX
  5
3F2
100
AcDbEntity
  8
フラッシュバルブ
  6
CONTINUOUS
 62
     6
100
AcDbVertex
100
AcDb2dVertex
 10
615.31375
 20
1528.950013
 30
0.0
  0
VERTEX
  5
3F3
100
AcDbEntity
  8
フラッシュバルブ
  6
CONTINUOUS
 62
     6
100
AcDbVertex
100
AcDb2dVertex
 10
614.85736
 20
1528.774079
 30
0.0
  0
VERTEX
  5
3F4
100
AcDbEntity
  8
フラッシュバルブ
  6
CONTINUOUS
 62
     6
100
AcDbVertex
100
AcDb2dVertex
 10
614.418975
 20
1528.562135
 30
0.0
  0
VERTEX
  5
3F5
100
AcDbEntity
  8
フラッシュバルブ
  6
CONTINUOUS
 62
     6
100
AcDbVertex
100
AcDb2dVertex
 10
614.00241
 20
1528.315248
 30
0.0
  0
VERTEX
  5
3F6
100
AcDbEntity
  8
フラッシュバルブ
  6
CONTINUOUS
 62
     6
100
AcDbVertex
100
AcDb2dVertex
 10
613.610564
 20
1528.035554
 30
0.0
  0
VERTEX
  5
3F7
100
AcDbEntity
  8
フラッシュバルブ
  6
CONTINUOUS
 62
     6
100
AcDbVertex
100
AcDb2dVertex
 10
613.246337
 20
1527.725038
 30
0.0
  0
VERTEX
  5
3F8
100
AcDbEntity
  8
フラッシュバルブ
  6
CONTINUOUS
 62
     6
100
AcDbVertex
100
AcDb2dVertex
 10
612.912627
 20
1527.386293
 30
0.0
  0
VERTEX
  5
3F9
100
AcDbEntity
  8
フラッシュバルブ
  6
CONTINUOUS
 62
     6
100
AcDbVertex
100
AcDb2dVertex
 10
612.611877
 20
1527.02176
 30
0.0
  0
VERTEX
  5
3FA
100
AcDbEntity
  8
フラッシュバルブ
  6
CONTINUOUS
 62
     6
100
AcDbVertex
100
AcDb2dVertex
 10
612.346526
 20
1526.634034
 30
0.0
  0
VERTEX
  5
3FB
100
AcDbEntity
  8
フラッシュバルブ
  6
CONTINUOUS
 62
     6
100
AcDbVertex
100
AcDb2dVertex
 10
612.11856
 20
1526.226472
 30
0.0
  0
VERTEX
  5
3FC
100
AcDbEntity
  8
フラッシュバルブ
  6
CONTINUOUS
 62
     6
100
AcDbVertex
100
AcDb2dVertex
 10
611.929503
 20
1525.801973
 30
0.0
  0
VERTEX
  5
3FD
100
AcDbEntity
  8
フラッシュバルブ
  6
CONTINUOUS
 62
     6
100
AcDbVertex
100
AcDb2dVertex
 10
611.780883
 20
1525.363588
 30
0.0
  0
VERTEX
  5
3FE
100
AcDbEntity
  8
フラッシュバルブ
  6
CONTINUOUS
 62
     6
100
AcDbVertex
100
AcDb2dVertex
 10
611.674071
 20
1524.914979
 30
0.0
  0
VERTEX
  5
3FF
100
AcDbEntity
  8
フラッシュバルブ
  6
CONTINUOUS
 62
     6
100
AcDbVertex
100
AcDb2dVertex
 10
611.609527
 20
1524.459352
 30
0.0
  0
VERTEX
  5
400
100
AcDbEntity
  8
フラッシュバルブ
  6
CONTINUOUS
 62
     6
100
AcDbVertex
100
AcDb2dVertex
 10
611.588012
 20
1524.000215
 30
0.0
  0
VERTEX
  5
401
100
AcDbEntity
  8
フラッシュバルブ
  6
CONTINUOUS
 62
     6
100
AcDbVertex
100
AcDb2dVertex
 10
611.609679
 20
1523.54123
 30
0.0
  0
VERTEX
  5
402
100
AcDbEntity
  8
フラッシュバルブ
  6
CONTINUOUS
 62
     6
100
AcDbVertex
100
AcDb2dVertex
 10
611.674071
 20
1523.085755
 30
0.0
  0
VERTEX
  5
403
100
AcDbEntity
  8
フラッシュバルブ
  6
CONTINUOUS
 62
     6
100
AcDbVertex
100
AcDb2dVertex
 10
611.780883
 20
1522.636537
 30
0.0
  0
VERTEX
  5
404
100
AcDbEntity
  8
フラッシュバルブ
  6
CONTINUOUS
 62
     6
100
AcDbVertex
100
AcDb2dVertex
 10
611.929503
 20
1522.198304
 30
0.0
  0
VERTEX
  5
405
100
AcDbEntity
  8
フラッシュバルブ
  6
CONTINUOUS
 62
     6
100
AcDbVertex
100
AcDb2dVertex
 10
612.118407
 20
1521.7735
 30
0.0
  0
VERTEX
  5
406
100
AcDbEntity
  8
フラッシュバルブ
  6
CONTINUOUS
 62
     6
100
AcDbVertex
100
AcDb2dVertex
 10
612.346526
 20
1521.365937
 30
0.0
  0
VERTEX
  5
407
100
AcDbEntity
  8
フラッシュバルブ
  6
CONTINUOUS
 62
     6
100
AcDbVertex
100
AcDb2dVertex
 10
612.612029
 20
1520.978364
 30
0.0
  0
VERTEX
  5
408
100
AcDbEntity
  8
フラッシュバルブ
  6
CONTINUOUS
 62
     6
100
AcDbVertex
100
AcDb2dVertex
 10
612.91278
 20
1520.613526
 30
0.0
  0
VERTEX
  5
409
100
AcDbEntity
  8
フラッシュバルブ
  6
CONTINUOUS
 62
     6
100
AcDbVertex
100
AcDb2dVertex
 10
613.246337
 20
1520.275087
 30
0.0
  0
VERTEX
  5
40A
100
AcDbEntity
  8
フラッシュバルブ
  6
CONTINUOUS
 62
     6
100
AcDbVertex
100
AcDb2dVertex
 10
613.610564
 20
1519.96457
 30
0.0
  0
VERTEX
  5
40B
100
AcDbEntity
  8
フラッシュバルブ
  6
CONTINUOUS
 62
     6
100
AcDbVertex
100
AcDb2dVertex
 10
614.00241
 20
1519.684877
 30
0.0
  0
VERTEX
  5
40C
100
AcDbEntity
  8
フラッシュバルブ
  6
CONTINUOUS
 62
     6
100
AcDbVertex
100
AcDb2dVertex
 10
614.418975
 20
1519.437989
 30
0.0
  0
VERTEX
  5
40D
100
AcDbEntity
  8
フラッシュバルブ
  6
CONTINUOUS
 62
     6
100
AcDbVertex
100
AcDb2dVertex
 10
614.857207
 20
1519.22574
 30
0.0
  0
VERTEX
  5
40E
100
AcDbEntity
  8
フラッシュバルブ
  6
CONTINUOUS
 62
     6
100
AcDbVertex
100
AcDb2dVertex
 10
615.313598
 20
1519.049806
 30
0.0
  0
VERTEX
  5
40F
100
AcDbEntity
  8
フラッシュバルブ
  6
CONTINUOUS
 62
     6
100
AcDbVertex
100
AcDb2dVertex
 10
615.784789
 20
1518.911714
 30
0.0
  0
VERTEX
  5
410
100
AcDbEntity
  8
フラッシュバルブ
  6
CONTINUOUS
 62
     6
100
AcDbVertex
100
AcDb2dVertex
 10
616.267119
 20
1518.812226
 30
0.0
  0
VERTEX
  5
411
100
AcDbEntity
  8
フラッシュバルブ
  6
CONTINUOUS
 62
     6
100
AcDbVertex
100
AcDb2dVertex
 10
616.756774
 20
1518.752259
 30
0.0
  0
VERTEX
  5
412
100
AcDbEntity
  8
フラッシュバルブ
  6
CONTINUOUS
 62
     6
100
AcDbVertex
100
AcDb2dVertex
 10
617.250243
 20
1518.731965
 30
0.0
  0
VERTEX
  5
413
100
AcDbEntity
  8
フラッシュバルブ
  6
CONTINUOUS
 62
     6
100
AcDbVertex
100
AcDb2dVertex
 10
617.743712
 20
1518.751954
 30
0.0
  0
VERTEX
  5
414
100
AcDbEntity
  8
フラッシュバルブ
  6
CONTINUOUS
 62
     6
100
AcDbVertex
100
AcDb2dVertex
 10
618.23352
 20
1518.811921
 30
0.0
  0
VERTEX
  5
415
100
AcDbEntity
  8
フラッシュバルブ
  6
CONTINUOUS
 62
     6
100
AcDbVertex
100
AcDb2dVertex
 10
618.71585
 20
1518.911714
 30
0.0
  0
VERTEX
  5
416
100
AcDbEntity
  8
フラッシュバルブ
  6
CONTINUOUS
 62
     6
100
AcDbVertex
100
AcDb2dVertex
 10
619.186889
 20
1519.049958
 30
0.0
  0
VERTEX
  5
417
100
AcDbEntity
  8
フラッシュバルブ
  6
CONTINUOUS
 62
     6
100
AcDbVertex
100
AcDb2dVertex
 10
619.643279
 20
1519.225892
 30
0.0
  0
SEQEND
  5
418
100
AcDbEntity
  8
フラッシュバルブ
  6
CONTINUOUS
 62
     6
  0
POLYLINE
  5
419
100
AcDbEntity
  8
フラッシュバルブ
  6
CONTINUOUS
 62
     6
100
AcDb2dPolyline
 66
     1
 10
0.0
 20
0.0
 30
0.0
 70
   128
  0
VERTEX
  5
41A
100
AcDbEntity
  8
フラッシュバルブ
  6
CONTINUOUS
 62
     6
100
AcDbVertex
100
AcDb2dVertex
 10
619.643279
 20
1519.225892
 30
0.0
  0
VERTEX
  5
41B
100
AcDbEntity
  8
フラッシュバルブ
  6
CONTINUOUS
 62
     6
100
AcDbVertex
100
AcDb2dVertex
 10
620.081512
 20
1519.437989
 30
0.0
  0
VERTEX
  5
41C
100
AcDbEntity
  8
フラッシュバルブ
  6
CONTINUOUS
 62
     6
100
AcDbVertex
100
AcDb2dVertex
 10
620.498076
 20
1519.684877
 30
0.0
  0
VERTEX
  5
41D
100
AcDbEntity
  8
フラッシュバルブ
  6
CONTINUOUS
 62
     6
100
AcDbVertex
100
AcDb2dVertex
 10
620.889922
 20
1519.96457
 30
0.0
  0
VERTEX
  5
41E
100
AcDbEntity
  8
フラッシュバルブ
  6
CONTINUOUS
 62
     6
100
AcDbVertex
100
AcDb2dVertex
 10
621.254149
 20
1520.275087
 30
0.0
  0
VERTEX
  5
41F
100
AcDbEntity
  8
フラッシュバルブ
  6
CONTINUOUS
 62
     6
100
AcDbVertex
100
AcDb2dVertex
 10
621.587859
 20
1520.613832
 30
0.0
  0
VERTEX
  5
420
100
AcDbEntity
  8
フラッシュバルブ
  6
CONTINUOUS
 62
     6
100
AcDbVertex
100
AcDb2dVertex
 10
621.88861
 20
1520.978364
 30
0.0
  0
VERTEX
  5
421
100
AcDbEntity
  8
フラッシュバルブ
  6
CONTINUOUS
 62
     6
100
AcDbVertex
100
AcDb2dVertex
 10
622.154113
 20
1521.365937
 30
0.0
  0
VERTEX
  5
422
100
AcDbEntity
  8
フラッシュバルブ
  6
CONTINUOUS
 62
     6
100
AcDbVertex
100
AcDb2dVertex
 10
622.382079
 20
1521.7735
 30
0.0
  0
VERTEX
  5
423
100
AcDbEntity
  8
フラッシュバルブ
  6
CONTINUOUS
 62
     6
100
AcDbVertex
100
AcDb2dVertex
 10
622.571136
 20
1522.197999
 30
0.0
  0
VERTEX
  5
424
100
AcDbEntity
  8
フラッシュバルブ
  6
CONTINUOUS
 62
     6
100
AcDbVertex
100
AcDb2dVertex
 10
622.719756
 20
1522.636537
 30
0.0
  0
SEQEND
  5
425
100
AcDbEntity
  8
フラッシュバルブ
  6
CONTINUOUS
 62
     6
  0
POLYLINE
  5
426
100
AcDbEntity
  8
フラッシュバルブ
  6
CONTINUOUS
 62
     6
100
AcDb2dPolyline
 66
     1
 10
0.0
 20
0.0
 30
0.0
 70
   128
  0
VERTEX
  5
427
100
AcDbEntity
  8
フラッシュバルブ
  6
CONTINUOUS
 62
     6
100
AcDbVertex
100
AcDb2dVertex
 10
622.719756
 20
1522.636537
 30
0.0
  0
VERTEX
  5
428
100
AcDbEntity
  8
フラッシュバルブ
  6
CONTINUOUS
 62
     6
100
AcDbVertex
100
AcDb2dVertex
 10
622.826568
 20
1523.085145
 30
0.0
  0
VERTEX
  5
429
100
AcDbEntity
  8
フラッシュバルブ
  6
CONTINUOUS
 62
     6
100
AcDbVertex
100
AcDb2dVertex
 10
622.891112
 20
1523.540773
 30
0.0
  0
VERTEX
  5
42A
100
AcDbEntity
  8
フラッシュバルブ
  6
CONTINUOUS
 62
     6
100
AcDbVertex
100
AcDb2dVertex
 10
622.912627
 20
1523.999604
 30
0.0
  0
SEQEND
  5
42B
100
AcDbEntity
  8
フラッシュバルブ
  6
CONTINUOUS
 62
     6
  0
LINE
  5
42C
100
AcDbEntity
  8
フラッシュバルブ
  6
CONTINUOUS
 62
     6
100
AcDbLine
 10
636.500274
 20
1514.49994
 30
0.0
 11
636.500274
 21
1517.999849
 31
0.0
  0
LINE
  5
42D
100
AcDbEntity
  8
フラッシュバルブ
  6
CONTINUOUS
 62
     6
100
AcDbLine
 10
611.500274
 20
1514.49994
 30
0.0
 11
611.500274
 21
1517.999849
 31
0.0
  0
LINE
  5
42E
100
AcDbEntity
  8
フラッシュバルブ
  6
CONTINUOUS
 62
     6
100
AcDbLine
 10
637.500335
 20
1513.000001
 30
0.0
 11
637.500335
 21
1508.000001
 31
0.0
  0
LINE
  5
42F
100
AcDbEntity
  8
フラッシュバルブ
  6
CONTINUOUS
 62
     6
100
AcDbLine
 10
636.412383
 20
1514.49994
 30
0.0
 11
637.500335
 21
1513.000001
 31
0.0
  0
LINE
  5
430
100
AcDbEntity
  8
フラッシュバルブ
  6
CONTINUOUS
 62
     6
100
AcDbLine
 10
611.587859
 20
1514.49994
 30
0.0
 11
636.412383
 21
1514.49994
 31
0.0
  0
LINE
  5
431
100
AcDbEntity
  8
フラッシュバルブ
  6
CONTINUOUS
 62
     6
100
AcDbLine
 10
610.500213
 20
1513.000001
 30
0.0
 11
611.587859
 21
1514.49994
 31
0.0
  0
LINE
  5
432
100
AcDbEntity
  8
フラッシュバルブ
  6
CONTINUOUS
 62
     6
100
AcDbLine
 10
610.500213
 20
1513.000001
 30
0.0
 11
610.500213
 21
1508.000001
 31
0.0
  0
LINE
  5
433
100
AcDbEntity
  8
フラッシュバルブ
  6
CONTINUOUS
 62
     6
100
AcDbLine
 10
636.412383
 20
1513.000001
 30
0.0
 11
636.412383
 21
1508.000001
 31
0.0
  0
LINE
  5
434
100
AcDbEntity
  8
フラッシュバルブ
  6
CONTINUOUS
 62
     6
100
AcDbLine
 10
625.088378
 20
1513.000001
 30
0.0
 11
625.088378
 21
1508.000001
 31
0.0
  0
LINE
  5
435
100
AcDbEntity
  8
フラッシュバルブ
  6
CONTINUOUS
 62
     6
100
AcDbLine
 10
622.912627
 20
1513.000001
 30
0.0
 11
622.912627
 21
1508.000001
 31
0.0
  0
LINE
  5
436
100
AcDbEntity
  8
フラッシュバルブ
  6
CONTINUOUS
 62
     6
100
AcDbLine
 10
611.587859
 20
1513.000001
 30
0.0
 11
611.587859
 21
1508.000001
 31
0.0
  0
LINE
  5
437
100
AcDbEntity
  8
フラッシュバルブ
  6
CONTINUOUS
 62
     6
100
AcDbLine
 10
636.412383
 20
1513.000001
 30
0.0
 11
637.500335
 21
1513.000001
 31
0.0
  0
ARC
  5
438
100
AcDbEntity
  8
フラッシュバルブ
  6
CONTINUOUS
 62
     6
100
AcDbCircle
 10
630.750457
 20
1503.063478
 30
0.0
 40
11.436434
100
AcDbArc
 50
60.325043
 51
119.675568
  0
LINE
  5
439
100
AcDbEntity
  8
フラッシュバルブ
  6
CONTINUOUS
 62
     6
100
AcDbLine
 10
622.912627
 20
1513.000001
 30
0.0
 11
625.088378
 21
1513.000001
 31
0.0
  0
ARC
  5
43A
100
AcDbEntity
  8
フラッシュバルブ
  6
CONTINUOUS
 62
     6
100
AcDbCircle
 10
617.250243
 20
1503.061952
 30
0.0
 40
11.437979
100
AcDbArc
 50
60.326843
 51
119.673157
  0
LINE
  5
43B
100
AcDbEntity
  8
フラッシュバルブ
  6
CONTINUOUS
 62
     6
100
AcDbLine
 10
610.500213
 20
1513.000001
 30
0.0
 11
611.587859
 21
1513.000001
 31
0.0
  0
LINE
  5
43C
100
AcDbEntity
  8
フラッシュバルブ
  6
CONTINUOUS
 62
     6
100
AcDbLine
 10
644.000274
 20
1508.000001
 30
0.0
 11
644.000274
 21
1503.000001
 31
0.0
  0
LINE
  5
43D
100
AcDbEntity
  8
フラッシュバルブ
  6
CONTINUOUS
 62
     6
100
AcDbLine
 10
604.000274
 20
1508.000001
 30
0.0
 11
644.000274
 21
1508.000001
 31
0.0
  0
LINE
  5
43E
100
AcDbEntity
  8
フラッシュバルブ
  6
CONTINUOUS
 62
     6
100
AcDbLine
 10
604.000274
 20
1508.000001
 30
0.0
 11
604.000274
 21
1503.000001
 31
0.0
  0
ARC
  5
43F
100
AcDbEntity
  8
フラッシュバルブ
  6
CONTINUOUS
 62
     6
100
AcDbCircle
 10
1672.810089
 20
1523.995286
 30
0.0
 40
10.000305
100
AcDbArc
 50
323.130981
 51
36.869019
  0
LINE
  5
440
100
AcDbEntity
  8
フラッシュバルブ
  6
CONTINUOUS
 62
     6
100
AcDbLine
 10
1654.810364
 20
1529.995347
 30
0.0
 11
1680.810425
 21
1529.995347
 31
0.0
  0
ARC
  5
441
100
AcDbEntity
  8
フラッシュバルブ
  6
CONTINUOUS
 62
     6
100
AcDbCircle
 10
1662.810699
 20
1523.995286
 30
0.0
 40
10.000305
100
AcDbArc
 50
143.130981
 51
216.869019
  0
LINE
  5
442
100
AcDbEntity
  8
フラッシュバルブ
  6
CONTINUOUS
 62
     6
100
AcDbLine
 10
1654.810364
 20
1517.995225
 30
0.0
 11
1680.810425
 21
1517.995225
 31
0.0
  0
POLYLINE
  5
443
100
AcDbEntity
  8
フラッシュバルブ
  6
CONTINUOUS
 62
     6
100
AcDb2dPolyline
 66
     1
 10
0.0
 20
0.0
 30
0.0
 70
   128
  0
VERTEX
  5
444
100
AcDbEntity
  8
フラッシュバルブ
  6
CONTINUOUS
 62
     6
100
AcDbVertex
100
AcDb2dVertex
 10
1682.771027
 20
1523.995591
 30
0.0
  0
VERTEX
  5
445
100
AcDbEntity
  8
フラッシュバルブ
  6
CONTINUOUS
 62
     6
100
AcDbVertex
100
AcDb2dVertex
 10
1682.758514
 20
1524.454728
 30
0.0
  0
VERTEX
  5
446
100
AcDbEntity
  8
フラッシュバルブ
  6
CONTINUOUS
 62
     6
100
AcDbVertex
100
AcDb2dVertex
 10
1682.721283
 20
1524.91066
 30
0.0
  0
VERTEX
  5
447
100
AcDbEntity
  8
フラッシュバルブ
  6
CONTINUOUS
 62
     6
100
AcDbVertex
100
AcDb2dVertex
 10
1682.65979
 20
1525.358964
 30
0.0
  0
VERTEX
  5
448
100
AcDbEntity
  8
フラッシュバルブ
  6
CONTINUOUS
 62
     6
100
AcDbVertex
100
AcDb2dVertex
 10
1682.574036
 20
1525.797196
 30
0.0
  0
VERTEX
  5
449
100
AcDbEntity
  8
フラッシュバルブ
  6
CONTINUOUS
 62
     6
100
AcDbVertex
100
AcDb2dVertex
 10
1682.464935
 20
1526.222001
 30
0.0
  0
VERTEX
  5
44A
100
AcDbEntity
  8
フラッシュバルブ
  6
CONTINUOUS
 62
     6
100
AcDbVertex
100
AcDb2dVertex
 10
1682.333252
 20
1526.62941
 30
0.0
  0
VERTEX
  5
44B
100
AcDbEntity
  8
フラッシュバルブ
  6
CONTINUOUS
 62
     6
100
AcDbVertex
100
AcDb2dVertex
 10
1682.180054
 20
1527.016984
 30
0.0
  0
VERTEX
  5
44C
100
AcDbEntity
  8
フラッシュバルブ
  6
CONTINUOUS
 62
     6
100
AcDbVertex
100
AcDb2dVertex
 10
1682.006561
 20
1527.381821
 30
0.0
  0
VERTEX
  5
44D
100
AcDbEntity
  8
フラッシュバルブ
  6
CONTINUOUS
 62
     6
100
AcDbVertex
100
AcDb2dVertex
 10
1681.813538
 20
1527.720414
 30
0.0
  0
VERTEX
  5
44E
100
AcDbEntity
  8
フラッシュバルブ
  6
CONTINUOUS
 62
     6
100
AcDbVertex
100
AcDb2dVertex
 10
1681.603271
 20
1528.03093
 30
0.0
  0
VERTEX
  5
44F
100
AcDbEntity
  8
フラッシュバルブ
  6
CONTINUOUS
 62
     6
100
AcDbVertex
100
AcDb2dVertex
 10
1681.377136
 20
1528.310624
 30
0.0
  0
VERTEX
  5
450
100
AcDbEntity
  8
フラッシュバルブ
  6
CONTINUOUS
 62
     6
100
AcDbVertex
100
AcDb2dVertex
 10
1681.136505
 20
1528.557511
 30
0.0
  0
VERTEX
  5
451
100
AcDbEntity
  8
フラッシュバルブ
  6
CONTINUOUS
 62
     6
100
AcDbVertex
100
AcDb2dVertex
 10
1680.883514
 20
1528.769761
 30
0.0
  0
VERTEX
  5
452
100
AcDbEntity
  8
フラッシュバルブ
  6
CONTINUOUS
 62
     6
100
AcDbVertex
100
AcDb2dVertex
 10
1680.620148
 20
1528.945695
 30
0.0
  0
VERTEX
  5
453
100
AcDbEntity
  8
フラッシュバルブ
  6
CONTINUOUS
 62
     6
100
AcDbVertex
100
AcDb2dVertex
 10
1680.347931
 20
1529.083634
 30
0.0
  0
VERTEX
  5
454
100
AcDbEntity
  8
フラッシュバルブ
  6
CONTINUOUS
 62
     6
100
AcDbVertex
100
AcDb2dVertex
 10
1680.069458
 20
1529.183121
 30
0.0
  0
VERTEX
  5
455
100
AcDbEntity
  8
フラッシュバルブ
  6
CONTINUOUS
 62
     6
100
AcDbVertex
100
AcDb2dVertex
 10
1679.786865
 20
1529.243088
 30
0.0
  0
VERTEX
  5
456
100
AcDbEntity
  8
フラッシュバルブ
  6
CONTINUOUS
 62
     6
100
AcDbVertex
100
AcDb2dVertex
 10
1679.501526
 20
1529.26323
 30
0.0
  0
VERTEX
  5
457
100
AcDbEntity
  8
フラッシュバルブ
  6
CONTINUOUS
 62
     6
100
AcDbVertex
100
AcDb2dVertex
 10
1679.216492
 20
1529.243241
 30
0.0
  0
VERTEX
  5
458
100
AcDbEntity
  8
フラッシュバルブ
  6
CONTINUOUS
 62
     6
100
AcDbVertex
100
AcDb2dVertex
 10
1678.933594
 20
1529.183274
 30
0.0
  0
VERTEX
  5
459
100
AcDbEntity
  8
フラッシュバルブ
  6
CONTINUOUS
 62
     6
100
AcDbVertex
100
AcDb2dVertex
 10
1678.655426
 20
1529.083634
 30
0.0
  0
VERTEX
  5
45A
100
AcDbEntity
  8
フラッシュバルブ
  6
CONTINUOUS
 62
     6
100
AcDbVertex
100
AcDb2dVertex
 10
1678.383362
 20
1528.945389
 30
0.0
  0
VERTEX
  5
45B
100
AcDbEntity
  8
フラッシュバルブ
  6
CONTINUOUS
 62
     6
100
AcDbVertex
100
AcDb2dVertex
 10
1678.119842
 20
1528.769456
 30
0.0
  0
VERTEX
  5
45C
100
AcDbEntity
  8
フラッシュバルブ
  6
CONTINUOUS
 62
     6
100
AcDbVertex
100
AcDb2dVertex
 10
1677.867004
 20
1528.557511
 30
0.0
  0
VERTEX
  5
45D
100
AcDbEntity
  8
フラッシュバルブ
  6
CONTINUOUS
 62
     6
100
AcDbVertex
100
AcDb2dVertex
 10
1677.626526
 20
1528.310624
 30
0.0
  0
VERTEX
  5
45E
100
AcDbEntity
  8
フラッシュバルブ
  6
CONTINUOUS
 62
     6
100
AcDbVertex
100
AcDb2dVertex
 10
1677.400085
 20
1528.03093
 30
0.0
  0
VERTEX
  5
45F
100
AcDbEntity
  8
フラッシュバルブ
  6
CONTINUOUS
 62
     6
100
AcDbVertex
100
AcDb2dVertex
 10
1677.189819
 20
1527.720414
 30
0.0
  0
VERTEX
  5
460
100
AcDbEntity
  8
フラッシュバルブ
  6
CONTINUOUS
 62
     6
100
AcDbVertex
100
AcDb2dVertex
 10
1676.997101
 20
1527.381669
 30
0.0
  0
VERTEX
  5
461
100
AcDbEntity
  8
フラッシュバルブ
  6
CONTINUOUS
 62
     6
100
AcDbVertex
100
AcDb2dVertex
 10
1676.823456
 20
1527.017136
 30
0.0
  0
VERTEX
  5
462
100
AcDbEntity
  8
フラッシュバルブ
  6
CONTINUOUS
 62
     6
100
AcDbVertex
100
AcDb2dVertex
 10
1676.670258
 20
1526.62941
 30
0.0
  0
VERTEX
  5
463
100
AcDbEntity
  8
フラッシュバルブ
  6
CONTINUOUS
 62
     6
100
AcDbVertex
100
AcDb2dVertex
 10
1676.538574
 20
1526.221848
 30
0.0
  0
VERTEX
  5
464
100
AcDbEntity
  8
フラッシュバルブ
  6
CONTINUOUS
 62
     6
100
AcDbVertex
100
AcDb2dVertex
 10
1676.429321
 20
1525.797349
 30
0.0
  0
VERTEX
  5
465
100
AcDbEntity
  8
フラッシュバルブ
  6
CONTINUOUS
 62
     6
100
AcDbVertex
100
AcDb2dVertex
 10
1676.343872
 20
1525.358964
 30
0.0
  0
VERTEX
  5
466
100
AcDbEntity
  8
フラッシュバルブ
  6
CONTINUOUS
 62
     6
100
AcDbVertex
100
AcDb2dVertex
 10
1676.282227
 20
1524.910355
 30
0.0
  0
VERTEX
  5
467
100
AcDbEntity
  8
フラッシュバルブ
  6
CONTINUOUS
 62
     6
100
AcDbVertex
100
AcDb2dVertex
 10
1676.245148
 20
1524.454728
 30
0.0
  0
VERTEX
  5
468
100
AcDbEntity
  8
フラッシュバルブ
  6
CONTINUOUS
 62
     6
100
AcDbVertex
100
AcDb2dVertex
 10
1676.232483
 20
1523.995591
 30
0.0
  0
VERTEX
  5
469
100
AcDbEntity
  8
フラッシュバルブ
  6
CONTINUOUS
 62
     6
100
AcDbVertex
100
AcDb2dVertex
 10
1676.244995
 20
1523.536606
 30
0.0
  0
VERTEX
  5
46A
100
AcDbEntity
  8
フラッシュバルブ
  6
CONTINUOUS
 62
     6
100
AcDbVertex
100
AcDb2dVertex
 10
1676.282379
 20
1523.081132
 30
0.0
  0
VERTEX
  5
46B
100
AcDbEntity
  8
フラッシュバルブ
  6
CONTINUOUS
 62
     6
100
AcDbVertex
100
AcDb2dVertex
 10
1676.343872
 20
1522.631913
 30
0.0
  0
VERTEX
  5
46C
100
AcDbEntity
  8
フラッシュバルブ
  6
CONTINUOUS
 62
     6
100
AcDbVertex
100
AcDb2dVertex
 10
1676.429626
 20
1522.19368
 30
0.0
  0
VERTEX
  5
46D
100
AcDbEntity
  8
フラッシュバルブ
  6
CONTINUOUS
 62
     6
100
AcDbVertex
100
AcDb2dVertex
 10
1676.538879
 20
1521.768876
 30
0.0
  0
VERTEX
  5
46E
100
AcDbEntity
  8
フラッシュバルブ
  6
CONTINUOUS
 62
     6
100
AcDbVertex
100
AcDb2dVertex
 10
1676.670258
 20
1521.361313
 30
0.0
  0
VERTEX
  5
46F
100
AcDbEntity
  8
フラッシュバルブ
  6
CONTINUOUS
 62
     6
100
AcDbVertex
100
AcDb2dVertex
 10
1676.823456
 20
1520.97374
 30
0.0
  0
VERTEX
  5
470
100
AcDbEntity
  8
フラッシュバルブ
  6
CONTINUOUS
 62
     6
100
AcDbVertex
100
AcDb2dVertex
 10
1676.997101
 20
1520.608903
 30
0.0
  0
VERTEX
  5
471
100
AcDbEntity
  8
フラッシュバルブ
  6
CONTINUOUS
 62
     6
100
AcDbVertex
100
AcDb2dVertex
 10
1677.189819
 20
1520.270463
 30
0.0
  0
VERTEX
  5
472
100
AcDbEntity
  8
フラッシュバルブ
  6
CONTINUOUS
 62
     6
100
AcDbVertex
100
AcDb2dVertex
 10
1677.400085
 20
1519.959946
 30
0.0
  0
VERTEX
  5
473
100
AcDbEntity
  8
フラッシュバルブ
  6
CONTINUOUS
 62
     6
100
AcDbVertex
100
AcDb2dVertex
 10
1677.626373
 20
1519.680253
 30
0.0
  0
VERTEX
  5
474
100
AcDbEntity
  8
フラッシュバルブ
  6
CONTINUOUS
 62
     6
100
AcDbVertex
100
AcDb2dVertex
 10
1677.867004
 20
1519.433365
 30
0.0
  0
VERTEX
  5
475
100
AcDbEntity
  8
フラッシュバルブ
  6
CONTINUOUS
 62
     6
100
AcDbVertex
100
AcDb2dVertex
 10
1678.119995
 20
1519.221116
 30
0.0
  0
VERTEX
  5
476
100
AcDbEntity
  8
フラッシュバルブ
  6
CONTINUOUS
 62
     6
100
AcDbVertex
100
AcDb2dVertex
 10
1678.383514
 20
1519.045182
 30
0.0
  0
VERTEX
  5
477
100
AcDbEntity
  8
フラッシュバルブ
  6
CONTINUOUS
 62
     6
100
AcDbVertex
100
AcDb2dVertex
 10
1678.655426
 20
1518.90709
 30
0.0
  0
VERTEX
  5
478
100
AcDbEntity
  8
フラッシュバルブ
  6
CONTINUOUS
 62
     6
100
AcDbVertex
100
AcDb2dVertex
 10
1678.933899
 20
1518.807603
 30
0.0
  0
VERTEX
  5
479
100
AcDbEntity
  8
フラッシュバルブ
  6
CONTINUOUS
 62
     6
100
AcDbVertex
100
AcDb2dVertex
 10
1679.216644
 20
1518.747635
 30
0.0
  0
VERTEX
  5
47A
100
AcDbEntity
  8
フラッシュバルブ
  6
CONTINUOUS
 62
     6
100
AcDbVertex
100
AcDb2dVertex
 10
1679.501526
 20
1518.727341
 30
0.0
  0
VERTEX
  5
47B
100
AcDbEntity
  8
フラッシュバルブ
  6
CONTINUOUS
 62
     6
100
AcDbVertex
100
AcDb2dVertex
 10
1679.786407
 20
1518.74733
 30
0.0
  0
VERTEX
  5
47C
100
AcDbEntity
  8
フラッシュバルブ
  6
CONTINUOUS
 62
     6
100
AcDbVertex
100
AcDb2dVertex
 10
1680.069
 20
1518.807297
 30
0.0
  0
VERTEX
  5
47D
100
AcDbEntity
  8
フラッシュバルブ
  6
CONTINUOUS
 62
     6
100
AcDbVertex
100
AcDb2dVertex
 10
1680.347931
 20
1518.90709
 30
0.0
  0
VERTEX
  5
47E
100
AcDbEntity
  8
フラッシュバルブ
  6
CONTINUOUS
 62
     6
100
AcDbVertex
100
AcDb2dVertex
 10
1680.619995
 20
1519.045334
 30
0.0
  0
VERTEX
  5
47F
100
AcDbEntity
  8
フラッシュバルブ
  6
CONTINUOUS
 62
     6
100
AcDbVertex
100
AcDb2dVertex
 10
1680.883667
 20
1519.221268
 30
0.0
  0
SEQEND
  5
480
100
AcDbEntity
  8
フラッシュバルブ
  6
CONTINUOUS
 62
     6
  0
POLYLINE
  5
481
100
AcDbEntity
  8
フラッシュバルブ
  6
CONTINUOUS
 62
     6
100
AcDb2dPolyline
 66
     1
 10
0.0
 20
0.0
 30
0.0
 70
   128
  0
VERTEX
  5
482
100
AcDbEntity
  8
フラッシュバルブ
  6
CONTINUOUS
 62
     6
100
AcDbVertex
100
AcDb2dVertex
 10
1680.883667
 20
1519.221268
 30
0.0
  0
VERTEX
  5
483
100
AcDbEntity
  8
フラッシュバルブ
  6
CONTINUOUS
 62
     6
100
AcDbVertex
100
AcDb2dVertex
 10
1681.136505
 20
1519.433365
 30
0.0
  0
VERTEX
  5
484
100
AcDbEntity
  8
フラッシュバルブ
  6
CONTINUOUS
 62
     6
100
AcDbVertex
100
AcDb2dVertex
 10
1681.377136
 20
1519.680253
 30
0.0
  0
VERTEX
  5
485
100
AcDbEntity
  8
フラッシュバルブ
  6
CONTINUOUS
 62
     6
100
AcDbVertex
100
AcDb2dVertex
 10
1681.603424
 20
1519.959946
 30
0.0
  0
VERTEX
  5
486
100
AcDbEntity
  8
フラッシュバルブ
  6
CONTINUOUS
 62
     6
100
AcDbVertex
100
AcDb2dVertex
 10
1681.813538
 20
1520.270463
 30
0.0
  0
VERTEX
  5
487
100
AcDbEntity
  8
フラッシュバルブ
  6
CONTINUOUS
 62
     6
100
AcDbVertex
100
AcDb2dVertex
 10
1682.006256
 20
1520.609208
 30
0.0
  0
VERTEX
  5
488
100
AcDbEntity
  8
フラッシュバルブ
  6
CONTINUOUS
 62
     6
100
AcDbVertex
100
AcDb2dVertex
 10
1682.180054
 20
1520.97374
 30
0.0
  0
VERTEX
  5
489
100
AcDbEntity
  8
フラッシュバルブ
  6
CONTINUOUS
 62
     6
100
AcDbVertex
100
AcDb2dVertex
 10
1682.333252
 20
1521.361313
 30
0.0
  0
VERTEX
  5
48A
100
AcDbEntity
  8
フラッシュバルブ
  6
CONTINUOUS
 62
     6
100
AcDbVertex
100
AcDb2dVertex
 10
1682.464935
 20
1521.768876
 30
0.0
  0
VERTEX
  5
48B
100
AcDbEntity
  8
フラッシュバルブ
  6
CONTINUOUS
 62
     6
100
AcDbVertex
100
AcDb2dVertex
 10
1682.574341
 20
1522.193375
 30
0.0
  0
VERTEX
  5
48C
100
AcDbEntity
  8
フラッシュバルブ
  6
CONTINUOUS
 62
     6
100
AcDbVertex
100
AcDb2dVertex
 10
1682.65979
 20
1522.631913
 30
0.0
  0
SEQEND
  5
48D
100
AcDbEntity
  8
フラッシュバルブ
  6
CONTINUOUS
 62
     6
  0
POLYLINE
  5
48E
100
AcDbEntity
  8
フラッシュバルブ
  6
CONTINUOUS
 62
     6
100
AcDb2dPolyline
 66
     1
 10
0.0
 20
0.0
 30
0.0
 70
   128
  0
VERTEX
  5
48F
100
AcDbEntity
  8
フラッシュバルブ
  6
CONTINUOUS
 62
     6
100
AcDbVertex
100
AcDb2dVertex
 10
1682.65979
 20
1522.631913
 30
0.0
  0
VERTEX
  5
490
100
AcDbEntity
  8
フラッシュバルブ
  6
CONTINUOUS
 62
     6
100
AcDbVertex
100
AcDb2dVertex
 10
1682.721435
 20
1523.080521
 30
0.0
  0
VERTEX
  5
491
100
AcDbEntity
  8
フラッシュバルブ
  6
CONTINUOUS
 62
     6
100
AcDbVertex
100
AcDb2dVertex
 10
1682.758667
 20
1523.536149
 30
0.0
  0
VERTEX
  5
492
100
AcDbEntity
  8
フラッシュバルブ
  6
CONTINUOUS
 62
     6
100
AcDbVertex
100
AcDb2dVertex
 10
1682.771179
 20
1523.99498
 30
0.0
  0
SEQEND
  5
493
100
AcDbEntity
  8
フラッシュバルブ
  6
CONTINUOUS
 62
     6
  0
POLYLINE
  5
494
100
AcDbEntity
  8
フラッシュバルブ
  6
CONTINUOUS
 62
     6
100
AcDb2dPolyline
 66
     1
 10
0.0
 20
0.0
 30
0.0
 70
   128
  0
VERTEX
  5
495
100
AcDbEntity
  8
フラッシュバルブ
  6
CONTINUOUS
 62
     6
100
AcDbVertex
100
AcDb2dVertex
 10
1674.348633
 20
1523.995591
 30
0.0
  0
VERTEX
  5
496
100
AcDbEntity
  8
フラッシュバルブ
  6
CONTINUOUS
 62
     6
100
AcDbVertex
100
AcDb2dVertex
 10
1674.323761
 20
1524.454728
 30
0.0
  0
VERTEX
  5
497
100
AcDbEntity
  8
フラッシュバルブ
  6
CONTINUOUS
 62
     6
100
AcDbVertex
100
AcDb2dVertex
 10
1674.249298
 20
1524.91066
 30
0.0
  0
VERTEX
  5
498
100
AcDbEntity
  8
フラッシュバルブ
  6
CONTINUOUS
 62
     6
100
AcDbVertex
100
AcDb2dVertex
 10
1674.12616
 20
1525.358964
 30
0.0
  0
VERTEX
  5
499
100
AcDbEntity
  8
フラッシュバルブ
  6
CONTINUOUS
 62
     6
100
AcDbVertex
100
AcDb2dVertex
 10
1673.954651
 20
1525.797196
 30
0.0
  0
VERTEX
  5
49A
100
AcDbEntity
  8
フラッシュバルブ
  6
CONTINUOUS
 62
     6
100
AcDbVertex
100
AcDb2dVertex
 10
1673.73645
 20
1526.222001
 30
0.0
  0
VERTEX
  5
49B
100
AcDbEntity
  8
フラッシュバルブ
  6
CONTINUOUS
 62
     6
100
AcDbVertex
100
AcDb2dVertex
 10
1673.472931
 20
1526.62941
 30
0.0
  0
VERTEX
  5
49C
100
AcDbEntity
  8
フラッシュバルブ
  6
CONTINUOUS
 62
     6
100
AcDbVertex
100
AcDb2dVertex
 10
1673.166382
 20
1527.016984
 30
0.0
  0
VERTEX
  5
49D
100
AcDbEntity
  8
フラッシュバルブ
  6
CONTINUOUS
 62
     6
100
AcDbVertex
100
AcDb2dVertex
 10
1672.819244
 20
1527.381821
 30
0.0
  0
VERTEX
  5
49E
100
AcDbEntity
  8
フラッシュバルブ
  6
CONTINUOUS
 62
     6
100
AcDbVertex
100
AcDb2dVertex
 10
1672.433655
 20
1527.720414
 30
0.0
  0
VERTEX
  5
49F
100
AcDbEntity
  8
フラッシュバルブ
  6
CONTINUOUS
 62
     6
100
AcDbVertex
100
AcDb2dVertex
 10
1672.01297
 20
1528.03093
 30
0.0
  0
VERTEX
  5
4A0
100
AcDbEntity
  8
フラッシュバルブ
  6
CONTINUOUS
 62
     6
100
AcDbVertex
100
AcDb2dVertex
 10
1671.560394
 20
1528.310624
 30
0.0
  0
VERTEX
  5
4A1
100
AcDbEntity
  8
フラッシュバルブ
  6
CONTINUOUS
 62
     6
100
AcDbVertex
100
AcDb2dVertex
 10
1671.079895
 20
1528.557511
 30
0.0
  0
VERTEX
  5
4A2
100
AcDbEntity
  8
フラッシュバルブ
  6
CONTINUOUS
 62
     6
100
AcDbVertex
100
AcDb2dVertex
 10
1670.574066
 20
1528.769761
 30
0.0
  0
VERTEX
  5
4A3
100
AcDbEntity
  8
フラッシュバルブ
  6
CONTINUOUS
 62
     6
100
AcDbVertex
100
AcDb2dVertex
 10
1670.04718
 20
1528.945695
 30
0.0
  0
VERTEX
  5
4A4
100
AcDbEntity
  8
フラッシュバルブ
  6
CONTINUOUS
 62
     6
100
AcDbVertex
100
AcDb2dVertex
 10
1669.502594
 20
1529.083634
 30
0.0
  0
VERTEX
  5
4A5
100
AcDbEntity
  8
フラッシュバルブ
  6
CONTINUOUS
 62
     6
100
AcDbVertex
100
AcDb2dVertex
 10
1668.945648
 20
1529.183121
 30
0.0
  0
VERTEX
  5
4A6
100
AcDbEntity
  8
フラッシュバルブ
  6
CONTINUOUS
 62
     6
100
AcDbVertex
100
AcDb2dVertex
 10
1668.380005
 20
1529.243088
 30
0.0
  0
VERTEX
  5
4A7
100
AcDbEntity
  8
フラッシュバルブ
  6
CONTINUOUS
 62
     6
100
AcDbVertex
100
AcDb2dVertex
 10
1667.810547
 20
1529.26323
 30
0.0
  0
VERTEX
  5
4A8
100
AcDbEntity
  8
フラッシュバルブ
  6
CONTINUOUS
 62
     6
100
AcDbVertex
100
AcDb2dVertex
 10
1667.240631
 20
1529.243241
 30
0.0
  0
VERTEX
  5
4A9
100
AcDbEntity
  8
フラッシュバルブ
  6
CONTINUOUS
 62
     6
100
AcDbVertex
100
AcDb2dVertex
 10
1666.67514
 20
1529.183274
 30
0.0
  0
VERTEX
  5
4AA
100
AcDbEntity
  8
フラッシュバルブ
  6
CONTINUOUS
 62
     6
100
AcDbVertex
100
AcDb2dVertex
 10
1666.1185
 20
1529.083634
 30
0.0
  0
VERTEX
  5
4AB
100
AcDbEntity
  8
フラッシュバルブ
  6
CONTINUOUS
 62
     6
100
AcDbVertex
100
AcDb2dVertex
 10
1665.574524
 20
1528.945389
 30
0.0
  0
VERTEX
  5
4AC
100
AcDbEntity
  8
フラッシュバルブ
  6
CONTINUOUS
 62
     6
100
AcDbVertex
100
AcDb2dVertex
 10
1665.04779
 20
1528.769456
 30
0.0
  0
VERTEX
  5
4AD
100
AcDbEntity
  8
フラッシュバルブ
  6
CONTINUOUS
 62
     6
100
AcDbVertex
100
AcDb2dVertex
 10
1664.541199
 20
1528.557511
 30
0.0
  0
VERTEX
  5
4AE
100
AcDbEntity
  8
フラッシュバルブ
  6
CONTINUOUS
 62
     6
100
AcDbVertex
100
AcDb2dVertex
 10
1664.060089
 20
1528.310624
 30
0.0
  0
VERTEX
  5
4AF
100
AcDbEntity
  8
フラッシュバルブ
  6
CONTINUOUS
 62
     6
100
AcDbVertex
100
AcDb2dVertex
 10
1663.607513
 20
1528.03093
 30
0.0
  0
VERTEX
  5
4B0
100
AcDbEntity
  8
フラッシュバルブ
  6
CONTINUOUS
 62
     6
100
AcDbVertex
100
AcDb2dVertex
 10
1663.187439
 20
1527.720414
 30
0.0
  0
VERTEX
  5
4B1
100
AcDbEntity
  8
フラッシュバルブ
  6
CONTINUOUS
 62
     6
100
AcDbVertex
100
AcDb2dVertex
 10
1662.802154
 20
1527.381669
 30
0.0
  0
VERTEX
  5
4B2
100
AcDbEntity
  8
フラッシュバルブ
  6
CONTINUOUS
 62
     6
100
AcDbVertex
100
AcDb2dVertex
 10
1662.45517
 20
1527.017136
 30
0.0
  0
VERTEX
  5
4B3
100
AcDbEntity
  8
フラッシュバルブ
  6
CONTINUOUS
 62
     6
100
AcDbVertex
100
AcDb2dVertex
 10
1662.148163
 20
1526.62941
 30
0.0
  0
VERTEX
  5
4B4
100
AcDbEntity
  8
フラッシュバルブ
  6
CONTINUOUS
 62
     6
100
AcDbVertex
100
AcDb2dVertex
 10
1661.884796
 20
1526.221848
 30
0.0
  0
VERTEX
  5
4B5
100
AcDbEntity
  8
フラッシュバルブ
  6
CONTINUOUS
 62
     6
100
AcDbVertex
100
AcDb2dVertex
 10
1661.666595
 20
1525.797349
 30
0.0
  0
VERTEX
  5
4B6
100
AcDbEntity
  8
フラッシュバルブ
  6
CONTINUOUS
 62
     6
100
AcDbVertex
100
AcDb2dVertex
 10
1661.495087
 20
1525.358964
 30
0.0
  0
VERTEX
  5
4B7
100
AcDbEntity
  8
フラッシュバルブ
  6
CONTINUOUS
 62
     6
100
AcDbVertex
100
AcDb2dVertex
 10
1661.371643
 20
1524.910355
 30
0.0
  0
VERTEX
  5
4B8
100
AcDbEntity
  8
フラッシュバルブ
  6
CONTINUOUS
 62
     6
100
AcDbVertex
100
AcDb2dVertex
 10
1661.29718
 20
1524.454728
 30
0.0
  0
VERTEX
  5
4B9
100
AcDbEntity
  8
フラッシュバルブ
  6
CONTINUOUS
 62
     6
100
AcDbVertex
100
AcDb2dVertex
 10
1661.272308
 20
1523.995591
 30
0.0
  0
VERTEX
  5
4BA
100
AcDbEntity
  8
フラッシュバルブ
  6
CONTINUOUS
 62
     6
100
AcDbVertex
100
AcDb2dVertex
 10
1661.29718
 20
1523.536606
 30
0.0
  0
VERTEX
  5
4BB
100
AcDbEntity
  8
フラッシュバルブ
  6
CONTINUOUS
 62
     6
100
AcDbVertex
100
AcDb2dVertex
 10
1661.371643
 20
1523.081132
 30
0.0
  0
VERTEX
  5
4BC
100
AcDbEntity
  8
フラッシュバルブ
  6
CONTINUOUS
 62
     6
100
AcDbVertex
100
AcDb2dVertex
 10
1661.495087
 20
1522.631913
 30
0.0
  0
VERTEX
  5
4BD
100
AcDbEntity
  8
フラッシュバルブ
  6
CONTINUOUS
 62
     6
100
AcDbVertex
100
AcDb2dVertex
 10
1661.666595
 20
1522.19368
 30
0.0
  0
VERTEX
  5
4BE
100
AcDbEntity
  8
フラッシュバルブ
  6
CONTINUOUS
 62
     6
100
AcDbVertex
100
AcDb2dVertex
 10
1661.884796
 20
1521.768876
 30
0.0
  0
VERTEX
  5
4BF
100
AcDbEntity
  8
フラッシュバルブ
  6
CONTINUOUS
 62
     6
100
AcDbVertex
100
AcDb2dVertex
 10
1662.148163
 20
1521.361313
 30
0.0
  0
VERTEX
  5
4C0
100
AcDbEntity
  8
フラッシュバルブ
  6
CONTINUOUS
 62
     6
100
AcDbVertex
100
AcDb2dVertex
 10
1662.454712
 20
1520.97374
 30
0.0
  0
VERTEX
  5
4C1
100
AcDbEntity
  8
フラッシュバルブ
  6
CONTINUOUS
 62
     6
100
AcDbVertex
100
AcDb2dVertex
 10
1662.801849
 20
1520.608903
 30
0.0
  0
VERTEX
  5
4C2
100
AcDbEntity
  8
フラッシュバルブ
  6
CONTINUOUS
 62
     6
100
AcDbVertex
100
AcDb2dVertex
 10
1663.187439
 20
1520.270463
 30
0.0
  0
VERTEX
  5
4C3
100
AcDbEntity
  8
フラッシュバルブ
  6
CONTINUOUS
 62
     6
100
AcDbVertex
100
AcDb2dVertex
 10
1663.608124
 20
1519.959946
 30
0.0
  0
VERTEX
  5
4C4
100
AcDbEntity
  8
フラッシュバルブ
  6
CONTINUOUS
 62
     6
100
AcDbVertex
100
AcDb2dVertex
 10
1664.060699
 20
1519.680253
 30
0.0
  0
VERTEX
  5
4C5
100
AcDbEntity
  8
フラッシュバルブ
  6
CONTINUOUS
 62
     6
100
AcDbVertex
100
AcDb2dVertex
 10
1664.541199
 20
1519.433365
 30
0.0
  0
VERTEX
  5
4C6
100
AcDbEntity
  8
フラッシュバルブ
  6
CONTINUOUS
 62
     6
100
AcDbVertex
100
AcDb2dVertex
 10
1665.047028
 20
1519.221116
 30
0.0
  0
VERTEX
  5
4C7
100
AcDbEntity
  8
フラッシュバルブ
  6
CONTINUOUS
 62
     6
100
AcDbVertex
100
AcDb2dVertex
 10
1665.573914
 20
1519.045182
 30
0.0
  0
VERTEX
  5
4C8
100
AcDbEntity
  8
フラッシュバルブ
  6
CONTINUOUS
 62
     6
100
AcDbVertex
100
AcDb2dVertex
 10
1666.1185
 20
1518.90709
 30
0.0
  0
VERTEX
  5
4C9
100
AcDbEntity
  8
フラッシュバルブ
  6
CONTINUOUS
 62
     6
100
AcDbVertex
100
AcDb2dVertex
 10
1666.675446
 20
1518.807603
 30
0.0
  0
VERTEX
  5
4CA
100
AcDbEntity
  8
フラッシュバルブ
  6
CONTINUOUS
 62
     6
100
AcDbVertex
100
AcDb2dVertex
 10
1667.241089
 20
1518.747635
 30
0.0
  0
VERTEX
  5
4CB
100
AcDbEntity
  8
フラッシュバルブ
  6
CONTINUOUS
 62
     6
100
AcDbVertex
100
AcDb2dVertex
 10
1667.810547
 20
1518.727341
 30
0.0
  0
VERTEX
  5
4CC
100
AcDbEntity
  8
フラッシュバルブ
  6
CONTINUOUS
 62
     6
100
AcDbVertex
100
AcDb2dVertex
 10
1668.380463
 20
1518.74733
 30
0.0
  0
VERTEX
  5
4CD
100
AcDbEntity
  8
フラッシュバルブ
  6
CONTINUOUS
 62
     6
100
AcDbVertex
100
AcDb2dVertex
 10
1668.945953
 20
1518.807297
 30
0.0
  0
VERTEX
  5
4CE
100
AcDbEntity
  8
フラッシュバルブ
  6
CONTINUOUS
 62
     6
100
AcDbVertex
100
AcDb2dVertex
 10
1669.502594
 20
1518.90709
 30
0.0
  0
VERTEX
  5
4CF
100
AcDbEntity
  8
フラッシュバルブ
  6
CONTINUOUS
 62
     6
100
AcDbVertex
100
AcDb2dVertex
 10
1670.04657
 20
1519.045334
 30
0.0
  0
VERTEX
  5
4D0
100
AcDbEntity
  8
フラッシュバルブ
  6
CONTINUOUS
 62
     6
100
AcDbVertex
100
AcDb2dVertex
 10
1670.573303
 20
1519.221268
 30
0.0
  0
SEQEND
  5
4D1
100
AcDbEntity
  8
フラッシュバルブ
  6
CONTINUOUS
 62
     6
  0
POLYLINE
  5
4D2
100
AcDbEntity
  8
フラッシュバルブ
  6
CONTINUOUS
 62
     6
100
AcDb2dPolyline
 66
     1
 10
0.0
 20
0.0
 30
0.0
 70
   128
  0
VERTEX
  5
4D3
100
AcDbEntity
  8
フラッシュバルブ
  6
CONTINUOUS
 62
     6
100
AcDbVertex
100
AcDb2dVertex
 10
1670.573303
 20
1519.221268
 30
0.0
  0
VERTEX
  5
4D4
100
AcDbEntity
  8
フラッシュバルブ
  6
CONTINUOUS
 62
     6
100
AcDbVertex
100
AcDb2dVertex
 10
1671.079895
 20
1519.433365
 30
0.0
  0
VERTEX
  5
4D5
100
AcDbEntity
  8
フラッシュバルブ
  6
CONTINUOUS
 62
     6
100
AcDbVertex
100
AcDb2dVertex
 10
1671.561005
 20
1519.680253
 30
0.0
  0
VERTEX
  5
4D6
100
AcDbEntity
  8
フラッシュバルブ
  6
CONTINUOUS
 62
     6
100
AcDbVertex
100
AcDb2dVertex
 10
1672.01358
 20
1519.959946
 30
0.0
  0
VERTEX
  5
4D7
100
AcDbEntity
  8
フラッシュバルブ
  6
CONTINUOUS
 62
     6
100
AcDbVertex
100
AcDb2dVertex
 10
1672.433655
 20
1520.270463
 30
0.0
  0
VERTEX
  5
4D8
100
AcDbEntity
  8
フラッシュバルブ
  6
CONTINUOUS
 62
     6
100
AcDbVertex
100
AcDb2dVertex
 10
1672.818939
 20
1520.609208
 30
0.0
  0
VERTEX
  5
4D9
100
AcDbEntity
  8
フラッシュバルブ
  6
CONTINUOUS
 62
     6
100
AcDbVertex
100
AcDb2dVertex
 10
1673.165924
 20
1520.97374
 30
0.0
  0
VERTEX
  5
4DA
100
AcDbEntity
  8
フラッシュバルブ
  6
CONTINUOUS
 62
     6
100
AcDbVertex
100
AcDb2dVertex
 10
1673.472931
 20
1521.361313
 30
0.0
  0
VERTEX
  5
4DB
100
AcDbEntity
  8
フラッシュバルブ
  6
CONTINUOUS
 62
     6
100
AcDbVertex
100
AcDb2dVertex
 10
1673.736298
 20
1521.768876
 30
0.0
  0
VERTEX
  5
4DC
100
AcDbEntity
  8
フラッシュバルブ
  6
CONTINUOUS
 62
     6
100
AcDbVertex
100
AcDb2dVertex
 10
1673.954498
 20
1522.193375
 30
0.0
  0
VERTEX
  5
4DD
100
AcDbEntity
  8
フラッシュバルブ
  6
CONTINUOUS
 62
     6
100
AcDbVertex
100
AcDb2dVertex
 10
1674.12616
 20
1522.631913
 30
0.0
  0
SEQEND
  5
4DE
100
AcDbEntity
  8
フラッシュバルブ
  6
CONTINUOUS
 62
     6
  0
POLYLINE
  5
4DF
100
AcDbEntity
  8
フラッシュバルブ
  6
CONTINUOUS
 62
     6
100
AcDb2dPolyline
 66
     1
 10
0.0
 20
0.0
 30
0.0
 70
   128
  0
VERTEX
  5
4E0
100
AcDbEntity
  8
フラッシュバルブ
  6
CONTINUOUS
 62
     6
100
AcDbVertex
100
AcDb2dVertex
 10
1674.12616
 20
1522.631913
 30
0.0
  0
VERTEX
  5
4E1
100
AcDbEntity
  8
フラッシュバルブ
  6
CONTINUOUS
 62
     6
100
AcDbVertex
100
AcDb2dVertex
 10
1674.249603
 20
1523.080521
 30
0.0
  0
VERTEX
  5
4E2
100
AcDbEntity
  8
フラッシュバルブ
  6
CONTINUOUS
 62
     6
100
AcDbVertex
100
AcDb2dVertex
 10
1674.324066
 20
1523.536149
 30
0.0
  0
VERTEX
  5
4E3
100
AcDbEntity
  8
フラッシュバルブ
  6
CONTINUOUS
 62
     6
100
AcDbVertex
100
AcDb2dVertex
 10
1674.349243
 20
1523.99498
 30
0.0
  0
SEQEND
  5
4E4
100
AcDbEntity
  8
フラッシュバルブ
  6
CONTINUOUS
 62
     6
  0
POLYLINE
  5
4E5
100
AcDbEntity
  8
フラッシュバルブ
  6
CONTINUOUS
 62
     6
100
AcDb2dPolyline
 66
     1
 10
0.0
 20
0.0
 30
0.0
 70
   128
  0
VERTEX
  5
4E6
100
AcDbEntity
  8
フラッシュバルブ
  6
CONTINUOUS
 62
     6
100
AcDbVertex
100
AcDb2dVertex
 10
1659.388763
 20
1523.995591
 30
0.0
  0
VERTEX
  5
4E7
100
AcDbEntity
  8
フラッシュバルブ
  6
CONTINUOUS
 62
     6
100
AcDbVertex
100
AcDb2dVertex
 10
1659.376251
 20
1524.454728
 30
0.0
  0
VERTEX
  5
4E8
100
AcDbEntity
  8
フラッシュバルブ
  6
CONTINUOUS
 62
     6
100
AcDbVertex
100
AcDb2dVertex
 10
1659.338867
 20
1524.91066
 30
0.0
  0
VERTEX
  5
4E9
100
AcDbEntity
  8
フラッシュバルブ
  6
CONTINUOUS
 62
     6
100
AcDbVertex
100
AcDb2dVertex
 10
1659.276459
 20
1525.358964
 30
0.0
  0
VERTEX
  5
4EA
100
AcDbEntity
  8
フラッシュバルブ
  6
CONTINUOUS
 62
     6
100
AcDbVertex
100
AcDb2dVertex
 10
1659.190094
 20
1525.797196
 30
0.0
  0
VERTEX
  5
4EB
100
AcDbEntity
  8
フラッシュバルブ
  6
CONTINUOUS
 62
     6
100
AcDbVertex
100
AcDb2dVertex
 10
1659.080231
 20
1526.222001
 30
0.0
  0
VERTEX
  5
4EC
100
AcDbEntity
  8
フラッシュバルブ
  6
CONTINUOUS
 62
     6
100
AcDbVertex
100
AcDb2dVertex
 10
1658.947937
 20
1526.62941
 30
0.0
  0
VERTEX
  5
4ED
100
AcDbEntity
  8
フラッシュバルブ
  6
CONTINUOUS
 62
     6
100
AcDbVertex
100
AcDb2dVertex
 10
1658.793671
 20
1527.016984
 30
0.0
  0
VERTEX
  5
4EE
100
AcDbEntity
  8
フラッシュバルブ
  6
CONTINUOUS
 62
     6
100
AcDbVertex
100
AcDb2dVertex
 10
1658.618957
 20
1527.381821
 30
0.0
  0
VERTEX
  5
4EF
100
AcDbEntity
  8
フラッシュバルブ
  6
CONTINUOUS
 62
     6
100
AcDbVertex
100
AcDb2dVertex
 10
1658.425323
 20
1527.720414
 30
0.0
  0
VERTEX
  5
4F0
100
AcDbEntity
  8
フラッシュバルブ
  6
CONTINUOUS
 62
     6
100
AcDbVertex
100
AcDb2dVertex
 10
1658.213837
 20
1528.03093
 30
0.0
  0
VERTEX
  5
4F1
100
AcDbEntity
  8
フラッシュバルブ
  6
CONTINUOUS
 62
     6
100
AcDbVertex
100
AcDb2dVertex
 10
1657.986175
 20
1528.310776
 30
0.0
  0
VERTEX
  5
4F2
100
AcDbEntity
  8
フラッシュバルブ
  6
CONTINUOUS
 62
     6
100
AcDbVertex
100
AcDb2dVertex
 10
1657.744324
 20
1528.557664
 30
0.0
  0
VERTEX
  5
4F3
100
AcDbEntity
  8
フラッシュバルブ
  6
CONTINUOUS
 62
     6
100
AcDbVertex
100
AcDb2dVertex
 10
1657.489807
 20
1528.769761
 30
0.0
  0
VERTEX
  5
4F4
100
AcDbEntity
  8
フラッシュバルブ
  6
CONTINUOUS
 62
     6
100
AcDbVertex
100
AcDb2dVertex
 10
1657.224915
 20
1528.945695
 30
0.0
  0
VERTEX
  5
4F5
100
AcDbEntity
  8
フラッシュバルブ
  6
CONTINUOUS
 62
     6
100
AcDbVertex
100
AcDb2dVertex
 10
1656.950867
 20
1529.083634
 30
0.0
  0
VERTEX
  5
4F6
100
AcDbEntity
  8
フラッシュバルブ
  6
CONTINUOUS
 62
     6
100
AcDbVertex
100
AcDb2dVertex
 10
1656.670715
 20
1529.182969
 30
0.0
  0
VERTEX
  5
4F7
100
AcDbEntity
  8
フラッシュバルブ
  6
CONTINUOUS
 62
     6
100
AcDbVertex
100
AcDb2dVertex
 10
1656.386444
 20
1529.242936
 30
0.0
  0
VERTEX
  5
4F8
100
AcDbEntity
  8
フラッシュバルブ
  6
CONTINUOUS
 62
     6
100
AcDbVertex
100
AcDb2dVertex
 10
1656.099426
 20
1529.26323
 30
0.0
  0
VERTEX
  5
4F9
100
AcDbEntity
  8
フラッシュバルブ
  6
CONTINUOUS
 62
     6
100
AcDbVertex
100
AcDb2dVertex
 10
1655.812714
 20
1529.243241
 30
0.0
  0
VERTEX
  5
4FA
100
AcDbEntity
  8
フラッシュバルブ
  6
CONTINUOUS
 62
     6
100
AcDbVertex
100
AcDb2dVertex
 10
1655.528137
 20
1529.183274
 30
0.0
  0
VERTEX
  5
4FB
100
AcDbEntity
  8
フラッシュバルブ
  6
CONTINUOUS
 62
     6
100
AcDbVertex
100
AcDb2dVertex
 10
1655.248291
 20
1529.083634
 30
0.0
  0
VERTEX
  5
4FC
100
AcDbEntity
  8
フラッシュバルブ
  6
CONTINUOUS
 62
     6
100
AcDbVertex
100
AcDb2dVertex
 10
1654.974701
 20
1528.945389
 30
0.0
  0
VERTEX
  5
4FD
100
AcDbEntity
  8
フラッシュバルブ
  6
CONTINUOUS
 62
     6
100
AcDbVertex
100
AcDb2dVertex
 10
1654.709503
 20
1528.769456
 30
0.0
  0
VERTEX
  5
4FE
100
AcDbEntity
  8
フラッシュバルブ
  6
CONTINUOUS
 62
     6
100
AcDbVertex
100
AcDb2dVertex
 10
1654.454987
 20
1528.557664
 30
0.0
  0
VERTEX
  5
4FF
100
AcDbEntity
  8
フラッシュバルブ
  6
CONTINUOUS
 62
     6
100
AcDbVertex
100
AcDb2dVertex
 10
1654.212982
 20
1528.310776
 30
0.0
  0
VERTEX
  5
500
100
AcDbEntity
  8
フラッシュバルブ
  6
CONTINUOUS
 62
     6
100
AcDbVertex
100
AcDb2dVertex
 10
1653.985321
 20
1528.03093
 30
0.0
  0
VERTEX
  5
501
100
AcDbEntity
  8
フラッシュバルブ
  6
CONTINUOUS
 62
     6
100
AcDbVertex
100
AcDb2dVertex
 10
1653.773834
 20
1527.720414
 30
0.0
  0
VERTEX
  5
502
100
AcDbEntity
  8
フラッシュバルブ
  6
CONTINUOUS
 62
     6
100
AcDbVertex
100
AcDb2dVertex
 10
1653.580048
 20
1527.381516
 30
0.0
  0
VERTEX
  5
503
100
AcDbEntity
  8
フラッシュバルブ
  6
CONTINUOUS
 62
     6
100
AcDbVertex
100
AcDb2dVertex
 10
1653.405334
 20
1527.016984
 30
0.0
  0
VERTEX
  5
504
100
AcDbEntity
  8
フラッシュバルブ
  6
CONTINUOUS
 62
     6
100
AcDbVertex
100
AcDb2dVertex
 10
1653.251221
 20
1526.62941
 30
0.0
  0
VERTEX
  5
505
100
AcDbEntity
  8
フラッシュバルブ
  6
CONTINUOUS
 62
     6
100
AcDbVertex
100
AcDb2dVertex
 10
1653.118774
 20
1526.221848
 30
0.0
  0
VERTEX
  5
506
100
AcDbEntity
  8
フラッシュバルブ
  6
CONTINUOUS
 62
     6
100
AcDbVertex
100
AcDb2dVertex
 10
1653.009216
 20
1525.797349
 30
0.0
  0
VERTEX
  5
507
100
AcDbEntity
  8
フラッシュバルブ
  6
CONTINUOUS
 62
     6
100
AcDbVertex
100
AcDb2dVertex
 10
1652.922699
 20
1525.358964
 30
0.0
  0
VERTEX
  5
508
100
AcDbEntity
  8
フラッシュバルブ
  6
CONTINUOUS
 62
     6
100
AcDbVertex
100
AcDb2dVertex
 10
1652.860748
 20
1524.910355
 30
0.0
  0
VERTEX
  5
509
100
AcDbEntity
  8
フラッシュバルブ
  6
CONTINUOUS
 62
     6
100
AcDbVertex
100
AcDb2dVertex
 10
1652.823364
 20
1524.454728
 30
0.0
  0
VERTEX
  5
50A
100
AcDbEntity
  8
フラッシュバルブ
  6
CONTINUOUS
 62
     6
100
AcDbVertex
100
AcDb2dVertex
 10
1652.810547
 20
1523.995591
 30
0.0
  0
VERTEX
  5
50B
100
AcDbEntity
  8
フラッシュバルブ
  6
CONTINUOUS
 62
     6
100
AcDbVertex
100
AcDb2dVertex
 10
1652.823059
 20
1523.536606
 30
0.0
  0
VERTEX
  5
50C
100
AcDbEntity
  8
フラッシュバルブ
  6
CONTINUOUS
 62
     6
100
AcDbVertex
100
AcDb2dVertex
 10
1652.860596
 20
1523.081132
 30
0.0
  0
VERTEX
  5
50D
100
AcDbEntity
  8
フラッシュバルブ
  6
CONTINUOUS
 62
     6
100
AcDbVertex
100
AcDb2dVertex
 10
1652.922699
 20
1522.631913
 30
0.0
  0
VERTEX
  5
50E
100
AcDbEntity
  8
フラッシュバルブ
  6
CONTINUOUS
 62
     6
100
AcDbVertex
100
AcDb2dVertex
 10
1653.009064
 20
1522.19368
 30
0.0
  0
VERTEX
  5
50F
100
AcDbEntity
  8
フラッシュバルブ
  6
CONTINUOUS
 62
     6
100
AcDbVertex
100
AcDb2dVertex
 10
1653.11908
 20
1521.768876
 30
0.0
  0
VERTEX
  5
510
100
AcDbEntity
  8
フラッシュバルブ
  6
CONTINUOUS
 62
     6
100
AcDbVertex
100
AcDb2dVertex
 10
1653.251221
 20
1521.361313
 30
0.0
  0
VERTEX
  5
511
100
AcDbEntity
  8
フラッシュバルブ
  6
CONTINUOUS
 62
     6
100
AcDbVertex
100
AcDb2dVertex
 10
1653.405487
 20
1520.97374
 30
0.0
  0
VERTEX
  5
512
100
AcDbEntity
  8
フラッシュバルブ
  6
CONTINUOUS
 62
     6
100
AcDbVertex
100
AcDb2dVertex
 10
1653.580353
 20
1520.608903
 30
0.0
  0
VERTEX
  5
513
100
AcDbEntity
  8
フラッシュバルブ
  6
CONTINUOUS
 62
     6
100
AcDbVertex
100
AcDb2dVertex
 10
1653.773834
 20
1520.270463
 30
0.0
  0
VERTEX
  5
514
100
AcDbEntity
  8
フラッシュバルブ
  6
CONTINUOUS
 62
     6
100
AcDbVertex
100
AcDb2dVertex
 10
1653.985474
 20
1519.959946
 30
0.0
  0
VERTEX
  5
515
100
AcDbEntity
  8
フラッシュバルブ
  6
CONTINUOUS
 62
     6
100
AcDbVertex
100
AcDb2dVertex
 10
1654.213135
 20
1519.6801
 30
0.0
  0
VERTEX
  5
516
100
AcDbEntity
  8
フラッシュバルブ
  6
CONTINUOUS
 62
     6
100
AcDbVertex
100
AcDb2dVertex
 10
1654.454987
 20
1519.433213
 30
0.0
  0
VERTEX
  5
517
100
AcDbEntity
  8
フラッシュバルブ
  6
CONTINUOUS
 62
     6
100
AcDbVertex
100
AcDb2dVertex
 10
1654.709503
 20
1519.221116
 30
0.0
  0
VERTEX
  5
518
100
AcDbEntity
  8
フラッシュバルブ
  6
CONTINUOUS
 62
     6
100
AcDbVertex
100
AcDb2dVertex
 10
1654.974548
 20
1519.045182
 30
0.0
  0
VERTEX
  5
519
100
AcDbEntity
  8
フラッシュバルブ
  6
CONTINUOUS
 62
     6
100
AcDbVertex
100
AcDb2dVertex
 10
1655.248291
 20
1518.90709
 30
0.0
  0
VERTEX
  5
51A
100
AcDbEntity
  8
フラッシュバルブ
  6
CONTINUOUS
 62
     6
100
AcDbVertex
100
AcDb2dVertex
 10
1655.528442
 20
1518.807755
 30
0.0
  0
VERTEX
  5
51B
100
AcDbEntity
  8
フラッシュバルブ
  6
CONTINUOUS
 62
     6
100
AcDbVertex
100
AcDb2dVertex
 10
1655.812866
 20
1518.747788
 30
0.0
  0
VERTEX
  5
51C
100
AcDbEntity
  8
フラッシュバルブ
  6
CONTINUOUS
 62
     6
100
AcDbVertex
100
AcDb2dVertex
 10
1656.099426
 20
1518.727341
 30
0.0
  0
VERTEX
  5
51D
100
AcDbEntity
  8
フラッシュバルブ
  6
CONTINUOUS
 62
     6
100
AcDbVertex
100
AcDb2dVertex
 10
1656.385986
 20
1518.74733
 30
0.0
  0
VERTEX
  5
51E
100
AcDbEntity
  8
フラッシュバルブ
  6
CONTINUOUS
 62
     6
100
AcDbVertex
100
AcDb2dVertex
 10
1656.67041
 20
1518.807297
 30
0.0
  0
VERTEX
  5
51F
100
AcDbEntity
  8
フラッシュバルブ
  6
CONTINUOUS
 62
     6
100
AcDbVertex
100
AcDb2dVertex
 10
1656.950867
 20
1518.90709
 30
0.0
  0
VERTEX
  5
520
100
AcDbEntity
  8
フラッシュバルブ
  6
CONTINUOUS
 62
     6
100
AcDbVertex
100
AcDb2dVertex
 10
1657.224609
 20
1519.045334
 30
0.0
  0
VERTEX
  5
521
100
AcDbEntity
  8
フラッシュバルブ
  6
CONTINUOUS
 62
     6
100
AcDbVertex
100
AcDb2dVertex
 10
1657.489807
 20
1519.221268
 30
0.0
  0
SEQEND
  5
522
100
AcDbEntity
  8
フラッシュバルブ
  6
CONTINUOUS
 62
     6
  0
POLYLINE
  5
523
100
AcDbEntity
  8
フラッシュバルブ
  6
CONTINUOUS
 62
     6
100
AcDb2dPolyline
 66
     1
 10
0.0
 20
0.0
 30
0.0
 70
   128
  0
VERTEX
  5
524
100
AcDbEntity
  8
フラッシュバルブ
  6
CONTINUOUS
 62
     6
100
AcDbVertex
100
AcDb2dVertex
 10
1657.489807
 20
1519.221268
 30
0.0
  0
VERTEX
  5
525
100
AcDbEntity
  8
フラッシュバルブ
  6
CONTINUOUS
 62
     6
100
AcDbVertex
100
AcDb2dVertex
 10
1657.744324
 20
1519.433213
 30
0.0
  0
VERTEX
  5
526
100
AcDbEntity
  8
フラッシュバルブ
  6
CONTINUOUS
 62
     6
100
AcDbVertex
100
AcDb2dVertex
 10
1657.986328
 20
1519.6801
 30
0.0
  0
VERTEX
  5
527
100
AcDbEntity
  8
フラッシュバルブ
  6
CONTINUOUS
 62
     6
100
AcDbVertex
100
AcDb2dVertex
 10
1658.214142
 20
1519.959946
 30
0.0
  0
VERTEX
  5
528
100
AcDbEntity
  8
フラッシュバルブ
  6
CONTINUOUS
 62
     6
100
AcDbVertex
100
AcDb2dVertex
 10
1658.425323
 20
1520.270463
 30
0.0
  0
VERTEX
  5
529
100
AcDbEntity
  8
フラッシュバルブ
  6
CONTINUOUS
 62
     6
100
AcDbVertex
100
AcDb2dVertex
 10
1658.61911
 20
1520.60936
 30
0.0
  0
VERTEX
  5
52A
100
AcDbEntity
  8
フラッシュバルブ
  6
CONTINUOUS
 62
     6
100
AcDbVertex
100
AcDb2dVertex
 10
1658.793976
 20
1520.973893
 30
0.0
  0
VERTEX
  5
52B
100
AcDbEntity
  8
フラッシュバルブ
  6
CONTINUOUS
 62
     6
100
AcDbVertex
100
AcDb2dVertex
 10
1658.947937
 20
1521.361313
 30
0.0
  0
VERTEX
  5
52C
100
AcDbEntity
  8
フラッシュバルブ
  6
CONTINUOUS
 62
     6
100
AcDbVertex
100
AcDb2dVertex
 10
1659.080383
 20
1521.768876
 30
0.0
  0
VERTEX
  5
52D
100
AcDbEntity
  8
フラッシュバルブ
  6
CONTINUOUS
 62
     6
100
AcDbVertex
100
AcDb2dVertex
 10
1659.190094
 20
1522.193375
 30
0.0
  0
VERTEX
  5
52E
100
AcDbEntity
  8
フラッシュバルブ
  6
CONTINUOUS
 62
     6
100
AcDbVertex
100
AcDb2dVertex
 10
1659.276459
 20
1522.631913
 30
0.0
  0
SEQEND
  5
52F
100
AcDbEntity
  8
フラッシュバルブ
  6
CONTINUOUS
 62
     6
  0
POLYLINE
  5
530
100
AcDbEntity
  8
フラッシュバルブ
  6
CONTINUOUS
 62
     6
100
AcDb2dPolyline
 66
     1
 10
0.0
 20
0.0
 30
0.0
 70
   128
  0
VERTEX
  5
531
100
AcDbEntity
  8
フラッシュバルブ
  6
CONTINUOUS
 62
     6
100
AcDbVertex
100
AcDb2dVertex
 10
1659.276459
 20
1522.631913
 30
0.0
  0
VERTEX
  5
532
100
AcDbEntity
  8
フラッシュバルブ
  6
CONTINUOUS
 62
     6
100
AcDbVertex
100
AcDb2dVertex
 10
1659.338562
 20
1523.080521
 30
0.0
  0
VERTEX
  5
533
100
AcDbEntity
  8
フラッシュバルブ
  6
CONTINUOUS
 62
     6
100
AcDbVertex
100
AcDb2dVertex
 10
1659.375946
 20
1523.536149
 30
0.0
  0
VERTEX
  5
534
100
AcDbEntity
  8
フラッシュバルブ
  6
CONTINUOUS
 62
     6
100
AcDbVertex
100
AcDb2dVertex
 10
1659.388306
 20
1523.99498
 30
0.0
  0
SEQEND
  5
535
100
AcDbEntity
  8
フラッシュバルブ
  6
CONTINUOUS
 62
     6
  0
LINE
  5
536
100
AcDbEntity
  8
フラッシュバルブ
  6
CONTINUOUS
 62
     6
100
AcDbLine
 10
1680.310394
 20
1517.995225
 30
0.0
 11
1680.310394
 21
1514.495316
 31
0.0
  0
LINE
  5
537
100
AcDbEntity
  8
フラッシュバルブ
  6
CONTINUOUS
 62
     6
100
AcDbLine
 10
1655.310394
 20
1517.995225
 30
0.0
 11
1655.310394
 21
1514.495316
 31
0.0
  0
LINE
  5
538
100
AcDbEntity
  8
フラッシュバルブ
  6
CONTINUOUS
 62
     6
100
AcDbLine
 10
1682.810394
 20
1507.995377
 30
0.0
 11
1682.810394
 21
1512.995377
 31
0.0
  0
LINE
  5
539
100
AcDbEntity
  8
フラッシュバルブ
  6
CONTINUOUS
 62
     6
100
AcDbLine
 10
1681.310455
 20
1514.495316
 30
0.0
 11
1682.810394
 21
1512.995377
 31
0.0
  0
LINE
  5
53A
100
AcDbEntity
  8
フラッシュバルブ
  6
CONTINUOUS
 62
     6
100
AcDbLine
 10
1654.310333
 20
1514.495316
 30
0.0
 11
1681.310455
 21
1514.495316
 31
0.0
  0
LINE
  5
53B
100
AcDbEntity
  8
フラッシュバルブ
  6
CONTINUOUS
 62
     6
100
AcDbLine
 10
1652.810394
 20
1512.995377
 30
0.0
 11
1654.310333
 21
1514.495316
 31
0.0
  0
LINE
  5
53C
100
AcDbEntity
  8
フラッシュバルブ
  6
CONTINUOUS
 62
     6
100
AcDbLine
 10
1652.810394
 20
1507.995377
 30
0.0
 11
1652.810394
 21
1512.995377
 31
0.0
  0
LINE
  5
53D
100
AcDbEntity
  8
フラッシュバルブ
  6
CONTINUOUS
 62
     6
100
AcDbLine
 10
1676.232178
 20
1512.995377
 30
0.0
 11
1676.232178
 21
1507.995377
 31
0.0
  0
LINE
  5
53E
100
AcDbEntity
  8
フラッシュバルブ
  6
CONTINUOUS
 62
     6
100
AcDbLine
 10
1674.348633
 20
1512.995377
 30
0.0
 11
1674.348633
 21
1507.995377
 31
0.0
  0
LINE
  5
53F
100
AcDbEntity
  8
フラッシュバルブ
  6
CONTINUOUS
 62
     6
100
AcDbLine
 10
1661.272156
 20
1512.995377
 30
0.0
 11
1661.272156
 21
1507.995377
 31
0.0
  0
LINE
  5
540
100
AcDbEntity
  8
フラッシュバルブ
  6
CONTINUOUS
 62
     6
100
AcDbLine
 10
1659.388458
 20
1512.995377
 30
0.0
 11
1659.388458
 21
1507.995377
 31
0.0
  0
ARC
  5
541
100
AcDbEntity
  8
フラッシュバルブ
  6
CONTINUOUS
 62
     6
100
AcDbCircle
 10
1679.501526
 20
1510.182267
 30
0.0
 40
4.31303
100
AcDbArc
 50
40.710342
 51
139.289673
  0
LINE
  5
542
100
AcDbEntity
  8
フラッシュバルブ
  6
CONTINUOUS
 62
     6
100
AcDbLine
 10
1674.348633
 20
1512.995377
 30
0.0
 11
1676.232178
 21
1512.995377
 31
0.0
  0
ARC
  5
543
100
AcDbEntity
  8
フラッシュバルブ
  6
CONTINUOUS
 62
     6
100
AcDbCircle
 10
1667.810394
 20
1499.495316
 30
0.0
 40
15.00001
100
AcDbArc
 50
64.158539
 51
115.841476
  0
LINE
  5
544
100
AcDbEntity
  8
フラッシュバルブ
  6
CONTINUOUS
 62
     6
100
AcDbLine
 10
1659.388458
 20
1512.995377
 30
0.0
 11
1661.272156
 21
1512.995377
 31
0.0
  0
ARC
  5
545
100
AcDbEntity
  8
フラッシュバルブ
  6
CONTINUOUS
 62
     6
100
AcDbCircle
 10
1656.099426
 20
1510.13939
 30
0.0
 40
4.355961
100
AcDbArc
 50
40.968979
 51
139.031006
  0
LINE
  5
546
100
AcDbEntity
  8
フラッシュバルブ
  6
CONTINUOUS
 62
     6
100
AcDbLine
 10
1687.810394
 20
1507.995377
 30
0.0
 11
1687.810394
 21
1502.995377
 31
0.0
  0
LINE
  5
547
100
AcDbEntity
  8
フラッシュバルブ
  6
CONTINUOUS
 62
     6
100
AcDbLine
 10
1647.810394
 20
1507.995377
 30
0.0
 11
1687.810394
 21
1507.995377
 31
0.0
  0
LINE
  5
548
100
AcDbEntity
  8
フラッシュバルブ
  6
CONTINUOUS
 62
     6
100
AcDbLine
 10
1647.810394
 20
1507.995377
 30
0.0
 11
1647.810394
 21
1502.995377
 31
0.0
  0
LINE
  5
549
100
AcDbEntity
  8
フラッシュバルブ
  6
CONTINUOUS
 62
     6
100
AcDbLine
 10
1667.810394
 20
1743.004457
 30
0.0
 11
1667.810394
 21
1467.004457
 31
0.0
  0
LINE
  5
54A
100
AcDbEntity
  8
フラッシュバルブ
  6
CONTINUOUS
 62
     6
100
AcDbLine
 10
582.999957
 20
1678.0
 30
0.0
 11
958.5
 21
1678.0
 31
0.0
  0
LINE
  5
54B
100
AcDbEntity
  8
フラッシュバルブ
  6
CONTINUOUS
 62
     6
100
AcDbLine
 10
1700.628742
 20
1678.0
 30
0.0
 11
1776.1
 21
1678.0
 31
0.0
  0
LINE
  5
54C
100
AcDbEntity
  8
フラッシュバルブ
  6
CONTINUOUS
 62
     6
100
AcDbLine
 10
615.5
 20
1723.0
 30
0.0
 11
614.0
 21
1721.6364
 31
0.0
  0
LINE
  5
54D
100
AcDbEntity
  8
フラッシュバルブ
  6
CONTINUOUS
 62
     6
100
AcDbLine
 10
615.5
 20
1723.0
 30
0.0
 11
632.5
 21
1723.0
 31
0.0
  0
LINE
  5
54E
100
AcDbEntity
  8
フラッシュバルブ
  6
CONTINUOUS
 62
     6
100
AcDbLine
 10
632.5
 20
1723.0
 30
0.0
 11
634.0
 21
1721.6364
 31
0.0
  0
LINE
  5
54F
100
AcDbEntity
  8
フラッシュバルブ
  6
CONTINUOUS
 62
     6
100
AcDbLine
 10
611.6237
 20
1709.36443
 30
0.0
 11
601.6881
 21
1707.25253
 31
0.0
  0
LINE
  5
550
100
AcDbEntity
  8
フラッシュバルブ
  6
CONTINUOUS
 62
     6
100
AcDbLine
 10
600.5
 20
1699.5
 30
0.0
 11
600.5
 21
1705.78531
 31
0.0
  0
LINE
  5
551
100
AcDbEntity
  8
フラッシュバルブ
  6
CONTINUOUS
 62
     6
100
AcDbLine
 10
602.0
 20
1698.0
 30
0.0
 11
646.0
 21
1698.0
 31
0.0
  0
LINE
  5
552
100
AcDbEntity
  8
フラッシュバルブ
  6
CONTINUOUS
 62
     6
100
AcDbLine
 10
647.5
 20
1699.5
 30
0.0
 11
647.5
 21
1705.78531
 31
0.0
  0
LINE
  5
553
100
AcDbEntity
  8
フラッシュバルブ
  6
CONTINUOUS
 62
     6
100
AcDbLine
 10
636.3763
 20
1709.36443
 30
0.0
 11
646.3119
 21
1707.25253
 31
0.0
  0
LINE
  5
554
100
AcDbEntity
  8
フラッシュバルブ
  6
CONTINUOUS
 62
     6
100
AcDbLine
 10
603.5
 20
1707.25253
 30
0.0
 11
644.5
 21
1707.25253
 31
0.0
  0
LINE
  5
555
100
AcDbEntity
  8
フラッシュバルブ
  6
CONTINUOUS
 62
     6
100
AcDbLine
 10
602.5
 20
1678.0
 30
0.0
 11
602.5
 21
1698.0
 31
0.0
  0
LINE
  5
556
100
AcDbEntity
  8
フラッシュバルブ
  6
CONTINUOUS
 62
     6
100
AcDbLine
 10
645.5
 20
1698.0
 30
0.0
 11
645.5
 21
1694.0
 31
0.0
  0
LINE
  5
557
100
AcDbEntity
  8
フラッシュバルブ
  6
CONTINUOUS
 62
     6
100
AcDbLine
 10
611.1
 20
1623.200003
 30
0.0
 11
636.9
 21
1623.200003
 31
0.0
  0
LINE
  5
558
100
AcDbEntity
  8
フラッシュバルブ
  6
CONTINUOUS
 62
     6
100
AcDbLine
 10
611.1
 20
1635.2
 30
0.0
 11
636.9
 21
1635.2
 31
0.0
  0
LINE
  5
559
100
AcDbEntity
  8
フラッシュバルブ
  6
CONTINUOUS
 62
     6
100
AcDbLine
 10
612.0
 20
1638.5
 30
0.0
 11
612.0
 21
1635.2
 31
0.0
  0
LINE
  5
55A
100
AcDbEntity
  8
フラッシュバルブ
  6
CONTINUOUS
 62
     6
100
AcDbLine
 10
609.0
 20
1643.69615
 30
0.0
 11
609.0
 21
1650.0
 31
0.0
  0
LINE
  5
55B
100
AcDbEntity
  8
フラッシュバルブ
  6
CONTINUOUS
 62
     6
100
AcDbLine
 10
636.0
 20
1638.5
 30
0.0
 11
636.0
 21
1635.2
 31
0.0
  0
LINE
  5
55C
100
AcDbEntity
  8
フラッシュバルブ
  6
CONTINUOUS
 62
     6
100
AcDbLine
 10
639.0
 20
1643.69615
 30
0.0
 11
639.0
 21
1650.0
 31
0.0
  0
LINE
  5
55D
100
AcDbEntity
  8
フラッシュバルブ
  6
CONTINUOUS
 62
     6
100
AcDbLine
 10
617.6
 20
1724.2
 30
0.0
 11
617.6
 21
1723.0
 31
0.0
  0
LINE
  5
55E
100
AcDbEntity
  8
フラッシュバルブ
  6
CONTINUOUS
 62
     6
100
AcDbLine
 10
617.9
 20
1724.5
 30
0.0
 11
617.6
 21
1724.2
 31
0.0
  0
LINE
  5
55F
100
AcDbEntity
  8
フラッシュバルブ
  6
CONTINUOUS
 62
     6
100
AcDbLine
 10
630.1
 20
1724.5
 30
0.0
 11
617.9
 21
1724.5
 31
0.0
  0
LINE
  5
560
100
AcDbEntity
  8
フラッシュバルブ
  6
CONTINUOUS
 62
     6
100
AcDbLine
 10
630.1
 20
1724.5
 30
0.0
 11
630.4
 21
1724.2
 31
0.0
  0
LINE
  5
561
100
AcDbEntity
  8
フラッシュバルブ
  6
CONTINUOUS
 62
     6
100
AcDbLine
 10
630.4
 20
1724.2
 30
0.0
 11
630.4
 21
1723.0
 31
0.0
  0
LINE
  5
562
100
AcDbEntity
  8
フラッシュバルブ
  6
CONTINUOUS
 62
     6
100
AcDbLine
 10
623.0
 20
1720.5
 30
0.0
 11
623.0
 21
1714.73557
 31
0.0
  0
LINE
  5
563
100
AcDbEntity
  8
フラッシュバルブ
  6
CONTINUOUS
 62
     6
100
AcDbLine
 10
625.0
 20
1720.5
 30
0.0
 11
625.0
 21
1714.73557
 31
0.0
  0
LINE
  5
564
100
AcDbEntity
  8
フラッシュバルブ
  6
CONTINUOUS
 62
     6
100
AcDbLine
 10
615.0
 20
1720.5
 30
0.0
 11
615.0
 21
1714.73557
 31
0.0
  0
LINE
  5
565
100
AcDbEntity
  8
フラッシュバルブ
  6
CONTINUOUS
 62
     6
100
AcDbLine
 10
633.0
 20
1720.5
 30
0.0
 11
633.0
 21
1714.73557
 31
0.0
  0
LINE
  5
566
100
AcDbEntity
  8
フラッシュバルブ
  6
CONTINUOUS
 62
     6
100
AcDbLine
 10
614.0
 20
1721.6364
 30
0.0
 11
614.0
 21
1712.29887
 31
0.0
  0
LINE
  5
567
100
AcDbEntity
  8
フラッシュバルブ
  6
CONTINUOUS
 62
     6
100
AcDbLine
 10
634.0
 20
1712.29887
 30
0.0
 11
634.0
 21
1721.6364
 31
0.0
  0
LINE
  5
568
100
AcDbEntity
  8
フラッシュバルブ
  6
CONTINUOUS
 62
     6
100
AcDbLine
 10
623.0
 20
1720.5
 30
0.0
 11
625.0
 21
1720.5
 31
0.0
  0
LINE
  5
569
100
AcDbEntity
  8
フラッシュバルブ
  6
CONTINUOUS
 62
     6
100
AcDbLine
 10
623.0
 20
1714.73556
 30
0.0
 11
625.0
 21
1714.73557
 31
0.0
  0
LINE
  5
56A
100
AcDbEntity
  8
フラッシュバルブ
  6
CONTINUOUS
 62
     6
100
AcDbLine
 10
645.5225
 20
1696.5529
 30
0.0
 11
644.687
 21
1698.00002
 31
0.0
  0
LINE
  5
56B
100
AcDbEntity
  8
フラッシュバルブ
  6
CONTINUOUS
 62
     6
100
AcDbLine
 10
602.4775
 20
1696.5529
 30
0.0
 11
603.313
 21
1698.00002
 31
0.0
  0
LINE
  5
56C
100
AcDbEntity
  8
フラッシュバルブ
  6
CONTINUOUS
 62
     6
100
AcDbLine
 10
639.5
 20
1664.98212
 30
0.0
 11
639.5
 21
1651.01788
 31
0.0
  0
LINE
  5
56D
100
AcDbEntity
  8
フラッシュバルブ
  6
CONTINUOUS
 62
     6
100
AcDbLine
 10
608.5
 20
1651.01788
 30
0.0
 11
608.5
 21
1664.98212
 31
0.0
  0
LINE
  5
56E
100
AcDbEntity
  8
フラッシュバルブ
  6
CONTINUOUS
 62
     6
100
AcDbLine
 10
610.2033
 20
1648.06767
 30
0.0
 11
622.2967
 21
1641.08554
 31
0.0
  0
LINE
  5
56F
100
AcDbEntity
  8
フラッシュバルブ
  6
CONTINUOUS
 62
     6
100
AcDbLine
 10
625.7033
 20
1641.08554
 30
0.0
 11
637.7967
 21
1648.06768
 31
0.0
  0
LINE
  5
570
100
AcDbEntity
  8
フラッシュバルブ
  6
CONTINUOUS
 62
     6
100
AcDbLine
 10
625.7033
 20
1674.91446
 30
0.0
 11
637.7967
 21
1667.93233
 31
0.0
  0
LINE
  5
571
100
AcDbEntity
  8
フラッシュバルブ
  6
CONTINUOUS
 62
     6
100
AcDbLine
 10
610.2033
 20
1667.93234
 30
0.0
 11
622.2967
 21
1674.91446
 31
0.0
  0
LINE
  5
572
100
AcDbEntity
  8
フラッシュバルブ
  6
CONTINUOUS
 62
     6
100
AcDbLine
 10
647.0
 20
1666.0
 30
0.0
 11
651.5
 21
1666.0
 31
0.0
  0
LINE
  5
573
100
AcDbEntity
  8
フラッシュバルブ
  6
CONTINUOUS
 62
     6
100
AcDbLine
 10
650.5
 20
1689.187
 30
0.0
 11
651.5
 21
1689.187
 31
0.0
  0
LINE
  5
574
100
AcDbEntity
  8
フラッシュバルブ
  6
CONTINUOUS
 62
     6
100
AcDbLine
 10
650.5
 20
1666.813
 30
0.0
 11
651.5
 21
1666.813
 31
0.0
  0
LINE
  5
575
100
AcDbEntity
  8
フラッシュバルブ
  6
CONTINUOUS
 62
     6
100
AcDbLine
 10
650.5
 20
1666.0
 30
0.0
 11
650.5
 21
1690.0
 31
0.0
  0
LINE
  5
576
100
AcDbEntity
  8
フラッシュバルブ
  6
CONTINUOUS
 62
     6
100
AcDbLine
 10
649.0919
 20
1666.0
 30
0.0
 11
650.5
 21
1666.813
 31
0.0
  0
LINE
  5
577
100
AcDbEntity
  8
フラッシュバルブ
  6
CONTINUOUS
 62
     6
100
AcDbLine
 10
649.0919
 20
1690.0
 30
0.0
 11
650.5
 21
1689.187
 31
0.0
  0
LINE
  5
578
100
AcDbEntity
  8
フラッシュバルブ
  6
CONTINUOUS
 62
     6
100
AcDbLine
 10
651.5
 20
1690.9
 30
0.0
 11
651.5
 21
1665.1
 31
0.0
  0
LINE
  5
579
100
AcDbEntity
  8
フラッシュバルブ
  6
CONTINUOUS
 62
     6
100
AcDbLine
 10
651.5
 20
1690.0
 30
0.0
 11
649.5
 21
1690.0
 31
0.0
  0
LINE
  5
57A
100
AcDbEntity
  8
フラッシュバルブ
  6
CONTINUOUS
 62
     6
100
AcDbLine
 10
665.5
 20
1683.5
 30
0.0
 11
665.5
 21
1672.5
 31
0.0
  0
LINE
  5
57B
100
AcDbEntity
  8
フラッシュバルブ
  6
CONTINUOUS
 62
     6
100
AcDbLine
 10
676.0
 20
1681.25
 30
0.0
 11
676.0
 21
1674.75
 31
0.0
  0
LINE
  5
57C
100
AcDbEntity
  8
フラッシュバルブ
  6
CONTINUOUS
 62
     6
100
AcDbLine
 10
660.0
 20
1666.0
 30
0.0
 11
665.5
 21
1672.5
 31
0.0
  0
LINE
  5
57D
100
AcDbEntity
  8
フラッシュバルブ
  6
CONTINUOUS
 62
     6
100
AcDbLine
 10
660.0
 20
1690.0
 30
0.0
 11
665.5
 21
1683.5
 31
0.0
  0
LINE
  5
57E
100
AcDbEntity
  8
フラッシュバルブ
  6
CONTINUOUS
 62
     6
100
AcDbLine
 10
659.5
 20
1690.0
 30
0.0
 11
660.0
 21
1690.0
 31
0.0
  0
LINE
  5
57F
100
AcDbEntity
  8
フラッシュバルブ
  6
CONTINUOUS
 62
     6
100
AcDbLine
 10
659.5
 20
1666.0
 30
0.0
 11
660.0
 21
1666.0
 31
0.0
  0
LINE
  5
580
100
AcDbEntity
  8
フラッシュバルブ
  6
CONTINUOUS
 62
     6
100
AcDbLine
 10
660.0
 20
1666.0
 30
0.0
 11
660.0
 21
1690.0
 31
0.0
  0
LINE
  5
581
100
AcDbEntity
  8
フラッシュバルブ
  6
CONTINUOUS
 62
     6
100
AcDbLine
 10
659.5
 20
1689.99998
 30
0.0
 11
659.5
 21
1666.0
 31
0.0
  0
LINE
  5
582
100
AcDbEntity
  8
フラッシュバルブ
  6
CONTINUOUS
 62
     6
100
AcDbLine
 10
612.0
 20
1637.0
 30
0.0
 11
636.0
 21
1637.0
 31
0.0
  0
LINE
  5
583
100
AcDbEntity
  8
フラッシュバルブ
  6
CONTINUOUS
 62
     6
100
AcDbLine
 10
635.322
 20
1636.99998
 30
0.0
 11
636.0
 21
1638.17432
 31
0.0
  0
LINE
  5
584
100
AcDbEntity
  8
フラッシュバルブ
  6
CONTINUOUS
 62
     6
100
AcDbLine
 10
635.322
 20
1635.2
 30
0.0
 11
635.322
 21
1636.99998
 31
0.0
  0
LINE
  5
585
100
AcDbEntity
  8
フラッシュバルブ
  6
CONTINUOUS
 62
     6
100
AcDbLine
 10
636.0
 20
1638.5
 30
0.0
 11
612.0
 21
1638.5
 31
0.0
  0
LINE
  5
586
100
AcDbEntity
  8
フラッシュバルブ
  6
CONTINUOUS
 62
     6
100
AcDbLine
 10
612.678
 20
1635.2
 30
0.0
 11
612.678
 21
1636.99998
 31
0.0
  0
LINE
  5
587
100
AcDbEntity
  8
フラッシュバルブ
  6
CONTINUOUS
 62
     6
100
AcDbLine
 10
612.678
 20
1636.99998
 30
0.0
 11
612.0
 21
1638.17432
 31
0.0
  0
LINE
  5
588
100
AcDbEntity
  8
フラッシュバルブ
  6
CONTINUOUS
 62
     6
100
AcDbLine
 10
637.0
 20
1634.98432
 30
0.0
 11
637.0
 21
1623.41569
 31
0.0
  0
LINE
  5
589
100
AcDbEntity
  8
フラッシュバルブ
  6
CONTINUOUS
 62
     6
100
AcDbLine
 10
611.0
 20
1634.98432
 30
0.0
 11
611.0
 21
1623.41569
 31
0.0
  0
ARC
  5
58A
100
AcDbEntity
  8
フラッシュバルブ
  6
CONTINUOUS
 62
     6
100
AcDbCircle
 10
637.0
 20
1712.29887
 30
0.0
 40
3.0
100
AcDbArc
 50
180.0
 51
258.0
  0
ARC
  5
58B
100
AcDbEntity
  8
フラッシュバルブ
  6
CONTINUOUS
 62
     6
100
AcDbCircle
 10
611.0
 20
1712.29887
 30
0.0
 40
3.0
100
AcDbArc
 50
282.0
 51
0.0
  0
ARC
  5
58C
100
AcDbEntity
  8
フラッシュバルブ
  6
CONTINUOUS
 62
     6
100
AcDbCircle
 10
602.0
 20
1705.78531
 30
0.0
 40
1.5
100
AcDbArc
 50
102.0003
 51
180.0
  0
ARC
  5
58D
100
AcDbEntity
  8
フラッシュバルブ
  6
CONTINUOUS
 62
     6
100
AcDbCircle
 10
646.0
 20
1699.5
 30
0.0
 40
1.5
100
AcDbArc
 50
270.0
 51
0.0
  0
ARC
  5
58E
100
AcDbEntity
  8
フラッシュバルブ
  6
CONTINUOUS
 62
     6
100
AcDbCircle
 10
646.0
 20
1705.78531
 30
0.0
 40
1.5
100
AcDbArc
 50
0.0
 51
77.99969
  0
ARC
  5
58F
100
AcDbEntity
  8
フラッシュバルブ
  6
CONTINUOUS
 62
     6
100
AcDbCircle
 10
623.7584
 20
1629.2
 30
0.0
 40
14.00836
100
AcDbArc
 50
154.6393
 51
155.6117
  0
ARC
  5
590
100
AcDbEntity
  8
フラッシュバルブ
  6
CONTINUOUS
 62
     6
100
AcDbCircle
 10
615.0
 20
1643.69615
 30
0.0
 40
6.0
100
AcDbArc
 50
180.0
 51
240.0
  0
ARC
  5
591
100
AcDbEntity
  8
フラッシュバルブ
  6
CONTINUOUS
 62
     6
100
AcDbCircle
 10
624.2416
 20
1629.2
 30
0.0
 40
14.00836
100
AcDbArc
 50
334.6393
 51
335.6117
  0
ARC
  5
592
100
AcDbEntity
  8
フラッシュバルブ
  6
CONTINUOUS
 62
     6
100
AcDbCircle
 10
633.0
 20
1643.69615
 30
0.0
 40
6.0
100
AcDbArc
 50
300.0
 51
0.0
  0
ARC
  5
593
100
AcDbEntity
  8
フラッシュバルブ
  6
CONTINUOUS
 62
     6
100
AcDbCircle
 10
657.0
 20
1656.29171
 30
0.0
 40
18.0
100
AcDbArc
 50
163.8765
 51
166.4638
  0
ARC
  5
594
100
AcDbEntity
  8
フラッシュバルブ
  6
CONTINUOUS
 62
     6
100
AcDbCircle
 10
624.0
 20
1678.0
 30
0.0
 40
21.5
100
AcDbArc
 50
180.0
 51
213.338
  0
ARC
  5
595
100
AcDbEntity
  8
フラッシュバルブ
  6
CONTINUOUS
 62
     6
100
AcDbCircle
 10
619.0
 20
1715.9167
 30
0.0
 40
6.083333
100
AcDbArc
 50
48.88809
 51
131.1121
  0
ARC
  5
596
100
AcDbEntity
  8
フラッシュバルブ
  6
CONTINUOUS
 62
     6
100
AcDbCircle
 10
619.0
 20
1722.2356
 30
0.0
 40
8.5
100
AcDbArc
 50
241.9275
 51
298.0724
  0
ARC
  5
597
100
AcDbEntity
  8
フラッシュバルブ
  6
CONTINUOUS
 62
     6
100
AcDbCircle
 10
629.0
 20
1715.9167
 30
0.0
 40
6.083333
100
AcDbArc
 50
48.88794
 51
131.1119
  0
ARC
  5
598
100
AcDbEntity
  8
フラッシュバルブ
  6
CONTINUOUS
 62
     6
100
AcDbCircle
 10
629.0
 20
1722.2356
 30
0.0
 40
8.5
100
AcDbArc
 50
241.9276
 51
298.0725
  0
ARC
  5
599
100
AcDbEntity
  8
フラッシュバルブ
  6
CONTINUOUS
 62
     6
100
AcDbCircle
 10
637.0
 20
1715.9167
 30
0.0
 40
6.083333
100
AcDbArc
 50
119.5479
 51
131.1121
  0
ARC
  5
59A
100
AcDbEntity
  8
フラッシュバルブ
  6
CONTINUOUS
 62
     6
100
AcDbCircle
 10
637.0
 20
1722.2356
 30
0.0
 40
8.5
100
AcDbArc
 50
241.9275
 51
249.3327
  0
ARC
  5
59B
100
AcDbEntity
  8
フラッシュバルブ
  6
CONTINUOUS
 62
     6
100
AcDbCircle
 10
611.0
 20
1715.9167
 30
0.0
 40
6.083333
100
AcDbArc
 50
48.88794
 51
60.45212
  0
ARC
  5
59C
100
AcDbEntity
  8
フラッシュバルブ
  6
CONTINUOUS
 62
     6
100
AcDbCircle
 10
611.0
 20
1722.2356
 30
0.0
 40
8.5
100
AcDbArc
 50
290.6673
 51
298.0725
  0
ARC
  5
59D
100
AcDbEntity
  8
フラッシュバルブ
  6
CONTINUOUS
 62
     6
100
AcDbCircle
 10
591.0
 20
1656.29171
 30
0.0
 40
18.0
100
AcDbArc
 50
13.53619
 51
33.33801
  0
CIRCLE
  5
59E
100
AcDbEntity
  8
フラッシュバルブ
  6
CONTINUOUS
 62
     6
100
AcDbCircle
 10
624.0
 20
1658.0
 30
0.0
 40
10.5
  0
ARC
  5
59F
100
AcDbEntity
  8
フラッシュバルブ
  6
CONTINUOUS
 62
     6
100
AcDbCircle
 10
624.0
 20
1658.0
 30
0.0
 40
17.0
100
AcDbArc
 50
84.24966
 51
95.75049
  0
ARC
  5
5A0
100
AcDbEntity
  8
フラッシュバルブ
  6
CONTINUOUS
 62
     6
100
AcDbCircle
 10
624.0
 20
1658.0
 30
0.0
 40
17.0
100
AcDbArc
 50
144.2496
 51
155.7505
  0
ARC
  5
5A1
100
AcDbEntity
  8
フラッシュバルブ
  6
CONTINUOUS
 62
     6
100
AcDbCircle
 10
624.0
 20
1658.0
 30
0.0
 40
17.0
100
AcDbArc
 50
204.2496
 51
215.7505
  0
ARC
  5
5A2
100
AcDbEntity
  8
フラッシュバルブ
  6
CONTINUOUS
 62
     6
100
AcDbCircle
 10
624.0
 20
1658.0
 30
0.0
 40
17.0
100
AcDbArc
 50
264.2496
 51
275.7505
  0
ARC
  5
5A3
100
AcDbEntity
  8
フラッシュバルブ
  6
CONTINUOUS
 62
     6
100
AcDbCircle
 10
624.0
 20
1658.0
 30
0.0
 40
17.0
100
AcDbArc
 50
324.2496
 51
335.7505
  0
ARC
  5
5A4
100
AcDbEntity
  8
フラッシュバルブ
  6
CONTINUOUS
 62
     6
100
AcDbCircle
 10
624.0
 20
1658.0
 30
0.0
 40
17.0
100
AcDbArc
 50
24.24963
 51
35.75049
  0
ARC
  5
5A5
100
AcDbEntity
  8
フラッシュバルブ
  6
CONTINUOUS
 62
     6
100
AcDbCircle
 10
647.0
 20
1658.0
 30
0.0
 40
8.0
100
AcDbArc
 50
90.0
 51
155.7131
  0
ARC
  5
5A6
100
AcDbEntity
  8
フラッシュバルブ
  6
CONTINUOUS
 62
     6
100
AcDbCircle
 10
649.5
 20
1694.0
 30
0.0
 40
4.0
100
AcDbArc
 50
180.0
 51
270.0
  0
ARC
  5
5A7
100
AcDbEntity
  8
フラッシュバルブ
  6
CONTINUOUS
 62
     6
100
AcDbCircle
 10
655.0595
 20
1686.53457
 30
0.0
 40
5.632679
100
AcDbArc
 50
37.96893
 51
129.1934
  0
ARC
  5
5A8
100
AcDbEntity
  8
フラッシュバルブ
  6
CONTINUOUS
 62
     6
100
AcDbCircle
 10
655.0595
 20
1669.46543
 30
0.0
 40
5.632679
100
AcDbArc
 50
230.8067
 51
322.031
  0
ARC
  5
5A9
100
AcDbEntity
  8
フラッシュバルブ
  6
CONTINUOUS
 62
     6
100
AcDbCircle
 10
658.6954
 20
1678.0
 30
0.0
 40
6.995371
100
AcDbArc
 50
132.7627
 51
227.2373
  0
ARC
  5
5AA
100
AcDbEntity
  8
フラッシュバルブ
  6
CONTINUOUS
 62
     6
100
AcDbCircle
 10
653.0969
 20
1666.74167
 30
0.0
 40
1.396928
100
AcDbArc
 50
159.7833
 51
200.2167
  0
ARC
  5
5AB
100
AcDbEntity
  8
フラッシュバルブ
  6
CONTINUOUS
 62
     6
100
AcDbCircle
 10
655.1
 20
1667.47932
 30
0.0
 40
3.531508
100
AcDbArc
 50
200.2169
 51
339.7831
  0
ARC
  5
5AC
100
AcDbEntity
  8
フラッシュバルブ
  6
CONTINUOUS
 62
     6
100
AcDbCircle
 10
655.1
 20
1666.00402
 30
0.0
 40
3.531508
100
AcDbArc
 50
20.2168
 51
159.7832
  0
ARC
  5
5AD
100
AcDbEntity
  8
フラッシュバルブ
  6
CONTINUOUS
 62
     6
100
AcDbCircle
 10
602.0
 20
1699.5
 30
0.0
 40
1.5
100
AcDbArc
 50
180.0
 51
270.0
  0
ARC
  5
5AE
100
AcDbEntity
  8
フラッシュバルブ
  6
CONTINUOUS
 62
     6
100
AcDbCircle
 10
674.5
 20
1674.75
 30
0.0
 40
1.5
100
AcDbArc
 50
270.0
 51
0.0
  0
ARC
  5
5AF
100
AcDbEntity
  8
フラッシュバルブ
  6
CONTINUOUS
 62
     6
100
AcDbCircle
 10
674.5
 20
1681.25
 30
0.0
 40
1.5
100
AcDbArc
 50
0.0
 51
90.0
  0
CIRCLE
  5
5B0
100
AcDbEntity
  8
フラッシュバルブ
  6
CONTINUOUS
 62
     6
100
AcDbCircle
 10
671.5
 20
1678.0
 30
0.0
 40
2.0
  0
ARC
  5
5B1
100
AcDbEntity
  8
フラッシュバルブ
  6
CONTINUOUS
 62
     6
100
AcDbCircle
 10
657.1031
 20
1666.74167
 30
0.0
 40
1.396928
100
AcDbArc
 50
339.7833
 51
20.21667
  0
ARC
  5
5B2
100
AcDbEntity
  8
フラッシュバルブ
  6
CONTINUOUS
 62
     6
100
AcDbCircle
 10
651.5046
 20
1678.0
 30
0.0
 40
6.995371
100
AcDbArc
 50
312.7627
 51
47.23727
  0
ARC
  5
5B3
100
AcDbEntity
  8
フラッシュバルブ
  6
CONTINUOUS
 62
     6
100
AcDbCircle
 10
655.1
 20
1674.11229
 30
0.0
 40
1.700001
100
AcDbArc
 50
227.2374
 51
312.7626
  0
ARC
  5
5B4
100
AcDbEntity
  8
フラッシュバルブ
  6
CONTINUOUS
 62
     6
100
AcDbCircle
 10
624.2416
 20
1629.2
 30
0.0
 40
14.00836
100
AcDbArc
 50
24.38831
 51
25.36072
  0
ARC
  5
5B5
100
AcDbEntity
  8
フラッシュバルブ
  6
CONTINUOUS
 62
     6
100
AcDbCircle
 10
623.7584
 20
1629.2
 30
0.0
 40
14.00836
100
AcDbArc
 50
204.3883
 51
205.3607
  0
ARC
  5
5B6
100
AcDbEntity
  8
フラッシュバルブ
  6
CONTINUOUS
 62
     6
100
AcDbCircle
 10
617.5
 20
1632.45711
 30
0.0
 40
2.527199
100
AcDbArc
 50
75.61594
 51
104.3841
  0
ARC
  5
5B7
100
AcDbEntity
  8
フラッシュバルブ
  6
CONTINUOUS
 62
     6
100
AcDbCircle
 10
618.3353
 20
1629.2
 30
0.0
 40
5.889718
100
AcDbArc
 50
104.3842
 51
255.6158
  0
ARC
  5
5B8
100
AcDbEntity
  8
フラッシュバルブ
  6
CONTINUOUS
 62
     6
100
AcDbCircle
 10
616.6647
 20
1629.2
 30
0.0
 40
5.889718
100
AcDbArc
 50
284.3842
 51
75.61584
  0
ARC
  5
5B9
100
AcDbEntity
  8
フラッシュバルブ
  6
CONTINUOUS
 62
     6
100
AcDbCircle
 10
630.5
 20
1625.94289
 30
0.0
 40
2.527195
100
AcDbArc
 50
255.6159
 51
284.3841
  0
ARC
  5
5BA
100
AcDbEntity
  8
フラッシュバルブ
  6
CONTINUOUS
 62
     6
100
AcDbCircle
 10
630.5
 20
1632.45712
 30
0.0
 40
2.527195
100
AcDbArc
 50
75.61591
 51
104.3841
  0
ARC
  5
5BB
100
AcDbEntity
  8
フラッシュバルブ
  6
CONTINUOUS
 62
     6
100
AcDbCircle
 10
631.3353
 20
1629.2
 30
0.0
 40
5.88972
100
AcDbArc
 50
104.3842
 51
255.6158
  0
ARC
  5
5BC
100
AcDbEntity
  8
フラッシュバルブ
  6
CONTINUOUS
 62
     6
100
AcDbCircle
 10
629.6647
 20
1629.2
 30
0.0
 40
5.88972
100
AcDbArc
 50
284.3842
 51
75.61584
  0
ARC
  5
5BD
100
AcDbEntity
  8
フラッシュバルブ
  6
CONTINUOUS
 62
     6
100
AcDbCircle
 10
655.1
 20
1681.88771
 30
0.0
 40
1.700001
100
AcDbArc
 50
47.23737
 51
132.7626
  0
ARC
  5
5BE
100
AcDbEntity
  8
フラッシュバルブ
  6
CONTINUOUS
 62
     6
100
AcDbCircle
 10
655.1
 20
1689.99598
 30
0.0
 40
3.531508
100
AcDbArc
 50
200.2167
 51
339.7833
  0
ARC
  5
5BF
100
AcDbEntity
  8
フラッシュバルブ
  6
CONTINUOUS
 62
     6
100
AcDbCircle
 10
657.1031
 20
1689.25833
 30
0.0
 40
1.396928
100
AcDbArc
 50
339.7832
 51
20.21652
  0
ARC
  5
5C0
100
AcDbEntity
  8
フラッシュバルブ
  6
CONTINUOUS
 62
     6
100
AcDbCircle
 10
653.0969
 20
1689.25833
 30
0.0
 40
1.396928
100
AcDbArc
 50
159.7834
 51
200.2168
  0
ARC
  5
5C1
100
AcDbEntity
  8
フラッシュバルブ
  6
CONTINUOUS
 62
     6
100
AcDbCircle
 10
655.1
 20
1688.52068
 30
0.0
 40
3.531508
100
AcDbArc
 50
20.21686
 51
159.7831
  0
ARC
  5
5C2
100
AcDbEntity
  8
フラッシュバルブ
  6
CONTINUOUS
 62
     6
100
AcDbCircle
 10
617.5
 20
1625.94289
 30
0.0
 40
2.527195
100
AcDbArc
 50
255.6159
 51
284.3841
  0
ARC
  5
5C3
100
AcDbEntity
  8
フラッシュバルブ
  6
CONTINUOUS
 62
     6
100
AcDbCircle
 10
671.5
 20
1687.058422
 30
0.0
 40
4.75
100
AcDbArc
 50
245.098938
 51
294.901062
  0
LINE
  5
5C4
100
AcDbEntity
  8
フラッシュバルブ
  6
CONTINUOUS
 62
     6
100
AcDbLine
 10
665.5
 20
1682.75
 30
0.0
 11
669.5
 21
1682.75
 31
0.0
  0
LINE
  5
5C5
100
AcDbEntity
  8
フラッシュバルブ
  6
CONTINUOUS
 62
     6
100
AcDbLine
 10
673.5
 20
1682.75
 30
0.0
 11
674.5
 21
1682.75
 31
0.0
  0
LINE
  5
5C6
100
AcDbEntity
  8
フラッシュバルブ
  6
CONTINUOUS
 62
     6
100
AcDbLine
 10
665.5
 20
1673.25
 30
0.0
 11
669.5
 21
1673.25
 31
0.0
  0
LINE
  5
5C7
100
AcDbEntity
  8
フラッシュバルブ
  6
CONTINUOUS
 62
     6
100
AcDbLine
 10
673.5
 20
1673.25
 30
0.0
 11
674.5
 21
1673.25
 31
0.0
  0
ARC
  5
5C8
100
AcDbEntity
  8
フラッシュバルブ
  6
CONTINUOUS
 62
     6
100
AcDbCircle
 10
671.5
 20
1668.941578
 30
0.0
 40
4.75
100
AcDbArc
 50
65.098938
 51
114.901062
  0
ARC
  5
5C9
100
AcDbEntity
  8
フラッシュバルブ
  6
CONTINUOUS
 62
     6
100
AcDbCircle
 10
624.0
 20
1678.0
 30
0.0
 40
23.75
100
AcDbArc
 50
154.858749
 51
229.259693
  0
ARC
  5
5CA
100
AcDbEntity
  8
フラッシュバルブ
  6
CONTINUOUS
 62
     6
100
AcDbCircle
 10
624.0
 20
1678.0
 30
0.0
 40
23.75
100
AcDbArc
 50
310.740307
 51
328.213164
  0
LINE
  5
5CB
100
AcDbEntity
  8
フラッシュバルブ
  6
CONTINUOUS
 62
     6
100
AcDbLine
 10
1679.810359
 20
1638.5
 30
0.0
 11
1679.810359
 21
1635.2
 31
0.0
  0
LINE
  5
5CC
100
AcDbEntity
  8
フラッシュバルブ
  6
CONTINUOUS
 62
     6
100
AcDbLine
 10
1679.132349
 20
1635.2
 30
0.0
 11
1679.132349
 21
1636.99998
 31
0.0
  0
LINE
  5
5CD
100
AcDbEntity
  8
フラッシュバルブ
  6
CONTINUOUS
 62
     6
100
AcDbLine
 10
1679.810359
 20
1637.0
 30
0.0
 11
1655.810359
 21
1637.0
 31
0.0
  0
LINE
  5
5CE
100
AcDbEntity
  8
フラッシュバルブ
  6
CONTINUOUS
 62
     6
100
AcDbLine
 10
1679.132349
 20
1636.99998
 30
0.0
 11
1679.810359
 21
1638.17432
 31
0.0
  0
LINE
  5
5CF
100
AcDbEntity
  8
フラッシュバルブ
  6
CONTINUOUS
 62
     6
100
AcDbLine
 10
1655.810359
 20
1638.5
 30
0.0
 11
1655.810359
 21
1635.2
 31
0.0
  0
LINE
  5
5D0
100
AcDbEntity
  8
フラッシュバルブ
  6
CONTINUOUS
 62
     6
100
AcDbLine
 10
1656.488369
 20
1635.2
 30
0.0
 11
1656.488369
 21
1636.99998
 31
0.0
  0
LINE
  5
5D1
100
AcDbEntity
  8
フラッシュバルブ
  6
CONTINUOUS
 62
     6
100
AcDbLine
 10
1656.488369
 20
1636.99998
 30
0.0
 11
1655.810359
 21
1638.17432
 31
0.0
  0
LINE
  5
5D2
100
AcDbEntity
  8
フラッシュバルブ
  6
CONTINUOUS
 62
     6
100
AcDbLine
 10
1700.310359
 20
1695.0
 30
0.0
 11
1700.310359
 21
1697.5
 31
0.0
  0
LINE
  5
5D3
100
AcDbEntity
  8
フラッシュバルブ
  6
CONTINUOUS
 62
     6
100
AcDbLine
 10
1721.310359
 20
1697.5
 30
0.0
 11
1721.310359
 21
1694.4775
 31
0.0
  0
LINE
  5
5D4
100
AcDbEntity
  8
フラッシュバルブ
  6
CONTINUOUS
 62
     6
100
AcDbLine
 10
1704.810359
 20
1712.0
 30
0.0
 11
1716.810359
 21
1712.0
 31
0.0
  0
LINE
  5
5D5
100
AcDbEntity
  8
フラッシュバルブ
  6
CONTINUOUS
 62
     6
100
AcDbLine
 10
1718.310359
 20
1705.65685
 30
0.0
 11
1718.310359
 21
1710.5
 31
0.0
  0
LINE
  5
5D6
100
AcDbEntity
  8
フラッシュバルブ
  6
CONTINUOUS
 62
     6
100
AcDbLine
 10
1700.187861
 20
1697.5
 30
0.0
 11
1721.432859
 21
1697.5
 31
0.0
  0
LINE
  5
5D7
100
AcDbEntity
  8
フラッシュバルブ
  6
CONTINUOUS
 62
     6
100
AcDbLine
 10
1703.310359
 20
1705.65685
 30
0.0
 11
1703.310359
 21
1710.5
 31
0.0
  0
LINE
  5
5D8
100
AcDbEntity
  8
フラッシュバルブ
  6
CONTINUOUS
 62
     6
100
AcDbLine
 10
1711.510369
 20
1712.0
 30
0.0
 11
1711.510369
 21
1712.97547
 31
0.0
  0
LINE
  5
5D9
100
AcDbEntity
  8
フラッシュバルブ
  6
CONTINUOUS
 62
     6
100
AcDbLine
 10
1710.110349
 20
1712.0
 30
0.0
 11
1710.110349
 21
1712.97547
 31
0.0
  0
LINE
  5
5DA
100
AcDbEntity
  8
フラッシュバルブ
  6
CONTINUOUS
 62
     6
100
AcDbLine
 10
1680.710349
 20
1623.2
 30
0.0
 11
1654.910359
 21
1623.2
 31
0.0
  0
LINE
  5
5DB
100
AcDbEntity
  8
フラッシュバルブ
  6
CONTINUOUS
 62
     6
100
AcDbLine
 10
1680.710349
 20
1635.2
 30
0.0
 11
1654.910359
 21
1635.2
 31
0.0
  0
LINE
  5
5DC
100
AcDbEntity
  8
フラッシュバルブ
  6
CONTINUOUS
 62
     6
100
AcDbLine
 10
1679.810359
 20
1638.5
 30
0.0
 11
1655.810359
 21
1638.5
 31
0.0
  0
LINE
  5
5DD
100
AcDbEntity
  8
フラッシュバルブ
  6
CONTINUOUS
 62
     6
100
AcDbLine
 10
1756.810359
 20
1687.2775
 30
0.0
 11
1756.810359
 21
1668.72252
 31
0.0
  0
LINE
  5
5DE
100
AcDbEntity
  8
フラッシュバルブ
  6
CONTINUOUS
 62
     6
100
AcDbLine
 10
1742.810489
 20
1687.3155
 30
0.0
 11
1756.772339
 21
1687.3155
 31
0.0
  0
LINE
  5
5DF
100
AcDbEntity
  8
フラッシュバルブ
  6
CONTINUOUS
 62
     6
100
AcDbLine
 10
1755.610349
 20
1688.4775
 30
0.0
 11
1756.810359
 21
1687.2775
 31
0.0
  0
LINE
  5
5E0
100
AcDbEntity
  8
フラッシュバルブ
  6
CONTINUOUS
 62
     6
100
AcDbLine
 10
1756.810359
 20
1668.72252
 30
0.0
 11
1755.610349
 21
1667.52251
 31
0.0
  0
LINE
  5
5E1
100
AcDbEntity
  8
フラッシュバルブ
  6
CONTINUOUS
 62
     6
100
AcDbLine
 10
1731.797729
 20
1688.4775
 30
0.0
 11
1733.310359
 21
1687.60418
 31
0.0
  0
LINE
  5
5E2
100
AcDbEntity
  8
フラッシュバルブ
  6
CONTINUOUS
 62
     6
100
AcDbLine
 10
1742.810469
 20
1668.6845
 30
0.0
 11
1756.772339
 21
1668.6845
 31
0.0
  0
LINE
  5
5E3
100
AcDbEntity
  8
フラッシュバルブ
  6
CONTINUOUS
 62
     6
100
AcDbLine
 10
1755.610349
 20
1688.4775
 30
0.0
 11
1755.610349
 21
1667.52251
 31
0.0
  0
LINE
  5
5E4
100
AcDbEntity
  8
フラッシュバルブ
  6
CONTINUOUS
 62
     6
100
AcDbLine
 10
1730.933679
 20
1667.52251
 30
0.0
 11
1733.310359
 21
1667.52251
 31
0.0
  0
LINE
  5
5E5
100
AcDbEntity
  8
フラッシュバルブ
  6
CONTINUOUS
 62
     6
100
AcDbLine
 10
1739.411769
 20
1701.75
 30
0.0
 11
1742.810479
 21
1701.75
 31
0.0
  0
LINE
  5
5E6
100
AcDbEntity
  8
フラッシュバルブ
  6
CONTINUOUS
 62
     6
100
AcDbLine
 10
1738.310359
 20
1700.65182
 30
0.0
 11
1738.310359
 21
1655.34817
 31
0.0
  0
LINE
  5
5E7
100
AcDbEntity
  8
フラッシュバルブ
  6
CONTINUOUS
 62
     6
100
AcDbLine
 10
1739.411769
 20
1654.25
 30
0.0
 11
1742.810479
 21
1654.25
 31
0.0
  0
LINE
  5
5E8
100
AcDbEntity
  8
フラッシュバルブ
  6
CONTINUOUS
 62
     6
100
AcDbLine
 10
1733.310359
 20
1692.51994
 30
0.0
 11
1733.310359
 21
1663.48004
 31
0.0
  0
LINE
  5
5E9
100
AcDbEntity
  8
フラッシュバルブ
  6
CONTINUOUS
 62
     6
100
AcDbLine
 10
1755.610349
 20
1688.4775
 30
0.0
 11
1742.810499
 21
1688.4775
 31
0.0
  0
LINE
  5
5EA
100
AcDbEntity
  8
フラッシュバルブ
  6
CONTINUOUS
 62
     6
100
AcDbLine
 10
1640.633239
 20
1641.0
 30
0.0
 11
1631.987479
 21
1641.0
 31
0.0
  0
LINE
  5
5EB
100
AcDbEntity
  8
フラッシュバルブ
  6
CONTINUOUS
 62
     6
100
AcDbLine
 10
1631.310359
 20
1673.5
 30
0.0
 11
1631.310359
 21
1642.5
 31
0.0
  0
LINE
  5
5EC
100
AcDbEntity
  8
フラッシュバルブ
  6
CONTINUOUS
 62
     6
100
AcDbLine
 10
1641.310359
 20
1673.5
 30
0.0
 11
1641.310359
 21
1642.5
 31
0.0
  0
LINE
  5
5ED
100
AcDbEntity
  8
フラッシュバルブ
  6
CONTINUOUS
 62
     6
100
AcDbLine
 10
1641.110349
 20
1646.06766
 30
0.0
 11
1641.110349
 21
1642.08554
 31
0.0
  0
LINE
  5
5EE
100
AcDbEntity
  8
フラッシュバルブ
  6
CONTINUOUS
 62
     6
100
AcDbLine
 10
1631.510369
 20
1646.06766
 30
0.0
 11
1631.510369
 21
1642.08554
 31
0.0
  0
LINE
  5
5EF
100
AcDbEntity
  8
フラッシュバルブ
  6
CONTINUOUS
 62
     6
100
AcDbLine
 10
1632.510369
 20
1641.08554
 30
0.0
 11
1640.110349
 21
1641.08554
 31
0.0
  0
LINE
  5
5F0
100
AcDbEntity
  8
フラッシュバルブ
  6
CONTINUOUS
 62
     6
100
AcDbLine
 10
1679.149469
 20
1669.53552
 30
0.0
 11
1669.471279
 21
1663.94781
 31
0.0
  0
LINE
  5
5F1
100
AcDbEntity
  8
フラッシュバルブ
  6
CONTINUOUS
 62
     6
100
AcDbLine
 10
1624.810359
 20
1651.5
 30
0.0
 11
1624.810359
 21
1664.5
 31
0.0
  0
LINE
  5
5F2
100
AcDbEntity
  8
フラッシュバルブ
  6
CONTINUOUS
 62
     6
100
AcDbLine
 10
1633.510369
 20
1648.06766
 30
0.0
 11
1639.110349
 21
1648.06766
 31
0.0
  0
LINE
  5
5F3
100
AcDbEntity
  8
フラッシュバルブ
  6
CONTINUOUS
 62
     6
100
AcDbLine
 10
1633.613829
 20
1651.01788
 30
0.0
 11
1639.006889
 21
1651.01788
 31
0.0
  0
LINE
  5
5F4
100
AcDbEntity
  8
フラッシュバルブ
  6
CONTINUOUS
 62
     6
100
AcDbLine
 10
1680.186609
 20
1709.36443
 30
0.0
 11
1690.122249
 21
1707.25253
 31
0.0
  0
LINE
  5
5F5
100
AcDbEntity
  8
フラッシュバルブ
  6
CONTINUOUS
 62
     6
100
AcDbLine
 10
1673.910399
 20
1724.5
 30
0.0
 11
1668.610409
 21
1724.5
 31
0.0
  0
LINE
  5
5F6
100
AcDbEntity
  8
フラッシュバルブ
  6
CONTINUOUS
 62
     6
100
AcDbLine
 10
1668.610409
 20
1724.5
 30
0.0
 11
1668.610409
 21
1723.0
 31
0.0
  0
LINE
  5
5F7
100
AcDbEntity
  8
フラッシュバルブ
  6
CONTINUOUS
 62
     6
100
AcDbLine
 10
1672.964229
 20
1714.73557
 30
0.0
 11
1672.964229
 21
1720.5
 31
0.0
  0
LINE
  5
5F8
100
AcDbEntity
  8
フラッシュバルブ
  6
CONTINUOUS
 62
     6
100
AcDbLine
 10
1673.893669
 20
1714.73557
 30
0.0
 11
1672.964229
 21
1714.73557
 31
0.0
  0
LINE
  5
5F9
100
AcDbEntity
  8
フラッシュバルブ
  6
CONTINUOUS
 62
     6
100
AcDbLine
 10
1673.893669
 20
1720.5
 30
0.0
 11
1672.964229
 21
1720.5
 31
0.0
  0
LINE
  5
5FA
100
AcDbEntity
  8
フラッシュバルブ
  6
CONTINUOUS
 62
     6
100
AcDbLine
 10
1673.893669
 20
1720.5
 30
0.0
 11
1673.893669
 21
1714.73557
 31
0.0
  0
LINE
  5
5FB
100
AcDbEntity
  8
フラッシュバルブ
  6
CONTINUOUS
 62
     6
100
AcDbLine
 10
1646.310359
 20
1706.99982
 30
0.0
 11
1689.310359
 21
1706.99982
 31
0.0
  0
LINE
  5
5FC
100
AcDbEntity
  8
フラッシュバルブ
  6
CONTINUOUS
 62
     6
100
AcDbLine
 10
1689.810359
 20
1698.0
 30
0.0
 11
1645.810359
 21
1698.0
 31
0.0
  0
LINE
  5
5FD
100
AcDbEntity
  8
フラッシュバルブ
  6
CONTINUOUS
 62
     6
100
AcDbLine
 10
1679.149469
 20
1686.46448
 30
0.0
 11
1669.471279
 21
1692.05219
 31
0.0
  0
LINE
  5
5FE
100
AcDbEntity
  8
フラッシュバルブ
  6
CONTINUOUS
 62
     6
100
AcDbLine
 10
1680.810359
 20
1672.41229
 30
0.0
 11
1680.810359
 21
1683.58771
 31
0.0
  0
LINE
  5
5FF
100
AcDbEntity
  8
フラッシュバルブ
  6
CONTINUOUS
 62
     6
100
AcDbLine
 10
1674.210379
 20
1724.2
 30
0.0
 11
1674.210379
 21
1723.0
 31
0.0
  0
LINE
  5
600
100
AcDbEntity
  8
フラッシュバルブ
  6
CONTINUOUS
 62
     6
100
AcDbLine
 10
1640.633239
 20
1675.0
 30
0.0
 11
1631.987479
 21
1675.0
 31
0.0
  0
LINE
  5
601
100
AcDbEntity
  8
フラッシュバルブ
  6
CONTINUOUS
 62
     6
100
AcDbLine
 10
1619.810359
 20
1667.0
 30
0.0
 11
1619.810359
 21
1649.0
 31
0.0
  0
LINE
  5
602
100
AcDbEntity
  8
フラッシュバルブ
  6
CONTINUOUS
 62
     6
100
AcDbLine
 10
1619.810359
 20
1663.5
 30
0.0
 11
1624.810359
 21
1663.5
 31
0.0
  0
LINE
  5
603
100
AcDbEntity
  8
フラッシュバルブ
  6
CONTINUOUS
 62
     6
100
AcDbLine
 10
1619.810359
 20
1652.5
 30
0.0
 11
1624.810359
 21
1652.5
 31
0.0
  0
LINE
  5
604
100
AcDbEntity
  8
フラッシュバルブ
  6
CONTINUOUS
 62
     6
100
AcDbLine
 10
1616.810359
 20
1649.0
 30
0.0
 11
1616.810359
 21
1667.0
 31
0.0
  0
LINE
  5
605
100
AcDbEntity
  8
フラッシュバルブ
  6
CONTINUOUS
 62
     6
100
AcDbLine
 10
1626.810359
 20
1649.5
 30
0.0
 11
1631.310359
 21
1649.5
 31
0.0
  0
LINE
  5
606
100
AcDbEntity
  8
フラッシュバルブ
  6
CONTINUOUS
 62
     6
100
AcDbLine
 10
1626.810359
 20
1666.5
 30
0.0
 11
1631.310359
 21
1666.5
 31
0.0
  0
LINE
  5
607
100
AcDbEntity
  8
フラッシュバルブ
  6
CONTINUOUS
 62
     6
100
AcDbLine
 10
1676.310359
 20
1723.0
 30
0.0
 11
1659.310359
 21
1723.0
 31
0.0
  0
LINE
  5
608
100
AcDbEntity
  8
フラッシュバルブ
  6
CONTINUOUS
 62
     6
100
AcDbLine
 10
1667.010309
 20
1724.5
 30
0.0
 11
1667.010309
 21
1723.0
 31
0.0
  0
LINE
  5
609
100
AcDbEntity
  8
フラッシュバルブ
  6
CONTINUOUS
 62
     6
100
AcDbLine
 10
1661.410339
 20
1724.2
 30
0.0
 11
1661.410339
 21
1723.0
 31
0.0
  0
LINE
  5
60A
100
AcDbEntity
  8
フラッシュバルブ
  6
CONTINUOUS
 62
     6
100
AcDbLine
 10
1661.710319
 20
1724.5
 30
0.0
 11
1661.410339
 21
1724.2
 31
0.0
  0
LINE
  5
60B
100
AcDbEntity
  8
フラッシュバルブ
  6
CONTINUOUS
 62
     6
100
AcDbLine
 10
1661.710319
 20
1724.5
 30
0.0
 11
1667.010309
 21
1724.5
 31
0.0
  0
LINE
  5
60C
100
AcDbEntity
  8
フラッシュバルブ
  6
CONTINUOUS
 62
     6
100
AcDbLine
 10
1673.910399
 20
1724.5
 30
0.0
 11
1674.210379
 21
1724.2
 31
0.0
  0
LINE
  5
60D
100
AcDbEntity
  8
フラッシュバルブ
  6
CONTINUOUS
 62
     6
100
AcDbLine
 10
1676.310359
 20
1723.0
 30
0.0
 11
1679.060359
 21
1720.5
 31
0.0
  0
LINE
  5
60E
100
AcDbEntity
  8
フラッシュバルブ
  6
CONTINUOUS
 62
     6
100
AcDbLine
 10
1679.060359
 20
1714.73557
 30
0.0
 11
1679.060359
 21
1720.5
 31
0.0
  0
LINE
  5
60F
100
AcDbEntity
  8
フラッシュバルブ
  6
CONTINUOUS
 62
     6
100
AcDbLine
 10
1691.310359
 20
1699.5
 30
0.0
 11
1691.310359
 21
1705.78531
 31
0.0
  0
LINE
  5
610
100
AcDbEntity
  8
フラッシュバルブ
  6
CONTINUOUS
 62
     6
100
AcDbLine
 10
1659.310359
 20
1723.0
 30
0.0
 11
1656.560359
 21
1720.5
 31
0.0
  0
LINE
  5
611
100
AcDbEntity
  8
フラッシュバルブ
  6
CONTINUOUS
 62
     6
100
AcDbLine
 10
1656.560359
 20
1714.73557
 30
0.0
 11
1656.560359
 21
1720.5
 31
0.0
  0
LINE
  5
612
100
AcDbEntity
  8
フラッシュバルブ
  6
CONTINUOUS
 62
     6
100
AcDbLine
 10
1655.434079
 20
1709.36443
 30
0.0
 11
1645.498469
 21
1707.25253
 31
0.0
  0
LINE
  5
613
100
AcDbEntity
  8
フラッシュバルブ
  6
CONTINUOUS
 62
     6
100
AcDbLine
 10
1644.310359
 20
1699.5
 30
0.0
 11
1644.310359
 21
1705.78531
 31
0.0
  0
LINE
  5
614
100
AcDbEntity
  8
フラッシュバルブ
  6
CONTINUOUS
 62
     6
100
AcDbLine
 10
1694.378688
 20
1666.5
 30
0.0
 11
1688.810359
 21
1666.5
 31
0.0
  0
LINE
  5
615
100
AcDbEntity
  8
フラッシュバルブ
  6
CONTINUOUS
 62
     6
100
AcDbLine
 10
1644.090329
 20
1672.0
 30
0.0
 11
1644.090329
 21
1672.35037
 31
0.0
  0
LINE
  5
616
100
AcDbEntity
  8
フラッシュバルブ
  6
CONTINUOUS
 62
     6
100
AcDbLine
 10
1641.310359
 20
1672.0
 30
0.0
 11
1642.251609
 21
1672.0
 31
0.0
  0
LINE
  5
617
100
AcDbEntity
  8
フラッシュバルブ
  6
CONTINUOUS
 62
     6
100
AcDbLine
 10
1644.090329
 20
1672.0
 30
0.0
 11
1642.810359
 21
1671.261
 31
0.0
  0
LINE
  5
618
100
AcDbEntity
  8
フラッシュバルブ
  6
CONTINUOUS
 62
     6
100
AcDbLine
 10
1642.810359
 20
1671.261
 30
0.0
 11
1641.310359
 21
1671.261
 31
0.0
  0
LINE
  5
619
100
AcDbEntity
  8
フラッシュバルブ
  6
CONTINUOUS
 62
     6
100
AcDbLine
 10
1644.090329
 20
1644.0
 30
0.0
 11
1642.810359
 21
1644.739
 31
0.0
  0
LINE
  5
61A
100
AcDbEntity
  8
フラッシュバルブ
  6
CONTINUOUS
 62
     6
100
AcDbLine
 10
1642.810359
 20
1672.03132
 30
0.0
 11
1642.810359
 21
1644.0
 31
0.0
  0
LINE
  5
61B
100
AcDbEntity
  8
フラッシュバルブ
  6
CONTINUOUS
 62
     6
100
AcDbLine
 10
1642.810359
 20
1644.739
 30
0.0
 11
1641.310359
 21
1644.739
 31
0.0
  0
LINE
  5
61C
100
AcDbEntity
  8
フラッシュバルブ
  6
CONTINUOUS
 62
     6
100
AcDbLine
 10
1641.310359
 20
1644.0
 30
0.0
 11
1648.863189
 21
1644.0
 31
0.0
  0
LINE
  5
61D
100
AcDbEntity
  8
フラッシュバルブ
  6
CONTINUOUS
 62
     6
100
AcDbLine
 10
1682.810359
 20
1643.69615
 30
0.0
 11
1682.810359
 21
1660.5
 31
0.0
  0
LINE
  5
61E
100
AcDbEntity
  8
フラッシュバルブ
  6
CONTINUOUS
 62
     6
100
AcDbLine
 10
1646.310359
 20
1684.0
 30
0.0
 11
1646.310359
 21
1698.0
 31
0.0
  0
LINE
  5
61F
100
AcDbEntity
  8
フラッシュバルブ
  6
CONTINUOUS
 62
     6
100
AcDbLine
 10
1646.310359
 20
1696.59187
 30
0.0
 11
1647.123349
 21
1698.00002
 31
0.0
  0
LINE
  5
620
100
AcDbEntity
  8
フラッシュバルブ
  6
CONTINUOUS
 62
     6
100
AcDbLine
 10
1689.310359
 20
1696.59187
 30
0.0
 11
1688.497371
 21
1698.00002
 31
0.0
  0
LINE
  5
621
100
AcDbEntity
  8
フラッシュバルブ
  6
CONTINUOUS
 62
     6
100
AcDbLine
 10
1689.310359
 20
1698.0
 30
0.0
 11
1689.310359
 21
1695.0
 31
0.0
  0
LINE
  5
622
100
AcDbEntity
  8
フラッシュバルブ
  6
CONTINUOUS
 62
     6
100
AcDbLine
 10
1633.613829
 20
1664.98212
 30
0.0
 11
1639.006889
 21
1664.98212
 31
0.0
  0
LINE
  5
623
100
AcDbEntity
  8
フラッシュバルブ
  6
CONTINUOUS
 62
     6
100
AcDbLine
 10
1633.510369
 20
1667.93234
 30
0.0
 11
1639.110349
 21
1667.93234
 31
0.0
  0
LINE
  5
624
100
AcDbEntity
  8
フラッシュバルブ
  6
CONTINUOUS
 62
     6
100
AcDbLine
 10
1631.510369
 20
1669.93234
 30
0.0
 11
1631.510369
 21
1673.91446
 31
0.0
  0
LINE
  5
625
100
AcDbEntity
  8
フラッシュバルブ
  6
CONTINUOUS
 62
     6
100
AcDbLine
 10
1632.510369
 20
1674.91446
 30
0.0
 11
1640.110349
 21
1674.91446
 31
0.0
  0
LINE
  5
626
100
AcDbEntity
  8
フラッシュバルブ
  6
CONTINUOUS
 62
     6
100
AcDbLine
 10
1641.110349
 20
1669.93234
 30
0.0
 11
1641.110349
 21
1673.91446
 31
0.0
  0
LINE
  5
627
100
AcDbEntity
  8
フラッシュバルブ
  6
CONTINUOUS
 62
     6
100
AcDbLine
 10
1661.727049
 20
1720.5
 30
0.0
 11
1662.656489
 21
1720.5
 31
0.0
  0
LINE
  5
628
100
AcDbEntity
  8
フラッシュバルブ
  6
CONTINUOUS
 62
     6
100
AcDbLine
 10
1661.727049
 20
1714.73557
 30
0.0
 11
1662.656489
 21
1714.73557
 31
0.0
  0
LINE
  5
629
100
AcDbEntity
  8
フラッシュバルブ
  6
CONTINUOUS
 62
     6
100
AcDbLine
 10
1662.656489
 20
1714.73557
 30
0.0
 11
1662.656489
 21
1720.5
 31
0.0
  0
LINE
  5
62A
100
AcDbEntity
  8
フラッシュバルブ
  6
CONTINUOUS
 62
     6
100
AcDbLine
 10
1661.727049
 20
1720.5
 30
0.0
 11
1661.727049
 21
1714.73557
 31
0.0
  0
LINE
  5
62B
100
AcDbEntity
  8
フラッシュバルブ
  6
CONTINUOUS
 62
     6
100
AcDbLine
 10
1656.471249
 20
1669.53552
 30
0.0
 11
1666.149439
 21
1663.94781
 31
0.0
  0
LINE
  5
62C
100
AcDbEntity
  8
フラッシュバルブ
  6
CONTINUOUS
 62
     6
100
AcDbLine
 10
1656.471249
 20
1686.46448
 30
0.0
 11
1666.149439
 21
1692.05219
 31
0.0
  0
LINE
  5
62D
100
AcDbEntity
  8
フラッシュバルブ
  6
CONTINUOUS
 62
     6
100
AcDbLine
 10
1654.810359
 20
1672.41229
 30
0.0
 11
1654.810359
 21
1683.58771
 31
0.0
  0
LINE
  5
62E
100
AcDbEntity
  8
フラッシュバルブ
  6
CONTINUOUS
 62
     6
100
AcDbLine
 10
1731.797729
 20
1667.5225
 30
0.0
 11
1733.310359
 21
1668.39582
 31
0.0
  0
LINE
  5
62F
100
AcDbEntity
  8
フラッシュバルブ
  6
CONTINUOUS
 62
     6
100
AcDbLine
 10
1733.310359
 20
1688.4775
 30
0.0
 11
1727.310359
 21
1688.4775
 31
0.0
  0
LINE
  5
630
100
AcDbEntity
  8
フラッシュバルブ
  6
CONTINUOUS
 62
     6
100
AcDbLine
 10
1742.810469
 20
1667.52251
 30
0.0
 11
1755.610349
 21
1667.52251
 31
0.0
  0
ARC
  5
631
100
AcDbEntity
  8
フラッシュバルブ
  6
CONTINUOUS
 62
     6
100
AcDbCircle
 10
1658.810359
 20
1643.69615
 30
0.0
 40
6.0
100
AcDbArc
 50
205.2725
 51
240.0
  0
ARC
  5
632
100
AcDbEntity
  8
フラッシュバルブ
  6
CONTINUOUS
 62
     6
100
AcDbCircle
 10
1676.810359
 20
1643.69615
 30
0.0
 40
6.0
100
AcDbArc
 50
300.0
 51
0.0
  0
ARC
  5
633
100
AcDbEntity
  8
フラッシュバルブ
  6
CONTINUOUS
 62
     6
100
AcDbCircle
 10
1648.863189
 20
1639.0
 30
0.0
 40
5.0
100
AcDbArc
 50
25.27237
 51
90.0
  0
ARC
  5
634
100
AcDbEntity
  8
フラッシュバルブ
  6
CONTINUOUS
 62
     6
100
AcDbCircle
 10
1694.810359
 20
1695.0
 30
0.0
 40
5.5
100
AcDbArc
 50
180.0
 51
0.0
  0
ARC
  5
635
100
AcDbEntity
  8
フラッシュバルブ
  6
CONTINUOUS
 62
     6
100
AcDbCircle
 10
1710.810359
 20
1705.0
 30
0.0
 40
40.5
100
AcDbArc
 50
256.1206
 51
287.0839
  0
ARC
  5
636
100
AcDbEntity
  8
フラッシュバルブ
  6
CONTINUOUS
 62
     6
100
AcDbCircle
 10
1694.378688
 20
1638.5
 30
0.0
 40
28.0
100
AcDbArc
 50
76.12064
 51
90.0
  0
ARC
  5
637
100
AcDbEntity
  8
フラッシュバルブ
  6
CONTINUOUS
 62
     6
100
AcDbCircle
 10
1716.810359
 20
1710.5
 30
0.0
 40
1.5
100
AcDbArc
 50
0.0
 51
90.0
  0
ARC
  5
638
100
AcDbEntity
  8
フラッシュバルブ
  6
CONTINUOUS
 62
     6
100
AcDbCircle
 10
1718.310359
 20
1700.0
 30
0.0
 40
4.0
100
AcDbArc
 50
321.3178
 51
70.52875
  0
ARC
  5
639
100
AcDbEntity
  8
フラッシュバルブ
  6
CONTINUOUS
 62
     6
100
AcDbCircle
 10
1720.310359
 20
1705.65685
 30
0.0
 40
2.0
100
AcDbArc
 50
180.0
 51
250.5288
  0
ARC
  5
63A
100
AcDbEntity
  8
フラッシュバルブ
  6
CONTINUOUS
 62
     6
100
AcDbCircle
 10
1704.810359
 20
1710.5
 30
0.0
 40
1.5
100
AcDbArc
 50
90.0
 51
180.0
  0
ARC
  5
63B
100
AcDbEntity
  8
フラッシュバルブ
  6
CONTINUOUS
 62
     6
100
AcDbCircle
 10
1703.310359
 20
1700.0
 30
0.0
 40
4.0
100
AcDbArc
 50
109.4713
 51
218.6822
  0
ARC
  5
63C
100
AcDbEntity
  8
フラッシュバルブ
  6
CONTINUOUS
 62
     6
100
AcDbCircle
 10
1710.810359
 20
1703.0
 30
0.0
 40
10.0
100
AcDbArc
 50
64.15808
 51
85.98602
  0
ARC
  5
63D
100
AcDbEntity
  8
フラッシュバルブ
  6
CONTINUOUS
 62
     6
100
AcDbCircle
 10
1710.810359
 20
1703.0
 30
0.0
 40
10.0
100
AcDbArc
 50
94.01398
 51
115.8419
  0
ARC
  5
63E
100
AcDbEntity
  8
フラッシュバルブ
  6
CONTINUOUS
 62
     6
100
AcDbCircle
 10
1667.568719
 20
1629.2
 30
0.0
 40
14.00836
100
AcDbArc
 50
154.6393
 51
205.3607
  0
ARC
  5
63F
100
AcDbEntity
  8
フラッシュバルブ
  6
CONTINUOUS
 62
     6
100
AcDbCircle
 10
1668.051999
 20
1629.2
 30
0.0
 40
14.00836
100
AcDbArc
 50
334.6393
 51
25.36072
  0
ARC
  5
640
100
AcDbEntity
  8
フラッシュバルブ
  6
CONTINUOUS
 62
     6
100
AcDbCircle
 10
1679.068689
 20
1624.874759
 30
0.0
 40
1.459078
100
AcDbArc
 50
217.2828
 51
322.7173
  0
ARC
  5
641
100
AcDbEntity
  8
フラッシュバルブ
  6
CONTINUOUS
 62
     6
100
AcDbCircle
 10
1679.068689
 20
1633.52524
 30
0.0
 40
1.459078
100
AcDbArc
 50
37.28275
 51
142.7173
  0
ARC
  5
642
100
AcDbEntity
  8
フラッシュバルブ
  6
CONTINUOUS
 62
     6
100
AcDbCircle
 10
1673.387449
 20
1629.2
 30
0.0
 40
8.599416
100
AcDbArc
 50
322.7173
 51
37.28268
  0
ARC
  5
643
100
AcDbEntity
  8
フラッシュバルブ
  6
CONTINUOUS
 62
     6
100
AcDbCircle
 10
1684.749939
 20
1629.2
 30
0.0
 40
8.599416
100
AcDbArc
 50
142.7173
 51
217.2827
  0
ARC
  5
644
100
AcDbEntity
  8
フラッシュバルブ
  6
CONTINUOUS
 62
     6
100
AcDbCircle
 10
1670.754509
 20
1629.2
 30
0.0
 40
2.892159
100
AcDbArc
 50
358.9791
 51
1.020874
  0
ARC
  5
645
100
AcDbEntity
  8
フラッシュバルブ
  6
CONTINUOUS
 62
     6
100
AcDbCircle
 10
1667.810359
 20
1629.14754
 30
0.0
 40
5.836777
100
AcDbArc
 50
1.020874
 51
178.9792
  0
ARC
  5
646
100
AcDbEntity
  8
フラッシュバルブ
  6
CONTINUOUS
 62
     6
100
AcDbCircle
 10
1667.810359
 20
1629.25246
 30
0.0
 40
5.836777
100
AcDbArc
 50
181.0208
 51
358.9791
  0
ARC
  5
647
100
AcDbEntity
  8
フラッシュバルブ
  6
CONTINUOUS
 62
     6
100
AcDbCircle
 10
1730.933679
 20
1639.52251
 30
0.0
 40
28.0
100
AcDbArc
 50
90.0
 51
107.0839
  0
ARC
  5
648
100
AcDbEntity
  8
フラッシュバルブ
  6
CONTINUOUS
 62
     6
100
AcDbCircle
 10
1822.524359
 20
1647.82413
 30
0.0
 40
100.0
100
AcDbArc
 50
148.0043
 51
152.8656
  0
ARC
  5
649
100
AcDbEntity
  8
フラッシュバルブ
  6
CONTINUOUS
 62
     6
100
AcDbCircle
 10
1739.411769
 20
1699.75
 30
0.0
 40
2.0
100
AcDbArc
 50
90.0
 51
148.0043
  0
ARC
  5
64A
100
AcDbEntity
  8
フラッシュバルブ
  6
CONTINUOUS
 62
     6
100
AcDbCircle
 10
1822.524359
 20
1708.17586
 30
0.0
 40
100.0
100
AcDbArc
 50
207.1344
 51
211.9957
  0
ARC
  5
64B
100
AcDbEntity
  8
フラッシュバルブ
  6
CONTINUOUS
 62
     6
100
AcDbCircle
 10
1739.411769
 20
1656.25
 30
0.0
 40
2.0
100
AcDbArc
 50
211.9957
 51
270.0
  0
ARC
  5
64C
100
AcDbEntity
  8
フラッシュバルブ
  6
CONTINUOUS
 62
     6
100
AcDbCircle
 10
1735.310359
 20
1692.51994
 30
0.0
 40
2.0
100
AcDbArc
 50
152.8656
 51
180.0
  0
ARC
  5
64D
100
AcDbEntity
  8
フラッシュバルブ
  6
CONTINUOUS
 62
     6
100
AcDbCircle
 10
1735.310359
 20
1663.48006
 30
0.0
 40
2.0
100
AcDbArc
 50
180.0007
 51
207.1344
  0
ARC
  5
64E
100
AcDbEntity
  8
フラッシュバルブ
  6
CONTINUOUS
 62
     6
100
AcDbCircle
 10
1727.310359
 20
1694.4775
 30
0.0
 40
6.0
100
AcDbArc
 50
180.0
 51
270.0
  0
ARC
  5
64F
100
AcDbEntity
  8
フラッシュバルブ
  6
CONTINUOUS
 62
     6
100
AcDbCircle
 10
1707.494929
 20
1700.5
 30
0.0
 40
1.375
100
AcDbArc
 50
135.0506
 51
224.9494
  0
ARC
  5
650
100
AcDbEntity
  8
フラッシュバルブ
  6
CONTINUOUS
 62
     6
100
AcDbCircle
 10
1710.810359
 20
1697.19042
 30
0.0
 40
6.059581
100
AcDbArc
 50
44.9494
 51
135.0505
  0
ARC
  5
651
100
AcDbEntity
  8
フラッシュバルブ
  6
CONTINUOUS
 62
     6
100
AcDbCircle
 10
1710.810359
 20
1703.80958
 30
0.0
 40
6.059581
100
AcDbArc
 50
224.9495
 51
315.0506
  0
ARC
  5
652
100
AcDbEntity
  8
フラッシュバルブ
  6
CONTINUOUS
 62
     6
100
AcDbCircle
 10
1701.717097
 20
1698.9226
 30
0.0
 40
1.172602
100
AcDbArc
 50
253.2524
 51
286.7476
  0
ARC
  5
653
100
AcDbEntity
  8
フラッシュバルブ
  6
CONTINUOUS
 62
     6
100
AcDbCircle
 10
1701.717097
 20
1702.0774
 30
0.0
 40
1.172602
100
AcDbArc
 50
73.25247
 51
106.7475
  0
ARC
  5
654
100
AcDbEntity
  8
フラッシュバルブ
  6
CONTINUOUS
 62
     6
100
AcDbCircle
 10
1702.191768
 20
1700.5
 30
0.0
 40
2.81987
100
AcDbArc
 50
106.7474
 51
137.2599
  0
ARC
  5
655
100
AcDbEntity
  8
フラッシュバルブ
  6
CONTINUOUS
 62
     6
100
AcDbCircle
 10
1701.242427
 20
1700.5
 30
0.0
 40
2.81987
100
AcDbArc
 50
286.7474
 51
73.25259
  0
ARC
  5
656
100
AcDbEntity
  8
フラッシュバルブ
  6
CONTINUOUS
 62
     6
100
AcDbCircle
 10
1702.191768
 20
1700.5
 30
0.0
 40
2.81987
100
AcDbArc
 50
174.5721
 51
253.2526
  0
ARC
  5
657
100
AcDbEntity
  8
フラッシュバルブ
  6
CONTINUOUS
 62
     6
100
AcDbCircle
 10
1701.310359
 20
1705.65685
 30
0.0
 40
2.0
100
AcDbArc
 50
289.4711
 51
0.0
  0
ARC
  5
658
100
AcDbEntity
  8
フラッシュバルブ
  6
CONTINUOUS
 62
     6
100
AcDbCircle
 10
1633.310359
 20
1642.5
 30
0.0
 40
2.0
100
AcDbArc
 50
180.0
 51
228.5903
  0
ARC
  5
659
100
AcDbEntity
  8
フラッシュバルブ
  6
CONTINUOUS
 62
     6
100
AcDbCircle
 10
1639.310359
 20
1642.5
 30
0.0
 40
2.0
100
AcDbArc
 50
311.4097
 51
0.0
  0
ARC
  5
65A
100
AcDbEntity
  8
フラッシュバルブ
  6
CONTINUOUS
 62
     6
100
AcDbCircle
 10
1632.510369
 20
1642.08554
 30
0.0
 40
1.0
100
AcDbArc
 50
180.0
 51
270.0
  0
ARC
  5
65B
100
AcDbEntity
  8
フラッシュバルブ
  6
CONTINUOUS
 62
     6
100
AcDbCircle
 10
1640.110349
 20
1642.08554
 30
0.0
 40
1.0
100
AcDbArc
 50
270.0
 51
0.0
  0
ARC
  5
65C
100
AcDbEntity
  8
フラッシュバルブ
  6
CONTINUOUS
 62
     6
100
AcDbCircle
 10
1667.810359
 20
1678.0
 30
0.0
 40
14.15
100
AcDbArc
 50
323.2592
 51
336.7408
  0
ARC
  5
65D
100
AcDbEntity
  8
フラッシュバルブ
  6
CONTINUOUS
 62
     6
100
AcDbCircle
 10
1667.810359
 20
1678.0
 30
0.0
 40
14.15
100
AcDbArc
 50
263.2591
 51
276.7408
  0
ARC
  5
65E
100
AcDbEntity
  8
フラッシュバルブ
  6
CONTINUOUS
 62
     6
100
AcDbCircle
 10
1639.110349
 20
1646.06766
 30
0.0
 40
2.0
100
AcDbArc
 50
0.0
 51
90.0
  0
ARC
  5
65F
100
AcDbEntity
  8
フラッシュバルブ
  6
CONTINUOUS
 62
     6
100
AcDbCircle
 10
1633.510369
 20
1646.06766
 30
0.0
 40
2.0
100
AcDbArc
 50
90.0
 51
180.0
  0
ARC
  5
660
100
AcDbEntity
  8
フラッシュバルブ
  6
CONTINUOUS
 62
     6
100
AcDbCircle
 10
1639.006889
 20
1653.01788
 30
0.0
 40
2.0
100
AcDbArc
 50
270.0
 51
357.6201
  0
ARC
  5
661
100
AcDbEntity
  8
フラッシュバルブ
  6
CONTINUOUS
 62
     6
100
AcDbCircle
 10
1519.133559
 20
1658.0
 30
0.0
 40
121.9769
100
AcDbArc
 50
357.6201
 51
2.379944
  0
ARC
  5
662
100
AcDbEntity
  8
フラッシュバルブ
  6
CONTINUOUS
 62
     6
100
AcDbCircle
 10
1633.613829
 20
1653.01788
 30
0.0
 40
2.0
100
AcDbArc
 50
182.3799
 51
270.0
  0
ARC
  5
663
100
AcDbEntity
  8
フラッシュバルブ
  6
CONTINUOUS
 62
     6
100
AcDbCircle
 10
1753.487209
 20
1658.0
 30
0.0
 40
121.9769
100
AcDbArc
 50
177.6201
 51
182.3799
  0
ARC
  5
664
100
AcDbEntity
  8
フラッシュバルブ
  6
CONTINUOUS
 62
     6
100
AcDbCircle
 10
1667.810359
 20
1714.85925
 30
0.0
 40
7.640748
100
AcDbArc
 50
47.58264
 51
132.4172
  0
ARC
  5
665
100
AcDbEntity
  8
フラッシュバルブ
  6
CONTINUOUS
 62
     6
100
AcDbCircle
 10
1667.810359
 20
1721.5203
 30
0.0
 40
8.520332
100
AcDbArc
 50
232.7791
 51
307.2211
  0
ARC
  5
666
100
AcDbEntity
  8
フラッシュバルブ
  6
CONTINUOUS
 62
     6
100
AcDbCircle
 10
1670.109919
 20
1712.85069
 30
0.0
 40
11.68415
100
AcDbArc
 50
40.09857
 51
53.14877
  0
ARC
  5
667
100
AcDbEntity
  8
フラッシュバルブ
  6
CONTINUOUS
 62
     6
100
AcDbCircle
 10
1676.217739
 20
1721.0
 30
0.0
 40
1.5
100
AcDbArc
 50
53.14868
 51
83.73279
  0
ARC
  5
668
100
AcDbEntity
  8
フラッシュバルブ
  6
CONTINUOUS
 62
     6
100
AcDbCircle
 10
1676.725919
 20
1719.5109
 30
0.0
 40
3.0
100
AcDbArc
 50
96.59277
 51
160.7487
  0
ARC
  5
669
100
AcDbEntity
  8
フラッシュバルブ
  6
CONTINUOUS
 62
     6
100
AcDbCircle
 10
1676.615839
 20
1715.9965
 30
0.0
 40
3.0
100
AcDbArc
 50
204.8529
 51
265.1772
  0
ARC
  5
66A
100
AcDbEntity
  8
フラッシュバルブ
  6
CONTINUOUS
 62
     6
100
AcDbCircle
 10
1676.217739
 20
1714.5
 30
0.0
 40
1.5
100
AcDbArc
 50
270.0
 51
306.8513
  0
ARC
  5
66B
100
AcDbEntity
  8
フラッシュバルブ
  6
CONTINUOUS
 62
     6
100
AcDbCircle
 10
1670.109919
 20
1722.6493
 30
0.0
 40
11.68415
100
AcDbArc
 50
306.8512
 51
319.9014
  0
ARC
  5
66C
100
AcDbEntity
  8
フラッシュバルブ
  6
CONTINUOUS
 62
     6
100
AcDbCircle
 10
1680.810359
 20
1712.29887
 30
0.0
 40
3.0
100
AcDbArc
 50
125.6853
 51
258.0
  0
ARC
  5
66D
100
AcDbEntity
  8
フラッシュバルブ
  6
CONTINUOUS
 62
     6
100
AcDbCircle
 10
1667.810359
 20
1678.0
 30
0.0
 40
14.15
100
AcDbArc
 50
83.25916
 51
96.74091
  0
ARC
  5
66E
100
AcDbEntity
  8
フラッシュバルブ
  6
CONTINUOUS
 62
     6
100
AcDbCircle
 10
1667.810359
 20
1678.0
 30
0.0
 40
14.15
100
AcDbArc
 50
23.25916
 51
36.74084
  0
ARC
  5
66F
100
AcDbEntity
  8
フラッシュバルブ
  6
CONTINUOUS
 62
     6
100
AcDbCircle
 10
1639.310359
 20
1673.5
 30
0.0
 40
2.0
100
AcDbArc
 50
0.0
 51
48.59036
  0
ARC
  5
670
100
AcDbEntity
  8
フラッシュバルブ
  6
CONTINUOUS
 62
     6
100
AcDbCircle
 10
1633.310359
 20
1673.5
 30
0.0
 40
2.0
100
AcDbArc
 50
131.4096
 51
180.0
  0
ARC
  5
671
100
AcDbEntity
  8
フラッシュバルブ
  6
CONTINUOUS
 62
     6
100
AcDbCircle
 10
1618.310359
 20
1649.0
 30
0.0
 40
1.5
100
AcDbArc
 50
180.0
 51
0.0
  0
ARC
  5
672
100
AcDbEntity
  8
フラッシュバルブ
  6
CONTINUOUS
 62
     6
100
AcDbCircle
 10
1618.310359
 20
1667.0
 30
0.0
 40
1.5
100
AcDbArc
 50
0.0
 51
180.0
  0
ARC
  5
673
100
AcDbEntity
  8
フラッシュバルブ
  6
CONTINUOUS
 62
     6
100
AcDbCircle
 10
1626.810359
 20
1651.5
 30
0.0
 40
2.0
100
AcDbArc
 50
180.0
 51
270.0
  0
ARC
  5
674
100
AcDbEntity
  8
フラッシュバルブ
  6
CONTINUOUS
 62
     6
100
AcDbCircle
 10
1689.810359
 20
1705.78531
 30
0.0
 40
1.5
100
AcDbArc
 50
0.0
 51
77.99973
  0
ARC
  5
675
100
AcDbEntity
  8
フラッシュバルブ
  6
CONTINUOUS
 62
     6
100
AcDbCircle
 10
1689.810359
 20
1699.5
 30
0.0
 40
1.5
100
AcDbArc
 50
270.0
 51
0.0
  0
ARC
  5
676
100
AcDbEntity
  8
フラッシュバルブ
  6
CONTINUOUS
 62
     6
100
AcDbCircle
 10
1654.810359
 20
1712.29887
 30
0.0
 40
3.0
100
AcDbArc
 50
282.0
 51
54.31467
  0
ARC
  5
677
100
AcDbEntity
  8
フラッシュバルブ
  6
CONTINUOUS
 62
     6
100
AcDbCircle
 10
1645.810359
 20
1705.78531
 30
0.0
 40
1.5
100
AcDbArc
 50
102.0003
 51
180.0
  0
ARC
  5
678
100
AcDbEntity
  8
フラッシュバルブ
  6
CONTINUOUS
 62
     6
100
AcDbCircle
 10
1688.810359
 20
1660.5
 30
0.0
 40
6.0
100
AcDbArc
 50
90.0
 51
180.0
  0
ARC
  5
679
100
AcDbEntity
  8
フラッシュバルブ
  6
CONTINUOUS
 62
     6
100
AcDbCircle
 10
1642.251609
 20
1677.0
 30
0.0
 40
5.0
100
AcDbArc
 50
270.0
 51
15.31653
  0
ARC
  5
67A
100
AcDbEntity
  8
フラッシュバルブ
  6
CONTINUOUS
 62
     6
100
AcDbCircle
 10
1667.810359
 20
1684.0
 30
0.0
 40
21.5
100
AcDbArc
 50
180.0
 51
195.3165
  0
ARC
  5
67B
100
AcDbEntity
  8
フラッシュバルブ
  6
CONTINUOUS
 62
     6
100
AcDbCircle
 10
1650.870779
 20
1629.2
 30
0.0
 40
8.599416
100
AcDbArc
 50
322.7173
 51
37.28265
  0
ARC
  5
67C
100
AcDbEntity
  8
フラッシュバルブ
  6
CONTINUOUS
 62
     6
100
AcDbCircle
 10
1656.552029
 20
1633.52524
 30
0.0
 40
1.459078
100
AcDbArc
 50
37.28278
 51
142.7172
  0
ARC
  5
67D
100
AcDbEntity
  8
フラッシュバルブ
  6
CONTINUOUS
 62
     6
100
AcDbCircle
 10
1662.233269
 20
1629.2
 30
0.0
 40
8.599416
100
AcDbArc
 50
142.7173
 51
217.2827
  0
ARC
  5
67E
100
AcDbEntity
  8
フラッシュバルブ
  6
CONTINUOUS
 62
     6
100
AcDbCircle
 10
1656.552029
 20
1624.874759
 30
0.0
 40
1.459078
100
AcDbArc
 50
217.2827
 51
322.7172
  0
ARC
  5
67F
100
AcDbEntity
  8
フラッシュバルブ
  6
CONTINUOUS
 62
     6
100
AcDbCircle
 10
1664.866209
 20
1629.2
 30
0.0
 40
2.892159
100
AcDbArc
 50
178.9791
 51
181.0209
  0
ARC
  5
680
100
AcDbEntity
  8
フラッシュバルブ
  6
CONTINUOUS
 62
     6
100
AcDbCircle
 10
1626.810359
 20
1664.5
 30
0.0
 40
2.0
100
AcDbArc
 50
90.0
 51
180.0
  0
ARC
  5
681
100
AcDbEntity
  8
フラッシュバルブ
  6
CONTINUOUS
 62
     6
100
AcDbCircle
 10
1633.613829
 20
1662.98212
 30
0.0
 40
2.0
100
AcDbArc
 50
90.0
 51
177.62
  0
ARC
  5
682
100
AcDbEntity
  8
フラッシュバルブ
  6
CONTINUOUS
 62
     6
100
AcDbCircle
 10
1639.006889
 20
1662.98212
 30
0.0
 40
2.0
100
AcDbArc
 50
2.379883
 51
90.0
  0
ARC
  5
683
100
AcDbEntity
  8
フラッシュバルブ
  6
CONTINUOUS
 62
     6
100
AcDbCircle
 10
1633.510369
 20
1669.93234
 30
0.0
 40
2.0
100
AcDbArc
 50
180.0
 51
270.0
  0
ARC
  5
684
100
AcDbEntity
  8
フラッシュバルブ
  6
CONTINUOUS
 62
     6
100
AcDbCircle
 10
1632.510369
 20
1673.91446
 30
0.0
 40
1.0
100
AcDbArc
 50
90.0
 51
180.0
  0
ARC
  5
685
100
AcDbEntity
  8
フラッシュバルブ
  6
CONTINUOUS
 62
     6
100
AcDbCircle
 10
1640.110349
 20
1673.91446
 30
0.0
 40
1.0
100
AcDbArc
 50
0.0
 51
90.0
  0
ARC
  5
686
100
AcDbEntity
  8
フラッシュバルブ
  6
CONTINUOUS
 62
     6
100
AcDbCircle
 10
1639.110349
 20
1669.93234
 30
0.0
 40
2.0
100
AcDbArc
 50
270.0
 51
0.0
  0
ARC
  5
687
100
AcDbEntity
  8
フラッシュバルブ
  6
CONTINUOUS
 62
     6
100
AcDbCircle
 10
1658.894799
 20
1719.5109
 30
0.0
 40
3.0
100
AcDbArc
 50
19.25128
 51
83.40723
  0
ARC
  5
688
100
AcDbEntity
  8
フラッシュバルブ
  6
CONTINUOUS
 62
     6
100
AcDbCircle
 10
1659.004879
 20
1715.9965
 30
0.0
 40
3.0
100
AcDbArc
 50
274.8228
 51
335.1471
  0
ARC
  5
689
100
AcDbEntity
  8
フラッシュバルブ
  6
CONTINUOUS
 62
     6
100
AcDbCircle
 10
1659.402979
 20
1714.5
 30
0.0
 40
1.5
100
AcDbArc
 50
233.1487
 51
270.0
  0
ARC
  5
68A
100
AcDbEntity
  8
フラッシュバルブ
  6
CONTINUOUS
 62
     6
100
AcDbCircle
 10
1665.510799
 20
1722.6493
 30
0.0
 40
11.68415
100
AcDbArc
 50
220.0986
 51
233.1488
  0
ARC
  5
68B
100
AcDbEntity
  8
フラッシュバルブ
  6
CONTINUOUS
 62
     6
100
AcDbCircle
 10
1665.510799
 20
1712.85069
 30
0.0
 40
11.68415
100
AcDbArc
 50
126.8512
 51
139.9014
  0
ARC
  5
68C
100
AcDbEntity
  8
フラッシュバルブ
  6
CONTINUOUS
 62
     6
100
AcDbCircle
 10
1659.402979
 20
1721.0
 30
0.0
 40
1.5
100
AcDbArc
 50
96.26727
 51
126.8513
  0
ARC
  5
68D
100
AcDbEntity
  8
フラッシュバルブ
  6
CONTINUOUS
 62
     6
100
AcDbCircle
 10
1645.810359
 20
1699.5
 30
0.0
 40
1.5
100
AcDbArc
 50
180.0
 51
270.0
  0
CIRCLE
  5
68E
100
AcDbEntity
  8
フラッシュバルブ
  6
CONTINUOUS
 62
     6
100
AcDbCircle
 10
1667.810359
 20
1678.0
 30
0.0
 40
4.75
  0
CIRCLE
  5
68F
100
AcDbEntity
  8
フラッシュバルブ
  6
CONTINUOUS
 62
     6
100
AcDbCircle
 10
1667.810359
 20
1678.0
 30
0.0
 40
5.5
  0
CIRCLE
  5
690
100
AcDbEntity
  8
フラッシュバルブ
  6
CONTINUOUS
 62
     6
100
AcDbCircle
 10
1667.810359
 20
1678.0
 30
0.0
 40
12.0
  0
ARC
  5
691
100
AcDbEntity
  8
フラッシュバルブ
  6
CONTINUOUS
 62
     6
100
AcDbCircle
 10
1667.810359
 20
1678.0
 30
0.0
 40
14.15
100
AcDbArc
 50
143.2592
 51
156.7408
  0
ARC
  5
692
100
AcDbEntity
  8
フラッシュバルブ
  6
CONTINUOUS
 62
     6
100
AcDbCircle
 10
1667.810359
 20
1678.0
 30
0.0
 40
14.15
100
AcDbArc
 50
203.2592
 51
216.7409
  0
ARC
  5
693
100
AcDbEntity
  8
フラッシュバルブ
  6
CONTINUOUS
 62
     6
100
AcDbCircle
 10
1719.428949
 20
1700.5
 30
0.0
 40
2.81987
100
AcDbArc
 50
42.74008
 51
73.25259
  0
ARC
  5
694
100
AcDbEntity
  8
フラッシュバルブ
  6
CONTINUOUS
 62
     6
100
AcDbCircle
 10
1719.428949
 20
1700.5
 30
0.0
 40
2.81987
100
AcDbArc
 50
286.7474
 51
5.427887
  0
ARC
  5
695
100
AcDbEntity
  8
フラッシュバルブ
  6
CONTINUOUS
 62
     6
100
AcDbCircle
 10
1719.903619
 20
1698.9226
 30
0.0
 40
1.172602
100
AcDbArc
 50
253.2525
 51
286.7475
  0
ARC
  5
696
100
AcDbEntity
  8
フラッシュバルブ
  6
CONTINUOUS
 62
     6
100
AcDbCircle
 10
1720.378289
 20
1700.5
 30
0.0
 40
2.81987
100
AcDbArc
 50
106.7474
 51
253.2526
  0
ARC
  5
697
100
AcDbEntity
  8
フラッシュバルブ
  6
CONTINUOUS
 62
     6
100
AcDbCircle
 10
1719.903619
 20
1702.0774
 30
0.0
 40
1.172602
100
AcDbArc
 50
73.25247
 51
106.7475
  0
ARC
  5
698
100
AcDbEntity
  8
フラッシュバルブ
  6
CONTINUOUS
 62
     6
100
AcDbCircle
 10
1714.125789
 20
1700.5
 30
0.0
 40
1.375
100
AcDbArc
 50
315.0506
 51
44.94943
  0
LINE
  5
699
100
AcDbEntity
  8
フラッシュバルブ
  6
CONTINUOUS
 62
     6
100
AcDbLine
 10
1683.0
 20
1678.0
 30
0.0
 11
1690.628622
 21
1678.0
 31
0.0
  0
LINE
  5
69A
100
AcDbEntity
  8
フラッシュバルブ
  6
CONTINUOUS
 62
     6
100
AcDbLine
 10
616.06
 20
1529.999971
 30
0.0
 11
616.06
 21
1623.200003
 31
0.0
  0
LINE
  5
69B
100
AcDbEntity
  8
フラッシュバルブ
  6
CONTINUOUS
 62
     6
100
AcDbLine
 10
631.94
 20
1529.999971
 30
0.0
 11
631.94
 21
1623.200003
 31
0.0
  0
LINE
  5
69C
100
AcDbEntity
  8
フラッシュバルブ
  6
CONTINUOUS
 62
     6
100
AcDbLine
 10
1659.870274
 20
1529.995347
 30
0.0
 11
1659.870274
 21
1623.2
 31
0.0
  0
LINE
  5
69D
100
AcDbEntity
  8
フラッシュバルブ
  6
CONTINUOUS
 62
     6
100
AcDbLine
 10
1675.750274
 20
1529.995347
 30
0.0
 11
1675.750274
 21
1623.2
 31
0.0
  0
LINE
  5
69E
100
AcDbEntity
  8
フラッシュバルブ
  6
CONTINUOUS
 62
     6
100
AcDbLine
 10
1766.913335
 20
1385.250071
 30
0.0
 11
1770.810452
 21
1383.000071
 31
0.0
  0
LINE
  5
69F
100
AcDbEntity
  8
フラッシュバルブ
  6
CONTINUOUS
 62
     6
100
AcDbLine
 10
1766.913274
 20
1380.750071
 30
0.0
 11
1770.810391
 21
1383.000071
 31
0.0
  0
LINE
  5
6A0
100
AcDbEntity
  8
フラッシュバルブ
  6
CONTINUOUS
 62
     6
100
AcDbLine
 10
1766.402883
 20
1325.250105
 30
0.0
 11
1770.3
 21
1323.000105
 31
0.0
  0
LINE
  5
6A1
100
AcDbEntity
  8
フラッシュバルブ
  6
CONTINUOUS
 62
     6
100
AcDbLine
 10
1766.402822
 20
1320.750105
 30
0.0
 11
1770.299939
 21
1323.000105
 31
0.0
  0
LINE
  5
6A2
100
AcDbEntity
  8
フラッシュバルブ
  6
CONTINUOUS
 62
     6
100
AcDbLine
 10
485.75
 20
2659.734318
 30
0.0
 11
488.0
 21
2663.631435
 31
0.0
  0
LINE
  5
6A3
100
AcDbEntity
  8
フラッシュバルブ
  6
CONTINUOUS
 62
     6
100
AcDbLine
 10
490.25
 20
2659.734257
 30
0.0
 11
488.0
 21
2663.631374
 31
0.0
  0
LINE
  5
6A4
100
AcDbEntity
  8
フラッシュバルブ
  6
CONTINUOUS
 62
     6
100
AcDbLine
 10
757.75055
 20
2659.734379
 30
0.0
 11
760.00055
 21
2663.631496
 31
0.0
  0
LINE
  5
6A5
100
AcDbEntity
  8
フラッシュバルブ
  6
CONTINUOUS
 62
     6
100
AcDbLine
 10
762.25055
 20
2659.734318
 30
0.0
 11
760.00055
 21
2663.631435
 31
0.0
  0
LINE
  5
6A6
100
AcDbEntity
  8
フラッシュバルブ
  6
CONTINUOUS
 62
     6
100
AcDbLine
 10
564.0
 20
557.0
 30
0.0
 11
565.5
 21
561.0
 31
0.0
  0
LINE
  5
6A7
100
AcDbEntity
  8
フラッシュバルブ
  6
CONTINUOUS
 62
     6
100
AcDbLine
 10
564.0
 20
557.0
 30
0.0
 11
562.5
 21
561.0
 31
0.0
  0
LINE
  5
6A8
100
AcDbEntity
  8
フラッシュバルブ
  6
CONTINUOUS
 62
     6
100
AcDbLine
 10
684.0
 20
557.0
 30
0.0
 11
685.5
 21
561.0
 31
0.0
  0
LINE
  5
6A9
100
AcDbEntity
  8
フラッシュバルブ
  6
CONTINUOUS
 62
     6
100
AcDbLine
 10
684.0
 20
557.0
 30
0.0
 11
682.5
 21
561.0
 31
0.0
  0
LINE
  5
6AA
100
AcDbEntity
  8
フラッシュバルブ
  6
CONTINUOUS
 62
     6
100
AcDbLine
 10
1742.810394
 20
1385.250071
 30
0.0
 11
1766.913335
 21
1385.250071
 31
0.0
  0
LINE
  5
6AB
100
AcDbEntity
  8
フラッシュバルブ
  6
CONTINUOUS
 62
     6
100
AcDbLine
 10
1742.810394
 20
1380.750071
 30
0.0
 11
1766.913274
 21
1380.750071
 31
0.0
  0
LINE
  5
6AC
100
AcDbEntity
  8
フラッシュバルブ
  6
CONTINUOUS
 62
     6
100
AcDbLine
 10
1742.810394
 20
1325.250105
 30
0.0
 11
1766.402883
 21
1325.250105
 31
0.0
  0
LINE
  5
6AD
100
AcDbEntity
  8
フラッシュバルブ
  6
CONTINUOUS
 62
     6
100
AcDbLine
 10
1742.810394
 20
1320.750105
 30
0.0
 11
1766.402822
 21
1320.750105
 31
0.0
  0
LINE
  5
6AE
100
AcDbEntity
  8
フラッシュバルブ
  6
CONTINUOUS
 62
     6
100
AcDbLine
 10
485.75
 20
2635.631496
 30
0.0
 11
485.75
 21
2659.734318
 31
0.0
  0
LINE
  5
6AF
100
AcDbEntity
  8
フラッシュバルブ
  6
CONTINUOUS
 62
     6
100
AcDbLine
 10
490.25
 20
2635.631496
 30
0.0
 11
490.25
 21
2659.734257
 31
0.0
  0
LINE
  5
6B0
100
AcDbEntity
  8
フラッシュバルブ
  6
CONTINUOUS
 62
     6
100
AcDbLine
 10
757.75055
 20
2635.631496
 30
0.0
 11
757.75055
 21
2659.734379
 31
0.0
  0
LINE
  5
6B1
100
AcDbEntity
  8
フラッシュバルブ
  6
CONTINUOUS
 62
     6
100
AcDbLine
 10
762.25055
 20
2635.631496
 30
0.0
 11
762.25055
 21
2659.734318
 31
0.0
  0
LINE
  5
6B2
100
AcDbEntity
  8
フラッシュバルブ
  6
CONTINUOUS
 62
     6
100
AcDbLine
 10
565.5
 20
583.0
 30
0.0
 11
565.5
 21
561.0
 31
0.0
  0
LINE
  5
6B3
100
AcDbEntity
  8
フラッシュバルブ
  6
CONTINUOUS
 62
     6
100
AcDbLine
 10
562.5
 20
583.0
 30
0.0
 11
562.5
 21
561.0
 31
0.0
  0
LINE
  5
6B4
100
AcDbEntity
  8
フラッシュバルブ
  6
CONTINUOUS
 62
     6
100
AcDbLine
 10
685.5
 20
583.0
 30
0.0
 11
685.5
 21
561.0
 31
0.0
  0
LINE
  5
6B5
100
AcDbEntity
  8
フラッシュバルブ
  6
CONTINUOUS
 62
     6
100
AcDbLine
 10
682.5
 20
583.0
 30
0.0
 11
682.5
 21
561.0
 31
0.0
  0
DIMENSION
  5
6C2
100
AcDbEntity
  8
寸法
  6
CONTINUOUS
 62
     3
100
AcDbDimension
  2
*D15
 10
866.0
 20
583.0
 30
0.0
 11
842.5
 21
1042.999982
 31
0.0
 70
   160
  3
STANDARD
100
AcDbAlignedDimension
 13
624.0
 23
1502.999964
 33
0.0
 14
624.0
 24
583.0
 34
0.0
 50
90.0
100
AcDbRotatedDimension
1001
ACAD
1000
DSTYLE
1002
{
1070
     6
1000
_EX_NORM
1070
     7
1000
_EX_NORM
1070
    41
1040
30.0
1070
    42
1040
5.0
1070
    44
1040
10.0
1070
    73
1070
     0
1070
    74
1070
     0
1070
    75
1070
     0
1070
    76
1070
     0
1070
    77
1070
     1
1070
    78
1070
     8
1070
   140
1040
40.0
1070
   147
1040
3.5
1070
   173
1070
     1
1070
   176
1070
     3
1070
   177
1070
     3
1070
   178
1070
     2
1070
   271
1070
     2
1070
   279
1070
     2
1070
   280
1070
     0
1070
   287
1070
     5
1070
   340
1005
6C1
1002
}
  0
LINE
  5
6C3
100
AcDbEntity
  8
寸法
  6
CONTINUOUS
 62
     3
100
AcDbLine
 10
629.0
 20
1502.999964
 30
0.0
 11
876.0
 21
1502.999964
 31
0.0
  0
LINE
  5
6C4
100
AcDbEntity
  8
寸法
  6
CONTINUOUS
 62
     3
100
AcDbLine
 10
705.0
 20
583.0
 30
0.0
 11
952.0
 21
583.0
 31
0.0
  0
DIMENSION
  5
6D0
100
AcDbEntity
  8
寸法
  6
CONTINUOUS
 62
     3
100
AcDbDimension
  2
*D16
 10
684.0
 20
485.0
 30
0.0
 11
624.0
 21
508.5
 31
0.0
 70
   160
  3
STANDARD
100
AcDbAlignedDimension
 13
564.0
 23
547.0
 33
0.0
 14
684.0
 24
547.0
 34
0.0
100
AcDbRotatedDimension
1001
ACAD
1000
DSTYLE
1002
{
1070
     6
1000
_EX_NORM
1070
     7
1000
_EX_NORM
1070
    41
1040
30.0
1070
    42
1040
5.0
1070
    44
1040
10.0
1070
    73
1070
     0
1070
    74
1070
     0
1070
    75
1070
     0
1070
    76
1070
     0
1070
    77
1070
     1
1070
    78
1070
     8
1070
   140
1040
40.0
1070
   147
1040
3.5
1070
   173
1070
     1
1070
   176
1070
     3
1070
   177
1070
     3
1070
   178
1070
     2
1070
   271
1070
     2
1070
   279
1070
     2
1070
   280
1070
     0
1070
   287
1070
     5
1070
   340
1005
6C1
1002
}
  0
DIMENSION
  5
6DC
100
AcDbEntity
  8
寸法
  6
CONTINUOUS
 62
     3
100
AcDbDimension
  2
*D17
 10
794.000461
 20
2172.0
 30
0.0
 11
624.000461
 21
2195.5
 31
0.0
 70
   160
  3
STANDARD
100
AcDbAlignedDimension
 13
454.000461
 23
2635.631496
 33
0.0
 14
794.000461
 24
2635.631496
 34
0.0
100
AcDbRotatedDimension
1001
ACAD
1000
DSTYLE
1002
{
1070
     6
1000
_EX_NORM
1070
     7
1000
_EX_NORM
1070
    41
1040
30.0
1070
    42
1040
5.0
1070
    44
1040
10.0
1070
    73
1070
     0
1070
    74
1070
     0
1070
    75
1070
     0
1070
    76
1070
     0
1070
    77
1070
     1
1070
    78
1070
     8
1070
   140
1040
40.0
1070
   147
1040
3.5
1070
   173
1070
     1
1070
   176
1070
     3
1070
   177
1070
     3
1070
   178
1070
     2
1070
   271
1070
     2
1070
   279
1070
     2
1070
   280
1070
     0
1070
   287
1070
     5
1070
   340
1005
6C1
1002
}
  0
DIMENSION
  5
6E8
100
AcDbEntity
  8
寸法
  6
CONTINUOUS
 62
     3
100
AcDbDimension
  2
*D18
 10
886.0
 20
2255.631496
 30
0.0
 11
862.5
 21
2445.631596
 31
0.0
 70
   160
  3
STANDARD
100
AcDbAlignedDimension
 13
624.000461
 23
2635.631696
 33
0.0
 14
624.000908
 24
2255.631496
 34
0.0
 50
90.0
100
AcDbRotatedDimension
1001
ACAD
1000
DSTYLE
1002
{
1070
     6
1000
_EX_NORM
1070
     7
1000
_EX_NORM
1070
    41
1040
30.0
1070
    42
1040
5.0
1070
    44
1040
10.0
1070
    73
1070
     0
1070
    74
1070
     0
1070
    75
1070
     0
1070
    76
1070
     0
1070
    77
1070
     1
1070
    78
1070
     8
1070
   140
1040
40.0
1070
   147
1040
3.5
1070
   173
1070
     1
1070
   176
1070
     3
1070
   177
1070
     3
1070
   178
1070
     2
1070
   271
1070
     2
1070
   279
1070
     2
1070
   280
1070
     0
1070
   287
1070
     5
1070
   340
1005
6C1
1002
}
  0
POLYLINE
  5
6E9
100
AcDbEntity
  8
寸法
  6
CONTINUOUS
 62
     6
100
AcDb2dPolyline
 66
     1
 10
0.0
 20
0.0
 30
0.0
 70
   128
  0
VERTEX
  5
6EA
100
AcDbEntity
  8
寸法
  6
CONTINUOUS
 62
     6
100
AcDbVertex
100
AcDb2dVertex
 10
1755.610349
 20
1688.4775
 30
0.0
  0
VERTEX
  5
6EB
100
AcDbEntity
  8
寸法
  6
CONTINUOUS
 62
     6
100
AcDbVertex
100
AcDb2dVertex
 10
1783.55026
 20
1736.870902
 30
0.0
  0
SEQEND
  5
6EC
100
AcDbEntity
  8
寸法
  6
CONTINUOUS
 62
     6
  0
LINE
  5
6ED
100
AcDbEntity
  8
寸法
  6
CONTINUOUS
 62
     6
100
AcDbLine
 10
1768.058517
 20
1721.705062
 30
0.0
 11
1755.610349
 21
1688.4775
 31
0.0
  0
LINE
  5
6EE
100
AcDbEntity
  8
寸法
  6
CONTINUOUS
 62
     6
100
AcDbLine
 10
1755.610349
 20
1688.4775
 30
0.0
 11
1778.16215
 21
1715.871734
 31
0.0
  0
LEADER
  5
6EF
100
AcDbEntity
  8
寸法
  6
CONTINUOUS
 62
     6
100
AcDbLeader
  3
STANDARD
 73
     3
 74
     1
 75
     0
 40
0.0
 76
     2
 10
1493.25
 20
542.95
 30
0.0
 10
1451.616547
 20
470.838641
 30
0.0
 77
     6
1001
ACAD
1000
DSTYLE
1002
{
1070
    41
1040
35.0
1070
     5
1000
_EX_NORM
1070
     6
1000
_EX_NORM
1070
     7
1000
_EX_NORM
1070
   341
1005
2B
1002
}
  0
DIMENSION
  5
6FB
100
AcDbEntity
  8
寸法
  6
CONTINUOUS
 62
     3
100
AcDbDimension
  2
*D19
 10
1742.810394
 20
476.0
 30
0.0
 11
1632.810394
 21
499.5
 31
0.0
 70
   160
  3
STANDARD
100
AcDbAlignedDimension
 13
1522.810394
 23
522.5
 33
0.0
 14
1742.810394
 24
583.0
 34
0.0
100
AcDbRotatedDimension
1001
ACAD
1000
DSTYLE
1002
{
1070
     6
1000
_EX_NORM
1070
     7
1000
_EX_NORM
1070
    41
1040
30.0
1070
    42
1040
5.0
1070
    44
1040
10.0
1070
    73
1070
     0
1070
    74
1070
     0
1070
    75
1070
     0
1070
    76
1070
     0
1070
    77
1070
     1
1070
    78
1070
     8
1070
   140
1040
40.0
1070
   147
1040
3.5
1070
   173
1070
     1
1070
   176
1070
     3
1070
   177
1070
     3
1070
   178
1070
     2
1070
   271
1070
     2
1070
   279
1070
     2
1070
   280
1070
     0
1070
   287
1070
     5
1070
   340
1005
6C1
1002
}
  0
LINE
  5
6FC
100
AcDbEntity
  8
寸法
  6
CONTINUOUS
 62
     3
100
AcDbLine
 10
629.0
 20
1502.999964
 30
0.0
 11
876.0
 21
1502.999964
 31
0.0
  0
LINE
  5
6FD
100
AcDbEntity
  8
寸法
  6
CONTINUOUS
 62
     3
100
AcDbLine
 10
705.0
 20
583.0
 30
0.0
 11
942.0
 21
583.0
 31
0.0
  0
DIMENSION
  5
708
100
AcDbEntity
  8
寸法
  6
CONTINUOUS
 62
     3
100
AcDbDimension
  2
*D20
 10
1742.810394
 20
1736.5
 30
0.0
 11
1705.310394
 21
1760.0
 31
0.0
 70
   160
  3
STANDARD
100
AcDbAlignedDimension
 13
1667.810394
 23
1704.9
 33
0.0
 14
1742.810394
 24
1661.75
 34
0.0
100
AcDbRotatedDimension
1001
ACAD
1000
DSTYLE
1002
{
1070
     6
1000
_EX_NORM
1070
     7
1000
_EX_NORM
1070
    41
1040
30.0
1070
    42
1040
5.0
1070
    44
1040
10.0
1070
    73
1070
     0
1070
    74
1070
     0
1070
    75
1070
     0
1070
    76
1070
     1
1070
    77
1070
     1
1070
    78
1070
     8
1070
   140
1040
40.0
1070
   147
1040
3.5
1070
   173
1070
     1
1070
   176
1070
     3
1070
   177
1070
     3
1070
   178
1070
     2
1070
   271
1070
     2
1070
   279
1070
     2
1070
   280
1070
     0
1070
   287
1070
     5
1070
   340
1005
6C1
1002
}
  0
DIMENSION
  5
714
100
AcDbEntity
  8
寸法
  6
CONTINUOUS
 62
     3
100
AcDbDimension
  2
*D21
 10
1312.0
 20
583.0
 30
0.0
 11
1288.5
 21
743.0
 31
0.0
 70
   160
  3
STANDARD
100
AcDbAlignedDimension
 13
1368.810394
 23
903.0
 33
0.0
 14
1392.810394
 24
583.0
 34
0.0
 50
90.0
100
AcDbRotatedDimension
1001
ACAD
1000
DSTYLE
1002
{
1070
     6
1000
_EX_NORM
1070
     7
1000
_EX_NORM
1070
    41
1040
30.0
1070
    42
1040
5.0
1070
    44
1040
10.0
1070
    73
1070
     0
1070
    74
1070
     0
1070
    75
1070
     0
1070
    76
1070
     0
1070
    77
1070
     1
1070
    78
1070
     8
1070
   140
1040
40.0
1070
   147
1040
3.5
1070
   173
1070
     1
1070
   176
1070
     3
1070
   177
1070
     3
1070
   178
1070
     2
1070
   271
1070
     2
1070
   279
1070
     2
1070
   280
1070
     0
1070
   287
1070
     5
1070
   340
1005
6C1
1002
}
  0
DIMENSION
  5
720
100
AcDbEntity
  8
寸法
  6
CONTINUOUS
 62
     3
100
AcDbDimension
  2
*D22
 10
760.000612
 20
2708.0
 30
0.0
 11
624.000306
 21
2731.5
 31
0.0
 70
   160
  3
STANDARD
100
AcDbAlignedDimension
 13
488.0
 23
2635.631496
 33
0.0
 14
760.000612
 24
2635.631696
 34
0.0
100
AcDbRotatedDimension
1001
ACAD
1000
DSTYLE
1002
{
1070
     6
1000
_EX_NORM
1070
     7
1000
_EX_NORM
1070
    41
1040
30.0
1070
    42
1040
43.999939
1070
    44
1040
10.0
1070
    73
1070
     0
1070
    74
1070
     0
1070
    75
1070
     0
1070
    76
1070
     0
1070
    77
1070
     1
1070
    78
1070
     8
1070
   140
1040
40.0
1070
   147
1040
3.5
1070
   173
1070
     1
1070
   176
1070
     3
1070
   177
1070
     3
1070
   178
1070
     2
1070
   271
1070
     2
1070
   279
1070
     2
1070
   280
1070
     0
1070
   287
1070
     5
1070
   340
1005
6C1
1002
}
  0
TEXT
  5
721
100
AcDbEntity
  8
寸法
  6
CONTINUOUS
 62
     2
100
AcDbText
 10
1120.200195
 20
474.338702
 30
0.0
 40
40.0
  1
ＶＵ５０ｏｒＶＰ５０
 41
0.7182
  7
EXCADSTD
 72
     5
 11
1462.200191
 21
474.338702
 31
0.0
100
AcDbText
  0
LINE
  5
722
100
AcDbEntity
  8
寸法
  6
CONTINUOUS
 62
     6
100
AcDbLine
 10
1122.616394
 20
470.838641
 30
0.0
 11
1451.616547
 21
470.838641
 31
0.0
  0
DIMENSION
  5
72E
100
AcDbEntity
  8
寸法
  6
CONTINUOUS
 62
     2
100
AcDbDimension
  2
*D23
 10
1838.1
 20
1323.0
 30
0.0
 11
1814.6
 21
1353.0
 31
0.0
 70
   160
  3
STANDARD
100
AcDbAlignedDimension
 13
1786.810333
 23
1383.0
 33
0.0
 14
1786.810333
 24
1323.0
 34
0.0
 50
90.0
100
AcDbRotatedDimension
1001
ACAD
1000
DSTYLE
1002
{
1070
     6
1000
_EX_NORM
1070
     7
1000
_EX_NORM
1070
    41
1040
30.0
1070
    42
1040
5.0
1070
    44
1040
10.0
1070
    73
1070
     0
1070
    74
1070
     0
1070
    75
1070
     0
1070
    76
1070
     0
1070
    77
1070
     1
1070
    78
1070
     8
1070
   140
1040
40.0
1070
   147
1040
3.5
1070
   173
1070
     1
1070
   176
1070
     3
1070
   177
1070
     3
1070
   178
1070
     2
1070
   271
1070
     2
1070
   279
1070
     2
1070
   280
1070
     0
1070
   287
1070
     5
1070
   340
1005
6C1
1002
}
  0
DIMENSION
  5
73A
100
AcDbEntity
  8
寸法
  6
CONTINUOUS
 62
     2
100
AcDbDimension
  2
*D24
 10
1838.1
 20
1323.0
 30
0.0
 11
1814.6
 21
953.0
 31
0.0
 70
   160
  3
STANDARD
100
AcDbAlignedDimension
 13
1742.810394
 23
583.0
 33
0.0
 14
1786.810333
 24
1323.0
 34
0.0
 50
90.0
100
AcDbRotatedDimension
1001
ACAD
1000
DSTYLE
1002
{
1070
     6
1000
_EX_NORM
1070
     7
1000
_EX_NORM
1070
    41
1040
30.0
1070
    42
1040
5.0
1070
    44
1040
10.0
1070
    73
1070
     0
1070
    74
1070
     0
1070
    75
1070
     0
1070
    76
1070
     0
1070
    77
1070
     1
1070
    78
1070
     8
1070
   140
1040
40.0
1070
   147
1040
3.5
1070
   173
1070
     1
1070
   176
1070
     3
1070
   177
1070
     3
1070
   178
1070
     2
1070
   271
1070
     2
1070
   279
1070
     2
1070
   280
1070
     0
1070
   287
1070
     5
1070
   340
1005
6C1
1002
}
  0
DIMENSION
  5
745
100
AcDbEntity
  8
寸法
  6
CONTINUOUS
 62
     2
100
AcDbDimension
  2
*D25
 10
929.0
 20
583.0
 30
0.0
 11
905.5
 21
1130.5
 31
0.0
 70
   160
  3
STANDARD
100
AcDbAlignedDimension
 13
958.5
 23
1678.0
 33
0.0
 14
929.0
 24
583.0
 34
0.0
 50
90.0
100
AcDbRotatedDimension
1001
ACAD
1000
DSTYLE
1002
{
1070
     6
1000
_EX_NORM
1070
     7
1000
_EX_NORM
1070
    41
1040
30.0
1070
    42
1040
5.0
1070
    44
1040
10.0
1070
    73
1070
     0
1070
    74
1070
     0
1070
    75
1070
     0
1070
    76
1070
     1
1070
    77
1070
     1
1070
    78
1070
     8
1070
   140
1040
40.0
1070
   147
1040
3.5
1070
   173
1070
     1
1070
   176
1070
     3
1070
   177
1070
     3
1070
   178
1070
     2
1070
   271
1070
     2
1070
   279
1070
     2
1070
   280
1070
     0
1070
   287
1070
     5
1070
   340
1005
6C1
1002
}
  0
DIMENSION
  5
751
100
AcDbEntity
  8
寸法
  6
CONTINUOUS
 62
     2
100
AcDbDimension
  2
*D26
 10
865.4
 20
1502.999964
 30
0.0
 11
841.9
 21
1590.499982
 31
0.0
 70
   160
  3
STANDARD
100
AcDbAlignedDimension
 13
958.5
 23
1678.0
 33
0.0
 14
866.0
 24
1502.999964
 34
0.0
 50
90.0
100
AcDbRotatedDimension
1001
ACAD
1000
DSTYLE
1002
{
1070
     6
1000
_EX_NORM
1070
     7
1000
_EX_NORM
1070
    41
1040
30.0
1070
    42
1040
5.0
1070
    44
1040
10.0
1070
    73
1070
     0
1070
    74
1070
     0
1070
    75
1070
     0
1070
    76
1070
     0
1070
    77
1070
     1
1070
    78
1070
     8
1070
   140
1040
40.0
1070
   147
1040
3.5
1070
   173
1070
     1
1070
   176
1070
     3
1070
   177
1070
     3
1070
   178
1070
     2
1070
   271
1070
     2
1070
   279
1070
     2
1070
   280
1070
     0
1070
   287
1070
     5
1070
   340
1005
6C1
1002
}
  0
LINE
  5
752
100
AcDbEntity
  8
寸法
  6
CONTINUOUS
 62
     6
100
AcDbLine
 10
1783.55026
 20
1736.870902
 30
0.0
 11
1902.23184
 21
1736.870902
 31
0.0
  0
TEXT
  5
753
100
AcDbEntity
  8
寸法
  6
CONTINUOUS
 62
     2
100
AcDbText
 10
1776.868681
 20
1740.370963
 30
0.0
 40
40.0
  1
ＰＪ
 41
0.861
  7
EXCADSTD
 72
     5
 11
1852.02988
 21
1740.370963
 31
0.0
100
AcDbText
  0
TEXT
  5
754
100
AcDbEntity
  8
寸法
  6
CONTINUOUS
 62
     2
100
AcDbText
 10
1843.544065
 20
1755.409415
 30
0.0
 40
25.0
  1
１
 41
0.9912
  7
EXCADSTD
 72
     5
 11
1867.144065
 21
1755.409415
 31
0.0
100
AcDbText
  0
TEXT
  5
755
100
AcDbEntity
  8
寸法
  6
CONTINUOUS
 62
     6
100
AcDbText
 10
1852.754728
 20
1740.370963
 30
0.0
 40
40.0
  1
／ 
 41
0.9912
  7
EXCADSTD
 72
     5
 11
1890.514726
 21
1740.370963
 31
0.0
100
AcDbText
  0
TEXT
  5
756
100
AcDbEntity
  8
寸法
  6
CONTINUOUS
 62
     2
100
AcDbText
 10
1878.952238
 20
1741.671775
 30
0.0
 40
25.0
  1
２
 41
0.9912
  7
EXCADSTD
 72
     5
 11
1902.552238
 21
1741.671775
 31
0.0
100
AcDbText
  0
LINE
  5
757
100
AcDbEntity
  8
器具明細表
  6
CONTINUOUS
 62
     6
100
AcDbLine
 10
1166.0
 20
2577.0
 30
0.0
 11
1866.0
 21
2577.0
 31
0.0
  0
LINE
  5
758
100
AcDbEntity
  8
器具明細表
  6
CONTINUOUS
 62
     6
100
AcDbLine
 10
1166.0
 20
2642.0
 30
0.0
 11
1866.0
 21
2642.0
 31
0.0
  0
LINE
  5
759
100
AcDbEntity
  8
器具明細表
  6
CONTINUOUS
 62
     6
100
AcDbLine
 10
1166.0
 20
2707.0
 30
0.0
 11
1866.0
 21
2707.0
 31
0.0
  0
LINE
  5
75A
100
AcDbEntity
  8
器具明細表
  6
CONTINUOUS
 62
     6
100
AcDbLine
 10
1166.0
 20
2772.0
 30
0.0
 11
1866.0
 21
2772.0
 31
0.0
  0
TEXT
  5
75B
100
AcDbEntity
  8
器具明細表
  6
CONTINUOUS
 62
     2
100
AcDbText
 10
1781.0
 20
2712.0
 30
0.0
 40
55.0
  1
個数
 41
0.664364
  7
EXCADSTD
 72
     5
 11
1860.7442
 21
2712.0
 31
0.0
100
AcDbText
  0
TEXT
  5
75C
100
AcDbEntity
  8
器具明細表
  6
CONTINUOUS
 62
     2
100
AcDbText
 10
1546.01709
 20
2712.0
 30
0.0
 40
55.0
  1
品　　名
 41
0.687273
  7
EXCADSTD
 72
     5
 11
1726.01709
 21
2712.0
 31
0.0
100
AcDbText
  0
TEXT
  5
75D
100
AcDbEntity
  8
器具明細表
  6
CONTINUOUS
 62
     2
100
AcDbText
 10
1801.0
 20
2585.613281
 30
0.0
 40
47.5
  1
１
 41
0.834695
  7
EXCADSTD
 72
     5
 11
1838.759998
 21
2585.613281
 31
0.0
100
AcDbText
  0
TEXT
  5
75E
100
AcDbEntity
  8
器具明細表
  6
CONTINUOUS
 62
     2
100
AcDbText
 10
1801.0
 20
2650.981934
 30
0.0
 40
47.5
  1
１
 41
0.834695
  7
EXCADSTD
 72
     5
 11
1838.759998
 21
2650.981934
 31
0.0
100
AcDbText
  0
INSERT
  5
75F
100
AcDbEntity
  8
器具明細表
  6
CONTINUOUS
 62
     0
100
AcDbBlockReference
  2
NC510LSK
 10
1268.534424
 20
2856.388184
 30
0.0
 41
10.0
 42
10.0
  0
TEXT
  5
760
100
AcDbEntity
  8
器具明細表
  6
CONTINUOUS
 62
     2
100
AcDbText
 10
1216.400391
 20
2712.0
 30
0.0
 40
55.0
  1
品　番
 41
0.865455
  7
EXCADSTD
 72
     5
 11
1386.400391
 21
2712.0
 31
0.0
100
AcDbText
  0
TEXT
  5
761
100
AcDbEntity
  8
器具明細表
  6
CONTINUOUS
 62
     2
100
AcDbText
 10
1408.918457
 20
2584.0
 30
0.0
 40
50.0
  1
小便器洗浄弁
 41
0.644
  7
EXCADSTD
 72
     5
 11
1638.918456
 21
2584.0
 31
0.0
100
AcDbText
  0
TEXT
  5
762
100
AcDbEntity
  8
器具明細表
  6
CONTINUOUS
 62
     2
100
AcDbText
 10
1168.983856
 20
2584.480469
 30
0.0
 40
50.0
  1
ＪＵ６ＡＦ
 41
0.64848
  7
EXCADSTD
 72
     5
 11
1361.983856
 21
2584.480469
 31
0.0
100
AcDbText
  0
INSERT
  5
763
100
AcDbEntity
  8
器具明細表
  6
CONTINUOUS
 62
     0
100
AcDbBlockReference
  2
NC510LSK
 10
1268.534424
 20
2856.388184
 30
0.0
 41
10.0
 42
10.0
  0
LINE
  5
764
100
AcDbEntity
  8
器具明細表
  6
CONTINUOUS
 62
     6
100
AcDbLine
 10
1166.0
 20
2837.0
 30
0.0
 11
1866.0
 21
2837.0
 31
0.0
  0
TEXT
  5
765
100
AcDbEntity
  8
器具明細表
  6
CONTINUOUS
 62
     2
100
AcDbText
 10
1235.0
 20
2779.25
 30
0.0
 40
50.0
  1
ＵＳ６０００ＣＧＡＦの内訳
 41
0.762462
  7
EXCADSTD
 72
     5
 11
1825.0
 21
2779.25
 31
0.0
100
AcDbText
  0
LINE
  5
766
100
AcDbEntity
  8
器具明細表
  6
CONTINUOUS
 62
     6
100
AcDbLine
 10
1406.0
 20
2577.0
 30
0.0
 11
1406.0
 21
2772.0
 31
0.0
  0
LINE
  5
767
100
AcDbEntity
  8
器具明細表
  6
CONTINUOUS
 62
     6
100
AcDbLine
 10
1776.0
 20
2772.0
 30
0.0
 11
1776.0
 21
2577.0
 31
0.0
  0
LINE
  5
768
100
AcDbEntity
  8
器具明細表
  6
CONTINUOUS
 62
     6
100
AcDbLine
 10
1166.0
 20
2837.0
 30
0.0
 11
1166.0
 21
2577.0
 31
0.0
  0
LINE
  5
769
100
AcDbEntity
  8
器具明細表
  6
CONTINUOUS
 62
     6
100
AcDbLine
 10
1866.0
 20
2837.0
 30
0.0
 11
1866.0
 21
2577.0
 31
0.0
  0
TEXT
  5
76A
100
AcDbEntity
  8
器具明細表
  6
CONTINUOUS
 62
     2
100
AcDbText
 10
1162.391876
 20
2489.240204
 30
0.0
 40
45.0
  1
注：本図は、流動方式を示します。
 41
0.709333
  7
EXCADSTD
 72
     5
 11
1770.391869
 21
2489.240204
 31
0.0
100
AcDbText
  0
TEXT
  5
76B
100
AcDbEntity
  8
器具明細表
  6
CONTINUOUS
 62
     6
100
AcDbText
 10
1602.924316
 20
2414.849457
 30
0.0
 40
17.5
  1
２
 41
0.96
  7
EXCADSTD
 72
     5
 11
1618.924316
 21
2414.849457
 31
0.0
100
AcDbText
  0
TEXT
  5
76C
100
AcDbEntity
  8
器具明細表
  6
CONTINUOUS
 62
     6
100
AcDbText
 10
1375.437384
 20
2316.929718
 30
0.0
 40
17.5
  1
２
 41
0.96
  7
EXCADSTD
 72
     5
 11
1391.437384
 21
2316.929718
 31
0.0
100
AcDbText
  0
TEXT
  5
76D
100
AcDbEntity
  8
器具明細表
  6
CONTINUOUS
 62
     2
100
AcDbText
 10
1162.391876
 20
2384.0
 30
0.0
 40
45.0
  1
　　｛０．７Ｋｇｆ／ｃｍ}（流動時）、
 41
0.697591
  7
EXCADSTD
 72
     5
 11
1865.391867
 21
2384.0
 31
0.0
100
AcDbText
  0
TEXT
  5
76E
100
AcDbEntity
  8
器具明細表
  6
CONTINUOUS
 62
     2
100
AcDbText
 10
1162.391876
 20
2284.0
 30
0.0
 40
45.0
  1
　　ｆ／ｃｍ｝）確保してください。
 41
0.709333
  7
EXCADSTD
 72
     5
 11
1808.391868
 21
2284.0
 31
0.0
100
AcDbText
  0
TEXT
  5
76F
100
AcDbEntity
  8
器具明細表
  6
CONTINUOUS
 62
     2
100
AcDbText
 10
1162.391876
 20
2434.0
 30
0.0
 40
45.0
  1
  ：給水には最低必要水圧０．０７ＭＰａ
 41
0.686702
  7
EXCADSTD
 72
     5
 11
1884.391867
 21
2434.0
 31
0.0
100
AcDbText
  0
TEXT
  5
770
100
AcDbEntity
  8
器具明細表
  6
CONTINUOUS
 62
     2
100
AcDbText
 10
1162.391876
 20
2334.0
 30
0.0
 40
45.0
  1
　　（最高水圧０.７５ＭＰａ｛７.６ｋｇ
 41
0.659596
  7
EXCADSTD
 72
     5
 11
1855.891894
 21
2334.0
 31
0.0
100
AcDbText
  0
TEXT
  5
771
100
AcDbEntity
  8
器具明細表
  6
CONTINUOUS
 62
     2
100
AcDbText
 10
1171.983856
 20
2649.480469
 30
0.0
 40
50.0
  1
ＳＵ６００ＣＧ
 41
0.5568
  7
EXCADSTD
 72
     5
 11
1403.983855
 21
2649.480469
 31
0.0
100
AcDbText
  0
ENDSEC
  0
SECTION
  2
OBJECTS
  0
DICTIONARY
  5
19
100
AcDbDictionary
  3
ACAD_GROUP
350
1A
  3
ACAD_MLINESTYLE
350
1B
  0
DICTIONARY
  5
1A
102
{ACAD_REACTORS
330
19
102
}
100
AcDbDictionary
  0
DICTIONARY
  5
1B
102
{ACAD_REACTORS
330
19
102
}
100
AcDbDictionary
  3
STANDARD
350
1C
  0
MLINESTYLE
  5
1C
102
{ACAD_REACTORS
330
1B
102
}
100
AcDbMlineStyle
  2
Standard
 70
     0
  3

 62
     0
 51
90.0
 52
90.0
 71
     2
 49
0.5
 62
   256
  6
ByLayer
 49
-0.5
 62
   256
  6
ByLayer
  0
ENDSEC
  0
EOF
