  0
SECTION
  2
HEADER
  9
$ACADVER
  1
AC1014
  9
$ACADMAINTVER
 70
     0
  9
$DWGCODEPAGE
  3
ANSI_932
  9
$INSBASE
 10
0.0
 20
0.0
 30
0.0
  9
$EXTMIN
 10
0.0
 20
8.5
 30
0.0
  9
$EXTMAX
 10
200.0
 20
288.5
 30
0.0
  9
$LIMMIN
 10
0.0
 20
0.0
  9
$LIMMAX
 10
210.0
 20
297.0
  9
$ORTHOMODE
 70
     0
  9
$REGENMODE
 70
     1
  9
$FILLMODE
 70
     1
  9
$QTEXTMODE
 70
     0
  9
$MIRRTEXT
 70
     1
  9
$DRAGMODE
 70
     2
  9
$LTSCALE
 40
1.0
  9
$OSMODE
 70
     0
  9
$ATTMODE
 70
     1
  9
$TEXTSIZE
 40
0.2
  9
$TRACEWID
 40
0.05
  9
$TEXTSTYLE
  7
STANDARD
  9
$CLAYER
  8
LAY-2
  9
$CELTYPE
  6
CONTINUOUS
  9
$CECOLOR
 62
   256
  9
$CELTSCALE
 40
1.0
  9
$DELOBJ
 70
     1
  9
$DISPSILH
 70
     0
  9
$DIMSCALE
 40
1.0
  9
$DIMASZ
 40
0.18
  9
$DIMEXO
 40
0.0625
  9
$DIMDLI
 40
0.38
  9
$DIMRND
 40
0.0
  9
$DIMDLE
 40
0.0
  9
$DIMEXE
 40
0.18
  9
$DIMTP
 40
0.0
  9
$DIMTM
 40
0.0
  9
$DIMTXT
 40
0.18
  9
$DIMCEN
 40
0.09
  9
$DIMTSZ
 40
0.0
  9
$DIMTOL
 70
     0
  9
$DIMLIM
 70
     0
  9
$DIMTIH
 70
     1
  9
$DIMTOH
 70
     1
  9
$DIMSE1
 70
     0
  9
$DIMSE2
 70
     0
  9
$DIMTAD
 70
     0
  9
$DIMZIN
 70
     0
  9
$DIMBLK
  1

  9
$DIMASO
 70
     1
  9
$DIMSHO
 70
     1
  9
$DIMPOST
  1

  9
$DIMAPOST
  1

  9
$DIMALT
 70
     0
  9
$DIMALTD
 70
     2
  9
$DIMALTF
 40
25.4
  9
$DIMLFAC
 40
1.0
  9
$DIMTOFL
 70
     0
  9
$DIMTVP
 40
0.0
  9
$DIMTIX
 70
     0
  9
$DIMSOXD
 70
     0
  9
$DIMSAH
 70
     0
  9
$DIMBLK1
  1

  9
$DIMBLK2
  1

  9
$DIMSTYLE
  2
STANDARD
  9
$DIMCLRD
 70
     0
  9
$DIMCLRE
 70
     0
  9
$DIMCLRT
 70
     0
  9
$DIMTFAC
 40
1.0
  9
$DIMGAP
 40
0.09
  9
$DIMJUST
 70
     0
  9
$DIMSD1
 70
     0
  9
$DIMSD2
 70
     0
  9
$DIMTOLJ
 70
     1
  9
$DIMTZIN
 70
     0
  9
$DIMALTZ
 70
     0
  9
$DIMALTTZ
 70
     0
  9
$DIMFIT
 70
     3
  9
$DIMUPT
 70
     0
  9
$DIMUNIT
 70
     2
  9
$DIMDEC
 70
     4
  9
$DIMTDEC
 70
     4
  9
$DIMALTU
 70
     2
  9
$DIMALTTD
 70
     2
  9
$DIMTXSTY
  7
STANDARD
  9
$DIMAUNIT
 70
     0
  9
$LUNITS
 70
     2
  9
$LUPREC
 70
     4
  9
$SKETCHINC
 40
0.1
  9
$FILLETRAD
 40
0.0
  9
$AUNITS
 70
     0
  9
$AUPREC
 70
     0
  9
$MENU
  1
acad
  9
$ELEVATION
 40
0.0
  9
$PELEVATION
 40
0.0
  9
$THICKNESS
 40
0.0
  9
$LIMCHECK
 70
     0
  9
$BLIPMODE
 70
     1
  9
$CHAMFERA
 40
0.0
  9
$CHAMFERB
 40
0.0
  9
$CHAMFERC
 40
0.0
  9
$CHAMFERD
 40
0.0
  9
$SKPOLY
 70
     0
  9
$TDCREATE
 40
2454514.336349109
  9
$TDUPDATE
 40
2454514.336349109
  9
$TDINDWG
 40
0.0000000000
  9
$TDUSRTIMER
 40
0.0000000000
  9
$USRTIMER
 70
     1
  9
$ANGBASE
 50
0.0
  9
$ANGDIR
 70
     0
  9
$PDMODE
 70
     0
  9
$PDSIZE
 40
0.0
  9
$PLINEWID
 40
0.0
  9
$COORDS
 70
     1
  9
$SPLFRAME
 70
     0
  9
$SPLINETYPE
 70
     6
  9
$SPLINESEGS
 70
     8
  9
$ATTDIA
 70
     0
  9
$ATTREQ
 70
     1
  9
$HANDLING
 70
     1
  9
$HANDSEED
  5
581
  9
$SURFTAB1
 70
     6
  9
$SURFTAB2
 70
     6
  9
$SURFTYPE
 70
     6
  9
$SURFU
 70
     6
  9
$SURFV
 70
     6
  9
$UCSNAME
  2

  9
$UCSORG
 10
0.0
 20
0.0
 30
0.0
  9
$UCSXDIR
 10
1.0
 20
0.0
 30
0.0
  9
$UCSYDIR
 10
0.0
 20
1.0
 30
0.0
  9
$PUCSNAME
  2

  9
$PUCSORG
 10
0.0
 20
0.0
 30
0.0
  9
$PUCSXDIR
 10
1.0
 20
0.0
 30
0.0
  9
$PUCSYDIR
 10
0.0
 20
1.0
 30
0.0
  9
$USERI1
 70
     0
  9
$USERI2
 70
     0
  9
$USERI3
 70
     0
  9
$USERI4
 70
     0
  9
$USERI5
 70
     0
  9
$USERR1
 40
0.0
  9
$USERR2
 40
0.0
  9
$USERR3
 40
0.0
  9
$USERR4
 40
0.0
  9
$USERR5
 40
0.0
  9
$WORLDVIEW
 70
     1
  9
$SHADEDGE
 70
     3
  9
$SHADEDIF
 70
    70
  9
$TILEMODE
 70
     1
  9
$MAXACTVP
 70
    16
  9
$PINSBASE
 10
0.0
 20
0.0
 30
0.0
  9
$PLIMCHECK
 70
     0
  9
$PEXTMIN
 10
1.000000E+20
 20
1.000000E+20
 30
1.000000E+20
  9
$PEXTMAX
 10
-1.000000E+20
 20
-1.000000E+20
 30
-1.000000E+20
  9
$PLIMMIN
 10
0.0
 20
0.0
  9
$PLIMMAX
 10
12.0
 20
9.0
  9
$UNITMODE
 70
     0
  9
$VISRETAIN
 70
     0
  9
$PLINEGEN
 70
     1
  9
$PSLTSCALE
 70
     0
  9
$TREEDEPTH
 70
  3020
  9
$PICKSTYLE
 70
     1
  9
$CMLSTYLE
  2
Standard
  9
$CMLJUST
 70
     0
  9
$CMLSCALE
 40
1.0
  9
$PROXYGRAPHICS
 70
     0
  9
$MEASUREMENT
 70
     0
  0
ENDSEC
  0
SECTION
  2
CLASSES
  0
CLASS
  1
LWPOLYLINE
  2
AcDbPolyline
  3
"AutoCAD"
 90
        0
280
     0
281
     1
  0
CLASS
  1
IMAGE
  2
AcDbRasterImage
  3
ISM
 90
      127
280
     0
281
     1
  0
CLASS
  1
OLE2FRAME
  2
AcDbOle2Frame
  3
""
 90
        0
280
     0
281
     1
  0
CLASS
  1
HATCH
  2
AcDbHatch
  3
"ACAD_SEDONA"
 90
        0
280
     0
281
     1
  0
CLASS
  1
DICTIONARYVAR
  2
AcDbDictionaryVar
  3
"AutoCAD"
 90
        0
280
     0
281
     0
  0
CLASS
  1
RASTERVARIABLES
  2
AcDbRasterVariables
  3
ISM
 90
        0
280
     0
281
     0
  0
CLASS
  1
IMAGEDEF
  2
AcDbRasterImageDef
  3
ISM
 90
        0
280
     0
281
     0
  0
CLASS
  1
IMAGEDEF_REACTOR
  2
AcDbRasterImageDefReactor
  3
ISM
 90
        1
280
     0
281
     0
  0
CLASS
  1
IDBUFFER
  2
AcDbIdBuffer
  3
"Acad"
 90
        0
280
     0
281
     0
  0
CLASS
  1
SPATIAL_FILTER
  2
AcDbSpatialFilter
  3
"Acad"
 90
        0
280
     0
281
     0
  0
CLASS
  1
XRECORD
  2
AcDbXrecord
  3
"<Built In>"
 90
        0
280
     0
281
     0
  0
CLASS
  1
SORTENTSTABLE
  2
AcDbSortentsTable
  3
"AutoCAD"
 90
        0
280
     0
281
     0
  0
CLASS
  1
LAYER_INDEX
  2
AcDbLayerIndex
  3
"Acad"
 90
        0
280
     0
281
     0
  0
CLASS
  1
SPATIAL_INDEX
  2
AcDbSpatialIndex
  3
"Acad"
 90
        0
280
     0
281
     0
  0
CLASS
  1
OBJECT_PTR
  2
CAseDLPNTableRecord
  3
"ASE-LPNTableRecord"
 90
        1
280
     0
281
     0
  0
CLASS
  1
LAYOUT
  2
AcDbLayout
  3
"AutoCAD 2000"
 90
        1
280
     0
281
     0
  0
CLASS
  1
PLOTSETTINGS
  2
AcDbPlotSettings
  3
"AutoCAD 2000"
 90
        1
280
     0
281
     0
  0
CLASS
  1
ACDBDICTIONARYWDFLT
  2
AcDbDictionaryWithDefault
  3
"AutoCAD 2000"
 90
        1
280
     0
281
     0
  0
CLASS
  1
ACDBPLACEHOLDER
  2
AcDbPlaceHolder
  3
"AutoCAD 2000"
 90
        1
280
     0
281
     0
  0
CLASS
  1
VBA_PROJECT
  2
AcDbVbaProject
  3
"acadvba"
 90
        1
280
     0
281
     0
  0
CLASS
  1
WIPEOUT
  2
AcDbWipeout
  3
WipeOut|AutoCAD Express Tool|expresstools@autodesk.com
 90
      127
280
     0
281
     1
  0
CLASS
  1
WIPEOUTVARIABLES
  2
AcDbWipeoutVariables
  3
WipeOut|AutoCAD Express Tool|expresstools@autodesk.com
 90
        0
280
     0
281
     0
  0
CLASS
  1
RTEXT
  2
RText
  3
RText|AutoCAD Express Tool|expresstools@autodesk.com
 90
        0
280
     0
281
     1
  0
CLASS
  1
ARCALIGNEDTEXT
  2
AcDbArcAlignedText
  3
ATEXT|AutoCAD Express Tool|expresstools@autodesk.com
 90
        0
280
     0
281
     1
  0
ENDSEC
  0
SECTION
  2
TABLES
  0
TABLE
  2
VPORT
  5
7
100
AcDbSymbolTable
 70
     1
  0
VPORT
  5
15
100
AcDbSymbolTableRecord
100
AcDbViewportTableRecord
  2
*ACTIVE
 70
     0
 10
0.0
 20
0.0
 11
1.0
 21
1.0
 12
1000.0
 22
1485.0
 13
0.0
 23
0.0
 14
1.0
 24
1.0
 15
0.0
 25
0.0
 16
0.0
 26
0.0
 36
1.0
 17
0.0
 27
0.0
 37
0.0
 40
2800.0
 41
1.722533
 42
50.0
 43
0.0
 44
0.0
 50
0.0
 51
0.0
 71
     0
 72
   100
 73
     1
 74
     1
 75
     0
 76
     0
 77
     0
 78
     0
  0
ENDTAB
  0
TABLE
  2
LTYPE
  5
4
100
AcDbSymbolTable
 70
     9
  0
LTYPE
  5
11
100
AcDbSymbolTableRecord
100
AcDbLinetypeTableRecord
  2
BYBLOCK
 70
    64
  3

 72
    65
 73
     0
 40
0.0
  0
LTYPE
  5
12
100
AcDbSymbolTableRecord
100
AcDbLinetypeTableRecord
  2
BYLAYER
 70
    64
  3

 72
    65
 73
     0
 40
0.0
  0
LTYPE
  5
13
100
AcDbSymbolTableRecord
100
AcDbLinetypeTableRecord
  2
CONTINUOUS
 70
    64
  3
実線
 72
    65
 73
     0
 40
0.0
  0
LTYPE
  5
1D
100
AcDbSymbolTableRecord
100
AcDbLinetypeTableRecord
  2
EXLTYPE1
 70
    64
  3
破線
 72
    65
 73
     2
 40
3.0
 49
2.0
 74
     0
 49
-1.0
 74
     0
  0
LTYPE
  5
1E
100
AcDbSymbolTableRecord
100
AcDbLinetypeTableRecord
  2
EXLTYPE2
 70
    64
  3
点線
 72
    65
 73
     2
 40
2.0
 49
1.0
 74
     0
 49
-1.0
 74
     0
  0
LTYPE
  5
1F
100
AcDbSymbolTableRecord
100
AcDbLinetypeTableRecord
  2
EXLTYPE3
 70
    64
  3
一点鎖線
 72
    65
 73
     4
 40
10.0
 49
7.0
 74
     0
 49
-1.0
 74
     0
 49
1.0
 74
     0
 49
-1.0
 74
     0
  0
LTYPE
  5
20
100
AcDbSymbolTableRecord
100
AcDbLinetypeTableRecord
  2
EXLTYPE4
 70
    64
  3
二点鎖線
 72
    65
 73
     6
 40
12.0
 49
7.0
 74
     0
 49
-1.0
 74
     0
 49
1.0
 74
     0
 49
-1.0
 74
     0
 49
1.0
 74
     0
 49
-1.0
 74
     0
  0
LTYPE
  5
21
100
AcDbSymbolTableRecord
100
AcDbLinetypeTableRecord
  2
EXLTYPE5
 70
    64
  3
三点鎖線
 72
    65
 73
     8
 40
37.0
 49
30.0
 74
     0
 49
-1.0
 74
     0
 49
1.0
 74
     0
 49
-1.0
 74
     0
 49
1.0
 74
     0
 49
-1.0
 74
     0
 49
1.0
 74
     0
 49
-1.0
 74
     0
  0
LTYPE
  5
22
100
AcDbSymbolTableRecord
100
AcDbLinetypeTableRecord
  2
EXLTYPE6
 70
    64
  3
四点鎖線
 72
    65
 73
    10
 40
39.0
 49
30.0
 74
     0
 49
-1.0
 74
     0
 49
1.0
 74
     0
 49
-1.0
 74
     0
 49
1.0
 74
     0
 49
-1.0
 74
     0
 49
1.0
 74
     0
 49
-1.0
 74
     0
 49
1.0
 74
     0
 49
-1.0
 74
     0
  0
ENDTAB
  0
TABLE
  2
LAYER
  5
2
100
AcDbSymbolTable
 70
     4
  0
LAYER
  5
14
100
AcDbSymbolTableRecord
100
AcDbLayerTableRecord
  2
0
 70
     0
 62
     7
  6
CONTINUOUS
  0
LAYER
  5
25
100
AcDbSymbolTableRecord
100
AcDbLayerTableRecord
  2
LAY-1
 70
    64
 62
     7
  6
CONTINUOUS
  0
LAYER
  5
26
100
AcDbSymbolTableRecord
100
AcDbLayerTableRecord
  2
LAY-2
 70
    64
 62
     7
  6
CONTINUOUS
  0
LAYER
  5
27
100
AcDbSymbolTableRecord
100
AcDbLayerTableRecord
  2
LAY-3
 70
    64
 62
     7
  6
CONTINUOUS
  0
ENDTAB
  0
TABLE
  2
STYLE
  5
3
100
AcDbSymbolTable
 70
     4
  0
STYLE
  5
17
100
AcDbSymbolTableRecord
100
AcDbTextStyleTableRecord
  2
STANDARD
 70
     0
 40
0.0
 41
1.0
 50
0.0
 71
     0
 42
0.0
  3
monotxt
  4
extfont
  0
STYLE
  5
23
100
AcDbSymbolTableRecord
100
AcDbTextStyleTableRecord
  2
EXCADSTD
 70
    64
 40
0.0
 41
1.0
 50
0.0
 71
     0
 42
0.2
  3
monotxt
  4
extfont
  0
STYLE
  5
24
100
AcDbSymbolTableRecord
100
AcDbTextStyleTableRecord
  2
EXCADVERT
 70
    68
 40
0.0
 41
1.0
 50
0.0
 71
     0
 42
0.286885
  3
monotxt
  4
extfont
  0
STYLE
  5
572
100
AcDbSymbolTableRecord
100
AcDbTextStyleTableRecord
  2
EXCADDIM1
 70
    64
 40
0.0
 41
0.95
 50
0.0
 71
     0
 42
0.2
  3
monotxt
  4
extfont
  0
ENDTAB
  0
TABLE
  2
VIEW
  5
5
100
AcDbSymbolTable
 70
     0
  0
ENDTAB
  0
TABLE
  2
UCS
  5
6
100
AcDbSymbolTable
 70
     0
  0
ENDTAB
  0
TABLE
  2
APPID
  5
8
100
AcDbSymbolTable
 70
     1
  0
APPID
  5
16
100
AcDbSymbolTableRecord
100
AcDbRegAppTableRecord
  2
ACAD
 70
     0
  0
ENDTAB
  0
TABLE
  2
DIMSTYLE
  5
9
100
AcDbSymbolTable
 70
     1
  0
DIMSTYLE
105
18
100
AcDbSymbolTableRecord
100
AcDbDimStyleTableRecord
  2
STANDARD
 70
     0
  3

  4

  5

  6

  7

 40
1.0
 41
0.18
 42
0.0625
 43
0.38
 44
0.18
 45
0.0
 46
0.0
 47
0.0
 48
0.0
 71
     0
 72
     0
 73
     1
 74
     1
 75
     0
 76
     0
 77
     0
 78
     0
140
0.18
141
0.09
142
0.0
143
25.4
144
1.0
145
0.0
146
1.0
147
0.09
170
     0
171
     2
172
     1
173
     0
174
     0
175
     0
176
     0
177
     0
178
     0
270
     2
271
     4
272
     4
273
     2
274
     2
275
     0
280
     0
281
     0
282
     0
283
     1
284
     0
285
     0
286
     0
287
     0
288
     0
340
17
  0
ENDTAB
  0
TABLE
  2
BLOCK_RECORD
  5
1
100
AcDbSymbolTable
 70
    15
  0
BLOCK_RECORD
  5
A
100
AcDbSymbolTableRecord
100
AcDbBlockTableRecord
  2
*MODEL_SPACE
  0
BLOCK_RECORD
  5
B
100
AcDbSymbolTableRecord
100
AcDbBlockTableRecord
  2
*PAPER_SPACE
  0
BLOCK_RECORD
  5
28
100
AcDbSymbolTableRecord
100
AcDbBlockTableRecord
  2
_EX_NORM
  0
BLOCK_RECORD
  5
29
100
AcDbSymbolTableRecord
100
AcDbBlockTableRecord
  2
_EX_BNORM
  0
BLOCK_RECORD
  5
2A
100
AcDbSymbolTableRecord
100
AcDbBlockTableRecord
  2
_EX_BCIR
  0
BLOCK_RECORD
  5
2B
100
AcDbSymbolTableRecord
100
AcDbBlockTableRecord
  2
_EX_RCIVIL
  0
BLOCK_RECORD
  5
2C
100
AcDbSymbolTableRecord
100
AcDbBlockTableRecord
  2
_EX_SLANT
  0
BLOCK_RECORD
  5
2D
100
AcDbSymbolTableRecord
100
AcDbBlockTableRecord
  2
_EX_NONE
  0
BLOCK_RECORD
  5
2E
100
AcDbSymbolTableRecord
100
AcDbBlockTableRecord
  2
_EX_CIVIL
  0
BLOCK_RECORD
  5
2F
100
AcDbSymbolTableRecord
100
AcDbBlockTableRecord
  2
_EX_WCIR
  0
BLOCK_RECORD
  5
30
100
AcDbSymbolTableRecord
100
AcDbBlockTableRecord
  2
_EX_WCIR2
  0
BLOCK_RECORD
  5
31
100
AcDbSymbolTableRecord
100
AcDbBlockTableRecord
  2
_EX_WNORM
  0
BLOCK_RECORD
  5
32
100
AcDbSymbolTableRecord
100
AcDbBlockTableRecord
  2
_EX_NNORM
  0
BLOCK_RECORD
  5
33
100
AcDbSymbolTableRecord
100
AcDbBlockTableRecord
  2
_EX_BBOX
  0
BLOCK_RECORD
  5
34
100
AcDbSymbolTableRecord
100
AcDbBlockTableRecord
  2
_EX_WBOX
  0
BLOCK_RECORD
  5
35
100
AcDbSymbolTableRecord
100
AcDbBlockTableRecord
  2
_EX_INTEGRAL
  0
BLOCK_RECORD
  5
567
100
AcDbSymbolTableRecord
100
AcDbBlockTableRecord
  2
*D14
  0
ENDTAB
  0
ENDSEC
  0
SECTION
  2
BLOCKS
  0
BLOCK
  5
D
100
AcDbEntity
  8
0
100
AcDbBlockBegin
  2
*MODEL_SPACE
 70
     0
 10
0.0
 20
0.0
 30
0.0
  3
*MODEL_SPACE
  1

  0
ENDBLK
  5
E
100
AcDbEntity
  8
0
100
AcDbBlockEnd
  0
BLOCK
  5
F
100
AcDbEntity
 67
     1
  8
0
100
AcDbBlockBegin
  2
*PAPER_SPACE
 70
     0
 10
0.0
 20
0.0
 30
0.0
  3
*PAPER_SPACE
  1

  0
ENDBLK
  5
10
100
AcDbEntity
 67
     1
  8
0
100
AcDbBlockEnd
  0
BLOCK
  5
36
100
AcDbEntity
  8
0
100
AcDbBlockBegin
  2
_EX_NORM
 70
     0
 10
0.0
 20
0.0
 30
0.0
  3
_EX_NORM
  1

  0
LINE
  5
37
100
AcDbEntity
  8
0
  6
CONTINUOUS
 62
     0
100
AcDbLine
 10
0.0
 20
0.0
 30
0.0
 11
-1.0
 21
0.0
 31
0.0
  0
LINE
  5
38
100
AcDbEntity
  8
0
  6
CONTINUOUS
 62
     0
100
AcDbLine
 10
0.0
 20
0.0
 30
0.0
 11
-1.0
 21
0.166667
 31
0.0
  0
LINE
  5
39
100
AcDbEntity
  8
0
  6
CONTINUOUS
 62
     0
100
AcDbLine
 10
0.0
 20
0.0
 30
0.0
 11
-1.0
 21
-0.166667
 31
0.0
  0
ENDBLK
  5
3A
100
AcDbEntity
  8
0
100
AcDbBlockEnd
  0
BLOCK
  5
3B
100
AcDbEntity
  8
0
100
AcDbBlockBegin
  2
_EX_BNORM
 70
     0
 10
0.0
 20
0.0
 30
0.0
  3
_EX_BNORM
  1

  0
LINE
  5
3C
100
AcDbEntity
  8
0
  6
CONTINUOUS
 62
     0
100
AcDbLine
 10
0.0
 20
0.0
 30
0.0
 11
-1.0
 21
0.0
 31
0.0
  0
LINE
  5
3D
100
AcDbEntity
  8
0
  6
CONTINUOUS
 62
     0
100
AcDbLine
 10
0.0
 20
0.0
 30
0.0
 11
-1.0
 21
0.166667
 31
0.0
  0
LINE
  5
3E
100
AcDbEntity
  8
0
  6
CONTINUOUS
 62
     0
100
AcDbLine
 10
0.0
 20
0.0
 30
0.0
 11
-1.0
 21
-0.166667
 31
0.0
  0
LINE
  5
3F
100
AcDbEntity
  8
0
  6
CONTINUOUS
 62
     0
100
AcDbLine
 10
0.0
 20
0.0
 30
0.0
 11
-1.0
 21
0.083333
 31
0.0
  0
LINE
  5
40
100
AcDbEntity
  8
0
  6
CONTINUOUS
 62
     0
100
AcDbLine
 10
0.0
 20
0.0
 30
0.0
 11
-1.0
 21
-0.083333
 31
0.0
  0
LINE
  5
41
100
AcDbEntity
  8
0
  6
CONTINUOUS
 62
     0
100
AcDbLine
 10
-1.0
 20
0.166667
 30
0.0
 11
-1.0
 21
-0.166667
 31
0.0
  0
ENDBLK
  5
42
100
AcDbEntity
  8
0
100
AcDbBlockEnd
  0
BLOCK
  5
43
100
AcDbEntity
  8
0
100
AcDbBlockBegin
  2
_EX_BCIR
 70
     0
 10
0.0
 20
0.0
 30
0.0
  3
_EX_BCIR
  1

  0
LINE
  5
44
100
AcDbEntity
  8
0
  6
CONTINUOUS
 62
     0
100
AcDbLine
 10
0.0
 20
0.0
 30
0.0
 11
-1.0
 21
0.0
 31
0.0
  0
CIRCLE
  5
45
100
AcDbEntity
  8
0
  6
CONTINUOUS
 62
     0
100
AcDbCircle
 10
0.0
 20
0.0
 30
0.0
 40
0.5
  0
CIRCLE
  5
46
100
AcDbEntity
  8
0
  6
CONTINUOUS
 62
     0
100
AcDbCircle
 10
0.0
 20
0.0
 30
0.0
 40
0.25
  0
ENDBLK
  5
47
100
AcDbEntity
  8
0
100
AcDbBlockEnd
  0
BLOCK
  5
48
100
AcDbEntity
  8
0
100
AcDbBlockBegin
  2
_EX_RCIVIL
 70
     0
 10
0.0
 20
0.0
 30
0.0
  3
_EX_RCIVIL
  1

  0
LINE
  5
49
100
AcDbEntity
  8
0
  6
CONTINUOUS
 62
     0
100
AcDbLine
 10
0.0
 20
0.0
 30
0.0
 11
-1.0
 21
0.0
 31
0.0
  0
LINE
  5
4A
100
AcDbEntity
  8
0
  6
CONTINUOUS
 62
     0
100
AcDbLine
 10
-1.0
 20
-0.25
 30
0.0
 11
0.0
 21
-0.25
 31
0.0
  0
LINE
  5
4B
100
AcDbEntity
  8
0
  6
CONTINUOUS
 62
     0
100
AcDbLine
 10
-1.0
 20
-0.125
 30
0.0
 11
0.0
 21
-0.125
 31
0.0
  0
ENDBLK
  5
4C
100
AcDbEntity
  8
0
100
AcDbBlockEnd
  0
BLOCK
  5
4D
100
AcDbEntity
  8
0
100
AcDbBlockBegin
  2
_EX_SLANT
 70
     0
 10
0.0
 20
0.0
 30
0.0
  3
_EX_SLANT
  1

  0
LINE
  5
4E
100
AcDbEntity
  8
0
  6
CONTINUOUS
 62
     0
100
AcDbLine
 10
0.0
 20
0.0
 30
0.0
 11
-1.0
 21
0.0
 31
0.0
  0
LINE
  5
4F
100
AcDbEntity
  8
0
  6
CONTINUOUS
 62
     0
100
AcDbLine
 10
0.707107
 20
0.707107
 30
0.0
 11
-0.707107
 21
-0.707107
 31
0.0
  0
ENDBLK
  5
50
100
AcDbEntity
  8
0
100
AcDbBlockEnd
  0
BLOCK
  5
51
100
AcDbEntity
  8
0
100
AcDbBlockBegin
  2
_EX_NONE
 70
     0
 10
0.0
 20
0.0
 30
0.0
  3
_EX_NONE
  1

  0
LINE
  5
52
100
AcDbEntity
  8
0
  6
CONTINUOUS
 62
     0
100
AcDbLine
 10
0.0
 20
0.0
 30
0.0
 11
-1.0
 21
0.0
 31
0.0
  0
ENDBLK
  5
53
100
AcDbEntity
  8
0
100
AcDbBlockEnd
  0
BLOCK
  5
54
100
AcDbEntity
  8
0
100
AcDbBlockBegin
  2
_EX_CIVIL
 70
     0
 10
0.0
 20
0.0
 30
0.0
  3
_EX_CIVIL
  1

  0
LINE
  5
55
100
AcDbEntity
  8
0
  6
CONTINUOUS
 62
     0
100
AcDbLine
 10
0.0
 20
0.0
 30
0.0
 11
-1.0
 21
0.0
 31
0.0
  0
LINE
  5
56
100
AcDbEntity
  8
0
  6
CONTINUOUS
 62
     0
100
AcDbLine
 10
-1.0
 20
0.25
 30
0.0
 11
0.0
 21
0.25
 31
0.0
  0
LINE
  5
57
100
AcDbEntity
  8
0
  6
CONTINUOUS
 62
     0
100
AcDbLine
 10
-1.0
 20
0.125
 30
0.0
 11
0.0
 21
0.125
 31
0.0
  0
ENDBLK
  5
58
100
AcDbEntity
  8
0
100
AcDbBlockEnd
  0
BLOCK
  5
59
100
AcDbEntity
  8
0
100
AcDbBlockBegin
  2
_EX_WCIR
 70
     0
 10
0.0
 20
0.0
 30
0.0
  3
_EX_WCIR
  1

  0
LINE
  5
5A
100
AcDbEntity
  8
0
  6
CONTINUOUS
 62
     0
100
AcDbLine
 10
0.0
 20
0.0
 30
0.0
 11
-1.0
 21
0.0
 31
0.0
  0
CIRCLE
  5
5B
100
AcDbEntity
  8
0
  6
CONTINUOUS
 62
     0
100
AcDbCircle
 10
0.0
 20
0.0
 30
0.0
 40
0.5
  0
ENDBLK
  5
5C
100
AcDbEntity
  8
0
100
AcDbBlockEnd
  0
BLOCK
  5
5D
100
AcDbEntity
  8
0
100
AcDbBlockBegin
  2
_EX_WCIR2
 70
     0
 10
0.0
 20
0.0
 30
0.0
  3
_EX_WCIR2
  1

  0
LINE
  5
5E
100
AcDbEntity
  8
0
  6
CONTINUOUS
 62
     0
100
AcDbLine
 10
-0.5
 20
0.0
 30
0.0
 11
-1.0
 21
0.0
 31
0.0
  0
CIRCLE
  5
5F
100
AcDbEntity
  8
0
  6
CONTINUOUS
 62
     0
100
AcDbCircle
 10
0.0
 20
0.0
 30
0.0
 40
0.5
  0
ENDBLK
  5
60
100
AcDbEntity
  8
0
100
AcDbBlockEnd
  0
BLOCK
  5
61
100
AcDbEntity
  8
0
100
AcDbBlockBegin
  2
_EX_WNORM
 70
     0
 10
0.0
 20
0.0
 30
0.0
  3
_EX_WNORM
  1

  0
LINE
  5
62
100
AcDbEntity
  8
0
  6
CONTINUOUS
 62
     0
100
AcDbLine
 10
-1.0
 20
0.0
 30
0.0
 11
-1.0
 21
0.0
 31
0.0
  0
LINE
  5
63
100
AcDbEntity
  8
0
  6
CONTINUOUS
 62
     0
100
AcDbLine
 10
0.0
 20
0.0
 30
0.0
 11
-1.0
 21
0.166667
 31
0.0
  0
LINE
  5
64
100
AcDbEntity
  8
0
  6
CONTINUOUS
 62
     0
100
AcDbLine
 10
0.0
 20
0.0
 30
0.0
 11
-1.0
 21
-0.166667
 31
0.0
  0
LINE
  5
65
100
AcDbEntity
  8
0
  6
CONTINUOUS
 62
     0
100
AcDbLine
 10
-1.0
 20
0.166667
 30
0.0
 11
-1.0
 21
-0.166667
 31
0.0
  0
ENDBLK
  5
66
100
AcDbEntity
  8
0
100
AcDbBlockEnd
  0
BLOCK
  5
67
100
AcDbEntity
  8
0
100
AcDbBlockBegin
  2
_EX_NNORM
 70
     0
 10
0.0
 20
0.0
 30
0.0
  3
_EX_NNORM
  1

  0
LINE
  5
68
100
AcDbEntity
  8
0
  6
CONTINUOUS
 62
     0
100
AcDbLine
 10
0.0
 20
0.0
 30
0.0
 11
-1.0
 21
0.0
 31
0.0
  0
LINE
  5
69
100
AcDbEntity
  8
0
  6
CONTINUOUS
 62
     0
100
AcDbLine
 10
0.0
 20
0.0
 30
0.0
 11
-1.0
 21
0.166667
 31
0.0
  0
LINE
  5
6A
100
AcDbEntity
  8
0
  6
CONTINUOUS
 62
     0
100
AcDbLine
 10
0.0
 20
0.0
 30
0.0
 11
-1.0
 21
-0.166667
 31
0.0
  0
LINE
  5
6B
100
AcDbEntity
  8
0
  6
CONTINUOUS
 62
     0
100
AcDbLine
 10
-1.0
 20
0.166667
 30
0.0
 11
-1.0
 21
-0.166667
 31
0.0
  0
ENDBLK
  5
6C
100
AcDbEntity
  8
0
100
AcDbBlockEnd
  0
BLOCK
  5
6D
100
AcDbEntity
  8
0
100
AcDbBlockBegin
  2
_EX_BBOX
 70
     0
 10
0.0
 20
0.0
 30
0.0
  3
_EX_BBOX
  1

  0
LINE
  5
6E
100
AcDbEntity
  8
0
  6
CONTINUOUS
 62
     0
100
AcDbLine
 10
0.0
 20
0.0
 30
0.0
 11
-1.0
 21
0.0
 31
0.0
  0
LINE
  5
6F
100
AcDbEntity
  8
0
  6
CONTINUOUS
 62
     0
100
AcDbLine
 10
-0.5
 20
0.5
 30
0.0
 11
0.5
 21
0.5
 31
0.0
  0
LINE
  5
70
100
AcDbEntity
  8
0
  6
CONTINUOUS
 62
     0
100
AcDbLine
 10
0.5
 20
0.5
 30
0.0
 11
0.5
 21
-0.5
 31
0.0
  0
LINE
  5
71
100
AcDbEntity
  8
0
  6
CONTINUOUS
 62
     0
100
AcDbLine
 10
0.5
 20
-0.5
 30
0.0
 11
-0.5
 21
-0.5
 31
0.0
  0
LINE
  5
72
100
AcDbEntity
  8
0
  6
CONTINUOUS
 62
     0
100
AcDbLine
 10
-0.5
 20
-0.5
 30
0.0
 11
-0.5
 21
0.5
 31
0.0
  0
LINE
  5
73
100
AcDbEntity
  8
0
  6
CONTINUOUS
 62
     0
100
AcDbLine
 10
-0.25
 20
0.25
 30
0.0
 11
0.25
 21
0.25
 31
0.0
  0
LINE
  5
74
100
AcDbEntity
  8
0
  6
CONTINUOUS
 62
     0
100
AcDbLine
 10
0.25
 20
0.25
 30
0.0
 11
0.25
 21
-0.25
 31
0.0
  0
LINE
  5
75
100
AcDbEntity
  8
0
  6
CONTINUOUS
 62
     0
100
AcDbLine
 10
0.25
 20
-0.25
 30
0.0
 11
-0.25
 21
-0.25
 31
0.0
  0
LINE
  5
76
100
AcDbEntity
  8
0
  6
CONTINUOUS
 62
     0
100
AcDbLine
 10
-0.25
 20
-0.25
 30
0.0
 11
-0.25
 21
0.25
 31
0.0
  0
ENDBLK
  5
77
100
AcDbEntity
  8
0
100
AcDbBlockEnd
  0
BLOCK
  5
78
100
AcDbEntity
  8
0
100
AcDbBlockBegin
  2
_EX_WBOX
 70
     0
 10
0.0
 20
0.0
 30
0.0
  3
_EX_WBOX
  1

  0
LINE
  5
79
100
AcDbEntity
  8
0
  6
CONTINUOUS
 62
     0
100
AcDbLine
 10
-0.5
 20
0.0
 30
0.0
 11
-1.0
 21
0.0
 31
0.0
  0
LINE
  5
7A
100
AcDbEntity
  8
0
  6
CONTINUOUS
 62
     0
100
AcDbLine
 10
-0.5
 20
0.5
 30
0.0
 11
0.5
 21
0.5
 31
0.0
  0
LINE
  5
7B
100
AcDbEntity
  8
0
  6
CONTINUOUS
 62
     0
100
AcDbLine
 10
0.5
 20
0.5
 30
0.0
 11
0.5
 21
-0.5
 31
0.0
  0
LINE
  5
7C
100
AcDbEntity
  8
0
  6
CONTINUOUS
 62
     0
100
AcDbLine
 10
0.5
 20
-0.5
 30
0.0
 11
-0.5
 21
-0.5
 31
0.0
  0
LINE
  5
7D
100
AcDbEntity
  8
0
  6
CONTINUOUS
 62
     0
100
AcDbLine
 10
-0.5
 20
-0.5
 30
0.0
 11
-0.5
 21
0.5
 31
0.0
  0
ENDBLK
  5
7E
100
AcDbEntity
  8
0
100
AcDbBlockEnd
  0
BLOCK
  5
7F
100
AcDbEntity
  8
0
100
AcDbBlockBegin
  2
_EX_INTEGRAL
 70
     0
 10
0.0
 20
0.0
 30
0.0
  3
_EX_INTEGRAL
  1

  0
LINE
  5
80
100
AcDbEntity
  8
0
  6
CONTINUOUS
 62
     0
100
AcDbLine
 10
0.0
 20
0.0
 30
0.0
 11
-1.0
 21
0.0
 31
0.0
  0
ARC
  5
81
100
AcDbEntity
  8
0
  6
CONTINUOUS
 62
     0
100
AcDbCircle
 10
0.542115
 20
0.164992
 30
0.0
 40
0.56667
100
AcDbArc
 50
73.07249
 51
196.927513
  0
ARC
  5
82
100
AcDbEntity
  8
0
  6
CONTINUOUS
 62
     0
100
AcDbCircle
 10
-0.542115
 20
-0.164992
 30
0.0
 40
0.56667
100
AcDbArc
 50
253.072487
 51
16.927513
  0
ENDBLK
  5
83
100
AcDbEntity
  8
0
100
AcDbBlockEnd
  0
BLOCK
  5
568
100
AcDbEntity
  8
0
100
AcDbBlockBegin
  2
*D14
 70
    65
 10
0.0
 20
0.0
 30
0.0
  3
*D14
  1

  0
LINE
  5
569
100
AcDbEntity
  8
LAY-3
  6
CONTINUOUS
 62
     3
100
AcDbLine
 10
1576.99163
 20
1373.5
 30
0.0
 11
1576.99163
 21
1300.5
 31
0.0
  0
LINE
  5
56A
100
AcDbEntity
  8
LAY-3
  6
CONTINUOUS
 62
     3
100
AcDbLine
 10
1716.99163
 20
1373.5
 30
0.0
 11
1716.99163
 21
1300.5
 31
0.0
  0
TEXT
  5
56B
100
AcDbEntity
  8
LAY-3
  6
CONTINUOUS
 62
     2
100
AcDbText
 10
1597.01163
 20
1324.0
 30
0.0
 40
40.0
  1
140
 41
0.945
  7
EXCADSTD
 72
     1
 11
1646.99163
 21
1324.0
 31
0.0
100
AcDbText
  0
LINE
  5
56C
100
AcDbEntity
  8
LAY-3
  6
CONTINUOUS
 62
     3
100
AcDbLine
 10
1576.99163
 20
1320.5
 30
0.0
 11
1716.99163
 21
1320.5
 31
0.0
  0
LINE
  5
56D
100
AcDbEntity
  8
LAY-3
  6
CONTINUOUS
 62
     3
100
AcDbLine
 10
1611.99163
 20
1326.333333
 30
0.0
 11
1576.99163
 21
1320.5
 31
0.0
  0
LINE
  5
56E
100
AcDbEntity
  8
LAY-3
  6
CONTINUOUS
 62
     3
100
AcDbLine
 10
1576.99163
 20
1320.5
 30
0.0
 11
1611.99163
 21
1314.666667
 31
0.0
  0
LINE
  5
56F
100
AcDbEntity
  8
LAY-3
  6
CONTINUOUS
 62
     3
100
AcDbLine
 10
1681.99163
 20
1314.666667
 30
0.0
 11
1716.99163
 21
1320.5
 31
0.0
  0
LINE
  5
570
100
AcDbEntity
  8
LAY-3
  6
CONTINUOUS
 62
     3
100
AcDbLine
 10
1716.99163
 20
1320.5
 30
0.0
 11
1681.99163
 21
1326.333333
 31
0.0
  0
ENDBLK
  5
571
100
AcDbEntity
  8
0
100
AcDbBlockEnd
  0
ENDSEC
  0
SECTION
  2
ENTITIES
  0
LINE
  5
84
100
AcDbEntity
  8
LAY-1
  6
CONTINUOUS
 62
     7
100
AcDbLine
 10
180.0
 20
85.0
 30
0.0
 11
2000.0
 21
85.0
 31
0.0
  0
LINE
  5
85
100
AcDbEntity
  8
LAY-1
  6
CONTINUOUS
 62
     7
100
AcDbLine
 10
2000.0
 20
85.0
 30
0.0
 11
2000.0
 21
2885.0
 31
0.0
  0
LINE
  5
86
100
AcDbEntity
  8
LAY-1
  6
CONTINUOUS
 62
     7
100
AcDbLine
 10
180.0
 20
85.0
 30
0.0
 11
180.0
 21
2885.0
 31
0.0
  0
LINE
  5
87
100
AcDbEntity
  8
LAY-1
  6
CONTINUOUS
 62
     7
100
AcDbLine
 10
180.0
 20
2885.0
 30
0.0
 11
2000.0
 21
2885.0
 31
0.0
  0
LINE
  5
88
100
AcDbEntity
  8
LAY-1
  6
CONTINUOUS
 62
     7
100
AcDbLine
 10
180.0
 20
305.0
 30
0.0
 11
2000.0
 21
305.0
 31
0.0
  0
LINE
  5
89
100
AcDbEntity
  8
LAY-1
  6
CONTINUOUS
 62
     6
100
AcDbLine
 10
2000.0
 20
185.0
 30
0.0
 11
750.0
 21
185.0
 31
0.0
  0
LINE
  5
8A
100
AcDbEntity
  8
LAY-1
  6
CONTINUOUS
 62
     6
100
AcDbLine
 10
1860.0
 20
305.0
 30
0.0
 11
1860.0
 21
185.0
 31
0.0
  0
LINE
  5
8B
100
AcDbEntity
  8
LAY-1
  6
CONTINUOUS
 62
     6
100
AcDbLine
 10
1810.0
 20
305.0
 30
0.0
 11
1810.0
 21
185.0
 31
0.0
  0
LINE
  5
8C
100
AcDbEntity
  8
LAY-1
  6
CONTINUOUS
 62
     6
100
AcDbLine
 10
1440.0
 20
305.0
 30
0.0
 11
1440.0
 21
85.0
 31
0.0
  0
LINE
  5
8D
100
AcDbEntity
  8
LAY-1
  6
CONTINUOUS
 62
     6
100
AcDbLine
 10
1390.0
 20
305.0
 30
0.0
 11
1390.0
 21
85.0
 31
0.0
  0
LINE
  5
8E
100
AcDbEntity
  8
LAY-1
  6
CONTINUOUS
 62
     6
100
AcDbLine
 10
800.0
 20
305.0
 30
0.0
 11
800.0
 21
185.0
 31
0.0
  0
LINE
  5
8F
100
AcDbEntity
  8
LAY-1
  6
CONTINUOUS
 62
     6
100
AcDbLine
 10
750.0
 20
305.0
 30
0.0
 11
750.0
 21
85.0
 31
0.0
  0
LINE
  5
90
100
AcDbEntity
  8
LAY-1
  6
CONTINUOUS
 62
     6
100
AcDbLine
 10
620.0
 20
305.0
 30
0.0
 11
620.0
 21
85.0
 31
0.0
  0
LINE
  5
91
100
AcDbEntity
  8
LAY-1
  6
CONTINUOUS
 62
     6
100
AcDbLine
 10
490.0
 20
305.0
 30
0.0
 11
490.0
 21
85.0
 31
0.0
  0
LINE
  5
92
100
AcDbEntity
  8
LAY-1
  6
CONTINUOUS
 62
     6
100
AcDbLine
 10
335.0
 20
305.0
 30
0.0
 11
335.0
 21
85.0
 31
0.0
  0
LINE
  5
93
100
AcDbEntity
  8
LAY-1
  6
CONTINUOUS
 62
     6
100
AcDbLine
 10
180.0
 20
255.0
 30
0.0
 11
750.0
 21
255.0
 31
0.0
  0
LINE
  5
94
100
AcDbEntity
  8
LAY-1
  6
CONTINUOUS
 62
     6
100
AcDbLine
 10
1892.653809
 20
208.00293
 30
0.0
 11
1969.993897
 21
286.699829
 31
0.0
  0
LINE
  5
95
100
AcDbEntity
  8
LAY-1
  6
EXLTYPE2
 62
     6
100
AcDbLine
 10
180.0
 20
135.0
 30
0.0
 11
490.0
 21
135.0
 31
0.0
  0
CIRCLE
  5
96
100
AcDbEntity
  8
LAY-1
  6
CONTINUOUS
 62
     6
100
AcDbCircle
 10
385.0
 20
110.0
 30
0.0
 40
1.0
  0
CIRCLE
  5
97
100
AcDbEntity
  8
LAY-1
  6
CONTINUOUS
 62
     6
100
AcDbCircle
 10
435.0
 20
110.0
 30
0.0
 40
1.0
  0
TEXT
  5
98
100
AcDbEntity
  8
LAY-1
  6
CONTINUOUS
 62
     2
100
AcDbText
 10
1890.537109
 20
252.722778
 30
0.0
 40
30.0
  1
１
 41
0.826
  7
EXCADSTD
 72
     5
 11
1914.13711
 21
252.722778
 31
0.0
100
AcDbText
  0
TEXT
  5
99
100
AcDbEntity
  8
LAY-1
  6
CONTINUOUS
 62
     2
100
AcDbText
 10
1931.279297
 20
208.348846
 30
0.0
 40
30.0
  1
１０
 41
0.791
  7
EXCADSTD
 72
     5
 11
1983.067198
 21
208.348846
 31
0.0
100
AcDbText
  0
TEXT
  5
9A
100
AcDbEntity
  8
LAY-1
  6
CONTINUOUS
 62
     2
100
AcDbText
 10
202.5
 20
258.75
 30
0.0
 40
42.5
  1
製図
 41
1.087059
  7
EXCADSTD
 72
     5
 11
303.326
 21
258.75
 31
0.0
100
AcDbText
  0
TEXT
  5
9B
100
AcDbEntity
  8
LAY-1
  6
CONTINUOUS
 62
     2
100
AcDbText
 10
357.5
 20
258.75
 30
0.0
 40
42.5
  1
写図
 41
1.087059
  7
EXCADSTD
 72
     5
 11
458.326
 21
258.75
 31
0.0
100
AcDbText
  0
TEXT
  5
9C
100
AcDbEntity
  8
LAY-1
  6
CONTINUOUS
 62
     2
100
AcDbText
 10
507.5
 20
258.75
 30
0.0
 40
42.5
  1
検図
 41
0.938824
  7
EXCADSTD
 72
     5
 11
594.577
 21
258.75
 31
0.0
100
AcDbText
  0
TEXT
  5
9D
100
AcDbEntity
  8
LAY-1
  6
CONTINUOUS
 62
     2
100
AcDbText
 10
637.5
 20
258.75
 30
0.0
 40
42.5
  1
承認
 41
0.938824
  7
EXCADSTD
 72
     5
 11
724.577
 21
258.75
 31
0.0
100
AcDbText
  0
TEXT
  5
9E
100
AcDbEntity
  8
LAY-1
  6
CONTINUOUS
 62
     2
100
AcDbText
 10
755.75
 20
248.75
 30
0.0
 40
42.5
  1
品
 41
0.84
  7
EXCADSTD
 72
     5
 11
789.75
 21
248.75
 31
0.0
100
AcDbText
  0
TEXT
  5
9F
100
AcDbEntity
  8
LAY-1
  6
CONTINUOUS
 62
     2
100
AcDbText
 10
755.75
 20
198.75
 30
0.0
 40
42.5
  1
名
 41
0.84
  7
EXCADSTD
 72
     5
 11
789.75
 21
198.75
 31
0.0
100
AcDbText
  0
TEXT
  5
A0
100
AcDbEntity
  8
LAY-1
  6
CONTINUOUS
 62
     2
100
AcDbText
 10
1395.75
 20
248.75
 30
0.0
 40
42.5
  1
品
 41
0.84
  7
EXCADSTD
 72
     5
 11
1429.75
 21
248.75
 31
0.0
100
AcDbText
  0
TEXT
  5
A1
100
AcDbEntity
  8
LAY-1
  6
CONTINUOUS
 62
     2
100
AcDbText
 10
1395.75
 20
198.75
 30
0.0
 40
42.5
  1
番
 41
0.84
  7
EXCADSTD
 72
     5
 11
1429.75
 21
198.75
 31
0.0
100
AcDbText
  0
TEXT
  5
A2
100
AcDbEntity
  8
LAY-1
  6
CONTINUOUS
 62
     2
100
AcDbText
 10
1816.75
 20
248.75
 30
0.0
 40
42.5
  1
尺
 41
0.84
  7
EXCADSTD
 72
     5
 11
1850.75
 21
248.75
 31
0.0
100
AcDbText
  0
TEXT
  5
A3
100
AcDbEntity
  8
LAY-1
  6
CONTINUOUS
 62
     2
100
AcDbText
 10
1816.75
 20
198.75
 30
0.0
 40
42.5
  1
度
 41
0.84
  7
EXCADSTD
 72
     5
 11
1850.75
 21
198.75
 31
0.0
100
AcDbText
  0
TEXT
  5
A4
100
AcDbEntity
  8
LAY-1
  6
CONTINUOUS
 62
     2
100
AcDbText
 10
1395.75
 20
135.75
 30
0.0
 40
42.5
  1
図
 41
0.84
  7
EXCADSTD
 72
     5
 11
1429.75
 21
135.75
 31
0.0
100
AcDbText
  0
TEXT
  5
A5
100
AcDbEntity
  8
LAY-1
  6
CONTINUOUS
 62
     2
100
AcDbText
 10
1395.75
 20
92.75
 30
0.0
 40
42.5
  1
番
 41
0.84
  7
EXCADSTD
 72
     5
 11
1429.75
 21
92.75
 31
0.0
100
AcDbText
  0
LINE
  5
A6
100
AcDbEntity
  8
LAY-1
  6
CONTINUOUS
 62
     3
100
AcDbLine
 10
827.447754
 20
150.287994
 30
0.0
 11
819.384094
 21
150.287994
 31
0.0
  0
LINE
  5
A7
100
AcDbEntity
  8
LAY-1
  6
CONTINUOUS
 62
     3
100
AcDbLine
 10
827.447754
 20
158.351959
 30
0.0
 11
827.447754
 21
150.287994
 31
0.0
  0
LINE
  5
A8
100
AcDbEntity
  8
LAY-1
  6
CONTINUOUS
 62
     3
100
AcDbLine
 10
819.384094
 20
158.351959
 30
0.0
 11
827.447754
 21
158.351959
 31
0.0
  0
LINE
  5
A9
100
AcDbEntity
  8
LAY-1
  6
CONTINUOUS
 62
     3
100
AcDbLine
 10
819.384094
 20
158.351959
 30
0.0
 11
819.384094
 21
150.287994
 31
0.0
  0
LINE
  5
AA
100
AcDbEntity
  8
LAY-1
  6
CONTINUOUS
 62
     3
100
AcDbLine
 10
816.359192
 20
150.287994
 30
0.0
 11
808.295532
 21
150.287994
 31
0.0
  0
LINE
  5
AB
100
AcDbEntity
  8
LAY-1
  6
CONTINUOUS
 62
     3
100
AcDbLine
 10
816.359192
 20
158.351959
 30
0.0
 11
816.359192
 21
150.287994
 31
0.0
  0
LINE
  5
AC
100
AcDbEntity
  8
LAY-1
  6
CONTINUOUS
 62
     3
100
AcDbLine
 10
808.295532
 20
158.351959
 30
0.0
 11
816.359192
 21
158.351959
 31
0.0
  0
LINE
  5
AD
100
AcDbEntity
  8
LAY-1
  6
CONTINUOUS
 62
     3
100
AcDbLine
 10
808.295532
 20
158.351959
 30
0.0
 11
808.295532
 21
150.287994
 31
0.0
  0
LINE
  5
AE
100
AcDbEntity
  8
LAY-1
  6
CONTINUOUS
 62
     3
100
AcDbLine
 10
799.887329
 20
114.0
 30
0.0
 11
771.0
 21
114.0
 31
0.0
  0
ARC
  5
AF
100
AcDbEntity
  8
LAY-1
  6
CONTINUOUS
 62
     3
100
AcDbCircle
 10
799.887329
 20
132.144073
 30
0.0
 40
18.143997
100
AcDbArc
 50
270.000031
 51
334.000137
  0
LINE
  5
B0
100
AcDbEntity
  8
LAY-1
  6
CONTINUOUS
 62
     3
100
AcDbLine
 10
827.447754
 20
147.264008
 30
0.0
 11
816.193024
 21
124.190125
 31
0.0
  0
LINE
  5
B1
100
AcDbEntity
  8
LAY-1
  6
CONTINUOUS
 62
     3
100
AcDbLine
 10
815.112244
 20
147.264008
 30
0.0
 11
827.447754
 21
147.264008
 31
0.0
  0
LINE
  5
B2
100
AcDbEntity
  8
LAY-1
  6
CONTINUOUS
 62
     3
100
AcDbLine
 10
806.01297
 20
128.60907
 30
0.0
 11
815.112244
 21
147.264008
 31
0.0
  0
ARC
  5
B3
100
AcDbEntity
  8
LAY-1
  6
CONTINUOUS
 62
     3
100
AcDbCircle
 10
798.765503
 20
132.144073
 30
0.0
 40
8.064
100
AcDbArc
 50
270.000031
 51
333.99855
  0
LINE
  5
B4
100
AcDbEntity
  8
LAY-1
  6
CONTINUOUS
 62
     3
100
AcDbLine
 10
771.0
 20
124.079956
 30
0.0
 11
798.765503
 21
124.079956
 31
0.0
  0
LINE
  5
B5
100
AcDbEntity
  8
LAY-1
  6
CONTINUOUS
 62
     3
100
AcDbLine
 10
771.0
 20
124.079956
 30
0.0
 11
771.0
 21
114.0
 31
0.0
  0
LINE
  5
B6
100
AcDbEntity
  8
LAY-1
  6
CONTINUOUS
 62
     3
100
AcDbLine
 10
799.224945
 20
137.183899
 30
0.0
 11
771.0
 21
137.183899
 31
0.0
  0
LINE
  5
B7
100
AcDbEntity
  8
LAY-1
  6
CONTINUOUS
 62
     3
100
AcDbLine
 10
799.224945
 20
146.256012
 30
0.0
 11
799.224945
 21
137.183899
 31
0.0
  0
LINE
  5
B8
100
AcDbEntity
  8
LAY-1
  6
CONTINUOUS
 62
     3
100
AcDbLine
 10
771.0
 20
146.256012
 30
0.0
 11
799.224945
 21
146.256012
 31
0.0
  0
LINE
  5
B9
100
AcDbEntity
  8
LAY-1
  6
CONTINUOUS
 62
     3
100
AcDbLine
 10
771.0
 20
146.256012
 30
0.0
 11
771.0
 21
137.183899
 31
0.0
  0
LINE
  5
BA
100
AcDbEntity
  8
LAY-1
  6
CONTINUOUS
 62
     3
100
AcDbLine
 10
799.224945
 20
149.279999
 30
0.0
 11
771.0
 21
149.279999
 31
0.0
  0
LINE
  5
BB
100
AcDbEntity
  8
LAY-1
  6
CONTINUOUS
 62
     3
100
AcDbLine
 10
799.224945
 20
158.351959
 30
0.0
 11
799.224945
 21
149.279999
 31
0.0
  0
LINE
  5
BC
100
AcDbEntity
  8
LAY-1
  6
CONTINUOUS
 62
     3
100
AcDbLine
 10
771.0
 20
158.351959
 30
0.0
 11
799.224945
 21
158.351959
 31
0.0
  0
LINE
  5
BD
100
AcDbEntity
  8
LAY-1
  6
CONTINUOUS
 62
     3
100
AcDbLine
 10
771.0
 20
158.351959
 30
0.0
 11
771.0
 21
149.279999
 31
0.0
  0
LINE
  5
BE
100
AcDbEntity
  8
LAY-1
  6
CONTINUOUS
 62
     3
100
AcDbLine
 10
830.472656
 20
147.264008
 30
0.0
 11
830.472656
 21
140.207886
 31
0.0
  0
LINE
  5
BF
100
AcDbEntity
  8
LAY-1
  6
CONTINUOUS
 62
     3
100
AcDbLine
 10
830.472656
 20
147.264008
 30
0.0
 11
839.654022
 21
147.264008
 31
0.0
  0
LINE
  5
C0
100
AcDbEntity
  8
LAY-1
  6
CONTINUOUS
 62
     3
100
AcDbLine
 10
838.536316
 20
154.319977
 30
0.0
 11
839.654022
 21
147.264008
 31
0.0
  0
LINE
  5
C1
100
AcDbEntity
  8
LAY-1
  6
CONTINUOUS
 62
     3
100
AcDbLine
 10
838.536316
 20
154.319977
 30
0.0
 11
849.76236
 21
154.319977
 31
0.0
  0
LINE
  5
C2
100
AcDbEntity
  8
LAY-1
  6
CONTINUOUS
 62
     3
100
AcDbLine
 10
849.76236
 20
154.319977
 30
0.0
 11
850.879913
 21
147.264008
 31
0.0
  0
LINE
  5
C3
100
AcDbEntity
  8
LAY-1
  6
CONTINUOUS
 62
     3
100
AcDbLine
 10
850.879913
 20
147.264008
 30
0.0
 11
878.856751
 21
147.264008
 31
0.0
  0
LINE
  5
C4
100
AcDbEntity
  8
LAY-1
  6
CONTINUOUS
 62
     3
100
AcDbLine
 10
878.856751
 20
147.264008
 30
0.0
 11
872.973114
 21
134.050507
 31
0.0
  0
ARC
  5
C5
100
AcDbEntity
  8
LAY-1
  6
CONTINUOUS
 62
     3
100
AcDbCircle
 10
859.161011
 20
140.200409
 30
0.0
 40
15.120106
100
AcDbArc
 50
263.465775
 51
335.998779
  0
LINE
  5
C6
100
AcDbEntity
  8
LAY-1
  6
CONTINUOUS
 62
     3
100
AcDbLine
 10
857.438446
 20
125.178589
 30
0.0
 11
856.337067
 21
132.144073
 31
0.0
  0
ARC
  5
C7
100
AcDbEntity
  8
LAY-1
  6
CONTINUOUS
 62
     3
100
AcDbCircle
 10
856.058136
 20
138.192047
 30
0.0
 40
6.048006
100
AcDbArc
 50
272.623749
 51
336.006531
  0
LINE
  5
C8
100
AcDbEntity
  8
LAY-1
  6
CONTINUOUS
 62
     3
100
AcDbLine
 10
861.585022
 20
135.732025
 30
0.0
 11
863.576294
 21
140.207886
 31
0.0
  0
LINE
  5
C9
100
AcDbEntity
  8
LAY-1
  6
CONTINUOUS
 62
     3
100
AcDbLine
 10
863.576294
 20
140.207886
 30
0.0
 11
851.99762
 21
140.207886
 31
0.0
  0
LINE
  5
CA
100
AcDbEntity
  8
LAY-1
  6
CONTINUOUS
 62
     3
100
AcDbLine
 10
851.99762
 20
140.207886
 30
0.0
 11
856.148468
 21
114.0
 31
0.0
  0
LINE
  5
CB
100
AcDbEntity
  8
LAY-1
  6
CONTINUOUS
 62
     3
100
AcDbLine
 10
856.148468
 20
114.0
 30
0.0
 11
844.922424
 21
114.0
 31
0.0
  0
LINE
  5
CC
100
AcDbEntity
  8
LAY-1
  6
CONTINUOUS
 62
     3
100
AcDbLine
 10
844.922424
 20
114.0
 30
0.0
 11
840.771729
 21
140.207886
 31
0.0
  0
LINE
  5
CD
100
AcDbEntity
  8
LAY-1
  6
CONTINUOUS
 62
     3
100
AcDbLine
 10
840.771729
 20
140.207886
 30
0.0
 11
830.472656
 21
140.207886
 31
0.0
  0
LINE
  5
CE
100
AcDbEntity
  8
LAY-1
  6
CONTINUOUS
 62
     3
100
AcDbLine
 10
877.847687
 20
114.0
 30
0.0
 11
877.847687
 21
124.079956
 31
0.0
  0
LINE
  5
CF
100
AcDbEntity
  8
LAY-1
  6
CONTINUOUS
 62
     3
100
AcDbLine
 10
877.847687
 20
124.079956
 30
0.0
 11
934.295441
 21
124.079956
 31
0.0
  0
LINE
  5
D0
100
AcDbEntity
  8
LAY-1
  6
CONTINUOUS
 62
     3
100
AcDbLine
 10
934.295441
 20
124.079956
 30
0.0
 11
934.295441
 21
114.0
 31
0.0
  0
LINE
  5
D1
100
AcDbEntity
  8
LAY-1
  6
CONTINUOUS
 62
     3
100
AcDbLine
 10
934.295441
 20
114.0
 30
0.0
 11
877.847687
 21
114.0
 31
0.0
  0
LINE
  5
D2
100
AcDbEntity
  8
LAY-1
  6
CONTINUOUS
 62
     3
100
AcDbLine
 10
881.879517
 20
158.351959
 30
0.0
 11
881.879517
 21
148.272003
 31
0.0
  0
LINE
  5
D3
100
AcDbEntity
  8
LAY-1
  6
CONTINUOUS
 62
     3
100
AcDbLine
 10
881.879517
 20
158.351959
 30
0.0
 11
930.263611
 21
158.351959
 31
0.0
  0
LINE
  5
D4
100
AcDbEntity
  8
LAY-1
  6
CONTINUOUS
 62
     3
100
AcDbLine
 10
930.263611
 20
158.351959
 30
0.0
 11
930.263611
 21
148.272003
 31
0.0
  0
LINE
  5
D5
100
AcDbEntity
  8
LAY-1
  6
CONTINUOUS
 62
     3
100
AcDbLine
 10
930.263611
 20
148.272003
 30
0.0
 11
881.879517
 21
148.272003
 31
0.0
  0
LINE
  5
D6
100
AcDbEntity
  8
LAY-1
  6
CONTINUOUS
 62
     3
100
AcDbLine
 10
941.352173
 20
158.351959
 30
0.0
 11
941.352173
 21
148.272003
 31
0.0
  0
LINE
  5
D7
100
AcDbEntity
  8
LAY-1
  6
CONTINUOUS
 62
     3
100
AcDbLine
 10
941.352173
 20
158.351959
 30
0.0
 11
993.768097
 21
158.351959
 31
0.0
  0
LINE
  5
D8
100
AcDbEntity
  8
LAY-1
  6
CONTINUOUS
 62
     3
100
AcDbLine
 10
993.768097
 20
158.351959
 30
0.0
 11
978.050934
 21
136.718964
 31
0.0
  0
LINE
  5
D9
100
AcDbEntity
  8
LAY-1
  6
CONTINUOUS
 62
     3
100
AcDbLine
 10
978.050934
 20
136.718964
 30
0.0
 11
997.799927
 21
114.0
 31
0.0
  0
LINE
  5
DA
100
AcDbEntity
  8
LAY-1
  6
CONTINUOUS
 62
     3
100
AcDbLine
 10
997.799927
 20
114.0
 30
0.0
 11
983.108154
 21
114.0
 31
0.0
  0
LINE
  5
DB
100
AcDbEntity
  8
LAY-1
  6
CONTINUOUS
 62
     3
100
AcDbLine
 10
983.108154
 20
114.0
 30
0.0
 11
971.361328
 21
127.512726
 31
0.0
  0
LINE
  5
DC
100
AcDbEntity
  8
LAY-1
  6
CONTINUOUS
 62
     3
100
AcDbLine
 10
971.361328
 20
127.512726
 30
0.0
 11
966.978851
 21
121.479248
 31
0.0
  0
ARC
  5
DD
100
AcDbEntity
  8
LAY-1
  6
CONTINUOUS
 62
     3
100
AcDbCircle
 10
952.299286
 20
132.144073
 30
0.0
 40
18.143997
100
AcDbArc
 50
270.000031
 51
324.00116
  0
LINE
  5
DE
100
AcDbEntity
  8
LAY-1
  6
CONTINUOUS
 62
     3
100
AcDbLine
 10
952.299286
 20
114.0
 30
0.0
 11
937.320343
 21
114.0
 31
0.0
  0
LINE
  5
DF
100
AcDbEntity
  8
LAY-1
  6
CONTINUOUS
 62
     3
100
AcDbLine
 10
937.320343
 20
114.0
 30
0.0
 11
937.320343
 21
124.079956
 31
0.0
  0
LINE
  5
E0
100
AcDbEntity
  8
LAY-1
  6
CONTINUOUS
 62
     3
100
AcDbLine
 10
937.320343
 20
124.079956
 30
0.0
 11
950.0271
 21
124.079956
 31
0.0
  0
ARC
  5
E1
100
AcDbEntity
  8
LAY-1
  6
CONTINUOUS
 62
     3
100
AcDbCircle
 10
950.0271
 20
134.159912
 30
0.0
 40
10.079994
100
AcDbArc
 50
270.000031
 51
323.996597
  0
LINE
  5
E2
100
AcDbEntity
  8
LAY-1
  6
CONTINUOUS
 62
     3
100
AcDbLine
 10
958.180939
 20
128.235077
 30
0.0
 11
972.739502
 21
148.272003
 31
0.0
  0
LINE
  5
E3
100
AcDbEntity
  8
LAY-1
  6
CONTINUOUS
 62
     3
100
AcDbLine
 10
972.739502
 20
148.272003
 30
0.0
 11
941.352173
 21
148.272003
 31
0.0
  0
LINE
  5
E4
100
AcDbEntity
  8
LAY-1
  6
CONTINUOUS
 62
     3
100
AcDbLine
 10
1009.895569
 20
158.351959
 30
0.0
 11
1009.895569
 21
151.29599
 31
0.0
  0
LINE
  5
E5
100
AcDbEntity
  8
LAY-1
  6
CONTINUOUS
 62
     3
100
AcDbLine
 10
1009.895569
 20
158.351959
 30
0.0
 11
1062.31134
 21
158.351959
 31
0.0
  0
LINE
  5
E6
100
AcDbEntity
  8
LAY-1
  6
CONTINUOUS
 62
     3
100
AcDbLine
 10
1062.31134
 20
158.351959
 30
0.0
 11
1062.31134
 21
151.29599
 31
0.0
  0
LINE
  5
E7
100
AcDbEntity
  8
LAY-1
  6
CONTINUOUS
 62
     3
100
AcDbLine
 10
1062.31134
 20
151.29599
 30
0.0
 11
1041.647736
 21
151.29599
 31
0.0
  0
LINE
  5
E8
100
AcDbEntity
  8
LAY-1
  6
CONTINUOUS
 62
     3
100
AcDbLine
 10
1041.647736
 20
151.29599
 30
0.0
 11
1041.647736
 21
122.064117
 31
0.0
  0
LINE
  5
E9
100
AcDbEntity
  8
LAY-1
  6
CONTINUOUS
 62
     3
100
AcDbLine
 10
1041.647736
 20
122.064117
 30
0.0
 11
1064.327332
 21
122.064117
 31
0.0
  0
LINE
  5
EA
100
AcDbEntity
  8
LAY-1
  6
CONTINUOUS
 62
     3
100
AcDbLine
 10
1064.327332
 20
122.064117
 30
0.0
 11
1064.327332
 21
114.0
 31
0.0
  0
LINE
  5
EB
100
AcDbEntity
  8
LAY-1
  6
CONTINUOUS
 62
     3
100
AcDbLine
 10
1064.327332
 20
114.0
 30
0.0
 11
1007.879578
 21
114.0
 31
0.0
  0
LINE
  5
EC
100
AcDbEntity
  8
LAY-1
  6
CONTINUOUS
 62
     3
100
AcDbLine
 10
1007.879578
 20
114.0
 30
0.0
 11
1007.879578
 21
122.064117
 31
0.0
  0
LINE
  5
ED
100
AcDbEntity
  8
LAY-1
  6
CONTINUOUS
 62
     3
100
AcDbLine
 10
1007.879578
 20
122.064117
 30
0.0
 11
1030.559174
 21
122.064117
 31
0.0
  0
LINE
  5
EE
100
AcDbEntity
  8
LAY-1
  6
CONTINUOUS
 62
     3
100
AcDbLine
 10
1030.559174
 20
122.064117
 30
0.0
 11
1030.559174
 21
151.29599
 31
0.0
  0
LINE
  5
EF
100
AcDbEntity
  8
LAY-1
  6
CONTINUOUS
 62
     3
100
AcDbLine
 10
1030.559174
 20
151.29599
 30
0.0
 11
1009.895569
 21
151.29599
 31
0.0
  0
LINE
  5
F0
100
AcDbEntity
  8
LAY-1
  6
CONTINUOUS
 62
     3
100
AcDbLine
 10
1065.336243
 20
152.303986
 30
0.0
 11
1065.336243
 21
147.667145
 31
0.0
  0
LINE
  5
F1
100
AcDbEntity
  8
LAY-1
  6
CONTINUOUS
 62
     3
100
AcDbLine
 10
1065.336243
 20
152.303986
 30
0.0
 11
1074.093109
 21
152.303986
 31
0.0
  0
LINE
  5
F2
100
AcDbEntity
  8
LAY-1
  6
CONTINUOUS
 62
     3
100
AcDbLine
 10
1074.093109
 20
152.303986
 30
0.0
 11
1069.368225
 21
158.351959
 31
0.0
  0
LINE
  5
F3
100
AcDbEntity
  8
LAY-1
  6
CONTINUOUS
 62
     3
100
AcDbLine
 10
1069.368225
 20
158.351959
 30
0.0
 11
1078.32193
 21
158.351959
 31
0.0
  0
LINE
  5
F4
100
AcDbEntity
  8
LAY-1
  6
CONTINUOUS
 62
     3
100
AcDbLine
 10
1078.32193
 20
158.351959
 30
0.0
 11
1083.046814
 21
152.303986
 31
0.0
  0
LINE
  5
F5
100
AcDbEntity
  8
LAY-1
  6
CONTINUOUS
 62
     3
100
AcDbLine
 10
1083.046814
 20
152.303986
 30
0.0
 11
1084.993073
 21
152.303986
 31
0.0
  0
LINE
  5
F6
100
AcDbEntity
  8
LAY-1
  6
CONTINUOUS
 62
     3
100
AcDbLine
 10
1084.993073
 20
152.303986
 30
0.0
 11
1084.993073
 21
158.351959
 31
0.0
  0
LINE
  5
F7
100
AcDbEntity
  8
LAY-1
  6
CONTINUOUS
 62
     3
100
AcDbLine
 10
1084.993073
 20
158.351959
 30
0.0
 11
1092.047668
 21
158.351959
 31
0.0
  0
LINE
  5
F8
100
AcDbEntity
  8
LAY-1
  6
CONTINUOUS
 62
     3
100
AcDbLine
 10
1092.047668
 20
158.351959
 30
0.0
 11
1092.047668
 21
152.303986
 31
0.0
  0
LINE
  5
F9
100
AcDbEntity
  8
LAY-1
  6
CONTINUOUS
 62
     3
100
AcDbLine
 10
1092.047668
 20
152.303986
 30
0.0
 11
1095.072571
 21
152.303986
 31
0.0
  0
LINE
  5
FA
100
AcDbEntity
  8
LAY-1
  6
CONTINUOUS
 62
     3
100
AcDbLine
 10
1095.072571
 20
152.303986
 30
0.0
 11
1095.072571
 21
158.351959
 31
0.0
  0
LINE
  5
FB
100
AcDbEntity
  8
LAY-1
  6
CONTINUOUS
 62
     3
100
AcDbLine
 10
1095.072571
 20
158.351959
 30
0.0
 11
1102.127319
 21
158.351959
 31
0.0
  0
LINE
  5
FC
100
AcDbEntity
  8
LAY-1
  6
CONTINUOUS
 62
     3
100
AcDbLine
 10
1102.127319
 20
158.351959
 30
0.0
 11
1102.127319
 21
152.303986
 31
0.0
  0
LINE
  5
FD
100
AcDbEntity
  8
LAY-1
  6
CONTINUOUS
 62
     3
100
AcDbLine
 10
1102.127319
 20
152.303986
 30
0.0
 11
1104.073578
 21
152.303986
 31
0.0
  0
LINE
  5
FE
100
AcDbEntity
  8
LAY-1
  6
CONTINUOUS
 62
     3
100
AcDbLine
 10
1104.073578
 20
152.303986
 30
0.0
 11
1108.798462
 21
158.351959
 31
0.0
  0
LINE
  5
FF
100
AcDbEntity
  8
LAY-1
  6
CONTINUOUS
 62
     3
100
AcDbLine
 10
1108.798462
 20
158.351959
 30
0.0
 11
1117.752167
 21
158.351959
 31
0.0
  0
LINE
  5
100
100
AcDbEntity
  8
LAY-1
  6
CONTINUOUS
 62
     3
100
AcDbLine
 10
1117.752167
 20
158.351959
 30
0.0
 11
1113.027283
 21
152.303986
 31
0.0
  0
LINE
  5
101
100
AcDbEntity
  8
LAY-1
  6
CONTINUOUS
 62
     3
100
AcDbLine
 10
1113.027283
 20
152.303986
 30
0.0
 11
1121.783997
 21
152.303986
 31
0.0
  0
LINE
  5
102
100
AcDbEntity
  8
LAY-1
  6
CONTINUOUS
 62
     3
100
AcDbLine
 10
1121.783997
 20
152.303986
 30
0.0
 11
1121.783997
 21
147.667145
 31
0.0
  0
LINE
  5
103
100
AcDbEntity
  8
LAY-1
  6
CONTINUOUS
 62
     3
100
AcDbLine
 10
1121.783997
 20
147.667145
 30
0.0
 11
1111.16098
 21
147.667145
 31
0.0
  0
LINE
  5
104
100
AcDbEntity
  8
LAY-1
  6
CONTINUOUS
 62
     3
100
AcDbLine
 10
1111.16098
 20
147.667145
 30
0.0
 11
1109.327637
 21
142.627319
 31
0.0
  0
LINE
  5
105
100
AcDbEntity
  8
LAY-1
  6
CONTINUOUS
 62
     3
100
AcDbLine
 10
1109.327637
 20
142.627319
 30
0.0
 11
1121.783997
 21
142.627319
 31
0.0
  0
LINE
  5
106
100
AcDbEntity
  8
LAY-1
  6
CONTINUOUS
 62
     3
100
AcDbLine
 10
1121.783997
 20
142.627319
 30
0.0
 11
1121.783997
 21
137.990478
 31
0.0
  0
LINE
  5
107
100
AcDbEntity
  8
LAY-1
  6
CONTINUOUS
 62
     3
100
AcDbLine
 10
1121.783997
 20
137.990478
 30
0.0
 11
1098.599945
 21
137.990478
 31
0.0
  0
LINE
  5
108
100
AcDbEntity
  8
LAY-1
  6
CONTINUOUS
 62
     3
100
AcDbLine
 10
1098.599945
 20
137.990478
 30
0.0
 11
1098.599945
 21
135.672058
 31
0.0
  0
LINE
  5
109
100
AcDbEntity
  8
LAY-1
  6
CONTINUOUS
 62
     3
100
AcDbLine
 10
1098.599945
 20
135.672058
 30
0.0
 11
1121.783997
 21
135.672058
 31
0.0
  0
LINE
  5
10A
100
AcDbEntity
  8
LAY-1
  6
CONTINUOUS
 62
     3
100
AcDbLine
 10
1121.783997
 20
135.672058
 30
0.0
 11
1121.783997
 21
131.035217
 31
0.0
  0
LINE
  5
10B
100
AcDbEntity
  8
LAY-1
  6
CONTINUOUS
 62
     3
100
AcDbLine
 10
1121.783997
 20
131.035217
 30
0.0
 11
1098.599945
 21
131.035217
 31
0.0
  0
LINE
  5
10C
100
AcDbEntity
  8
LAY-1
  6
CONTINUOUS
 62
     3
100
AcDbLine
 10
1098.599945
 20
131.035217
 30
0.0
 11
1098.599945
 21
128.716797
 31
0.0
  0
LINE
  5
10D
100
AcDbEntity
  8
LAY-1
  6
CONTINUOUS
 62
     3
100
AcDbLine
 10
1098.599945
 20
128.716797
 30
0.0
 11
1121.783997
 21
128.716797
 31
0.0
  0
LINE
  5
10E
100
AcDbEntity
  8
LAY-1
  6
CONTINUOUS
 62
     3
100
AcDbLine
 10
1121.783997
 20
128.716797
 30
0.0
 11
1121.783997
 21
124.079956
 31
0.0
  0
LINE
  5
10F
100
AcDbEntity
  8
LAY-1
  6
CONTINUOUS
 62
     3
100
AcDbLine
 10
1121.783997
 20
124.079956
 30
0.0
 11
1110.627838
 21
124.079956
 31
0.0
  0
LINE
  5
110
100
AcDbEntity
  8
LAY-1
  6
CONTINUOUS
 62
     3
100
AcDbLine
 10
1110.627838
 20
124.079956
 30
0.0
 11
1121.783997
 21
114.0
 31
0.0
  0
LINE
  5
111
100
AcDbEntity
  8
LAY-1
  6
CONTINUOUS
 62
     3
100
AcDbLine
 10
1121.783997
 20
114.0
 30
0.0
 11
1109.756256
 21
114.0
 31
0.0
  0
LINE
  5
112
100
AcDbEntity
  8
LAY-1
  6
CONTINUOUS
 62
     3
100
AcDbLine
 10
1109.756256
 20
114.0
 30
0.0
 11
1098.599945
 21
124.079956
 31
0.0
  0
LINE
  5
113
100
AcDbEntity
  8
LAY-1
  6
CONTINUOUS
 62
     3
100
AcDbLine
 10
1098.599945
 20
124.079956
 30
0.0
 11
1098.599945
 21
114.0
 31
0.0
  0
LINE
  5
114
100
AcDbEntity
  8
LAY-1
  6
CONTINUOUS
 62
     3
100
AcDbLine
 10
1098.599945
 20
114.0
 30
0.0
 11
1088.520447
 21
114.0
 31
0.0
  0
LINE
  5
115
100
AcDbEntity
  8
LAY-1
  6
CONTINUOUS
 62
     3
100
AcDbLine
 10
1088.520447
 20
114.0
 30
0.0
 11
1088.520447
 21
124.079956
 31
0.0
  0
LINE
  5
116
100
AcDbEntity
  8
LAY-1
  6
CONTINUOUS
 62
     3
100
AcDbLine
 10
1088.520447
 20
124.079956
 30
0.0
 11
1077.364136
 21
114.0
 31
0.0
  0
LINE
  5
117
100
AcDbEntity
  8
LAY-1
  6
CONTINUOUS
 62
     3
100
AcDbLine
 10
1077.364136
 20
114.0
 30
0.0
 11
1065.336243
 21
114.0
 31
0.0
  0
LINE
  5
118
100
AcDbEntity
  8
LAY-1
  6
CONTINUOUS
 62
     3
100
AcDbLine
 10
1065.336243
 20
114.0
 30
0.0
 11
1076.492554
 21
124.079956
 31
0.0
  0
LINE
  5
119
100
AcDbEntity
  8
LAY-1
  6
CONTINUOUS
 62
     3
100
AcDbLine
 10
1076.492554
 20
124.079956
 30
0.0
 11
1065.336243
 21
124.079956
 31
0.0
  0
LINE
  5
11A
100
AcDbEntity
  8
LAY-1
  6
CONTINUOUS
 62
     3
100
AcDbLine
 10
1065.336243
 20
124.079956
 30
0.0
 11
1065.336243
 21
128.716797
 31
0.0
  0
LINE
  5
11B
100
AcDbEntity
  8
LAY-1
  6
CONTINUOUS
 62
     3
100
AcDbLine
 10
1065.336243
 20
128.716797
 30
0.0
 11
1088.520447
 21
128.716797
 31
0.0
  0
LINE
  5
11C
100
AcDbEntity
  8
LAY-1
  6
CONTINUOUS
 62
     3
100
AcDbLine
 10
1088.520447
 20
128.716797
 30
0.0
 11
1088.520447
 21
131.035217
 31
0.0
  0
LINE
  5
11D
100
AcDbEntity
  8
LAY-1
  6
CONTINUOUS
 62
     3
100
AcDbLine
 10
1088.520447
 20
131.035217
 30
0.0
 11
1065.336243
 21
131.035217
 31
0.0
  0
LINE
  5
11E
100
AcDbEntity
  8
LAY-1
  6
CONTINUOUS
 62
     3
100
AcDbLine
 10
1065.336243
 20
131.035217
 30
0.0
 11
1065.336243
 21
135.672058
 31
0.0
  0
LINE
  5
11F
100
AcDbEntity
  8
LAY-1
  6
CONTINUOUS
 62
     3
100
AcDbLine
 10
1065.336243
 20
135.672058
 30
0.0
 11
1088.520447
 21
135.672058
 31
0.0
  0
LINE
  5
120
100
AcDbEntity
  8
LAY-1
  6
CONTINUOUS
 62
     3
100
AcDbLine
 10
1088.520447
 20
135.672058
 30
0.0
 11
1088.520447
 21
137.990478
 31
0.0
  0
LINE
  5
121
100
AcDbEntity
  8
LAY-1
  6
CONTINUOUS
 62
     3
100
AcDbLine
 10
1088.520447
 20
137.990478
 30
0.0
 11
1065.336243
 21
137.990478
 31
0.0
  0
LINE
  5
122
100
AcDbEntity
  8
LAY-1
  6
CONTINUOUS
 62
     3
100
AcDbLine
 10
1065.336243
 20
137.990478
 30
0.0
 11
1065.336243
 21
142.627319
 31
0.0
  0
LINE
  5
123
100
AcDbEntity
  8
LAY-1
  6
CONTINUOUS
 62
     3
100
AcDbLine
 10
1065.336243
 20
142.627319
 30
0.0
 11
1077.792755
 21
142.627319
 31
0.0
  0
LINE
  5
124
100
AcDbEntity
  8
LAY-1
  6
CONTINUOUS
 62
     3
100
AcDbLine
 10
1077.792755
 20
142.627319
 30
0.0
 11
1075.959412
 21
147.667145
 31
0.0
  0
LINE
  5
125
100
AcDbEntity
  8
LAY-1
  6
CONTINUOUS
 62
     3
100
AcDbLine
 10
1075.959412
 20
147.667145
 30
0.0
 11
1065.336243
 21
147.667145
 31
0.0
  0
LINE
  5
126
100
AcDbEntity
  8
LAY-1
  6
CONTINUOUS
 62
     3
100
AcDbLine
 10
1086.684967
 20
147.667145
 30
0.0
 11
1100.435425
 21
147.667145
 31
0.0
  0
LINE
  5
127
100
AcDbEntity
  8
LAY-1
  6
CONTINUOUS
 62
     3
100
AcDbLine
 10
1100.435425
 20
147.667145
 30
0.0
 11
1098.599945
 21
142.627319
 31
0.0
  0
LINE
  5
128
100
AcDbEntity
  8
LAY-1
  6
CONTINUOUS
 62
     3
100
AcDbLine
 10
1098.599945
 20
142.627319
 30
0.0
 11
1088.520447
 21
142.627319
 31
0.0
  0
LINE
  5
129
100
AcDbEntity
  8
LAY-1
  6
CONTINUOUS
 62
     3
100
AcDbLine
 10
1088.520447
 20
142.627319
 30
0.0
 11
1086.684967
 21
147.667145
 31
0.0
  0
LINE
  5
12A
100
AcDbEntity
  8
LAY-1
  6
CONTINUOUS
 62
     3
100
AcDbLine
 10
1149.256378
 20
158.351959
 30
0.0
 11
1145.989472
 21
145.248016
 31
0.0
  0
LINE
  5
12B
100
AcDbEntity
  8
LAY-1
  6
CONTINUOUS
 62
     3
100
AcDbLine
 10
1149.256378
 20
158.351959
 30
0.0
 11
1157.568146
 21
158.351959
 31
0.0
  0
LINE
  5
12C
100
AcDbEntity
  8
LAY-1
  6
CONTINUOUS
 62
     3
100
AcDbLine
 10
1157.568146
 20
158.351959
 30
0.0
 11
1156.310974
 21
153.311981
 31
0.0
  0
LINE
  5
12D
100
AcDbEntity
  8
LAY-1
  6
CONTINUOUS
 62
     3
100
AcDbLine
 10
1156.310974
 20
153.311981
 30
0.0
 11
1159.584137
 21
153.311981
 31
0.0
  0
LINE
  5
12E
100
AcDbEntity
  8
LAY-1
  6
CONTINUOUS
 62
     3
100
AcDbLine
 10
1159.584137
 20
153.311981
 30
0.0
 11
1159.584137
 21
158.351959
 31
0.0
  0
LINE
  5
12F
100
AcDbEntity
  8
LAY-1
  6
CONTINUOUS
 62
     3
100
AcDbLine
 10
1159.584137
 20
158.351959
 30
0.0
 11
1168.656708
 21
158.351959
 31
0.0
  0
LINE
  5
130
100
AcDbEntity
  8
LAY-1
  6
CONTINUOUS
 62
     3
100
AcDbLine
 10
1168.656708
 20
158.351959
 30
0.0
 11
1168.656708
 21
153.311981
 31
0.0
  0
LINE
  5
131
100
AcDbEntity
  8
LAY-1
  6
CONTINUOUS
 62
     3
100
AcDbLine
 10
1168.656708
 20
153.311981
 30
0.0
 11
1180.247742
 21
153.311981
 31
0.0
  0
LINE
  5
132
100
AcDbEntity
  8
LAY-1
  6
CONTINUOUS
 62
     3
100
AcDbLine
 10
1180.247742
 20
153.311981
 30
0.0
 11
1180.247742
 21
148.272003
 31
0.0
  0
LINE
  5
133
100
AcDbEntity
  8
LAY-1
  6
CONTINUOUS
 62
     3
100
AcDbLine
 10
1168.656708
 20
148.272003
 30
0.0
 11
1180.247742
 21
148.272003
 31
0.0
  0
LINE
  5
134
100
AcDbEntity
  8
LAY-1
  6
CONTINUOUS
 62
     3
100
AcDbLine
 10
1168.656708
 20
148.272003
 30
0.0
 11
1168.656708
 21
143.232025
 31
0.0
  0
LINE
  5
135
100
AcDbEntity
  8
LAY-1
  6
CONTINUOUS
 62
     3
100
AcDbLine
 10
1168.656708
 20
143.232025
 30
0.0
 11
1181.256653
 21
143.232025
 31
0.0
  0
LINE
  5
136
100
AcDbEntity
  8
LAY-1
  6
CONTINUOUS
 62
     3
100
AcDbLine
 10
1181.256653
 20
143.232025
 30
0.0
 11
1181.256653
 21
138.192047
 31
0.0
  0
LINE
  5
137
100
AcDbEntity
  8
LAY-1
  6
CONTINUOUS
 62
     3
100
AcDbLine
 10
1181.256653
 20
138.192047
 30
0.0
 11
1176.851593
 21
138.192047
 31
0.0
  0
LINE
  5
138
100
AcDbEntity
  8
LAY-1
  6
CONTINUOUS
 62
     3
100
AcDbLine
 10
1176.851593
 20
138.192047
 30
0.0
 11
1181.256653
 21
114.0
 31
0.0
  0
LINE
  5
139
100
AcDbEntity
  8
LAY-1
  6
CONTINUOUS
 62
     3
100
AcDbLine
 10
1181.256653
 20
114.0
 30
0.0
 11
1173.059784
 21
114.0
 31
0.0
  0
LINE
  5
13A
100
AcDbEntity
  8
LAY-1
  6
CONTINUOUS
 62
     3
100
AcDbLine
 10
1173.059784
 20
114.0
 30
0.0
 11
1168.656708
 21
138.191742
 31
0.0
  0
LINE
  5
13B
100
AcDbEntity
  8
LAY-1
  6
CONTINUOUS
 62
     3
100
AcDbLine
 10
1168.656708
 20
138.191742
 30
0.0
 11
1168.656708
 21
114.0
 31
0.0
  0
LINE
  5
13C
100
AcDbEntity
  8
LAY-1
  6
CONTINUOUS
 62
     3
100
AcDbLine
 10
1168.656708
 20
114.0
 30
0.0
 11
1159.584137
 21
114.0
 31
0.0
  0
LINE
  5
13D
100
AcDbEntity
  8
LAY-1
  6
CONTINUOUS
 62
     3
100
AcDbLine
 10
1159.584137
 20
114.0
 30
0.0
 11
1159.584137
 21
138.192047
 31
0.0
  0
LINE
  5
13E
100
AcDbEntity
  8
LAY-1
  6
CONTINUOUS
 62
     3
100
AcDbLine
 10
1159.584137
 20
138.192047
 30
0.0
 11
1155.181061
 21
114.0
 31
0.0
  0
LINE
  5
13F
100
AcDbEntity
  8
LAY-1
  6
CONTINUOUS
 62
     3
100
AcDbLine
 10
1155.181061
 20
114.0
 30
0.0
 11
1146.984039
 21
114.0
 31
0.0
  0
LINE
  5
140
100
AcDbEntity
  8
LAY-1
  6
CONTINUOUS
 62
     3
100
AcDbLine
 10
1146.984039
 20
114.0
 30
0.0
 11
1151.387115
 21
138.192047
 31
0.0
  0
LINE
  5
141
100
AcDbEntity
  8
LAY-1
  6
CONTINUOUS
 62
     3
100
AcDbLine
 10
1151.387115
 20
138.192047
 30
0.0
 11
1146.984039
 21
138.192047
 31
0.0
  0
LINE
  5
142
100
AcDbEntity
  8
LAY-1
  6
CONTINUOUS
 62
     3
100
AcDbLine
 10
1146.984039
 20
138.192047
 30
0.0
 11
1146.984039
 21
143.232025
 31
0.0
  0
LINE
  5
143
100
AcDbEntity
  8
LAY-1
  6
CONTINUOUS
 62
     3
100
AcDbLine
 10
1146.984039
 20
143.232025
 30
0.0
 11
1159.584137
 21
143.232025
 31
0.0
  0
LINE
  5
144
100
AcDbEntity
  8
LAY-1
  6
CONTINUOUS
 62
     3
100
AcDbLine
 10
1159.584137
 20
143.232025
 30
0.0
 11
1159.584137
 21
148.272003
 31
0.0
  0
LINE
  5
145
100
AcDbEntity
  8
LAY-1
  6
CONTINUOUS
 62
     3
100
AcDbLine
 10
1159.584137
 20
148.272003
 30
0.0
 11
1155.053955
 21
148.272003
 31
0.0
  0
LINE
  5
146
100
AcDbEntity
  8
LAY-1
  6
CONTINUOUS
 62
     3
100
AcDbLine
 10
1155.053955
 20
148.272003
 30
0.0
 11
1154.301239
 21
145.248016
 31
0.0
  0
LINE
  5
147
100
AcDbEntity
  8
LAY-1
  6
CONTINUOUS
 62
     3
100
AcDbLine
 10
1154.301239
 20
145.248016
 30
0.0
 11
1145.989472
 21
145.248016
 31
0.0
  0
LINE
  5
148
100
AcDbEntity
  8
LAY-1
  6
CONTINUOUS
 62
     3
100
AcDbLine
 10
1123.799988
 20
153.311981
 30
0.0
 11
1123.799988
 21
148.272003
 31
0.0
  0
LINE
  5
149
100
AcDbEntity
  8
LAY-1
  6
CONTINUOUS
 62
     3
100
AcDbLine
 10
1123.799988
 20
153.311981
 30
0.0
 11
1133.879639
 21
153.311981
 31
0.0
  0
LINE
  5
14A
100
AcDbEntity
  8
LAY-1
  6
CONTINUOUS
 62
     3
100
AcDbLine
 10
1133.879639
 20
153.311981
 30
0.0
 11
1133.879639
 21
158.351959
 31
0.0
  0
LINE
  5
14B
100
AcDbEntity
  8
LAY-1
  6
CONTINUOUS
 62
     3
100
AcDbLine
 10
1133.879639
 20
158.351959
 30
0.0
 11
1142.95221
 21
158.351959
 31
0.0
  0
LINE
  5
14C
100
AcDbEntity
  8
LAY-1
  6
CONTINUOUS
 62
     3
100
AcDbLine
 10
1142.95221
 20
158.351959
 30
0.0
 11
1142.95221
 21
153.311981
 31
0.0
  0
LINE
  5
14D
100
AcDbEntity
  8
LAY-1
  6
CONTINUOUS
 62
     3
100
AcDbLine
 10
1142.95221
 20
153.311981
 30
0.0
 11
1145.975128
 21
153.311981
 31
0.0
  0
LINE
  5
14E
100
AcDbEntity
  8
LAY-1
  6
CONTINUOUS
 62
     3
100
AcDbLine
 10
1145.975128
 20
153.311981
 30
0.0
 11
1145.975128
 21
148.272003
 31
0.0
  0
LINE
  5
14F
100
AcDbEntity
  8
LAY-1
  6
CONTINUOUS
 62
     3
100
AcDbLine
 10
1145.975128
 20
148.272003
 30
0.0
 11
1142.95221
 21
148.272003
 31
0.0
  0
LINE
  5
150
100
AcDbEntity
  8
LAY-1
  6
CONTINUOUS
 62
     3
100
AcDbLine
 10
1142.95221
 20
148.272003
 30
0.0
 11
1145.975128
 21
144.110016
 31
0.0
  0
LINE
  5
151
100
AcDbEntity
  8
LAY-1
  6
CONTINUOUS
 62
     3
100
AcDbLine
 10
1145.975128
 20
144.110016
 30
0.0
 11
1145.975128
 21
133.820709
 31
0.0
  0
LINE
  5
152
100
AcDbEntity
  8
LAY-1
  6
CONTINUOUS
 62
     3
100
AcDbLine
 10
1145.975128
 20
133.820709
 30
0.0
 11
1142.95221
 21
137.982849
 31
0.0
  0
LINE
  5
153
100
AcDbEntity
  8
LAY-1
  6
CONTINUOUS
 62
     3
100
AcDbLine
 10
1142.95221
 20
137.982849
 30
0.0
 11
1142.95221
 21
114.0
 31
0.0
  0
LINE
  5
154
100
AcDbEntity
  8
LAY-1
  6
CONTINUOUS
 62
     3
100
AcDbLine
 10
1142.95221
 20
114.0
 30
0.0
 11
1133.879639
 21
114.0
 31
0.0
  0
LINE
  5
155
100
AcDbEntity
  8
LAY-1
  6
CONTINUOUS
 62
     3
100
AcDbLine
 10
1133.879639
 20
114.0
 30
0.0
 11
1133.879639
 21
148.272003
 31
0.0
  0
LINE
  5
156
100
AcDbEntity
  8
LAY-1
  6
CONTINUOUS
 62
     3
100
AcDbLine
 10
1133.483826
 20
148.272003
 30
0.0
 11
1129.880615
 21
114.0
 31
0.0
  0
LINE
  5
157
100
AcDbEntity
  8
LAY-1
  6
CONTINUOUS
 62
     3
100
AcDbLine
 10
1129.880615
 20
114.0
 30
0.0
 11
1123.799988
 21
114.0
 31
0.0
  0
LINE
  5
158
100
AcDbEntity
  8
LAY-1
  6
CONTINUOUS
 62
     3
100
AcDbLine
 10
1123.799988
 20
114.0
 30
0.0
 11
1127.403198
 21
148.272003
 31
0.0
  0
LINE
  5
159
100
AcDbEntity
  8
LAY-1
  6
CONTINUOUS
 62
     3
100
AcDbLine
 10
1127.403198
 20
148.272003
 30
0.0
 11
1123.799988
 21
148.272003
 31
0.0
  0
LINE
  5
15A
100
AcDbEntity
  8
LAY-1
  6
CONTINUOUS
 62
     3
100
AcDbLine
 10
1186.295563
 20
142.22403
 30
0.0
 11
1186.295563
 21
136.176056
 31
0.0
  0
LINE
  5
15B
100
AcDbEntity
  8
LAY-1
  6
CONTINUOUS
 62
     3
100
AcDbLine
 10
1186.295563
 20
142.22403
 30
0.0
 11
1216.536347
 21
142.22403
 31
0.0
  0
LINE
  5
15C
100
AcDbEntity
  8
LAY-1
  6
CONTINUOUS
 62
     3
100
AcDbLine
 10
1216.536347
 20
142.22403
 30
0.0
 11
1216.536347
 21
136.176056
 31
0.0
  0
LINE
  5
15D
100
AcDbEntity
  8
LAY-1
  6
CONTINUOUS
 62
     3
100
AcDbLine
 10
1216.536347
 20
136.176056
 30
0.0
 11
1206.959167
 21
136.176056
 31
0.0
  0
LINE
  5
15E
100
AcDbEntity
  8
LAY-1
  6
CONTINUOUS
 62
     3
100
AcDbLine
 10
1206.959167
 20
136.176056
 30
0.0
 11
1206.959167
 21
127.774109
 31
0.0
  0
LINE
  5
15F
100
AcDbEntity
  8
LAY-1
  6
CONTINUOUS
 62
     3
100
AcDbLine
 10
1206.959167
 20
127.774109
 30
0.0
 11
1217.040802
 21
129.916596
 31
0.0
  0
LINE
  5
160
100
AcDbEntity
  8
LAY-1
  6
CONTINUOUS
 62
     3
100
AcDbLine
 10
1217.040802
 20
129.916596
 30
0.0
 11
1217.040802
 21
120.641998
 31
0.0
  0
LINE
  5
161
100
AcDbEntity
  8
LAY-1
  6
CONTINUOUS
 62
     3
100
AcDbLine
 10
1217.040802
 20
120.641998
 30
0.0
 11
1185.790955
 21
114.0
 31
0.0
  0
LINE
  5
162
100
AcDbEntity
  8
LAY-1
  6
CONTINUOUS
 62
     3
100
AcDbLine
 10
1185.790955
 20
114.0
 30
0.0
 11
1185.790955
 21
123.274597
 31
0.0
  0
LINE
  5
163
100
AcDbEntity
  8
LAY-1
  6
CONTINUOUS
 62
     3
100
AcDbLine
 10
1185.790955
 20
123.274597
 30
0.0
 11
1195.872589
 21
125.417236
 31
0.0
  0
LINE
  5
164
100
AcDbEntity
  8
LAY-1
  6
CONTINUOUS
 62
     3
100
AcDbLine
 10
1195.872589
 20
125.417236
 30
0.0
 11
1195.872589
 21
136.176056
 31
0.0
  0
LINE
  5
165
100
AcDbEntity
  8
LAY-1
  6
CONTINUOUS
 62
     3
100
AcDbLine
 10
1195.872589
 20
136.176056
 30
0.0
 11
1186.295563
 21
136.176056
 31
0.0
  0
LINE
  5
166
100
AcDbEntity
  8
LAY-1
  6
CONTINUOUS
 62
     3
100
AcDbLine
 10
1183.272644
 20
154.319977
 30
0.0
 11
1183.272644
 21
148.272003
 31
0.0
  0
LINE
  5
167
100
AcDbEntity
  8
LAY-1
  6
CONTINUOUS
 62
     3
100
AcDbLine
 10
1183.272644
 20
154.319977
 30
0.0
 11
1213.244873
 21
154.319977
 31
0.0
  0
LINE
  5
168
100
AcDbEntity
  8
LAY-1
  6
CONTINUOUS
 62
     3
100
AcDbLine
 10
1213.244873
 20
154.319977
 30
0.0
 11
1211.778503
 21
158.351959
 31
0.0
  0
LINE
  5
169
100
AcDbEntity
  8
LAY-1
  6
CONTINUOUS
 62
     3
100
AcDbLine
 10
1211.778503
 20
158.351959
 30
0.0
 11
1223.576599
 21
158.351959
 31
0.0
  0
LINE
  5
16A
100
AcDbEntity
  8
LAY-1
  6
CONTINUOUS
 62
     3
100
AcDbLine
 10
1223.576599
 20
158.351959
 30
0.0
 11
1225.044952
 21
154.319977
 31
0.0
  0
LINE
  5
16B
100
AcDbEntity
  8
LAY-1
  6
CONTINUOUS
 62
     3
100
AcDbLine
 10
1225.044952
 20
154.319977
 30
0.0
 11
1227.624908
 21
154.319977
 31
0.0
  0
LINE
  5
16C
100
AcDbEntity
  8
LAY-1
  6
CONTINUOUS
 62
     3
100
AcDbLine
 10
1227.624908
 20
154.319977
 30
0.0
 11
1227.624908
 21
158.351959
 31
0.0
  0
LINE
  5
16D
100
AcDbEntity
  8
LAY-1
  6
CONTINUOUS
 62
     3
100
AcDbLine
 10
1227.624908
 20
158.351959
 30
0.0
 11
1236.695496
 21
158.351959
 31
0.0
  0
LINE
  5
16E
100
AcDbEntity
  8
LAY-1
  6
CONTINUOUS
 62
     3
100
AcDbLine
 10
1236.695496
 20
158.351959
 30
0.0
 11
1236.695496
 21
154.319977
 31
0.0
  0
LINE
  5
16F
100
AcDbEntity
  8
LAY-1
  6
CONTINUOUS
 62
     3
100
AcDbLine
 10
1236.695496
 20
154.319977
 30
0.0
 11
1239.720398
 21
154.319977
 31
0.0
  0
LINE
  5
170
100
AcDbEntity
  8
LAY-1
  6
CONTINUOUS
 62
     3
100
AcDbLine
 10
1239.720398
 20
154.319977
 30
0.0
 11
1239.720398
 21
148.272003
 31
0.0
  0
LINE
  5
171
100
AcDbEntity
  8
LAY-1
  6
CONTINUOUS
 62
     3
100
AcDbLine
 10
1239.720398
 20
148.272003
 30
0.0
 11
1227.245422
 21
148.272003
 31
0.0
  0
LINE
  5
172
100
AcDbEntity
  8
LAY-1
  6
CONTINUOUS
 62
     3
100
AcDbLine
 10
1227.245422
 20
148.272003
 30
0.0
 11
1239.720398
 21
114.0
 31
0.0
  0
LINE
  5
173
100
AcDbEntity
  8
LAY-1
  6
CONTINUOUS
 62
     3
100
AcDbLine
 10
1239.720398
 20
114.0
 30
0.0
 11
1227.920166
 21
114.0
 31
0.0
  0
LINE
  5
174
100
AcDbEntity
  8
LAY-1
  6
CONTINUOUS
 62
     3
100
AcDbLine
 10
1227.920166
 20
114.0
 30
0.0
 11
1215.447327
 21
148.272003
 31
0.0
  0
LINE
  5
175
100
AcDbEntity
  8
LAY-1
  6
CONTINUOUS
 62
     3
100
AcDbLine
 10
1215.447327
 20
148.272003
 30
0.0
 11
1183.272644
 21
148.272003
 31
0.0
  0
LINE
  5
176
100
AcDbEntity
  8
LAY-1
  6
CONTINUOUS
 62
     3
100
AcDbLine
 10
1241.736389
 20
149.747833
 30
0.0
 11
1241.736389
 21
143.369965
 31
0.0
  0
LINE
  5
177
100
AcDbEntity
  8
LAY-1
  6
CONTINUOUS
 62
     3
100
AcDbLine
 10
1241.736389
 20
149.747833
 30
0.0
 11
1270.463654
 21
159.359955
 31
0.0
  0
LINE
  5
178
100
AcDbEntity
  8
LAY-1
  6
CONTINUOUS
 62
     3
100
AcDbLine
 10
1270.463654
 20
159.359955
 30
0.0
 11
1299.191071
 21
149.747528
 31
0.0
  0
LINE
  5
179
100
AcDbEntity
  8
LAY-1
  6
CONTINUOUS
 62
     3
100
AcDbLine
 10
1299.191071
 20
149.747528
 30
0.0
 11
1299.191071
 21
143.369965
 31
0.0
  0
LINE
  5
17A
100
AcDbEntity
  8
LAY-1
  6
CONTINUOUS
 62
     3
100
AcDbLine
 10
1299.191071
 20
143.369965
 30
0.0
 11
1290.624939
 21
146.236786
 31
0.0
  0
LINE
  5
17B
100
AcDbEntity
  8
LAY-1
  6
CONTINUOUS
 62
     3
100
AcDbLine
 10
1290.624939
 20
146.236786
 30
0.0
 11
1290.624939
 21
141.216034
 31
0.0
  0
LINE
  5
17C
100
AcDbEntity
  8
LAY-1
  6
CONTINUOUS
 62
     3
100
AcDbLine
 10
1290.624939
 20
141.216034
 30
0.0
 11
1250.304504
 21
141.216034
 31
0.0
  0
LINE
  5
17D
100
AcDbEntity
  8
LAY-1
  6
CONTINUOUS
 62
     3
100
AcDbLine
 10
1250.304504
 20
141.216034
 30
0.0
 11
1250.304504
 21
146.236786
 31
0.0
  0
LINE
  5
17E
100
AcDbEntity
  8
LAY-1
  6
CONTINUOUS
 62
     3
100
AcDbLine
 10
1250.304504
 20
146.236786
 30
0.0
 11
1241.736389
 21
143.369965
 31
0.0
  0
LINE
  5
17F
100
AcDbEntity
  8
LAY-1
  6
CONTINUOUS
 62
     3
100
AcDbLine
 10
1253.374573
 20
147.264008
 30
0.0
 11
1270.463654
 21
152.982239
 31
0.0
  0
LINE
  5
180
100
AcDbEntity
  8
LAY-1
  6
CONTINUOUS
 62
     3
100
AcDbLine
 10
1270.463654
 20
152.982239
 30
0.0
 11
1287.554871
 21
147.264008
 31
0.0
  0
LINE
  5
181
100
AcDbEntity
  8
LAY-1
  6
CONTINUOUS
 62
     3
100
AcDbLine
 10
1287.554871
 20
147.264008
 30
0.0
 11
1253.374573
 21
147.264008
 31
0.0
  0
LINE
  5
182
100
AcDbEntity
  8
LAY-1
  6
CONTINUOUS
 62
     3
100
AcDbLine
 10
1241.736389
 20
137.183899
 30
0.0
 11
1241.736389
 21
131.135925
 31
0.0
  0
LINE
  5
183
100
AcDbEntity
  8
LAY-1
  6
CONTINUOUS
 62
     3
100
AcDbLine
 10
1241.736389
 20
137.183899
 30
0.0
 11
1299.191071
 21
137.183899
 31
0.0
  0
LINE
  5
184
100
AcDbEntity
  8
LAY-1
  6
CONTINUOUS
 62
     3
100
AcDbLine
 10
1299.191071
 20
137.183899
 30
0.0
 11
1299.191071
 21
131.135925
 31
0.0
  0
LINE
  5
185
100
AcDbEntity
  8
LAY-1
  6
CONTINUOUS
 62
     3
100
AcDbLine
 10
1299.191071
 20
131.135925
 30
0.0
 11
1291.201111
 21
131.135925
 31
0.0
  0
LINE
  5
186
100
AcDbEntity
  8
LAY-1
  6
CONTINUOUS
 62
     3
100
AcDbLine
 10
1291.201111
 20
131.135925
 30
0.0
 11
1299.191071
 21
114.0
 31
0.0
  0
LINE
  5
187
100
AcDbEntity
  8
LAY-1
  6
CONTINUOUS
 62
     3
100
AcDbLine
 10
1299.191071
 20
114.0
 30
0.0
 11
1241.736389
 21
114.0
 31
0.0
  0
LINE
  5
188
100
AcDbEntity
  8
LAY-1
  6
CONTINUOUS
 62
     3
100
AcDbLine
 10
1241.736389
 20
114.0
 30
0.0
 11
1249.726196
 21
131.135925
 31
0.0
  0
LINE
  5
189
100
AcDbEntity
  8
LAY-1
  6
CONTINUOUS
 62
     3
100
AcDbLine
 10
1249.726196
 20
131.135925
 30
0.0
 11
1241.736389
 21
131.135925
 31
0.0
  0
LINE
  5
18A
100
AcDbEntity
  8
LAY-1
  6
CONTINUOUS
 62
     3
100
AcDbLine
 10
1260.847565
 20
131.135925
 30
0.0
 11
1280.079742
 21
131.135925
 31
0.0
  0
LINE
  5
18B
100
AcDbEntity
  8
LAY-1
  6
CONTINUOUS
 62
     3
100
AcDbLine
 10
1280.079742
 20
131.135925
 30
0.0
 11
1285.249725
 21
120.047974
 31
0.0
  0
LINE
  5
18C
100
AcDbEntity
  8
LAY-1
  6
CONTINUOUS
 62
     3
100
AcDbLine
 10
1285.249725
 20
120.047974
 30
0.0
 11
1255.677582
 21
120.047974
 31
0.0
  0
LINE
  5
18D
100
AcDbEntity
  8
LAY-1
  6
CONTINUOUS
 62
     3
100
AcDbLine
 10
1260.847565
 20
131.135925
 30
0.0
 11
1255.677582
 21
120.047974
 31
0.0
  0
LINE
  5
18E
100
AcDbEntity
  8
LAY-1
  6
CONTINUOUS
 62
     3
100
AcDbLine
 10
1328.424927
 20
147.264008
 30
0.0
 11
1328.424927
 21
141.216034
 31
0.0
  0
LINE
  5
18F
100
AcDbEntity
  8
LAY-1
  6
CONTINUOUS
 62
     3
100
AcDbLine
 10
1328.424927
 20
147.264008
 30
0.0
 11
1337.495514
 21
147.264008
 31
0.0
  0
LINE
  5
190
100
AcDbEntity
  8
LAY-1
  6
CONTINUOUS
 62
     3
100
AcDbLine
 10
1337.495514
 20
147.264008
 30
0.0
 11
1337.495514
 21
158.351959
 31
0.0
  0
LINE
  5
191
100
AcDbEntity
  8
LAY-1
  6
CONTINUOUS
 62
     3
100
AcDbLine
 10
1337.495514
 20
158.351959
 30
0.0
 11
1347.575012
 21
158.351959
 31
0.0
  0
LINE
  5
192
100
AcDbEntity
  8
LAY-1
  6
CONTINUOUS
 62
     3
100
AcDbLine
 10
1347.575012
 20
158.351959
 30
0.0
 11
1347.575012
 21
147.264008
 31
0.0
  0
LINE
  5
193
100
AcDbEntity
  8
LAY-1
  6
CONTINUOUS
 62
     3
100
AcDbLine
 10
1347.575012
 20
147.264008
 30
0.0
 11
1356.647736
 21
147.264008
 31
0.0
  0
LINE
  5
194
100
AcDbEntity
  8
LAY-1
  6
CONTINUOUS
 62
     3
100
AcDbLine
 10
1356.647736
 20
147.264008
 30
0.0
 11
1356.647736
 21
141.216034
 31
0.0
  0
LINE
  5
195
100
AcDbEntity
  8
LAY-1
  6
CONTINUOUS
 62
     3
100
AcDbLine
 10
1356.647736
 20
141.216034
 30
0.0
 11
1347.575012
 21
141.216034
 31
0.0
  0
LINE
  5
196
100
AcDbEntity
  8
LAY-1
  6
CONTINUOUS
 62
     3
100
AcDbLine
 10
1347.575012
 20
141.216034
 30
0.0
 11
1347.575012
 21
120.047974
 31
0.0
  0
LINE
  5
197
100
AcDbEntity
  8
LAY-1
  6
CONTINUOUS
 62
     3
100
AcDbLine
 10
1347.575012
 20
120.047974
 30
0.0
 11
1357.656647
 21
120.047974
 31
0.0
  0
LINE
  5
198
100
AcDbEntity
  8
LAY-1
  6
CONTINUOUS
 62
     3
100
AcDbLine
 10
1357.656647
 20
120.047974
 30
0.0
 11
1357.656647
 21
114.0
 31
0.0
  0
LINE
  5
199
100
AcDbEntity
  8
LAY-1
  6
CONTINUOUS
 62
     3
100
AcDbLine
 10
1357.656647
 20
114.0
 30
0.0
 11
1324.390961
 21
114.0
 31
0.0
  0
LINE
  5
19A
100
AcDbEntity
  8
LAY-1
  6
CONTINUOUS
 62
     3
100
AcDbLine
 10
1324.390961
 20
114.0
 30
0.0
 11
1324.390961
 21
120.047974
 31
0.0
  0
LINE
  5
19B
100
AcDbEntity
  8
LAY-1
  6
CONTINUOUS
 62
     3
100
AcDbLine
 10
1324.390961
 20
120.047974
 30
0.0
 11
1337.495514
 21
120.047974
 31
0.0
  0
LINE
  5
19C
100
AcDbEntity
  8
LAY-1
  6
CONTINUOUS
 62
     3
100
AcDbLine
 10
1337.495514
 20
120.047974
 30
0.0
 11
1337.495514
 21
141.216034
 31
0.0
  0
LINE
  5
19D
100
AcDbEntity
  8
LAY-1
  6
CONTINUOUS
 62
     3
100
AcDbLine
 10
1337.495514
 20
141.216034
 30
0.0
 11
1328.424927
 21
141.216034
 31
0.0
  0
LINE
  5
19E
100
AcDbEntity
  8
LAY-1
  6
CONTINUOUS
 62
     3
100
AcDbLine
 10
1301.206909
 20
154.319977
 30
0.0
 11
1301.206909
 21
148.272003
 31
0.0
  0
LINE
  5
19F
100
AcDbEntity
  8
LAY-1
  6
CONTINUOUS
 62
     3
100
AcDbLine
 10
1301.206909
 20
154.319977
 30
0.0
 11
1310.279633
 21
154.319977
 31
0.0
  0
LINE
  5
1A0
100
AcDbEntity
  8
LAY-1
  6
CONTINUOUS
 62
     3
100
AcDbLine
 10
1310.279633
 20
154.319977
 30
0.0
 11
1310.279633
 21
158.351959
 31
0.0
  0
LINE
  5
1A1
100
AcDbEntity
  8
LAY-1
  6
CONTINUOUS
 62
     3
100
AcDbLine
 10
1310.279633
 20
158.351959
 30
0.0
 11
1320.359131
 21
158.351959
 31
0.0
  0
LINE
  5
1A2
100
AcDbEntity
  8
LAY-1
  6
CONTINUOUS
 62
     3
100
AcDbLine
 10
1320.359131
 20
158.351959
 30
0.0
 11
1320.359131
 21
154.319977
 31
0.0
  0
LINE
  5
1A3
100
AcDbEntity
  8
LAY-1
  6
CONTINUOUS
 62
     3
100
AcDbLine
 10
1320.359131
 20
154.319977
 30
0.0
 11
1329.431854
 21
154.319977
 31
0.0
  0
LINE
  5
1A4
100
AcDbEntity
  8
LAY-1
  6
CONTINUOUS
 62
     3
100
AcDbLine
 10
1329.431854
 20
154.319977
 30
0.0
 11
1319.026123
 21
139.45578
 31
0.0
  0
LINE
  5
1A5
100
AcDbEntity
  8
LAY-1
  6
CONTINUOUS
 62
     3
100
AcDbLine
 10
1319.026123
 20
139.45578
 30
0.0
 11
1328.424927
 21
132.875885
 31
0.0
  0
LINE
  5
1A6
100
AcDbEntity
  8
LAY-1
  6
CONTINUOUS
 62
     3
100
AcDbLine
 10
1328.424927
 20
132.875885
 30
0.0
 11
1328.424927
 21
121.801209
 31
0.0
  0
LINE
  5
1A7
100
AcDbEntity
  8
LAY-1
  6
CONTINUOUS
 62
     3
100
AcDbLine
 10
1328.424927
 20
121.801209
 30
0.0
 11
1320.359131
 21
127.447723
 31
0.0
  0
LINE
  5
1A8
100
AcDbEntity
  8
LAY-1
  6
CONTINUOUS
 62
     3
100
AcDbLine
 10
1320.359131
 20
127.447723
 30
0.0
 11
1320.359131
 21
114.0
 31
0.0
  0
LINE
  5
1A9
100
AcDbEntity
  8
LAY-1
  6
CONTINUOUS
 62
     3
100
AcDbLine
 10
1320.359131
 20
114.0
 30
0.0
 11
1310.279633
 21
114.0
 31
0.0
  0
LINE
  5
1AA
100
AcDbEntity
  8
LAY-1
  6
CONTINUOUS
 62
     3
100
AcDbLine
 10
1310.279633
 20
114.0
 30
0.0
 11
1310.279633
 21
126.9599
 31
0.0
  0
LINE
  5
1AB
100
AcDbEntity
  8
LAY-1
  6
CONTINUOUS
 62
     3
100
AcDbLine
 10
1310.279633
 20
126.9599
 30
0.0
 11
1301.206909
 21
114.0
 31
0.0
  0
LINE
  5
1AC
100
AcDbEntity
  8
LAY-1
  6
CONTINUOUS
 62
     3
100
AcDbLine
 10
1301.206909
 20
114.0
 30
0.0
 11
1301.206909
 21
129.819397
 31
0.0
  0
LINE
  5
1AD
100
AcDbEntity
  8
LAY-1
  6
CONTINUOUS
 62
     3
100
AcDbLine
 10
1301.206909
 20
129.819397
 30
0.0
 11
1314.124848
 21
148.272003
 31
0.0
  0
LINE
  5
1AE
100
AcDbEntity
  8
LAY-1
  6
CONTINUOUS
 62
     3
100
AcDbLine
 10
1314.124848
 20
148.272003
 30
0.0
 11
1301.206909
 21
148.272003
 31
0.0
  0
ARC
  5
1AF
100
AcDbEntity
  8
LAY-1
  6
CONTINUOUS
 62
     2
100
AcDbCircle
 10
859.161011
 20
140.200409
 30
0.0
 40
6.300122
100
AcDbArc
 50
310.768311
 51
335.998779
  0
LINE
  5
1B0
100
AcDbEntity
  8
LAY-1
  6
CONTINUOUS
 62
     2
100
AcDbLine
 10
866.400238
 20
140.964111
 30
0.0
 11
864.919678
 21
137.639069
 31
0.0
  0
LINE
  5
1B1
100
AcDbEntity
  8
LAY-1
  6
CONTINUOUS
 62
     2
100
AcDbLine
 10
848.985077
 20
144.744019
 30
0.0
 11
872.218414
 21
144.744019
 31
0.0
  0
ARC
  5
1B2
100
AcDbEntity
  8
LAY-1
  6
CONTINUOUS
 62
     2
100
AcDbCircle
 10
952.299286
 20
132.144073
 30
0.0
 40
15.624008
100
AcDbArc
 50
270.000031
 51
324.00116
  0
ARC
  5
1B3
100
AcDbEntity
  8
LAY-1
  6
CONTINUOUS
 62
     2
100
AcDbCircle
 10
952.299286
 20
132.144073
 30
0.0
 40
13.10401
100
AcDbArc
 50
270.000031
 51
324.00116
  0
ARC
  5
1B4
100
AcDbEntity
  8
LAY-1
  6
CONTINUOUS
 62
     2
100
AcDbCircle
 10
799.565674
 20
132.144073
 30
0.0
 40
15.62398
100
AcDbArc
 50
270.000031
 51
333.99855
  0
ARC
  5
1B5
100
AcDbEntity
  8
LAY-1
  6
CONTINUOUS
 62
     2
100
AcDbCircle
 10
798.765503
 20
132.144073
 30
0.0
 40
10.583992
100
AcDbArc
 50
270.000031
 51
333.99855
  0
ARC
  5
1B6
100
AcDbEntity
  8
LAY-1
  6
CONTINUOUS
 62
     2
100
AcDbCircle
 10
799.165588
 20
132.144073
 30
0.0
 40
13.103991
100
AcDbArc
 50
270.000031
 51
333.99855
  0
LINE
  5
1B7
100
AcDbEntity
  8
LAY-1
  6
CONTINUOUS
 62
     2
100
AcDbLine
 10
772.84082
 20
156.032127
 30
0.0
 11
797.383972
 21
156.032127
 31
0.0
  0
LINE
  5
1B8
100
AcDbEntity
  8
LAY-1
  6
CONTINUOUS
 62
     2
100
AcDbLine
 10
772.84082
 20
153.712143
 30
0.0
 11
797.383972
 21
153.712143
 31
0.0
  0
LINE
  5
1B9
100
AcDbEntity
  8
LAY-1
  6
CONTINUOUS
 62
     2
100
AcDbLine
 10
772.84082
 20
151.392311
 30
0.0
 11
797.383972
 21
151.392311
 31
0.0
  0
LINE
  5
1BA
100
AcDbEntity
  8
LAY-1
  6
CONTINUOUS
 62
     2
100
AcDbLine
 10
772.84082
 20
144.136032
 30
0.0
 11
797.383972
 21
144.136032
 31
0.0
  0
LINE
  5
1BB
100
AcDbEntity
  8
LAY-1
  6
CONTINUOUS
 62
     2
100
AcDbLine
 10
772.84082
 20
141.615891
 30
0.0
 11
797.383972
 21
141.615891
 31
0.0
  0
LINE
  5
1BC
100
AcDbEntity
  8
LAY-1
  6
CONTINUOUS
 62
     2
100
AcDbLine
 10
772.84082
 20
139.296059
 30
0.0
 11
797.383972
 21
139.296059
 31
0.0
  0
LINE
  5
1BD
100
AcDbEntity
  8
LAY-1
  6
CONTINUOUS
 62
     2
100
AcDbLine
 10
772.84082
 20
121.559967
 30
0.0
 11
798.765503
 21
121.559967
 31
0.0
  0
LINE
  5
1BE
100
AcDbEntity
  8
LAY-1
  6
CONTINUOUS
 62
     2
100
AcDbLine
 10
772.84082
 20
119.039978
 30
0.0
 11
798.765503
 21
119.039978
 31
0.0
  0
LINE
  5
1BF
100
AcDbEntity
  8
LAY-1
  6
CONTINUOUS
 62
     2
100
AcDbLine
 10
772.84082
 20
116.519989
 30
0.0
 11
798.765503
 21
116.519989
 31
0.0
  0
LINE
  5
1C0
100
AcDbEntity
  8
LAY-1
  6
CONTINUOUS
 62
     2
100
AcDbLine
 10
808.277069
 20
127.504028
 30
0.0
 11
817.108246
 21
145.610365
 31
0.0
  0
LINE
  5
1C1
100
AcDbEntity
  8
LAY-1
  6
CONTINUOUS
 62
     2
100
AcDbLine
 10
810.941254
 20
126.399597
 30
0.0
 11
820.311676
 21
145.610375
 31
0.0
  0
LINE
  5
1C2
100
AcDbEntity
  8
LAY-1
  6
CONTINUOUS
 62
     2
100
AcDbLine
 10
813.605286
 20
125.294251
 30
0.0
 11
823.513123
 21
145.610346
 31
0.0
  0
LINE
  5
1C3
100
AcDbEntity
  8
LAY-1
  6
CONTINUOUS
 62
     2
100
AcDbLine
 10
810.136353
 20
155.695976
 30
0.0
 11
814.518372
 21
155.695976
 31
0.0
  0
LINE
  5
1C4
100
AcDbEntity
  8
LAY-1
  6
CONTINUOUS
 62
     2
100
AcDbLine
 10
810.136353
 20
152.839989
 30
0.0
 11
814.518372
 21
152.839989
 31
0.0
  0
LINE
  5
1C5
100
AcDbEntity
  8
LAY-1
  6
CONTINUOUS
 62
     2
100
AcDbLine
 10
821.224915
 20
155.695976
 30
0.0
 11
825.606934
 21
155.695976
 31
0.0
  0
LINE
  5
1C6
100
AcDbEntity
  8
LAY-1
  6
CONTINUOUS
 62
     2
100
AcDbLine
 10
821.224915
 20
152.839989
 30
0.0
 11
825.606934
 21
152.839989
 31
0.0
  0
LINE
  5
1C7
100
AcDbEntity
  8
LAY-1
  6
CONTINUOUS
 62
     2
100
AcDbLine
 10
832.313477
 20
142.224182
 30
0.0
 11
844.28064
 21
142.224182
 31
0.0
  0
LINE
  5
1C8
100
AcDbEntity
  8
LAY-1
  6
CONTINUOUS
 62
     2
100
AcDbLine
 10
841.375366
 20
152.502684
 30
0.0
 11
842.605072
 21
144.744019
 31
0.0
  0
LINE
  5
1C9
100
AcDbEntity
  8
LAY-1
  6
CONTINUOUS
 62
     2
100
AcDbLine
 10
847.188049
 20
115.817303
 30
0.0
 11
843.449036
 21
139.419044
 31
0.0
  0
ARC
  5
1CA
100
AcDbEntity
  8
LAY-1
  6
CONTINUOUS
 62
     2
100
AcDbCircle
 10
858.960968
 20
140.200409
 30
0.0
 40
8.820121
100
AcDbArc
 50
272.671387
 51
335.998779
  0
ARC
  5
1CB
100
AcDbEntity
  8
LAY-1
  6
CONTINUOUS
 62
     2
100
AcDbCircle
 10
858.760925
 20
140.200409
 30
0.0
 40
11.340113
100
AcDbArc
 50
267.367432
 51
335.998779
  0
LINE
  5
1CC
100
AcDbEntity
  8
LAY-1
  6
CONTINUOUS
 62
     2
100
AcDbLine
 10
873.351685
 20
145.090527
 30
0.0
 11
869.12149
 21
135.588593
 31
0.0
  0
LINE
  5
1CD
100
AcDbEntity
  8
LAY-1
  6
CONTINUOUS
 62
     2
100
AcDbLine
 10
853.090607
 20
115.817303
 30
0.0
 11
849.220368
 21
140.248818
 31
0.0
  0
LINE
  5
1CE
100
AcDbEntity
  8
LAY-1
  6
CONTINUOUS
 62
     2
100
AcDbLine
 10
850.339295
 20
115.817303
 30
0.0
 11
844.528442
 21
152.502674
 31
0.0
  0
LINE
  5
1CF
100
AcDbEntity
  8
LAY-1
  6
CONTINUOUS
 62
     2
100
AcDbLine
 10
847.279755
 20
152.502674
 30
0.0
 11
848.39563
 21
145.459465
 31
0.0
  0
LINE
  5
1D0
100
AcDbEntity
  8
LAY-1
  6
CONTINUOUS
 62
     2
100
AcDbLine
 10
832.313477
 20
144.744019
 30
0.0
 11
840.605103
 21
144.744019
 31
0.0
  0
LINE
  5
1D1
100
AcDbEntity
  8
LAY-1
  6
CONTINUOUS
 62
     2
100
AcDbLine
 10
869.669891
 20
142.570395
 30
0.0
 11
867.020508
 21
136.613525
 31
0.0
  0
LINE
  5
1D2
100
AcDbEntity
  8
LAY-1
  6
CONTINUOUS
 62
     2
100
AcDbLine
 10
848.107391
 20
142.224182
 30
0.0
 11
867.338196
 21
142.224182
 31
0.0
  0
ARC
  5
1D3
100
AcDbEntity
  8
LAY-1
  6
CONTINUOUS
 62
     2
100
AcDbCircle
 10
858.560883
 20
140.200409
 30
0.0
 40
13.860111
100
AcDbArc
 50
269.611328
 51
335.998779
  0
LINE
  5
1D4
100
AcDbEntity
  8
LAY-1
  6
CONTINUOUS
 62
     2
100
AcDbLine
 10
875.909821
 20
145.090555
 30
0.0
 11
871.222473
 21
134.563355
 31
0.0
  0
LINE
  5
1D5
100
AcDbEntity
  8
LAY-1
  6
CONTINUOUS
 62
     2
100
AcDbLine
 10
983.312622
 20
153.312134
 30
0.0
 11
962.880646
 21
125.182709
 31
0.0
  0
LINE
  5
1D6
100
AcDbEntity
  8
LAY-1
  6
CONTINUOUS
 62
     2
100
AcDbLine
 10
977.868134
 20
150.792297
 30
0.0
 11
960.342041
 21
126.664032
 31
0.0
  0
ARC
  5
1D7
100
AcDbEntity
  8
LAY-1
  6
CONTINUOUS
 62
     2
100
AcDbCircle
 10
952.999359
 20
131.744064
 30
0.0
 40
9.324021
100
AcDbArc
 50
270.000031
 51
324.00116
  0
LINE
  5
1D8
100
AcDbEntity
  8
LAY-1
  6
CONTINUOUS
 62
     2
100
AcDbLine
 10
883.879486
 20
156.015591
 30
0.0
 11
928.263641
 21
156.015591
 31
0.0
  0
LINE
  5
1D9
100
AcDbEntity
  8
LAY-1
  6
CONTINUOUS
 62
     2
100
AcDbLine
 10
883.879486
 20
153.395752
 30
0.0
 11
928.263641
 21
153.395752
 31
0.0
  0
LINE
  5
1DA
100
AcDbEntity
  8
LAY-1
  6
CONTINUOUS
 62
     2
100
AcDbLine
 10
883.879486
 20
150.675911
 30
0.0
 11
928.263641
 21
150.675911
 31
0.0
  0
LINE
  5
1DB
100
AcDbEntity
  8
LAY-1
  6
CONTINUOUS
 62
     2
100
AcDbLine
 10
879.847656
 20
121.644043
 30
0.0
 11
932.295471
 21
121.644043
 31
0.0
  0
LINE
  5
1DC
100
AcDbEntity
  8
LAY-1
  6
CONTINUOUS
 62
     2
100
AcDbLine
 10
879.847656
 20
119.124054
 30
0.0
 11
932.295471
 21
119.124054
 31
0.0
  0
LINE
  5
1DD
100
AcDbEntity
  8
LAY-1
  6
CONTINUOUS
 62
     2
100
AcDbLine
 10
879.847656
 20
116.403908
 30
0.0
 11
932.295471
 21
116.403908
 31
0.0
  0
LINE
  5
1DE
100
AcDbEntity
  8
LAY-1
  6
CONTINUOUS
 62
     2
100
AcDbLine
 10
943.352142
 20
155.932125
 30
0.0
 11
986.256805
 21
155.932125
 31
0.0
  0
LINE
  5
1DF
100
AcDbEntity
  8
LAY-1
  6
CONTINUOUS
 62
     2
100
AcDbLine
 10
988.856903
 20
155.832123
 30
0.0
 11
965.519043
 21
123.700623
 31
0.0
  0
LINE
  5
1E0
100
AcDbEntity
  8
LAY-1
  6
CONTINUOUS
 62
     2
100
AcDbLine
 10
943.352142
 20
153.312134
 30
0.0
 11
981.3125
 21
153.312134
 31
0.0
  0
LINE
  5
1E1
100
AcDbEntity
  8
LAY-1
  6
CONTINUOUS
 62
     2
100
AcDbLine
 10
952.299286
 20
121.659969
 30
0.0
 11
939.320313
 21
121.659969
 31
0.0
  0
LINE
  5
1E2
100
AcDbEntity
  8
LAY-1
  6
CONTINUOUS
 62
     2
100
AcDbLine
 10
952.299286
 20
119.039978
 30
0.0
 11
939.320313
 21
119.039978
 31
0.0
  0
LINE
  5
1E3
100
AcDbEntity
  8
LAY-1
  6
CONTINUOUS
 62
     2
100
AcDbLine
 10
952.299286
 20
116.419987
 30
0.0
 11
939.320313
 21
116.419987
 31
0.0
  0
LINE
  5
1E4
100
AcDbEntity
  8
LAY-1
  6
CONTINUOUS
 62
     2
100
AcDbLine
 10
972.431885
 20
129.737152
 30
0.0
 11
984.371582
 21
115.999998
 31
0.0
  0
LINE
  5
1E5
100
AcDbEntity
  8
LAY-1
  6
CONTINUOUS
 62
     2
100
AcDbLine
 10
973.953491
 20
131.530508
 30
0.0
 11
987.451721
 21
115.999998
 31
0.0
  0
LINE
  5
1E6
100
AcDbEntity
  8
LAY-1
  6
CONTINUOUS
 62
     2
100
AcDbLine
 10
975.473114
 20
133.322949
 30
0.0
 11
990.529419
 21
115.999998
 31
0.0
  0
LINE
  5
1E7
100
AcDbEntity
  8
LAY-1
  6
CONTINUOUS
 62
     2
100
AcDbLine
 10
976.992737
 20
135.115847
 30
0.0
 11
993.609253
 21
115.999998
 31
0.0
  0
LINE
  5
1E8
100
AcDbEntity
  8
LAY-1
  6
CONTINUOUS
 62
     2
100
AcDbLine
 10
943.352142
 20
150.592293
 30
0.0
 11
975.367981
 21
150.592293
 31
0.0
  0
LINE
  5
1E9
100
AcDbEntity
  8
LAY-1
  6
CONTINUOUS
 62
     2
100
AcDbLine
 10
1011.895538
 20
156.032127
 30
0.0
 11
1060.311371
 21
156.032127
 31
0.0
  0
LINE
  5
1EA
100
AcDbEntity
  8
LAY-1
  6
CONTINUOUS
 62
     2
100
AcDbLine
 10
1011.895538
 20
153.512138
 30
0.0
 11
1060.311371
 21
153.512138
 31
0.0
  0
LINE
  5
1EB
100
AcDbEntity
  8
LAY-1
  6
CONTINUOUS
 62
     2
100
AcDbLine
 10
1032.677399
 20
121.479916
 30
0.0
 11
1032.677399
 21
151.212219
 31
0.0
  0
LINE
  5
1EC
100
AcDbEntity
  8
LAY-1
  6
CONTINUOUS
 62
     2
100
AcDbLine
 10
1035.195862
 20
121.479916
 30
0.0
 11
1035.195862
 21
151.212219
 31
0.0
  0
LINE
  5
1ED
100
AcDbEntity
  8
LAY-1
  6
CONTINUOUS
 62
     2
100
AcDbLine
 10
1037.714172
 20
121.479916
 30
0.0
 11
1037.714172
 21
151.212219
 31
0.0
  0
LINE
  5
1EE
100
AcDbEntity
  8
LAY-1
  6
CONTINUOUS
 62
     2
100
AcDbLine
 10
1040.03244
 20
121.479916
 30
0.0
 11
1040.03244
 21
151.212219
 31
0.0
  0
LINE
  5
1EF
100
AcDbEntity
  8
LAY-1
  6
CONTINUOUS
 62
     2
100
AcDbLine
 10
1009.879547
 20
119.479918
 30
0.0
 11
1062.327362
 21
119.479918
 31
0.0
  0
LINE
  5
1F0
100
AcDbEntity
  8
LAY-1
  6
CONTINUOUS
 62
     2
100
AcDbLine
 10
1009.879547
 20
116.459927
 30
0.0
 11
1062.327362
 21
116.459927
 31
0.0
  0
LINE
  5
1F1
100
AcDbEntity
  8
LAY-1
  6
CONTINUOUS
 62
     2
100
AcDbLine
 10
1074.127594
 20
156.351961
 30
0.0
 11
1077.87088
 21
151.561502
 31
0.0
  0
LINE
  5
1F2
100
AcDbEntity
  8
LAY-1
  6
CONTINUOUS
 62
     2
100
AcDbLine
 10
1077.324768
 20
156.351961
 30
0.0
 11
1081.068054
 21
151.561502
 31
0.0
  0
LINE
  5
1F3
100
AcDbEntity
  8
LAY-1
  6
CONTINUOUS
 62
     2
100
AcDbLine
 10
1087.31134
 20
156.351961
 30
0.0
 11
1087.31134
 21
151.985563
 31
0.0
  0
LINE
  5
1F4
100
AcDbEntity
  8
LAY-1
  6
CONTINUOUS
 62
     2
100
AcDbLine
 10
1090.029846
 20
156.351961
 30
0.0
 11
1090.029846
 21
151.985563
 31
0.0
  0
LINE
  5
1F5
100
AcDbEntity
  8
LAY-1
  6
CONTINUOUS
 62
     2
100
AcDbLine
 10
1097.390991
 20
156.351961
 30
0.0
 11
1097.390991
 21
151.985563
 31
0.0
  0
LINE
  5
1F6
100
AcDbEntity
  8
LAY-1
  6
CONTINUOUS
 62
     2
100
AcDbLine
 10
1100.309387
 20
156.351961
 30
0.0
 11
1100.309387
 21
151.985563
 31
0.0
  0
LINE
  5
1F7
100
AcDbEntity
  8
LAY-1
  6
CONTINUOUS
 62
     2
100
AcDbLine
 10
1109.995667
 20
156.351961
 30
0.0
 11
1106.25238
 21
151.561502
 31
0.0
  0
LINE
  5
1F8
100
AcDbEntity
  8
LAY-1
  6
CONTINUOUS
 62
     2
100
AcDbLine
 10
1113.392883
 20
156.351961
 30
0.0
 11
1109.649597
 21
151.561502
 31
0.0
  0
LINE
  5
1F9
100
AcDbEntity
  8
LAY-1
  6
CONTINUOUS
 62
     2
100
AcDbLine
 10
1067.336212
 20
149.985565
 30
0.0
 11
1119.784027
 21
149.985565
 31
0.0
  0
LINE
  5
1FA
100
AcDbEntity
  8
LAY-1
  6
CONTINUOUS
 62
     2
100
AcDbLine
 10
1080.431763
 20
142.188286
 30
0.0
 11
1078.277832
 21
148.106178
 31
0.0
  0
LINE
  5
1FB
100
AcDbEntity
  8
LAY-1
  6
CONTINUOUS
 62
     2
100
AcDbLine
 10
1083.512207
 20
142.188286
 30
0.0
 11
1081.358276
 21
148.106178
 31
0.0
  0
LINE
  5
1FC
100
AcDbEntity
  8
LAY-1
  6
CONTINUOUS
 62
     2
100
AcDbLine
 10
1086.392609
 20
142.188515
 30
0.0
 11
1084.241119
 21
148.105949
 31
0.0
  0
LINE
  5
1FD
100
AcDbEntity
  8
LAY-1
  6
CONTINUOUS
 62
     2
100
AcDbLine
 10
1100.919434
 20
142.188066
 30
0.0
 11
1103.075653
 21
148.106398
 31
0.0
  0
LINE
  5
1FE
100
AcDbEntity
  8
LAY-1
  6
CONTINUOUS
 62
     2
100
AcDbLine
 10
1104.002014
 20
142.188066
 30
0.0
 11
1106.158234
 21
148.106398
 31
0.0
  0
LINE
  5
1FF
100
AcDbEntity
  8
LAY-1
  6
CONTINUOUS
 62
     2
100
AcDbLine
 10
1106.882416
 20
142.188066
 30
0.0
 11
1109.038635
 21
148.106398
 31
0.0
  0
LINE
  5
200
100
AcDbEntity
  8
LAY-1
  6
CONTINUOUS
 62
     2
100
AcDbLine
 10
1067.336212
 20
140.308899
 30
0.0
 11
1119.784027
 21
140.308899
 31
0.0
  0
LINE
  5
201
100
AcDbEntity
  8
LAY-1
  6
CONTINUOUS
 62
     2
100
AcDbLine
 10
1067.336212
 20
133.353638
 30
0.0
 11
1088.838745
 21
133.353638
 31
0.0
  0
LINE
  5
202
100
AcDbEntity
  8
LAY-1
  6
CONTINUOUS
 62
     2
100
AcDbLine
 10
1067.336212
 20
126.398377
 30
0.0
 11
1088.838745
 21
126.398377
 31
0.0
  0
LINE
  5
203
100
AcDbEntity
  8
LAY-1
  6
CONTINUOUS
 62
     2
100
AcDbLine
 10
1098.475586
 20
126.398377
 30
0.0
 11
1119.784027
 21
126.398377
 31
0.0
  0
LINE
  5
204
100
AcDbEntity
  8
LAY-1
  6
CONTINUOUS
 62
     2
100
AcDbLine
 10
1070.50882
 20
115.999998
 30
0.0
 11
1080.533234
 21
125.057539
 31
0.0
  0
LINE
  5
205
100
AcDbEntity
  8
LAY-1
  6
CONTINUOUS
 62
     2
100
AcDbLine
 10
1073.867737
 20
115.999998
 30
0.0
 11
1083.892456
 21
125.057558
 31
0.0
  0
LINE
  5
206
100
AcDbEntity
  8
LAY-1
  6
CONTINUOUS
 62
     2
100
AcDbLine
 10
1077.028748
 20
115.999998
 30
0.0
 11
1087.053467
 21
125.057558
 31
0.0
  0
LINE
  5
207
100
AcDbEntity
  8
LAY-1
  6
CONTINUOUS
 62
     2
100
AcDbLine
 10
1090.838715
 20
115.999998
 30
0.0
 11
1090.838715
 21
138.308901
 31
0.0
  0
LINE
  5
208
100
AcDbEntity
  8
LAY-1
  6
CONTINUOUS
 62
     2
100
AcDbLine
 10
1093.757111
 20
115.999998
 30
0.0
 11
1093.757111
 21
138.308901
 31
0.0
  0
LINE
  5
209
100
AcDbEntity
  8
LAY-1
  6
CONTINUOUS
 62
     2
100
AcDbLine
 10
1096.475616
 20
115.999998
 30
0.0
 11
1096.475616
 21
138.308901
 31
0.0
  0
LINE
  5
20A
100
AcDbEntity
  8
LAY-1
  6
CONTINUOUS
 62
     2
100
AcDbLine
 10
1110.171753
 20
115.999998
 30
0.0
 11
1100.147339
 21
125.057539
 31
0.0
  0
LINE
  5
20B
100
AcDbEntity
  8
LAY-1
  6
CONTINUOUS
 62
     2
100
AcDbLine
 10
1113.530823
 20
115.999998
 30
0.0
 11
1103.506104
 21
125.057558
 31
0.0
  0
LINE
  5
20C
100
AcDbEntity
  8
LAY-1
  6
CONTINUOUS
 62
     2
100
AcDbLine
 10
1116.891876
 20
115.999998
 30
0.0
 11
1106.867157
 21
125.057558
 31
0.0
  0
LINE
  5
20D
100
AcDbEntity
  8
LAY-1
  6
CONTINUOUS
 62
     2
100
AcDbLine
 10
1135.997864
 20
156.351961
 30
0.0
 11
1135.997864
 21
152.79199
 31
0.0
  0
LINE
  5
20E
100
AcDbEntity
  8
LAY-1
  6
CONTINUOUS
 62
     2
100
AcDbLine
 10
1138.516174
 20
156.351961
 30
0.0
 11
1138.516174
 21
152.79199
 31
0.0
  0
LINE
  5
20F
100
AcDbEntity
  8
LAY-1
  6
CONTINUOUS
 62
     2
100
AcDbLine
 10
1141.034637
 20
156.351961
 30
0.0
 11
1141.034637
 21
152.79199
 31
0.0
  0
LINE
  5
210
100
AcDbEntity
  8
LAY-1
  6
CONTINUOUS
 62
     2
100
AcDbLine
 10
1125.799957
 20
150.791992
 30
0.0
 11
1143.975159
 21
150.791992
 31
0.0
  0
LINE
  5
211
100
AcDbEntity
  8
LAY-1
  6
CONTINUOUS
 62
     2
100
AcDbLine
 10
1125.944153
 20
115.98905
 30
0.0
 11
1129.392029
 21
148.802942
 31
0.0
  0
LINE
  5
212
100
AcDbEntity
  8
LAY-1
  6
CONTINUOUS
 62
     2
100
AcDbLine
 10
1128.276764
 20
115.98905
 30
0.0
 11
1131.724792
 21
148.802942
 31
0.0
  0
LINE
  5
213
100
AcDbEntity
  8
LAY-1
  6
CONTINUOUS
 62
     2
100
AcDbLine
 10
1135.997864
 20
115.999998
 30
0.0
 11
1135.997864
 21
148.791994
 31
0.0
  0
LINE
  5
214
100
AcDbEntity
  8
LAY-1
  6
CONTINUOUS
 62
     2
100
AcDbLine
 10
1138.516174
 20
115.999998
 30
0.0
 11
1138.516174
 21
148.791994
 31
0.0
  0
LINE
  5
215
100
AcDbEntity
  8
LAY-1
  6
CONTINUOUS
 62
     2
100
AcDbLine
 10
1141.034637
 20
115.999998
 30
0.0
 11
1141.034637
 21
148.791994
 31
0.0
  0
LINE
  5
216
100
AcDbEntity
  8
LAY-1
  6
CONTINUOUS
 62
     2
100
AcDbLine
 10
1142.209259
 20
146.154245
 30
0.0
 11
1144.800354
 21
142.583841
 31
0.0
  0
LINE
  5
217
100
AcDbEntity
  8
LAY-1
  6
CONTINUOUS
 62
     2
100
AcDbLine
 10
1142.209259
 20
142.264246
 30
0.0
 11
1144.800354
 21
138.693842
 31
0.0
  0
LINE
  5
218
100
AcDbEntity
  8
LAY-1
  6
CONTINUOUS
 62
     2
100
AcDbLine
 10
1148.469177
 20
147.188601
 30
0.0
 11
1150.768829
 21
156.411375
 31
0.0
  0
LINE
  5
219
100
AcDbEntity
  8
LAY-1
  6
CONTINUOUS
 62
     2
100
AcDbLine
 10
1150.867401
 20
147.188686
 30
0.0
 11
1153.165222
 21
156.411289
 31
0.0
  0
LINE
  5
21A
100
AcDbEntity
  8
LAY-1
  6
CONTINUOUS
 62
     2
100
AcDbLine
 10
1152.963806
 20
147.188601
 30
0.0
 11
1155.263458
 21
156.411375
 31
0.0
  0
LINE
  5
21B
100
AcDbEntity
  8
LAY-1
  6
CONTINUOUS
 62
     2
100
AcDbLine
 10
1161.702362
 20
152.79199
 30
0.0
 11
1161.702362
 21
156.351961
 31
0.0
  0
LINE
  5
21C
100
AcDbEntity
  8
LAY-1
  6
CONTINUOUS
 62
     2
100
AcDbLine
 10
1164.420715
 20
152.79199
 30
0.0
 11
1164.420715
 21
156.351961
 31
0.0
  0
LINE
  5
21D
100
AcDbEntity
  8
LAY-1
  6
CONTINUOUS
 62
     2
100
AcDbLine
 10
1166.939179
 20
152.79199
 30
0.0
 11
1166.939179
 21
156.351961
 31
0.0
  0
LINE
  5
21E
100
AcDbEntity
  8
LAY-1
  6
CONTINUOUS
 62
     2
100
AcDbLine
 10
1155.862213
 20
150.791992
 30
0.0
 11
1178.247772
 21
150.791992
 31
0.0
  0
LINE
  5
21F
100
AcDbEntity
  8
LAY-1
  6
CONTINUOUS
 62
     2
100
AcDbLine
 10
1161.702362
 20
148.791994
 30
0.0
 11
1161.702362
 21
142.712034
 31
0.0
  0
LINE
  5
220
100
AcDbEntity
  8
LAY-1
  6
CONTINUOUS
 62
     2
100
AcDbLine
 10
1164.420715
 20
148.791994
 30
0.0
 11
1164.420715
 21
142.712034
 31
0.0
  0
LINE
  5
221
100
AcDbEntity
  8
LAY-1
  6
CONTINUOUS
 62
     2
100
AcDbLine
 10
1166.939179
 20
148.791994
 30
0.0
 11
1166.939179
 21
142.712034
 31
0.0
  0
LINE
  5
222
100
AcDbEntity
  8
LAY-1
  6
CONTINUOUS
 62
     2
100
AcDbLine
 10
1148.984009
 20
140.712036
 30
0.0
 11
1179.256683
 21
140.712036
 31
0.0
  0
LINE
  5
223
100
AcDbEntity
  8
LAY-1
  6
CONTINUOUS
 62
     2
100
AcDbLine
 10
1153.447968
 20
138.744387
 30
0.0
 11
1149.300781
 21
115.96765
 31
0.0
  0
LINE
  5
224
100
AcDbEntity
  8
LAY-1
  6
CONTINUOUS
 62
     2
100
AcDbLine
 10
1155.807282
 20
138.744387
 30
0.0
 11
1151.660248
 21
115.96765
 31
0.0
  0
LINE
  5
225
100
AcDbEntity
  8
LAY-1
  6
CONTINUOUS
 62
     2
100
AcDbLine
 10
1157.889191
 20
138.744415
 30
0.0
 11
1153.740021
 21
115.967621
 31
0.0
  0
LINE
  5
226
100
AcDbEntity
  8
LAY-1
  6
CONTINUOUS
 62
     2
100
AcDbLine
 10
1161.702362
 20
138.712038
 30
0.0
 11
1161.702362
 21
115.999998
 31
0.0
  0
LINE
  5
227
100
AcDbEntity
  8
LAY-1
  6
CONTINUOUS
 62
     2
100
AcDbLine
 10
1164.220673
 20
138.712038
 30
0.0
 11
1164.220673
 21
115.999998
 31
0.0
  0
LINE
  5
228
100
AcDbEntity
  8
LAY-1
  6
CONTINUOUS
 62
     2
100
AcDbLine
 10
1166.939179
 20
138.712038
 30
0.0
 11
1166.939179
 21
115.999998
 31
0.0
  0
LINE
  5
229
100
AcDbEntity
  8
LAY-1
  6
CONTINUOUS
 62
     2
100
AcDbLine
 10
1170.349518
 20
138.744415
 30
0.0
 11
1174.498688
 21
115.967621
 31
0.0
  0
LINE
  5
22A
100
AcDbEntity
  8
LAY-1
  6
CONTINUOUS
 62
     2
100
AcDbLine
 10
1172.510925
 20
138.744415
 30
0.0
 11
1176.660095
 21
115.967621
 31
0.0
  0
LINE
  5
22B
100
AcDbEntity
  8
LAY-1
  6
CONTINUOUS
 62
     2
100
AcDbLine
 10
1175.070282
 20
138.744415
 30
0.0
 11
1179.219452
 21
115.967621
 31
0.0
  0
LINE
  5
22C
100
AcDbEntity
  8
LAY-1
  6
CONTINUOUS
 62
     2
100
AcDbLine
 10
1185.272614
 20
152.400154
 30
0.0
 11
1213.824097
 21
152.400154
 31
0.0
  0
LINE
  5
22D
100
AcDbEntity
  8
LAY-1
  6
CONTINUOUS
 62
     2
100
AcDbLine
 10
1185.272614
 20
149.880165
 30
0.0
 11
1214.741303
 21
149.880165
 31
0.0
  0
LINE
  5
22E
100
AcDbEntity
  8
LAY-1
  6
CONTINUOUS
 62
     2
100
AcDbLine
 10
1229.116608
 20
115.879387
 30
0.0
 11
1214.34198
 21
156.472572
 31
0.0
  0
LINE
  5
22F
100
AcDbEntity
  8
LAY-1
  6
CONTINUOUS
 62
     2
100
AcDbLine
 10
1231.796967
 20
115.879396
 30
0.0
 11
1217.022949
 21
156.472563
 31
0.0
  0
LINE
  5
230
100
AcDbEntity
  8
LAY-1
  6
CONTINUOUS
 62
     2
100
AcDbLine
 10
1234.477326
 20
115.879396
 30
0.0
 11
1219.703308
 21
156.472563
 31
0.0
  0
LINE
  5
231
100
AcDbEntity
  8
LAY-1
  6
CONTINUOUS
 62
     2
100
AcDbLine
 10
1237.157684
 20
115.879358
 30
0.0
 11
1222.381378
 21
156.472591
 31
0.0
  0
LINE
  5
232
100
AcDbEntity
  8
LAY-1
  6
CONTINUOUS
 62
     2
100
AcDbLine
 10
1229.543091
 20
154.400152
 30
0.0
 11
1229.543091
 21
156.351961
 31
0.0
  0
LINE
  5
233
100
AcDbEntity
  8
LAY-1
  6
CONTINUOUS
 62
     2
100
AcDbLine
 10
1232.261597
 20
154.400152
 30
0.0
 11
1232.261597
 21
156.351961
 31
0.0
  0
LINE
  5
234
100
AcDbEntity
  8
LAY-1
  6
CONTINUOUS
 62
     2
100
AcDbLine
 10
1234.97995
 20
154.400152
 30
0.0
 11
1234.97995
 21
156.351961
 31
0.0
  0
LINE
  5
235
100
AcDbEntity
  8
LAY-1
  6
CONTINUOUS
 62
     2
100
AcDbLine
 10
1225.863739
 20
152.400154
 30
0.0
 11
1237.720429
 21
152.400154
 31
0.0
  0
LINE
  5
236
100
AcDbEntity
  8
LAY-1
  6
CONTINUOUS
 62
     2
100
AcDbLine
 10
1226.781098
 20
149.880165
 30
0.0
 11
1237.720429
 21
149.880165
 31
0.0
  0
LINE
  5
237
100
AcDbEntity
  8
LAY-1
  6
CONTINUOUS
 62
     2
100
AcDbLine
 10
1188.295532
 20
140.364098
 30
0.0
 11
1214.536377
 21
140.364098
 31
0.0
  0
LINE
  5
238
100
AcDbEntity
  8
LAY-1
  6
CONTINUOUS
 62
     2
100
AcDbLine
 10
1188.295532
 20
137.843956
 30
0.0
 11
1214.536377
 21
137.843956
 31
0.0
  0
LINE
  5
239
100
AcDbEntity
  8
LAY-1
  6
CONTINUOUS
 62
     2
100
AcDbLine
 10
1197.790924
 20
135.843958
 30
0.0
 11
1197.790924
 21
125.791153
 31
0.0
  0
LINE
  5
23A
100
AcDbEntity
  8
LAY-1
  6
CONTINUOUS
 62
     2
100
AcDbLine
 10
1200.309235
 20
135.843958
 30
0.0
 11
1200.309235
 21
126.326431
 31
0.0
  0
LINE
  5
23B
100
AcDbEntity
  8
LAY-1
  6
CONTINUOUS
 62
     2
100
AcDbLine
 10
1202.827545
 20
135.843958
 30
0.0
 11
1202.827545
 21
126.861719
 31
0.0
  0
LINE
  5
23C
100
AcDbEntity
  8
LAY-1
  6
CONTINUOUS
 62
     2
100
AcDbLine
 10
1205.346008
 20
135.843958
 30
0.0
 11
1205.346008
 21
127.397026
 31
0.0
  0
LINE
  5
23D
100
AcDbEntity
  8
LAY-1
  6
CONTINUOUS
 62
     2
100
AcDbLine
 10
1187.747284
 20
121.656317
 30
0.0
 11
1215.084473
 21
127.466997
 31
0.0
  0
LINE
  5
23E
100
AcDbEntity
  8
LAY-1
  6
CONTINUOUS
 62
     2
100
AcDbLine
 10
1187.747284
 20
118.880028
 30
0.0
 11
1215.084473
 21
124.690851
 31
0.0
  0
LINE
  5
23F
100
AcDbEntity
  8
LAY-1
  6
CONTINUOUS
 62
     2
100
AcDbLine
 10
1187.747284
 20
116.503729
 30
0.0
 11
1215.084473
 21
122.314409
 31
0.0
  0
LINE
  5
240
100
AcDbEntity
  8
LAY-1
  6
CONTINUOUS
 62
     2
100
AcDbLine
 10
1243.633057
 20
148.325943
 30
0.0
 11
1269.51532
 21
156.985401
 31
0.0
  0
LINE
  5
241
100
AcDbEntity
  8
LAY-1
  6
CONTINUOUS
 62
     2
100
AcDbLine
 10
1243.633057
 20
145.668625
 30
0.0
 11
1269.51532
 21
154.328236
 31
0.0
  0
LINE
  5
242
100
AcDbEntity
  8
LAY-1
  6
CONTINUOUS
 62
     2
100
AcDbLine
 10
1271.411987
 20
156.985392
 30
0.0
 11
1297.294403
 21
148.325304
 31
0.0
  0
LINE
  5
243
100
AcDbEntity
  8
LAY-1
  6
CONTINUOUS
 62
     2
100
AcDbLine
 10
1271.411987
 20
154.528231
 30
0.0
 11
1297.294403
 21
145.868143
 31
0.0
  0
LINE
  5
244
100
AcDbEntity
  8
LAY-1
  6
CONTINUOUS
 62
     2
100
AcDbLine
 10
1288.62497
 20
145.596107
 30
0.0
 11
1252.304474
 21
145.596107
 31
0.0
  0
LINE
  5
245
100
AcDbEntity
  8
LAY-1
  6
CONTINUOUS
 62
     2
100
AcDbLine
 10
1288.62497
 20
142.875961
 30
0.0
 11
1252.304474
 21
142.875961
 31
0.0
  0
LINE
  5
246
100
AcDbEntity
  8
LAY-1
  6
CONTINUOUS
 62
     2
100
AcDbLine
 10
1243.736359
 20
135.063919
 30
0.0
 11
1297.191101
 21
135.063919
 31
0.0
  0
LINE
  5
247
100
AcDbEntity
  8
LAY-1
  6
CONTINUOUS
 62
     2
100
AcDbLine
 10
1243.736359
 20
132.744087
 30
0.0
 11
1297.191101
 21
132.744087
 31
0.0
  0
LINE
  5
248
100
AcDbEntity
  8
LAY-1
  6
CONTINUOUS
 62
     2
100
AcDbLine
 10
1252.013336
 20
130.931534
 30
0.0
 11
1246.911255
 21
119.99246
 31
0.0
  0
LINE
  5
249
100
AcDbEntity
  8
LAY-1
  6
CONTINUOUS
 62
     2
100
AcDbLine
 10
1255.194336
 20
130.931543
 30
0.0
 11
1250.092102
 21
119.99246
 31
0.0
  0
LINE
  5
24A
100
AcDbEntity
  8
LAY-1
  6
CONTINUOUS
 62
     2
100
AcDbLine
 10
1258.375336
 20
130.931543
 30
0.0
 11
1253.273102
 21
119.99246
 31
0.0
  0
LINE
  5
24B
100
AcDbEntity
  8
LAY-1
  6
CONTINUOUS
 62
     2
100
AcDbLine
 10
1282.554108
 20
130.931667
 30
0.0
 11
1287.658325
 21
119.992336
 31
0.0
  0
LINE
  5
24C
100
AcDbEntity
  8
LAY-1
  6
CONTINUOUS
 62
     2
100
AcDbLine
 10
1285.737091
 20
130.931419
 30
0.0
 11
1290.837036
 21
119.992584
 31
0.0
  0
LINE
  5
24D
100
AcDbEntity
  8
LAY-1
  6
CONTINUOUS
 62
     2
100
AcDbLine
 10
1288.919922
 20
130.931314
 30
0.0
 11
1294.018189
 21
119.992689
 31
0.0
  0
LINE
  5
24E
100
AcDbEntity
  8
LAY-1
  6
CONTINUOUS
 62
     2
100
AcDbLine
 10
1245.685364
 20
118.179916
 30
0.0
 11
1295.242096
 21
118.179916
 31
0.0
  0
LINE
  5
24F
100
AcDbEntity
  8
LAY-1
  6
CONTINUOUS
 62
     2
100
AcDbLine
 10
1244.510284
 20
115.659927
 30
0.0
 11
1296.417175
 21
115.659927
 31
0.0
  0
LINE
  5
250
100
AcDbEntity
  8
LAY-1
  6
CONTINUOUS
 62
     2
100
AcDbLine
 10
1312.397858
 20
154.400152
 30
0.0
 11
1312.397858
 21
156.351961
 31
0.0
  0
LINE
  5
251
100
AcDbEntity
  8
LAY-1
  6
CONTINUOUS
 62
     2
100
AcDbLine
 10
1315.316254
 20
154.400152
 30
0.0
 11
1315.316254
 21
156.351961
 31
0.0
  0
LINE
  5
252
100
AcDbEntity
  8
LAY-1
  6
CONTINUOUS
 62
     2
100
AcDbLine
 10
1318.234802
 20
154.400152
 30
0.0
 11
1318.234802
 21
156.351961
 31
0.0
  0
LINE
  5
253
100
AcDbEntity
  8
LAY-1
  6
CONTINUOUS
 62
     2
100
AcDbLine
 10
1303.206879
 20
152.400154
 30
0.0
 11
1326.087891
 21
152.400154
 31
0.0
  0
LINE
  5
254
100
AcDbEntity
  8
LAY-1
  6
CONTINUOUS
 62
     2
100
AcDbLine
 10
1303.206879
 20
149.880165
 30
0.0
 11
1324.323822
 21
149.880165
 31
0.0
  0
LINE
  5
255
100
AcDbEntity
  8
LAY-1
  6
CONTINUOUS
 62
     2
100
AcDbLine
 10
1316.379181
 20
148.241676
 30
0.0
 11
1302.35376
 21
128.204722
 31
0.0
  0
LINE
  5
256
100
AcDbEntity
  8
LAY-1
  6
CONTINUOUS
 62
     2
100
AcDbLine
 10
1319.656616
 20
148.2418
 30
0.0
 11
1302.353912
 21
123.528513
 31
0.0
  0
LINE
  5
257
100
AcDbEntity
  8
LAY-1
  6
CONTINUOUS
 62
     2
100
AcDbLine
 10
1322.737976
 20
148.241772
 30
0.0
 11
1302.353912
 21
119.125732
 31
0.0
  0
LINE
  5
258
100
AcDbEntity
  8
LAY-1
  6
CONTINUOUS
 62
     2
100
AcDbLine
 10
1317.929932
 20
137.88691
 30
0.0
 11
1326.786743
 21
131.684641
 31
0.0
  0
LINE
  5
259
100
AcDbEntity
  8
LAY-1
  6
CONTINUOUS
 62
     2
100
AcDbLine
 10
1316.484467
 20
135.821995
 30
0.0
 11
1326.786591
 21
128.607992
 31
0.0
  0
LINE
  5
25A
100
AcDbEntity
  8
LAY-1
  6
CONTINUOUS
 62
     2
100
AcDbLine
 10
1314.945007
 20
133.623127
 30
0.0
 11
1326.786591
 21
125.331501
 31
0.0
  0
LINE
  5
25B
100
AcDbEntity
  8
LAY-1
  6
CONTINUOUS
 62
     2
100
AcDbLine
 10
1312.397858
 20
131.472229
 30
0.0
 11
1312.397858
 21
115.999998
 31
0.0
  0
LINE
  5
25C
100
AcDbEntity
  8
LAY-1
  6
CONTINUOUS
 62
     2
100
AcDbLine
 10
1315.316254
 20
131.363157
 30
0.0
 11
1315.316254
 21
115.999998
 31
0.0
  0
LINE
  5
25D
100
AcDbEntity
  8
LAY-1
  6
CONTINUOUS
 62
     2
100
AcDbLine
 10
1318.234802
 20
129.319567
 30
0.0
 11
1318.234802
 21
115.999998
 31
0.0
  0
LINE
  5
25E
100
AcDbEntity
  8
LAY-1
  6
CONTINUOUS
 62
     2
100
AcDbLine
 10
1339.613739
 20
120.179915
 30
0.0
 11
1339.613739
 21
156.351961
 31
0.0
  0
LINE
  5
25F
100
AcDbEntity
  8
LAY-1
  6
CONTINUOUS
 62
     2
100
AcDbLine
 10
1342.532135
 20
120.179915
 30
0.0
 11
1342.532135
 21
156.351961
 31
0.0
  0
LINE
  5
260
100
AcDbEntity
  8
LAY-1
  6
CONTINUOUS
 62
     2
100
AcDbLine
 10
1345.450684
 20
120.179915
 30
0.0
 11
1345.450684
 21
156.351961
 31
0.0
  0
LINE
  5
261
100
AcDbEntity
  8
LAY-1
  6
CONTINUOUS
 62
     2
100
AcDbLine
 10
1330.424896
 20
145.344032
 30
0.0
 11
1337.61377
 21
145.344032
 31
0.0
  0
LINE
  5
262
100
AcDbEntity
  8
LAY-1
  6
CONTINUOUS
 62
     2
100
AcDbLine
 10
1330.424896
 20
142.824196
 30
0.0
 11
1337.61377
 21
142.824196
 31
0.0
  0
LINE
  5
263
100
AcDbEntity
  8
LAY-1
  6
CONTINUOUS
 62
     2
100
AcDbLine
 10
1347.450653
 20
145.344032
 30
0.0
 11
1354.647766
 21
145.344032
 31
0.0
  0
LINE
  5
264
100
AcDbEntity
  8
LAY-1
  6
CONTINUOUS
 62
     2
100
AcDbLine
 10
1347.450653
 20
142.624191
 30
0.0
 11
1354.647766
 21
142.624191
 31
0.0
  0
LINE
  5
265
100
AcDbEntity
  8
LAY-1
  6
CONTINUOUS
 62
     2
100
AcDbLine
 10
1326.39093
 20
118.179916
 30
0.0
 11
1355.656677
 21
118.179916
 31
0.0
  0
LINE
  5
266
100
AcDbEntity
  8
LAY-1
  6
CONTINUOUS
 62
     2
100
AcDbLine
 10
1326.39093
 20
115.659927
 30
0.0
 11
1355.656677
 21
115.659927
 31
0.0
  0
LINE
  5
267
100
AcDbEntity
  8
LAY-1
  6
CONTINUOUS
 62
     2
100
AcDbLine
 10
1098.475586
 20
133.353638
 30
0.0
 11
1119.784027
 21
133.353638
 31
0.0
  0
LINE
  5
268
100
AcDbEntity
  8
LAY-1
  6
EXLTYPE2
 62
     6
100
AcDbLine
 10
0.0
 20
1485.0
 30
0.0
 11
180.0
 21
1485.0
 31
0.0
  0
TEXT
  5
269
100
AcDbEntity
  8
LAY-1
  6
CONTINUOUS
 62
     2
100
AcDbText
 10
1458.999994
 20
219.0
 30
0.0
 40
50.0
  1
ＮＣ８１３ＷＨＬ
 41
0.714
  7
EXCADSTD
 72
     5
 11
1799.000006
 21
219.0
 31
0.0
100
AcDbText
  0
TEXT
  5
26A
100
AcDbEntity
  8
LAY-1
  6
CONTINUOUS
 62
     2
100
AcDbText
 10
850.0
 20
211.75
 30
0.0
 40
65.0
  1
蓋付前丸暖房便座
 41
0.791538
  7
EXCADSTD
 72
     5
 11
1340.0
 21
211.75
 31
0.0
100
AcDbText
  0
CIRCLE
  5
26B
100
AcDbEntity
  8
LAY-1
  6
CONTINUOUS
 62
     6
100
AcDbCircle
 10
230.0
 20
110.0
 30
0.0
 40
1.0
  0
CIRCLE
  5
26C
100
AcDbEntity
  8
LAY-1
  6
CONTINUOUS
 62
     6
100
AcDbCircle
 10
280.0
 20
110.0
 30
0.0
 40
1.0
  0
TEXT
  5
26D
100
AcDbEntity
  8
LAY-1
  6
CONTINUOUS
 62
     6
100
AcDbText
 10
636.5
 20
170.0
 30
0.0
 40
50.0
  1
又場
 41
0.8568
  7
EXCADSTD
 72
     5
 11
729.9932
 21
170.0
 31
0.0
100
AcDbText
  0
TEXT
  5
26E
100
AcDbEntity
  8
LAY-1
  6
CONTINUOUS
 62
     6
100
AcDbText
 10
206.5
 20
170.0
 30
0.0
 40
50.0
  1
風穴
 41
0.8568
  7
EXCADSTD
 72
     5
 11
299.9932
 21
170.0
 31
0.0
100
AcDbText
  0
TEXT
  5
26F
100
AcDbEntity
  8
LAY-1
  6
CONTINUOUS
 62
     6
100
AcDbText
 10
184.844116
 20
96.950073
 30
0.0
 40
25.0
  1
１６
 41
0.75768
  7
EXCADSTD
 72
     5
 11
226.182775
 21
96.950073
 31
0.0
100
AcDbText
  0
TEXT
  5
270
100
AcDbEntity
  8
LAY-1
  6
CONTINUOUS
 62
     6
100
AcDbText
 10
284.844116
 20
96.950073
 30
0.0
 40
25.0
  1
２３
 41
0.75768
  7
EXCADSTD
 72
     5
 11
326.182775
 21
96.950073
 31
0.0
100
AcDbText
  0
TEXT
  5
271
100
AcDbEntity
  8
LAY-1
  6
CONTINUOUS
 62
     6
100
AcDbText
 10
494.0
 20
170.0
 30
0.0
 40
50.0
  1
地名坊
 41
0.7504
  7
EXCADSTD
 72
     5
 11
628.0
 21
170.0
 31
0.0
100
AcDbText
  0
TEXT
  5
272
100
AcDbEntity
  8
LAY-1
  6
CONTINUOUS
 62
     7
100
AcDbText
 10
1500.0
 20
101.5
 30
0.0
 40
70.0
  1
２０２９３０
 41
0.88
  7
EXCADSTD
 72
     5
 11
1940.0
 21
101.5
 31
0.0
100
AcDbText
  0
CIRCLE
  5
273
100
AcDbEntity
  8
LAY-1
  6
CONTINUOUS
 62
     2
100
AcDbCircle
 10
414.239502
 20
892.0
 30
0.0
 40
10.0
  0
TEXT
  5
274
100
AcDbEntity
  8
LAY-1
  6
CONTINUOUS
 62
     2
100
AcDbText
 10
457.870941
 20
818.25
 30
0.0
 40
47.5
  1
す。これに適した配線を行なってください。
 41
0.804632
  7
EXCADSTD
 72
     5
 11
1367.870941
 21
818.25
 31
0.0
100
AcDbText
  0
CIRCLE
  5
275
100
AcDbEntity
  8
LAY-1
  6
CONTINUOUS
 62
     2
100
AcDbCircle
 10
414.239502
 20
792.0
 30
0.0
 40
10.0
  0
TEXT
  5
276
100
AcDbEntity
  8
LAY-1
  6
CONTINUOUS
 62
     2
100
AcDbText
 10
457.870941
 20
768.25
 30
0.0
 40
47.5
  1
電源コードの長さは１．２ｍです。コンセントは便器の近くの壁面
 41
0.801684
  7
EXCADSTD
 72
     5
 11
1817.870941
 21
768.25
 31
0.0
100
AcDbText
  0
TEXT
  5
277
100
AcDbEntity
  8
LAY-1
  6
CONTINUOUS
 62
     2
100
AcDbText
 10
457.870941
 20
718.25
 30
0.0
 40
47.5
  1
に設けてください。
 41
0.815439
  7
EXCADSTD
 72
     5
 11
872.870941
 21
718.25
 31
0.0
100
AcDbText
  0
CIRCLE
  5
278
100
AcDbEntity
  8
LAY-1
  6
CONTINUOUS
 62
     2
100
AcDbCircle
 10
414.239502
 20
692.0
 30
0.0
 40
10.0
  0
TEXT
  5
279
100
AcDbEntity
  8
LAY-1
  6
CONTINUOUS
 62
     2
100
AcDbText
 10
457.870941
 20
668.25
 30
0.0
 40
47.5
  1
水がかかったり、表面に結露が生じるような湿気の多い場所での使
 41
0.801684
  7
EXCADSTD
 72
     5
 11
1817.870941
 21
668.25
 31
0.0
100
AcDbText
  0
TEXT
  5
27A
100
AcDbEntity
  8
LAY-1
  6
CONTINUOUS
 62
     2
100
AcDbText
 10
457.870941
 20
618.25
 30
0.0
 40
47.5
  1
用は避けてください。特に、浴室内には設置しないでください。
 41
0.801887
  7
EXCADSTD
 72
     5
 11
1772.870941
 21
618.25
 31
0.0
100
AcDbText
  0
TEXT
  5
27B
100
AcDbEntity
  8
LAY-1
  6
CONTINUOUS
 62
     2
100
AcDbText
 10
457.870941
 20
868.25
 30
0.0
 40
47.5
  1
電源は交流１００Ｖ－５０／６０Ｈｚ、最高消費電力は ４８Ｗで
 41
0.790461
  7
EXCADSTD
 72
     5
 11
1790.370941
 21
868.25
 31
0.0
100
AcDbText
  0
TEXT
  5
27C
100
AcDbEntity
  8
LAY-1
  6
CONTINUOUS
 62
     6
100
AcDbText
 10
244.119116
 20
96.950073
 30
0.0
 40
25.0
  1
１
 41
0.89208
  7
EXCADSTD
 72
     5
 11
265.359116
 21
96.950073
 31
0.0
100
AcDbText
  0
LEADER
  5
27D
100
AcDbEntity
  8
LAY-2
  6
CONTINUOUS
 62
     6
100
AcDbLeader
  3
STANDARD
 73
     3
 74
     1
 75
     0
 40
0.0
 76
     2
 10
1441.29307
 20
1531.897
 30
0.0
 10
1397.972132
 20
1687.491111
 30
0.0
 77
     6
1001
ACAD
1000
DSTYLE
1002
{
1070
    41
1040
35.0
1070
     5
1000
_EX_NORM
1070
     6
1000
_EX_NORM
1070
     7
1000
_EX_NORM
1070
   341
1005
28
1002
}
  0
LEADER
  5
27E
100
AcDbEntity
  8
LAY-2
  6
CONTINUOUS
 62
     6
100
AcDbLeader
  3
STANDARD
 73
     3
 74
     1
 75
     0
 40
0.0
 76
     2
 10
607.976587
 20
1338.872809
 30
0.0
 10
732.313721
 20
1259.8
 30
0.0
 77
     6
1001
ACAD
1000
DSTYLE
1002
{
1070
    41
1040
35.0
1070
     5
1000
_EX_NORM
1070
     6
1000
_EX_NORM
1070
     7
1000
_EX_NORM
1070
   341
1005
28
1002
}
  0
ARC
  5
27F
100
AcDbEntity
  8
LAY-2
  6
CONTINUOUS
 62
     6
100
AcDbCircle
 10
568.829986
 20
2405.216724
 30
0.0
 40
9.1667
100
AcDbArc
 50
90.468628
 51
180.0
  0
LINE
  5
280
100
AcDbEntity
  8
LAY-2
  6
CONTINUOUS
 62
     6
100
AcDbLine
 10
559.663286
 20
2405.216724
 30
0.0
 11
559.663286
 21
2399.954721
 31
0.0
  0
ARC
  5
281
100
AcDbEntity
  8
LAY-2
  6
CONTINUOUS
 62
     6
100
AcDbCircle
 10
609.630096
 20
-2584.61665
 30
0.0
 40
4999.1667
100
AcDbArc
 50
90.407842
 51
90.468477
  0
ARC
  5
282
100
AcDbEntity
  8
LAY-2
  6
CONTINUOUS
 62
     6
100
AcDbCircle
 10
574.081
 20
2409.423527
 30
0.0
 40
5.0
100
AcDbArc
 50
90.407842
 51
180.0
  0
LINE
  5
283
100
AcDbEntity
  8
LAY-2
  6
CONTINUOUS
 62
     6
100
AcDbLine
 10
569.081
 20
2409.423527
 30
0.0
 11
569.081
 21
2406.554721
 31
0.0
  0
ARC
  5
284
100
AcDbEntity
  8
LAY-2
  6
CONTINUOUS
 62
     6
100
AcDbCircle
 10
567.481
 20
2406.554721
 30
0.0
 40
1.6
100
AcDbArc
 50
270.0
 51
0.0
  0
LINE
  5
285
100
AcDbEntity
  8
LAY-2
  6
CONTINUOUS
 62
     6
100
AcDbLine
 10
567.481
 20
2404.954721
 30
0.0
 11
564.663286
 21
2404.954721
 31
0.0
  0
ARC
  5
286
100
AcDbEntity
  8
LAY-2
  6
CONTINUOUS
 62
     6
100
AcDbCircle
 10
564.663286
 20
2399.954721
 30
0.0
 40
5.0
100
AcDbArc
 50
90.0
 51
180.0
  0
ARC
  5
287
100
AcDbEntity
  8
LAY-2
  6
CONTINUOUS
 62
     6
100
AcDbCircle
 10
564.663286
 20
2399.954721
 30
0.0
 40
2.338
100
AcDbArc
 50
90.0
 51
180.0
  0
LINE
  5
288
100
AcDbEntity
  8
LAY-2
  6
CONTINUOUS
 62
     6
100
AcDbLine
 10
567.481
 20
2402.292721
 30
0.0
 11
564.663286
 21
2402.292721
 31
0.0
  0
ARC
  5
289
100
AcDbEntity
  8
LAY-2
  6
CONTINUOUS
 62
     6
100
AcDbCircle
 10
567.481
 20
2406.554721
 30
0.0
 40
4.262
100
AcDbArc
 50
270.0
 51
0.0
  0
LINE
  5
28A
100
AcDbEntity
  8
LAY-2
  6
CONTINUOUS
 62
     6
100
AcDbLine
 10
571.743
 20
2409.423527
 30
0.0
 11
571.743
 21
2406.554721
 31
0.0
  0
ARC
  5
28B
100
AcDbEntity
  8
LAY-2
  6
CONTINUOUS
 62
     6
100
AcDbCircle
 10
574.081
 20
2409.423527
 30
0.0
 40
2.338
100
AcDbArc
 50
90.407842
 51
180.0
  0
ARC
  5
28C
100
AcDbEntity
  8
LAY-2
  6
CONTINUOUS
 62
     6
100
AcDbCircle
 10
574.081
 20
2025.342929
 30
0.0
 40
5.0
100
AcDbArc
 50
180.0
 51
269.592158
  0
ARC
  5
28D
100
AcDbEntity
  8
LAY-2
  6
CONTINUOUS
 62
     6
100
AcDbCircle
 10
567.481
 20
2028.211735
 30
0.0
 40
1.6
100
AcDbArc
 50
0.0
 51
90.0
  0
LINE
  5
28E
100
AcDbEntity
  8
LAY-2
  6
CONTINUOUS
 62
     6
100
AcDbLine
 10
569.081
 20
2025.342929
 30
0.0
 11
569.081
 21
2028.211735
 31
0.0
  0
LINE
  5
28F
100
AcDbEntity
  8
LAY-2
  6
CONTINUOUS
 62
     6
100
AcDbLine
 10
567.481
 20
2029.811735
 30
0.0
 11
564.663286
 21
2029.811735
 31
0.0
  0
ARC
  5
290
100
AcDbEntity
  8
LAY-2
  6
CONTINUOUS
 62
     6
100
AcDbCircle
 10
564.663286
 20
2034.811735
 30
0.0
 40
5.0
100
AcDbArc
 50
180.0
 51
270.0
  0
ARC
  5
291
100
AcDbEntity
  8
LAY-2
  6
CONTINUOUS
 62
     6
100
AcDbCircle
 10
564.663286
 20
2034.811735
 30
0.0
 40
2.338
100
AcDbArc
 50
180.0
 51
270.0
  0
LINE
  5
292
100
AcDbEntity
  8
LAY-2
  6
CONTINUOUS
 62
     6
100
AcDbLine
 10
567.481
 20
2032.473735
 30
0.0
 11
564.663286
 21
2032.473735
 31
0.0
  0
ARC
  5
293
100
AcDbEntity
  8
LAY-2
  6
CONTINUOUS
 62
     6
100
AcDbCircle
 10
567.481
 20
2028.211735
 30
0.0
 40
4.262
100
AcDbArc
 50
0.0
 51
90.0
  0
LINE
  5
294
100
AcDbEntity
  8
LAY-2
  6
CONTINUOUS
 62
     6
100
AcDbLine
 10
571.743
 20
2025.342929
 30
0.0
 11
571.743
 21
2028.211735
 31
0.0
  0
ARC
  5
295
100
AcDbEntity
  8
LAY-2
  6
CONTINUOUS
 62
     6
100
AcDbCircle
 10
574.081
 20
2025.342929
 30
0.0
 40
2.338
100
AcDbArc
 50
180.0
 51
269.592158
  0
ARC
  5
296
100
AcDbEntity
  8
LAY-2
  6
CONTINUOUS
 62
     6
100
AcDbCircle
 10
609.630096
 20
7019.383106
 30
0.0
 40
4999.1667
100
AcDbArc
 50
269.531523
 51
269.592158
  0
ARC
  5
297
100
AcDbEntity
  8
LAY-2
  6
CONTINUOUS
 62
     6
100
AcDbCircle
 10
568.829986
 20
2029.549732
 30
0.0
 40
9.1667
100
AcDbArc
 50
180.0
 51
269.531372
  0
LINE
  5
298
100
AcDbEntity
  8
LAY-2
  6
CONTINUOUS
 62
     6
100
AcDbLine
 10
559.663286
 20
2029.549732
 30
0.0
 11
559.663286
 21
2034.811735
 31
0.0
  0
CIRCLE
  5
299
100
AcDbEntity
  8
LAY-2
  6
EXLTYPE2
 62
     6
100
AcDbCircle
 10
613.0
 20
2147.383228
 30
0.0
 40
6.0
  0
CIRCLE
  5
29A
100
AcDbEntity
  8
LAY-2
  6
EXLTYPE2
 62
     6
100
AcDbCircle
 10
613.0
 20
2287.383228
 30
0.0
 40
6.0
  0
LINE
  5
29B
100
AcDbEntity
  8
LAY-2
  6
CONTINUOUS
 62
     6
100
AcDbLine
 10
587.0
 20
2287.383228
 30
0.0
 11
639.0
 21
2287.383228
 31
0.0
  0
LINE
  5
29C
100
AcDbEntity
  8
LAY-2
  6
CONTINUOUS
 62
     6
100
AcDbLine
 10
587.0
 20
2147.383228
 30
0.0
 11
639.0
 21
2147.383228
 31
0.0
  0
LINE
  5
29D
100
AcDbEntity
  8
LAY-2
  6
CONTINUOUS
 62
     6
100
AcDbLine
 10
613.0
 20
2173.383228
 30
0.0
 11
613.0
 21
2121.383228
 31
0.0
  0
ARC
  5
29E
100
AcDbEntity
  8
LAY-2
  6
CONTINUOUS
 62
     6
100
AcDbCircle
 10
183.029937
 20
2217.383228
 30
0.0
 40
403.0
100
AcDbArc
 50
340.570207
 51
19.429793
  0
ARC
  5
29F
100
AcDbEntity
  8
LAY-2
  6
CONTINUOUS
 62
     6
100
AcDbCircle
 10
183.029937
 20
2217.383228
 30
0.0
 40
400.0
100
AcDbArc
 50
340.336792
 51
19.663208
  0
ARC
  5
2A0
100
AcDbEntity
  8
LAY-2
  6
CONTINUOUS
 62
     6
100
AcDbCircle
 10
838.658487
 20
2101.730832
 30
0.0
 40
300.0
100
AcDbArc
 50
46.288418
 51
82.727963
  0
ARC
  5
2A1
100
AcDbEntity
  8
LAY-2
  6
EXLTYPE2
 62
     6
100
AcDbCircle
 10
836.27942
 20
1957.633228
 30
0.0
 40
360.0
100
AcDbArc
 50
68.249023
 51
90.0
  0
ARC
  5
2A2
100
AcDbEntity
  8
LAY-2
  6
EXLTYPE2
 62
     6
100
AcDbCircle
 10
836.27942
 20
2477.133228
 30
0.0
 40
360.0
100
AcDbArc
 50
270.0
 51
291.750977
  0
ARC
  5
2A3
100
AcDbEntity
  8
LAY-2
  6
CONTINUOUS
 62
     6
100
AcDbCircle
 10
686.761876
 20
3523.383228
 30
0.0
 40
1500.0
100
AcDbArc
 50
270.0
 51
277.272037
  0
ARC
  5
2A4
100
AcDbEntity
  8
LAY-2
  6
CONTINUOUS
 62
     6
100
AcDbCircle
 10
604.631317
 20
2073.804188
 30
0.0
 40
70.0
100
AcDbArc
 50
259.056093
 51
280.865979
  0
LINE
  5
2A5
100
AcDbEntity
  8
LAY-2
  6
CONTINUOUS
 62
     6
100
AcDbLine
 10
655.230011
 20
2079.209766
 30
0.0
 11
610.053619
 21
2079.209766
 31
0.0
  0
ARC
  5
2A6
100
AcDbEntity
  8
LAY-2
  6
CONTINUOUS
 62
     6
100
AcDbCircle
 10
680.849456
 20
2620.875172
 30
0.0
 40
600.0
100
AcDbArc
 50
263.183441
 51
264.343008
  0
ARC
  5
2A7
100
AcDbEntity
  8
LAY-2
  6
CONTINUOUS
 62
     6
100
AcDbCircle
 10
680.849456
 20
2620.875171
 30
0.0
 40
600.0
100
AcDbArc
 50
263.183472
 51
264.343005
  0
LINE
  5
2A8
100
AcDbEntity
  8
LAY-2
  6
CONTINUOUS
 62
     6
100
AcDbLine
 10
587.010894
 20
2017.384571
 30
0.0
 11
622.251739
 21
2017.384571
 31
0.0
  0
ARC
  5
2A9
100
AcDbEntity
  8
LAY-2
  6
CONTINUOUS
 62
     6
100
AcDbCircle
 10
604.631317
 20
1730.539112
 30
0.0
 40
287.417236
100
AcDbArc
 50
86.490021
 51
93.390076
  0
ARC
  5
2AA
100
AcDbEntity
  8
LAY-2
  6
CONTINUOUS
 62
     6
100
AcDbCircle
 10
604.642913
 20
1947.739918
 30
0.0
 40
73.932365
100
AcDbArc
 50
75.821838
 51
104.196686
  0
LINE
  5
2AB
100
AcDbEntity
  8
LAY-2
  6
CONTINUOUS
 62
     6
100
AcDbLine
 10
589.631317
 20
2017.384571
 30
0.0
 11
619.631317
 21
2017.384571
 31
0.0
  0
LINE
  5
2AC
100
AcDbEntity
  8
LAY-2
  6
CONTINUOUS
 62
     6
100
AcDbLine
 10
605.454071
 20
2028.595814
 30
0.0
 11
605.279266
 21
2029.157887
 31
0.0
  0
ARC
  5
2AD
100
AcDbEntity
  8
LAY-2
  6
CONTINUOUS
 62
     6
100
AcDbCircle
 10
610.053619
 20
2030.642994
 30
0.0
 40
5.0
100
AcDbArc
 50
180.0
 51
197.280151
  0
ARC
  5
2AE
100
AcDbEntity
  8
LAY-2
  6
CONTINUOUS
 62
     6
100
AcDbCircle
 10
610.228424
 20
2030.080982
 30
0.0
 40
5.0
100
AcDbArc
 50
197.279663
 51
263.183655
  0
ARC
  5
2AF
100
AcDbEntity
  8
LAY-2
  6
CONTINUOUS
 62
     6
100
AcDbCircle
 10
610.053619
 20
2074.209766
 30
0.0
 40
5.0
100
AcDbArc
 50
90.0
 51
180.0
  0
LINE
  5
2B0
100
AcDbEntity
  8
LAY-2
  6
CONTINUOUS
 62
     6
100
AcDbLine
 10
605.053619
 20
2030.642994
 30
0.0
 11
605.053619
 21
2074.209766
 31
0.0
  0
ARC
  5
2B1
100
AcDbEntity
  8
LAY-2
  6
CONTINUOUS
 62
     6
100
AcDbCircle
 10
609.630096
 20
7029.379688
 30
0.0
 40
5000.0
100
AcDbArc
 50
269.76327
 51
269.933533
  0
ARC
  5
2B2
100
AcDbEntity
  8
LAY-2
  6
CONTINUOUS
 62
     6
100
AcDbCircle
 10
589.07901
 20
2055.422291
 30
0.0
 40
26.0
100
AcDbArc
 50
180.0
 51
269.763275
  0
LINE
  5
2B3
100
AcDbEntity
  8
LAY-2
  6
CONTINUOUS
 62
     6
100
AcDbLine
 10
563.07901
 20
2083.324651
 30
0.0
 11
563.07901
 21
2055.922291
 31
0.0
  0
ARC
  5
2B4
100
AcDbEntity
  8
LAY-2
  6
CONTINUOUS
 62
     6
100
AcDbCircle
 10
573.829986
 20
2077.739674
 30
0.0
 40
15.0
100
AcDbArc
 50
160.336731
 51
180.0
  0
LINE
  5
2B5
100
AcDbEntity
  8
LAY-2
  6
CONTINUOUS
 62
     6
100
AcDbLine
 10
605.631317
 20
2021.665699
 30
0.0
 11
605.631317
 21
2019.456349
 31
0.0
  0
LINE
  5
2B6
100
AcDbEntity
  8
LAY-2
  6
CONTINUOUS
 62
     6
100
AcDbLine
 10
603.631317
 20
2021.672291
 30
0.0
 11
603.631317
 21
2019.456349
 31
0.0
  0
ARC
  5
2B7
100
AcDbEntity
  8
LAY-2
  6
CONTINUOUS
 62
     6
100
AcDbCircle
 10
604.631317
 20
2019.456349
 30
0.0
 40
1.0
100
AcDbArc
 50
180.0
 51
0.0
  0
ARC
  5
2B8
100
AcDbEntity
  8
LAY-2
  6
CONTINUOUS
 62
     6
100
AcDbCircle
 10
609.630096
 20
7019.383228
 30
0.0
 40
5000.0
100
AcDbArc
 50
269.531494
 51
269.72937
  0
ARC
  5
2B9
100
AcDbEntity
  8
LAY-2
  6
CONTINUOUS
 62
     6
100
AcDbCircle
 10
586.010894
 20
2018.940113
 30
0.0
 40
0.5
100
AcDbArc
 50
0.0
 51
89.734283
  0
LINE
  5
2BA
100
AcDbEntity
  8
LAY-2
  6
CONTINUOUS
 62
     6
100
AcDbLine
 10
586.510894
 20
2018.940113
 30
0.0
 11
586.510894
 21
2017.884571
 31
0.0
  0
ARC
  5
2BB
100
AcDbEntity
  8
LAY-2
  6
CONTINUOUS
 62
     6
100
AcDbCircle
 10
587.010894
 20
2017.884571
 30
0.0
 40
0.5
100
AcDbArc
 50
180.0
 51
270.0
  0
ARC
  5
2BC
100
AcDbEntity
  8
LAY-2
  6
CONTINUOUS
 62
     6
100
AcDbCircle
 10
591.812477
 20
2007.023372
 30
0.0
 40
2.0
100
AcDbArc
 50
181.0
 51
259.134021
  0
LINE
  5
2BD
100
AcDbEntity
  8
LAY-2
  6
CONTINUOUS
 62
     6
100
AcDbLine
 10
589.631317
 20
2017.384571
 30
0.0
 11
589.812782
 21
2006.988468
 31
0.0
  0
ARC
  5
2BE
100
AcDbEntity
  8
LAY-2
  6
CONTINUOUS
 62
     6
100
AcDbCircle
 10
610.228424
 20
2030.080982
 30
0.0
 40
5.0
100
AcDbArc
 50
197.278809
 51
263.183472
  0
ARC
  5
2BF
100
AcDbEntity
  8
LAY-2
  6
CONTINUOUS
 62
     6
100
AcDbCircle
 10
568.829986
 20
2029.549732
 30
0.0
 40
10.0
100
AcDbArc
 50
180.0
 51
269.531372
  0
LINE
  5
2C0
100
AcDbEntity
  8
LAY-2
  6
CONTINUOUS
 62
     6
100
AcDbLine
 10
558.829986
 20
2029.549732
 30
0.0
 11
558.829986
 21
2077.739673
 31
0.0
  0
LINE
  5
2C1
100
AcDbEntity
  8
LAY-2
  6
CONTINUOUS
 62
     6
100
AcDbLine
 10
648.726977
 20
2075.382851
 30
0.0
 11
648.726978
 21
2076.632851
 31
0.0
  0
LINE
  5
2C2
100
AcDbEntity
  8
LAY-2
  6
CONTINUOUS
 62
     6
100
AcDbLine
 10
624.226977
 20
2075.382864
 30
0.0
 11
662.594409
 21
2075.382844
 31
0.0
  0
LINE
  5
2C3
100
AcDbEntity
  8
LAY-2
  6
CONTINUOUS
 62
     6
100
AcDbLine
 10
670.226563
 20
2074.883259
 30
0.0
 11
623.226563
 21
2074.883259
 31
0.0
  0
ARC
  5
2C4
100
AcDbEntity
  8
LAY-2
  6
CONTINUOUS
 62
     6
100
AcDbCircle
 10
655.230011
 20
2082.209766
 30
0.0
 40
3.0
100
AcDbArc
 50
270.0
 51
0.0
  0
LINE
  5
2C5
100
AcDbEntity
  8
LAY-2
  6
CONTINUOUS
 62
     6
100
AcDbLine
 10
632.760101
 20
2078.783253
 30
0.0
 11
637.56137
 21
2078.783253
 31
0.0
  0
ARC
  5
2C6
100
AcDbEntity
  8
LAY-2
  6
CONTINUOUS
 62
     6
100
AcDbCircle
 10
637.121673
 20
2074.515393
 30
0.0
 40
4.0
100
AcDbArc
 50
90.0
 51
128.797402
  0
ARC
  5
2C7
100
AcDbEntity
  8
LAY-2
  6
CONTINUOUS
 62
     6
100
AcDbCircle
 10
647.726978
 20
2076.632852
 30
0.0
 40
1.0
100
AcDbArc
 50
0.0
 51
90.0
  0
ARC
  5
2C8
100
AcDbEntity
  8
LAY-2
  6
CONTINUOUS
 62
     6
100
AcDbCircle
 10
662.59441
 20
2077.382844
 30
0.0
 40
2.0
100
AcDbArc
 50
270.0
 51
0.0
  0
ARC
  5
2C9
100
AcDbEntity
  8
LAY-2
  6
CONTINUOUS
 62
     6
100
AcDbCircle
 10
670.226563
 20
2079.883259
 30
0.0
 40
4.999998
100
AcDbArc
 50
270.000031
 51
0.0
  0
LINE
  5
2CA
100
AcDbEntity
  8
LAY-2
  6
CONTINUOUS
 62
     6
100
AcDbLine
 10
647.726978
 20
2077.632852
 30
0.0
 11
622.726978
 21
2077.632865
 31
0.0
  0
LINE
  5
2CB
100
AcDbEntity
  8
LAY-2
  6
CONTINUOUS
 62
     6
100
AcDbLine
 10
626.341673
 20
2077.632863
 30
0.0
 11
626.341673
 21
2078.783487
 31
0.0
  0
LINE
  5
2CC
100
AcDbEntity
  8
LAY-2
  6
CONTINUOUS
 62
     6
100
AcDbLine
 10
621.726977
 20
2074.481541
 30
0.0
 11
621.726978
 21
2076.632866
 31
0.0
  0
LINE
  5
2CD
100
AcDbEntity
  8
LAY-2
  6
CONTINUOUS
 62
     6
100
AcDbLine
 10
621.554873
 20
2074.3743
 30
0.0
 11
621.554873
 21
2078.905527
 31
0.0
  0
ARC
  5
2CE
100
AcDbEntity
  8
LAY-2
  6
CONTINUOUS
 62
     6
100
AcDbCircle
 10
622.726978
 20
2076.632865
 30
0.0
 40
1.0
100
AcDbArc
 50
90.0
 51
180.0
  0
LINE
  5
2CF
100
AcDbEntity
  8
LAY-2
  6
CONTINUOUS
 62
     6
100
AcDbLine
 10
620.226563
 20
2071.883259
 30
0.0
 11
620.226563
 21
2026.383228
 31
0.0
  0
ARC
  5
2D0
100
AcDbEntity
  8
LAY-2
  6
CONTINUOUS
 62
     6
100
AcDbCircle
 10
624.226975
 20
2072.382864
 30
0.0
 40
3.0
100
AcDbArc
 50
90.0
 51
127.280262
  0
ARC
  5
2D1
100
AcDbEntity
  8
LAY-2
  6
CONTINUOUS
 62
     6
100
AcDbCircle
 10
623.226563
 20
2071.883259
 30
0.0
 40
2.999998
100
AcDbArc
 50
90.0
 51
180.0
  0
ARC
  5
2D2
100
AcDbEntity
  8
LAY-2
  6
CONTINUOUS
 62
     6
100
AcDbCircle
 10
623.226563
 20
2026.383228
 30
0.0
 40
3.0
100
AcDbArc
 50
180.0
 51
270.0
  0
ARC
  5
2D3
100
AcDbEntity
  8
LAY-2
  6
CONTINUOUS
 62
     6
100
AcDbCircle
 10
678.765533
 20
2027.878833
 30
0.0
 40
7.0
100
AcDbArc
 50
269.798645
 51
320.041747
  0
ARC
  5
2D4
100
AcDbEntity
  8
LAY-2
  6
CONTINUOUS
 62
     6
100
AcDbCircle
 10
679.233856
 20
2026.869312
 30
0.0
 40
7.0
100
AcDbArc
 50
270.798828
 51
330.131438
  0
ARC
  5
2D5
100
AcDbEntity
  8
LAY-2
  6
CONTINUOUS
 62
     6
100
AcDbCircle
 10
626.329742
 20
2025.411027
 30
0.0
 40
0.5
100
AcDbArc
 50
0.0
 51
90.191594
  0
ARC
  5
2D6
100
AcDbEntity
  8
LAY-2
  6
CONTINUOUS
 62
     6
100
AcDbCircle
 10
609.630096
 20
7019.383106
 30
0.0
 40
4993.5
100
AcDbArc
 50
270.115716
 51
270.191594
  0
LINE
  5
2D7
100
AcDbEntity
  8
LAY-2
  6
CONTINUOUS
 62
     6
100
AcDbLine
 10
626.829742
 20
2025.411027
 30
0.0
 11
626.829742
 21
2023.628288
 31
0.0
  0
ARC
  5
2D8
100
AcDbEntity
  8
LAY-2
  6
CONTINUOUS
 62
     6
100
AcDbCircle
 10
623.226563
 20
2026.383213
 30
0.0
 40
3.0
100
AcDbArc
 50
194.481668
 51
270.0
  0
ARC
  5
2D9
100
AcDbEntity
  8
LAY-2
  6
CONTINUOUS
 62
     6
100
AcDbCircle
 10
623.251739
 20
2018.903004
 30
0.0
 40
0.5
100
AcDbArc
 50
90.15387
 51
180.0
  0
LINE
  5
2DA
100
AcDbEntity
  8
LAY-2
  6
CONTINUOUS
 62
     6
100
AcDbLine
 10
622.751739
 20
2018.903004
 30
0.0
 11
622.751739
 21
2017.884571
 31
0.0
  0
ARC
  5
2DB
100
AcDbEntity
  8
LAY-2
  6
CONTINUOUS
 62
     6
100
AcDbCircle
 10
622.251739
 20
2017.884571
 30
0.0
 40
0.5
100
AcDbArc
 50
270.0
 51
0.0
  0
ARC
  5
2DC
100
AcDbEntity
  8
LAY-2
  6
CONTINUOUS
 62
     6
100
AcDbCircle
 10
680.849456
 20
2620.875171
 30
0.0
 40
600.0
100
AcDbArc
 50
264.759387
 51
265.256384
  0
ARC
  5
2DD
100
AcDbEntity
  8
LAY-2
  6
CONTINUOUS
 62
     6
100
AcDbCircle
 10
617.450157
 20
2007.023372
 30
0.0
 40
2.0
100
AcDbArc
 50
280.865979
 51
359.0
  0
LINE
  5
2DE
100
AcDbEntity
  8
LAY-2
  6
CONTINUOUS
 62
     6
100
AcDbLine
 10
619.631317
 20
2017.384571
 30
0.0
 11
619.449852
 21
2006.988468
 31
0.0
  0
ARC
  5
2DF
100
AcDbEntity
  8
LAY-2
  6
CONTINUOUS
 62
     6
100
AcDbCircle
 10
680.849456
 20
2620.875171
 30
0.0
 40
600.0
100
AcDbArc
 50
265.256706
 51
269.798645
  0
LINE
  5
2E0
100
AcDbEntity
  8
LAY-2
  6
CONTINUOUS
 62
     6
100
AcDbLine
 10
692.14563
 20
2023.383213
 30
0.0
 11
623.226563
 21
2023.383213
 31
0.0
  0
ARC
  5
2E1
100
AcDbEntity
  8
LAY-2
  6
CONTINUOUS
 62
     6
100
AcDbCircle
 10
609.630096
 20
7019.38335
 30
0.0
 40
5000.0
100
AcDbArc
 50
270.155697
 51
270.798706
  0
ARC
  5
2E2
100
AcDbEntity
  8
LAY-2
  6
EXLTYPE2
 62
     6
100
AcDbCircle
 10
834.168367
 20
2517.133228
 30
0.0
 40
400.0
100
AcDbArc
 50
267.660736
 51
270.0
  0
LINE
  5
2E3
100
AcDbEntity
  8
LAY-2
  6
EXLTYPE1
 62
     6
100
AcDbLine
 10
834.168367
 20
2117.133228
 30
0.0
 11
836.27942
 21
2117.133228
 31
0.0
  0
ARC
  5
2E4
100
AcDbEntity
  8
LAY-2
  6
EXLTYPE2
 62
     6
100
AcDbCircle
 10
834.168367
 20
1917.633228
 30
0.0
 40
400.0
100
AcDbArc
 50
90.0
 51
92.339233
  0
LINE
  5
2E5
100
AcDbEntity
  8
LAY-2
  6
EXLTYPE1
 62
     6
100
AcDbLine
 10
834.168367
 20
2317.633228
 30
0.0
 11
836.27942
 21
2317.633228
 31
0.0
  0
ARC
  5
2E6
100
AcDbEntity
  8
LAY-2
  6
CONTINUOUS
 62
     6
100
AcDbCircle
 10
838.658487
 20
2333.035624
 30
0.0
 40
300.0
100
AcDbArc
 50
277.272037
 51
313.711582
  0
ARC
  5
2E7
100
AcDbEntity
  8
LAY-2
  6
EXLTYPE2
 62
     6
100
AcDbCircle
 10
957.923463
 20
2217.383228
 30
0.0
 40
70.0
100
AcDbArc
 50
316.470337
 51
43.529663
  0
ARC
  5
2E8
100
AcDbEntity
  8
LAY-2
  6
EXLTYPE2
 62
     6
100
AcDbCircle
 10
928.922731
 20
2244.932423
 30
0.0
 40
110.0
100
AcDbArc
 50
291.750977
 51
316.470337
  0
ARC
  5
2E9
100
AcDbEntity
  8
LAY-2
  6
EXLTYPE2
 62
     6
100
AcDbCircle
 10
928.922731
 20
2189.834034
 30
0.0
 40
110.0
100
AcDbArc
 50
43.529663
 51
68.249023
  0
ARC
  5
2EA
100
AcDbEntity
  8
LAY-2
  6
CONTINUOUS
 62
     6
100
AcDbCircle
 10
967.923463
 20
2217.383228
 30
0.0
 40
125.0
100
AcDbArc
 50
320.84559
 51
39.15441
  0
ARC
  5
2EB
100
AcDbEntity
  8
LAY-2
  6
CONTINUOUS
 62
     6
100
AcDbCircle
 10
949.223054
 20
2217.383228
 30
0.0
 40
140.0
100
AcDbArc
 50
313.711582
 51
325.683693
  0
ARC
  5
2EC
100
AcDbEntity
  8
LAY-2
  6
CONTINUOUS
 62
     6
100
AcDbCircle
 10
949.223054
 20
2217.383228
 30
0.0
 40
140.0
100
AcDbArc
 50
34.316307
 51
46.288418
  0
ARC
  5
2ED
100
AcDbEntity
  8
LAY-2
  6
CONTINUOUS
 62
     6
100
AcDbCircle
 10
686.761876
 20
911.383228
 30
0.0
 40
1500.0
100
AcDbArc
 50
82.727963
 51
90.0
  0
ARC
  5
2EE
100
AcDbEntity
  8
LAY-2
  6
CONTINUOUS
 62
     6
100
AcDbCircle
 10
680.849456
 20
1813.891284
 30
0.0
 40
600.0
100
AcDbArc
 50
95.656992
 51
96.816559
  0
ARC
  5
2EF
100
AcDbEntity
  8
LAY-2
  6
CONTINUOUS
 62
     6
100
AcDbCircle
 10
609.630096
 20
-2584.61665
 30
0.0
 40
5000.0
100
AcDbArc
 50
89.201263
 51
90.468475
  0
LINE
  5
2F0
100
AcDbEntity
  8
LAY-2
  6
CONTINUOUS
 62
     6
100
AcDbLine
 10
655.230011
 20
2355.55669
 30
0.0
 11
610.053619
 21
2355.55669
 31
0.0
  0
ARC
  5
2F1
100
AcDbEntity
  8
LAY-2
  6
CONTINUOUS
 62
     6
100
AcDbCircle
 10
609.630096
 20
-2594.613232
 30
0.0
 40
5000.0
100
AcDbArc
 50
90.066467
 51
90.23673
  0
ARC
  5
2F2
100
AcDbEntity
  8
LAY-2
  6
CONTINUOUS
 62
     6
100
AcDbCircle
 10
610.053619
 20
2404.123462
 30
0.0
 40
5.0
100
AcDbArc
 50
162.719849
 51
180.0
  0
LINE
  5
2F3
100
AcDbEntity
  8
LAY-2
  6
CONTINUOUS
 62
     6
100
AcDbLine
 10
605.454071
 20
2406.170642
 30
0.0
 11
605.279266
 21
2405.608569
 31
0.0
  0
ARC
  5
2F4
100
AcDbEntity
  8
LAY-2
  6
CONTINUOUS
 62
     6
100
AcDbCircle
 10
610.228424
 20
2404.685474
 30
0.0
 40
5.0
100
AcDbArc
 50
96.816345
 51
162.720337
  0
ARC
  5
2F5
100
AcDbEntity
  8
LAY-2
  6
CONTINUOUS
 62
     6
100
AcDbCircle
 10
568.829986
 20
2405.216724
 30
0.0
 40
10.0
100
AcDbArc
 50
90.468628
 51
180.0
  0
ARC
  5
2F6
100
AcDbEntity
  8
LAY-2
  6
CONTINUOUS
 62
     6
100
AcDbCircle
 10
610.053619
 20
2360.55669
 30
0.0
 40
5.0
100
AcDbArc
 50
180.0
 51
270.0
  0
ARC
  5
2F7
100
AcDbEntity
  8
LAY-2
  6
CONTINUOUS
 62
     6
100
AcDbCircle
 10
573.829986
 20
2357.026782
 30
0.0
 40
15.0
100
AcDbArc
 50
180.0
 51
199.663269
  0
LINE
  5
2F8
100
AcDbEntity
  8
LAY-2
  6
CONTINUOUS
 62
     6
100
AcDbLine
 10
563.07901
 20
2351.441805
 30
0.0
 11
563.07901
 21
2378.844165
 31
0.0
  0
ARC
  5
2F9
100
AcDbEntity
  8
LAY-2
  6
CONTINUOUS
 62
     6
100
AcDbCircle
 10
589.07901
 20
2379.344165
 30
0.0
 40
26.0
100
AcDbArc
 50
90.236725
 51
180.0
  0
LINE
  5
2FA
100
AcDbEntity
  8
LAY-2
  6
CONTINUOUS
 62
     6
100
AcDbLine
 10
558.829986
 20
2357.026782
 30
0.0
 11
558.829986
 21
2405.216724
 31
0.0
  0
LINE
  5
2FB
100
AcDbEntity
  8
LAY-2
  6
CONTINUOUS
 62
     6
100
AcDbLine
 10
605.053619
 20
2404.123462
 30
0.0
 11
605.053619
 21
2360.55669
 31
0.0
  0
ARC
  5
2FC
100
AcDbEntity
  8
LAY-2
  6
CONTINUOUS
 62
     6
100
AcDbCircle
 10
678.765533
 20
2406.887623
 30
0.0
 40
7.0
100
AcDbArc
 50
39.958253
 51
90.201355
  0
ARC
  5
2FD
100
AcDbEntity
  8
LAY-2
  6
CONTINUOUS
 62
     6
100
AcDbCircle
 10
679.233856
 20
2407.897144
 30
0.0
 40
7.0
100
AcDbArc
 50
29.868562
 51
89.201172
  0
ARC
  5
2FE
100
AcDbEntity
  8
LAY-2
  6
CONTINUOUS
 62
     6
100
AcDbCircle
 10
623.226563
 20
2408.383228
 30
0.0
 40
3.0
100
AcDbArc
 50
90.0
 51
180.0
  0
LINE
  5
2FF
100
AcDbEntity
  8
LAY-2
  6
CONTINUOUS
 62
     6
100
AcDbLine
 10
692.14563
 20
2411.383228
 30
0.0
 11
623.226563
 21
2411.383228
 31
0.0
  0
ARC
  5
300
100
AcDbEntity
  8
LAY-2
  6
CONTINUOUS
 62
     6
100
AcDbCircle
 10
680.849456
 20
1813.891284
 30
0.0
 40
600.0
100
AcDbArc
 50
90.201054
 51
95.240612
  0
ARC
  5
301
100
AcDbEntity
  8
LAY-2
  6
CONTINUOUS
 62
     6
100
AcDbCircle
 10
655.230011
 20
2352.55669
 30
0.0
 40
3.0
100
AcDbArc
 50
0.0
 51
90.0
  0
ARC
  5
302
100
AcDbEntity
  8
LAY-2
  6
CONTINUOUS
 62
     6
100
AcDbCircle
 10
670.226563
 20
2354.883197
 30
0.0
 40
4.999998
100
AcDbArc
 50
0.0
 51
89.999969
  0
ARC
  5
303
100
AcDbEntity
  8
LAY-2
  6
CONTINUOUS
 62
     6
100
AcDbCircle
 10
662.59441
 20
2357.383612
 30
0.0
 40
2.0
100
AcDbArc
 50
0.0
 51
90.0
  0
ARC
  5
304
100
AcDbEntity
  8
LAY-2
  6
CONTINUOUS
 62
     6
100
AcDbCircle
 10
623.226563
 20
2362.883197
 30
0.0
 40
2.999998
100
AcDbArc
 50
180.0
 51
270.0
  0
ARC
  5
305
100
AcDbEntity
  8
LAY-2
  6
CONTINUOUS
 62
     6
100
AcDbCircle
 10
624.226975
 20
2362.383592
 30
0.0
 40
3.0
100
AcDbArc
 50
232.719738
 51
270.0
  0
ARC
  5
306
100
AcDbEntity
  8
LAY-2
  6
CONTINUOUS
 62
     6
100
AcDbCircle
 10
647.726978
 20
2358.133604
 30
0.0
 40
1.0
100
AcDbArc
 50
270.0
 51
0.0
  0
ARC
  5
307
100
AcDbEntity
  8
LAY-2
  6
CONTINUOUS
 62
     6
100
AcDbCircle
 10
637.121673
 20
2360.251063
 30
0.0
 40
4.0
100
AcDbArc
 50
231.202598
 51
270.0
  0
LINE
  5
308
100
AcDbEntity
  8
LAY-2
  6
CONTINUOUS
 62
     6
100
AcDbLine
 10
632.760101
 20
2355.983203
 30
0.0
 11
637.56137
 21
2355.983203
 31
0.0
  0
LINE
  5
309
100
AcDbEntity
  8
LAY-2
  6
CONTINUOUS
 62
     6
100
AcDbLine
 10
626.341673
 20
2357.133593
 30
0.0
 11
626.341673
 21
2355.982969
 31
0.0
  0
ARC
  5
30A
100
AcDbEntity
  8
LAY-2
  6
CONTINUOUS
 62
     6
100
AcDbCircle
 10
622.726978
 20
2358.133591
 30
0.0
 40
1.0
100
AcDbArc
 50
180.0
 51
270.0
  0
LINE
  5
30B
100
AcDbEntity
  8
LAY-2
  6
CONTINUOUS
 62
     6
100
AcDbLine
 10
647.726978
 20
2357.133604
 30
0.0
 11
622.726978
 21
2357.133591
 31
0.0
  0
LINE
  5
30C
100
AcDbEntity
  8
LAY-2
  6
CONTINUOUS
 62
     6
100
AcDbLine
 10
621.554873
 20
2360.392156
 30
0.0
 11
621.554873
 21
2355.860929
 31
0.0
  0
LINE
  5
30D
100
AcDbEntity
  8
LAY-2
  6
CONTINUOUS
 62
     6
100
AcDbLine
 10
621.726977
 20
2360.284915
 30
0.0
 11
621.726978
 21
2358.13359
 31
0.0
  0
LINE
  5
30E
100
AcDbEntity
  8
LAY-2
  6
CONTINUOUS
 62
     6
100
AcDbLine
 10
648.726977
 20
2359.383605
 30
0.0
 11
648.726978
 21
2358.133605
 31
0.0
  0
LINE
  5
30F
100
AcDbEntity
  8
LAY-2
  6
CONTINUOUS
 62
     6
100
AcDbLine
 10
670.226563
 20
2359.883197
 30
0.0
 11
623.226563
 21
2359.883197
 31
0.0
  0
LINE
  5
310
100
AcDbEntity
  8
LAY-2
  6
CONTINUOUS
 62
     6
100
AcDbLine
 10
624.226977
 20
2359.383592
 30
0.0
 11
662.594409
 21
2359.383612
 31
0.0
  0
LINE
  5
311
100
AcDbEntity
  8
LAY-2
  6
CONTINUOUS
 62
     6
100
AcDbLine
 10
620.226563
 20
2362.883197
 30
0.0
 11
620.226563
 21
2408.383228
 31
0.0
  0
ARC
  5
312
100
AcDbEntity
  8
LAY-2
  6
EXLTYPE2
 62
     6
100
AcDbCircle
 10
820.911258
 20
2217.383228
 30
0.0
 40
100.0
100
AcDbArc
 50
89.077146
 51
267.657974
  0
LINE
  5
313
100
AcDbEntity
  8
LAY-2
  6
EXLTYPE3
 62
     1
100
AcDbLine
 10
1112.923463
 20
2217.383228
 30
0.0
 11
586.029937
 21
2217.383228
 31
0.0
  0
LINE
  5
314
100
AcDbEntity
  8
LAY-2
  6
CONTINUOUS
 62
     6
100
AcDbLine
 10
658.230011
 20
2081.817066
 30
0.0
 11
658.230011
 21
2352.55669
 31
0.0
  0
LINE
  5
315
100
AcDbEntity
  8
LAY-2
  6
CONTINUOUS
 62
     6
100
AcDbLine
 10
664.594483
 20
2357.383612
 30
0.0
 11
664.594483
 21
2077.382862
 31
0.0
  0
LINE
  5
316
100
AcDbEntity
  8
LAY-2
  6
CONTINUOUS
 62
     6
100
AcDbLine
 10
675.226563
 20
2354.883197
 30
0.0
 11
675.226563
 21
2079.883259
 31
0.0
  0
LINE
  5
317
100
AcDbEntity
  8
LAY-2
  6
CONTINUOUS
 62
     3
100
AcDbLine
 10
613.0
 20
2261.383228
 30
0.0
 11
613.0
 21
2491.383228
 31
0.0
  0
LINE
  5
318
100
AcDbEntity
  8
LAY-2
  6
CONTINUOUS
 62
     6
100
AcDbLine
 10
439.922207
 20
1896.725553
 30
0.0
 11
590.612777
 21
2005.423147
 31
0.0
  0
LINE
  5
319
100
AcDbEntity
  8
LAY-2
  6
CONTINUOUS
 62
     6
100
AcDbLine
 10
598.94521
 20
2004.035512
 30
0.0
 11
440.383237
 21
1889.66004
 31
0.0
  0
LINE
  5
31A
100
AcDbEntity
  8
LAY-2
  6
CONTINUOUS
 62
     6
100
AcDbLine
 10
439.432126
 20
1877.543491
 30
0.0
 11
439.432126
 21
1897.222957
 31
0.0
  0
LINE
  5
31B
100
AcDbEntity
  8
LAY-2
  6
CONTINUOUS
 62
     6
100
AcDbLine
 10
440.383237
 20
1878.88322
 30
0.0
 11
440.383237
 21
1895.883228
 31
0.0
  0
LINE
  5
31C
100
AcDbEntity
  8
LAY-2
  6
CONTINUOUS
 62
     6
100
AcDbLine
 10
437.523866
 20
1899.220852
 30
0.0
 11
423.098752
 21
1899.883228
 31
0.0
  0
LINE
  5
31D
100
AcDbEntity
  8
LAY-2
  6
CONTINUOUS
 62
     6
100
AcDbLine
 10
423.098752
 20
1874.88322
 30
0.0
 11
437.523866
 21
1875.545596
 31
0.0
  0
ARC
  5
31E
100
AcDbEntity
  8
LAY-2
  6
CONTINUOUS
 62
     6
100
AcDbCircle
 10
437.432126
 20
1877.543491
 30
0.0
 40
2.0
100
AcDbArc
 50
272.629075
 51
0.0
  0
ARC
  5
31F
100
AcDbEntity
  8
LAY-2
  6
CONTINUOUS
 62
     6
100
AcDbCircle
 10
437.432126
 20
1897.222957
 30
0.0
 40
2.0
100
AcDbArc
 50
0.0
 51
87.370925
  0
LINE
  5
320
100
AcDbEntity
  8
LAY-2
  6
CONTINUOUS
 62
     6
100
AcDbLine
 10
423.098752
 20
1874.88322
 30
0.0
 11
423.098752
 21
1899.883228
 31
0.0
  0
ARC
  5
321
100
AcDbEntity
  8
LAY-2
  6
CONTINUOUS
 62
     6
100
AcDbCircle
 10
439.383237
 20
1878.88322
 30
0.0
 40
1.0
100
AcDbArc
 50
270.0
 51
0.0
  0
ARC
  5
322
100
AcDbEntity
  8
LAY-2
  6
CONTINUOUS
 62
     6
100
AcDbCircle
 10
439.383237
 20
1895.883228
 30
0.0
 40
1.0
100
AcDbArc
 50
0.0
 51
90.0
  0
ARC
  5
323
100
AcDbEntity
  8
LAY-2
  6
CONTINUOUS
 62
     6
100
AcDbCircle
 10
432.098752
 20
1899.633228
 30
0.0
 40
1.0
100
AcDbArc
 50
0.0
 51
180.0
  0
ARC
  5
324
100
AcDbEntity
  8
LAY-2
  6
CONTINUOUS
 62
     6
100
AcDbCircle
 10
432.098752
 20
1875.13322
 30
0.0
 40
1.0
100
AcDbArc
 50
180.0
 51
0.0
  0
LINE
  5
325
100
AcDbEntity
  8
LAY-2
  6
CONTINUOUS
 62
     6
100
AcDbLine
 10
433.098752
 20
1899.883228
 30
0.0
 11
433.098752
 21
1899.424045
 31
0.0
  0
LINE
  5
326
100
AcDbEntity
  8
LAY-2
  6
CONTINUOUS
 62
     6
100
AcDbLine
 10
433.098752
 20
1875.342403
 30
0.0
 11
433.098752
 21
1874.88322
 31
0.0
  0
ARC
  5
327
100
AcDbEntity
  8
LAY-2
  6
CONTINUOUS
 62
     6
100
AcDbCircle
 10
432.098752
 20
1893.383228
 30
0.0
 40
1.0
100
AcDbArc
 50
0.0
 51
180.0
  0
ARC
  5
328
100
AcDbEntity
  8
LAY-2
  6
CONTINUOUS
 62
     6
100
AcDbCircle
 10
432.098752
 20
1881.38322
 30
0.0
 40
1.0
100
AcDbArc
 50
180.0
 51
0.0
  0
LINE
  5
329
100
AcDbEntity
  8
LAY-2
  6
CONTINUOUS
 62
     6
100
AcDbLine
 10
433.098752
 20
1893.383228
 30
0.0
 11
433.098752
 21
1881.38322
 31
0.0
  0
LINE
  5
32A
100
AcDbEntity
  8
LAY-2
  6
CONTINUOUS
 62
     6
100
AcDbLine
 10
431.098752
 20
1881.38322
 30
0.0
 11
431.098752
 21
1893.383228
 31
0.0
  0
LINE
  5
32B
100
AcDbEntity
  8
LAY-2
  6
CONTINUOUS
 62
     2
100
AcDbLine
 10
421.598752
 20
1893.883228
 30
0.0
 11
406.098752
 21
1893.883228
 31
0.0
  0
LINE
  5
32C
100
AcDbEntity
  8
LAY-2
  6
CONTINUOUS
 62
     2
100
AcDbLine
 10
421.598752
 20
1880.883228
 30
0.0
 11
406.098752
 21
1880.883228
 31
0.0
  0
LINE
  5
32D
100
AcDbEntity
  8
LAY-2
  6
CONTINUOUS
 62
     6
100
AcDbLine
 10
969.233853
 20
1462.190749
 30
0.0
 11
978.232471
 21
1462.03976
 31
0.0
  0
ARC
  5
32E
100
AcDbEntity
  8
LAY-2
  6
CONTINUOUS
 62
     6
100
AcDbCircle
 10
1067.259537
 20
4001.028108
 30
0.0
 40
2500.0
100
AcDbArc
 50
261.904657
 51
266.172846
  0
ARC
  5
32F
100
AcDbEntity
  8
LAY-2
  6
CONTINUOUS
 62
     6
100
AcDbCircle
 10
311.897577
 20
-2393.917432
 30
0.0
 40
3999.999512
100
AcDbArc
 50
79.837946
 51
84.735956
  0
ARC
  5
330
100
AcDbEntity
  8
LAY-2
  6
CONTINUOUS
 62
     6
100
AcDbCircle
 10
1047.419956
 20
4007.922988
 30
0.0
 40
2500.0
100
AcDbArc
 50
260.648554
 51
266.616572
  0
LINE
  5
331
100
AcDbEntity
  8
LAY-2
  6
CONTINUOUS
 62
     6
100
AcDbLine
 10
716.586598
 20
1477.83176
 30
0.0
 11
900.123706
 21
1474.751359
 31
0.0
  0
ARC
  5
332
100
AcDbEntity
  8
LAY-2
  6
CONTINUOUS
 62
     6
100
AcDbCircle
 10
722.248049
 20
1575.441923
 30
0.0
 40
49.999996
100
AcDbArc
 50
238.735083
 51
261.904657
  0
LINE
  5
333
100
AcDbEntity
  8
LAY-2
  6
CONTINUOUS
 62
     6
100
AcDbLine
 10
710.288439
 20
1480.200657
 30
0.0
 11
637.203167
 21
1542.148363
 31
0.0
  0
ARC
  5
334
100
AcDbEntity
  8
LAY-2
  6
CONTINUOUS
 62
     6
100
AcDbCircle
 10
604.626587
 20
1516.994149
 30
0.0
 40
15.5
100
AcDbArc
 50
0.0
 51
180.0
  0
CIRCLE
  5
335
100
AcDbEntity
  8
LAY-2
  6
CONTINUOUS
 62
     6
100
AcDbCircle
 10
604.626587
 20
1516.994149
 30
0.0
 40
15.0
  0
LINE
  5
336
100
AcDbEntity
  8
LAY-2
  6
CONTINUOUS
 62
     6
100
AcDbLine
 10
569.167838
 20
1499.826692
 30
0.0
 11
571.578761
 21
1568.866506
 31
0.0
  0
LINE
  5
337
100
AcDbEntity
  8
LAY-2
  6
CONTINUOUS
 62
     6
100
AcDbLine
 10
561.483093
 20
1563.447823
 30
0.0
 11
558.840152
 21
1462.507176
 31
0.0
  0
LINE
  5
338
100
AcDbEntity
  8
LAY-2
  6
CONTINUOUS
 62
     6
100
AcDbLine
 10
615.933655
 20
1542.220406
 30
0.0
 11
686.806702
 21
1481.456368
 31
0.0
  0
LINE
  5
339
100
AcDbEntity
  8
LAY-2
  6
CONTINUOUS
 62
     6
100
AcDbLine
 10
688.317797
 20
1461.994088
 30
0.0
 11
607.976587
 21
1461.994088
 31
0.0
  0
ARC
  5
33A
100
AcDbEntity
  8
LAY-2
  6
CONTINUOUS
 62
     6
100
AcDbCircle
 10
610.626587
 20
1475.994088
 30
0.0
 40
3.0
100
AcDbArc
 50
0.0
 51
90.0
  0
ARC
  5
33B
100
AcDbEntity
  8
LAY-2
  6
CONTINUOUS
 62
     6
100
AcDbCircle
 10
610.626587
 20
1464.994088
 30
0.0
 40
3.0
100
AcDbArc
 50
270.0
 51
0.0
  0
LINE
  5
33C
100
AcDbEntity
  8
LAY-2
  6
CONTINUOUS
 62
     6
100
AcDbLine
 10
609.626587
 20
1461.994088
 30
0.0
 11
609.626587
 21
1475.004853
 31
0.0
  0
LINE
  5
33D
100
AcDbEntity
  8
LAY-2
  6
CONTINUOUS
 62
     6
100
AcDbLine
 10
613.626587
 20
1464.994088
 30
0.0
 11
613.626587
 21
1475.994088
 31
0.0
  0
ARC
  5
33E
100
AcDbEntity
  8
LAY-2
  6
CONTINUOUS
 62
     6
100
AcDbCircle
 10
598.626587
 20
1475.994088
 30
0.0
 40
3.0
100
AcDbArc
 50
90.0
 51
180.0
  0
ARC
  5
33F
100
AcDbEntity
  8
LAY-2
  6
CONTINUOUS
 62
     6
100
AcDbCircle
 10
598.626587
 20
1464.994088
 30
0.0
 40
3.0
100
AcDbArc
 50
180.0
 51
270.0
  0
LINE
  5
340
100
AcDbEntity
  8
LAY-2
  6
CONTINUOUS
 62
     6
100
AcDbLine
 10
599.626587
 20
1461.994088
 30
0.0
 11
599.626587
 21
1475.004853
 31
0.0
  0
LINE
  5
341
100
AcDbEntity
  8
LAY-2
  6
CONTINUOUS
 62
     6
100
AcDbLine
 10
595.626587
 20
1464.994088
 30
0.0
 11
595.626587
 21
1475.994088
 31
0.0
  0
LINE
  5
342
100
AcDbEntity
  8
LAY-2
  6
CONTINUOUS
 62
     6
100
AcDbLine
 10
610.626587
 20
1478.994088
 30
0.0
 11
598.626587
 21
1478.994088
 31
0.0
  0
LINE
  5
343
100
AcDbEntity
  8
LAY-2
  6
CONTINUOUS
 62
     6
100
AcDbLine
 10
609.626587
 20
1468.499471
 30
0.0
 11
599.626587
 21
1468.499471
 31
0.0
  0
LINE
  5
344
100
AcDbEntity
  8
LAY-2
  6
CONTINUOUS
 62
     6
100
AcDbLine
 10
609.626587
 20
1475.004853
 30
0.0
 11
599.626587
 21
1475.004853
 31
0.0
  0
LINE
  5
345
100
AcDbEntity
  8
LAY-2
  6
CONTINUOUS
 62
     6
100
AcDbLine
 10
589.126587
 20
1516.994149
 30
0.0
 11
586.244123
 21
1461.994088
 31
0.0
  0
ARC
  5
346
100
AcDbEntity
  8
LAY-2
  6
CONTINUOUS
 62
     6
100
AcDbCircle
 10
564.460885
 20
1486.149056
 30
0.0
 40
5.0
100
AcDbArc
 50
135.0
 51
178.500157
  0
LINE
  5
347
100
AcDbEntity
  8
LAY-2
  6
CONTINUOUS
 62
     6
100
AcDbLine
 10
560.925351
 20
1489.684589
 30
0.0
 11
567.706418
 21
1496.465656
 31
0.0
  0
ARC
  5
348
100
AcDbEntity
  8
LAY-2
  6
CONTINUOUS
 62
     6
100
AcDbCircle
 10
559.339981
 20
1462.494088
 30
0.0
 40
0.5
100
AcDbArc
 50
178.50016
 51
270.0
  0
LINE
  5
349
100
AcDbEntity
  8
LAY-2
  6
CONTINUOUS
 62
     6
100
AcDbLine
 10
601.276587
 20
1461.994088
 30
0.0
 11
559.339981
 21
1461.994088
 31
0.0
  0
ARC
  5
34A
100
AcDbEntity
  8
LAY-2
  6
CONTINUOUS
 62
     6
100
AcDbCircle
 10
564.170884
 20
1500.00119
 30
0.0
 40
5.0
100
AcDbArc
 50
315.0
 51
358.0
  0
LINE
  5
34B
100
AcDbEntity
  8
LAY-2
  6
CONTINUOUS
 62
     6
100
AcDbLine
 10
659.393177
 20
1522.988559
 30
0.0
 11
659.634216
 21
1509.178414
 31
0.0
  0
ARC
  5
34C
100
AcDbEntity
  8
LAY-2
  6
CONTINUOUS
 62
     6
100
AcDbCircle
 10
669.540283
 20
1514.636361
 30
0.0
 40
10.0
100
AcDbArc
 50
181.002686
 51
233.839844
  0
LINE
  5
34D
100
AcDbEntity
  8
LAY-2
  6
CONTINUOUS
 62
     6
100
AcDbLine
 10
688.408386
 20
1485.943917
 30
0.0
 11
688.406983
 21
1486.024971
 31
0.0
  0
ARC
  5
34E
100
AcDbEntity
  8
LAY-2
  6
CONTINUOUS
 62
     6
100
AcDbCircle
 10
683.407959
 20
1485.922921
 30
0.0
 40
5.0
100
AcDbArc
 50
0.999878
 51
53.841919
  0
ARC
  5
34F
100
AcDbEntity
  8
LAY-2
  6
CONTINUOUS
 62
     6
100
AcDbCircle
 10
683.552307
 20
1477.660469
 30
0.0
 40
5.0
100
AcDbArc
 50
1.000214
 51
49.392029
  0
ARC
  5
350
100
AcDbEntity
  8
LAY-2
  6
CONTINUOUS
 62
     6
100
AcDbCircle
 10
688.826538
 20
1461.996346
 30
0.0
 40
3.598692
100
AcDbArc
 50
90.0
 51
91.000511
  0
ARC
  5
351
100
AcDbEntity
  8
LAY-2
  6
CONTINUOUS
 62
     6
100
AcDbCircle
 10
688.317797
 20
1462.494088
 30
0.0
 40
0.5
100
AcDbArc
 50
270.0
 51
1.000259
  0
LINE
  5
352
100
AcDbEntity
  8
LAY-2
  6
CONTINUOUS
 62
     6
100
AcDbLine
 10
688.817721
 20
1462.502817
 30
0.0
 11
688.408447
 21
1485.944039
 31
0.0
  0
ARC
  5
353
100
AcDbEntity
  8
LAY-2
  6
CONTINUOUS
 62
     6
100
AcDbCircle
 10
669.632568
 20
1509.352913
 30
0.0
 40
10.0
100
AcDbArc
 50
181.001465
 51
229.389771
  0
LINE
  5
354
100
AcDbEntity
  8
LAY-2
  6
CONTINUOUS
 62
     6
100
AcDbLine
 10
663.639893
 20
1506.56263
 30
0.0
 11
686.358154
 21
1489.959786
 31
0.0
  0
LINE
  5
355
100
AcDbEntity
  8
LAY-2
  6
CONTINUOUS
 62
     6
100
AcDbLine
 10
620.126587
 20
1516.994149
 30
0.0
 11
623.009051
 21
1461.994088
 31
0.0
  0
LINE
  5
356
100
AcDbEntity
  8
LAY-2
  6
CONTINUOUS
 62
     6
100
AcDbLine
 10
634.82666
 20
1461.993966
 30
0.0
 11
664.82666
 21
1461.993966
 31
0.0
  0
ARC
  5
357
100
AcDbEntity
  8
LAY-2
  6
CONTINUOUS
 62
     6
100
AcDbCircle
 10
604.226563
 20
1193.494088
 30
0.0
 40
400.0
100
AcDbArc
 50
85.505127
 51
92.06937
  0
ARC
  5
358
100
AcDbEntity
  8
LAY-2
  6
CONTINUOUS
 62
     6
100
AcDbCircle
 10
604.225159
 20
1188.243172
 30
0.0
 40
400.0
100
AcDbArc
 50
87.459688
 51
89.440301
  0
LINE
  5
359
100
AcDbEntity
  8
LAY-2
  6
CONTINUOUS
 62
     6
100
AcDbLine
 10
616.914525
 20
1542.994094
 30
0.0
 11
617.426563
 21
1542.994094
 31
0.0
  0
LINE
  5
35A
100
AcDbEntity
  8
LAY-2
  6
CONTINUOUS
 62
     6
100
AcDbLine
 10
605.103683
 20
1585.171878
 30
0.0
 11
605.464966
 21
1564.472237
 31
0.0
  0
ARC
  5
35B
100
AcDbEntity
  8
LAY-2
  6
CONTINUOUS
 62
     6
100
AcDbCircle
 10
608.103226
 20
1585.224231
 30
0.0
 40
3.0
100
AcDbArc
 50
89.440301
 51
180.999915
  0
ARC
  5
35C
100
AcDbEntity
  8
LAY-2
  6
CONTINUOUS
 62
     6
100
AcDbCircle
 10
589.96759
 20
1588.236641
 30
0.0
 40
5.0
100
AcDbArc
 50
92.069305
 51
131.33255
  0
ARC
  5
35D
100
AcDbEntity
  8
LAY-2
  6
CONTINUOUS
 62
     6
100
AcDbCircle
 10
576.477966
 20
1563.055184
 30
0.0
 40
15.0
100
AcDbArc
 50
131.330933
 51
178.500488
  0
LINE
  5
35E
100
AcDbEntity
  8
LAY-2
  6
CONTINUOUS
 62
     6
100
AcDbLine
 10
566.571716
 20
1574.318673
 30
0.0
 11
586.665466
 21
1591.991097
 31
0.0
  0
ARC
  5
35F
100
AcDbEntity
  8
LAY-2
  6
CONTINUOUS
 62
     6
100
AcDbCircle
 10
616.914525
 20
1547.494094
 30
0.0
 40
4.5
100
AcDbArc
 50
223.340619
 51
270.0
  0
LINE
  5
360
100
AcDbEntity
  8
LAY-2
  6
CONTINUOUS
 62
     6
100
AcDbLine
 10
604.126587
 20
1532.494149
 30
0.0
 11
605.126587
 21
1532.494149
 31
0.0
  0
ARC
  5
361
100
AcDbEntity
  8
LAY-2
  6
CONTINUOUS
 62
     6
100
AcDbCircle
 10
604.626587
 20
1516.994149
 30
0.0
 40
16.0
100
AcDbArc
 50
88.151489
 51
91.848511
  0
ARC
  5
362
100
AcDbEntity
  8
LAY-2
  6
CONTINUOUS
 62
     6
100
AcDbCircle
 10
604.126587
 20
1532.486092
 30
0.0
 40
0.5
100
AcDbArc
 50
91.846832
 51
180.0
  0
ARC
  5
363
100
AcDbEntity
  8
LAY-2
  6
CONTINUOUS
 62
     6
100
AcDbCircle
 10
605.126587
 20
1532.486092
 30
0.0
 40
0.5
100
AcDbArc
 50
0.0
 51
88.153198
  0
ARC
  5
364
100
AcDbEntity
  8
LAY-2
  6
CONTINUOUS
 62
     6
100
AcDbCircle
 10
635.460327
 20
1564.995614
 30
0.0
 40
30.0
100
AcDbArc
 50
181.0
 51
229.391357
  0
ARC
  5
365
100
AcDbEntity
  8
LAY-2
  6
CONTINUOUS
 62
     6
100
AcDbCircle
 10
678.605654
 20
1586.224137
 30
0.0
 40
2.999986
100
AcDbArc
 50
84.735712
 51
179.038447
  0
LINE
  5
366
100
AcDbEntity
  8
LAY-2
  6
CONTINUOUS
 62
     6
100
AcDbLine
 10
675.605973
 20
1586.274323
 30
0.0
 11
675.576142
 21
1584.489019
 31
0.0
  0
LINE
  5
367
100
AcDbEntity
  8
LAY-2
  6
CONTINUOUS
 62
     6
100
AcDbLine
 10
620.270012
 20
1566.286956
 30
0.0
 11
620.653911
 21
1585.205717
 31
0.0
  0
ARC
  5
368
100
AcDbEntity
  8
LAY-2
  6
CONTINUOUS
 62
     6
100
AcDbCircle
 10
623.653277
 20
1585.14484
 30
0.0
 40
2.999987
100
AcDbArc
 50
88.189375
 51
178.837202
  0
ARC
  5
369
100
AcDbEntity
  8
LAY-2
  6
CONTINUOUS
 62
     6
100
AcDbCircle
 10
611.112015
 20
1188.343028
 30
0.0
 40
399.999939
100
AcDbArc
 50
85.05406
 51
88.189711
  0
ARC
  5
36A
100
AcDbEntity
  8
LAY-2
  6
CONTINUOUS
 62
     6
100
AcDbCircle
 10
633.615234
 20
1567.340767
 30
0.0
 40
25.0
100
AcDbArc
 50
50.819455
 51
85.505188
  0
LINE
  5
36B
100
AcDbEntity
  8
LAY-2
  6
CONTINUOUS
 62
     6
100
AcDbLine
 10
621.068327
 20
1556.362501
 30
0.0
 11
621.127322
 21
1559.269723
 31
0.0
  0
LINE
  5
36C
100
AcDbEntity
  8
LAY-2
  6
CONTINUOUS
 62
     6
100
AcDbLine
 10
624.164349
 20
1537.081479
 30
0.0
 11
622.916249
 21
1547.669693
 31
0.0
  0
ARC
  5
36D
100
AcDbEntity
  8
LAY-2
  6
CONTINUOUS
 62
     6
100
AcDbCircle
 10
617.426563
 20
1545.494094
 30
0.0
 40
2.5
100
AcDbArc
 50
270.0
 51
0.0
  0
ARC
  5
36E
100
AcDbEntity
  8
LAY-2
  6
CONTINUOUS
 62
     6
100
AcDbCircle
 10
621.426563
 20
1547.494094
 30
0.0
 40
1.5
100
AcDbArc
 50
6.722792
 51
180.0
  0
LINE
  5
36F
100
AcDbEntity
  8
LAY-2
  6
CONTINUOUS
 62
     6
100
AcDbLine
 10
619.926563
 20
1545.494094
 30
0.0
 11
619.926563
 21
1547.494094
 31
0.0
  0
LINE
  5
370
100
AcDbEntity
  8
LAY-2
  6
CONTINUOUS
 62
     6
100
AcDbLine
 10
622.738761
 20
1554.936496
 30
0.0
 11
621.068266
 21
1556.362532
 31
0.0
  0
ARC
  5
371
100
AcDbEntity
  8
LAY-2
  6
CONTINUOUS
 62
     6
100
AcDbCircle
 10
645.264843
 20
1565.779734
 30
0.0
 40
25.000004
100
AcDbArc
 50
194.017134
 51
260.44731
  0
ARC
  5
372
100
AcDbEntity
  8
LAY-2
  6
CONTINUOUS
 62
     6
100
AcDbCircle
 10
629.626532
 20
1537.725341
 30
0.0
 40
5.5
100
AcDbArc
 50
186.722792
 51
229.391384
  0
ARC
  5
373
100
AcDbEntity
  8
LAY-2
  6
CONTINUOUS
 62
     6
100
AcDbCircle
 10
645.264843
 20
1565.779734
 30
0.0
 40
25.000004
100
AcDbArc
 50
178.837446
 51
194.017134
  0
ARC
  5
374
100
AcDbEntity
  8
LAY-2
  6
CONTINUOUS
 62
     6
100
AcDbCircle
 10
311.813699
 20
-2398.935598
 30
0.0
 40
3999.999756
100
AcDbArc
 50
84.782282
 51
85.214441
  0
LINE
  5
375
100
AcDbEntity
  8
LAY-2
  6
CONTINUOUS
 62
     6
100
AcDbLine
 10
752.281175
 20
1466.831545
 30
0.0
 11
752.371695
 21
1472.230801
 31
0.0
  0
LINE
  5
376
100
AcDbEntity
  8
LAY-2
  6
CONTINUOUS
 62
     6
100
AcDbLine
 10
737.283194
 20
1467.083274
 30
0.0
 11
737.373836
 21
1472.482468
 31
0.0
  0
LINE
  5
377
100
AcDbEntity
  8
LAY-2
  6
CONTINUOUS
 62
     6
100
AcDbLine
 10
752.26263
 20
1465.731811
 30
0.0
 11
752.281053
 21
1466.831544
 31
0.0
  0
LINE
  5
378
100
AcDbEntity
  8
LAY-2
  6
CONTINUOUS
 62
     6
100
AcDbLine
 10
737.264768
 20
1465.983299
 30
0.0
 11
737.283194
 21
1467.083213
 31
0.0
  0
LINE
  5
379
100
AcDbEntity
  8
LAY-2
  6
CONTINUOUS
 62
     6
100
AcDbLine
 10
740.214018
 20
1462.933471
 30
0.0
 11
749.212721
 21
1462.782482
 31
0.0
  0
ARC
  5
37A
100
AcDbEntity
  8
LAY-2
  6
CONTINUOUS
 62
     6
100
AcDbCircle
 10
740.264347
 20
1465.933048
 30
0.0
 40
3.0
100
AcDbArc
 50
179.04024
 51
269.038731
  0
ARC
  5
37B
100
AcDbEntity
  8
LAY-2
  6
CONTINUOUS
 62
     6
100
AcDbCircle
 10
749.263051
 20
1465.78206
 30
0.0
 40
3.0
100
AcDbArc
 50
269.038731
 51
359.040268
  0
ARC
  5
37C
100
AcDbEntity
  8
LAY-2
  6
CONTINUOUS
 62
     6
100
AcDbCircle
 10
757.371062
 20
1472.146932
 30
0.0
 40
5.0
100
AcDbArc
 50
89.03866
 51
179.03863
  0
ARC
  5
37D
100
AcDbEntity
  8
LAY-2
  6
CONTINUOUS
 62
     6
100
AcDbCircle
 10
732.37459
 20
1472.566338
 30
0.0
 40
5.0
100
AcDbArc
 50
359.03863
 51
89.03863
  0
ARC
  5
37E
100
AcDbEntity
  8
LAY-2
  6
CONTINUOUS
 62
     6
100
AcDbCircle
 10
716.754343
 20
1487.829031
 30
0.0
 40
9.999996
100
AcDbArc
 50
229.715082
 51
269.038569
  0
LINE
  5
37F
100
AcDbEntity
  8
LAY-2
  6
CONTINUOUS
 62
     6
100
AcDbLine
 10
1090.332104
 20
1506.851947
 30
0.0
 11
1003.332912
 21
1508.3117
 31
0.0
  0
ARC
  5
380
100
AcDbEntity
  8
LAY-2
  6
CONTINUOUS
 62
     6
100
AcDbCircle
 10
1067.259537
 20
4001.028108
 30
0.0
 40
2500.0
100
AcDbArc
 50
266.172846
 51
268.991755
  0
LINE
  5
381
100
AcDbEntity
  8
LAY-2
  6
CONTINUOUS
 62
     6
100
AcDbLine
 10
900.123706
 20
1474.751359
 30
0.0
 11
1091.108041
 21
1471.545945
 31
0.0
  0
ARC
  5
382
100
AcDbEntity
  8
LAY-2
  6
CONTINUOUS
 62
     6
100
AcDbCircle
 10
1047.419956
 20
4007.922988
 30
0.0
 40
2500.0
100
AcDbArc
 50
266.616572
 51
269.038691
  0
ARC
  5
383
100
AcDbEntity
  8
LAY-2
  6
CONTINUOUS
 62
     6
100
AcDbCircle
 10
986.338808
 20
1468.304669
 30
0.0
 40
5.000004
100
AcDbArc
 50
89.03863
 51
179.03863
  0
LINE
  5
384
100
AcDbEntity
  8
LAY-2
  6
CONTINUOUS
 62
     6
100
AcDbLine
 10
981.28242
 20
1464.989029
 30
0.0
 11
981.315919
 21
1466.988715
 31
0.0
  0
LINE
  5
385
100
AcDbEntity
  8
LAY-2
  6
CONTINUOUS
 62
     6
100
AcDbLine
 10
981.339563
 20
1468.388538
 30
0.0
 11
981.315919
 21
1466.988715
 31
0.0
  0
ARC
  5
386
100
AcDbEntity
  8
LAY-2
  6
CONTINUOUS
 62
     6
100
AcDbCircle
 10
984.377094
 20
1510.418487
 30
0.0
 40
6.0
100
AcDbArc
 50
194.947382
 51
342.160639
  0
ARC
  5
387
100
AcDbEntity
  8
LAY-2
  6
CONTINUOUS
 62
     6
100
AcDbCircle
 10
969.284181
 20
1465.190327
 30
0.0
 40
3.0
100
AcDbArc
 50
179.038691
 51
269.038752
  0
ARC
  5
388
100
AcDbEntity
  8
LAY-2
  6
CONTINUOUS
 62
     6
100
AcDbCircle
 10
961.342336
 20
1468.724136
 30
0.0
 40
5.000004
100
AcDbArc
 50
359.03863
 51
89.038538
  0
LINE
  5
389
100
AcDbEntity
  8
LAY-2
  6
CONTINUOUS
 62
     6
100
AcDbLine
 10
966.284561
 20
1465.240697
 30
0.0
 11
966.318059
 21
1467.240444
 31
0.0
  0
LINE
  5
38A
100
AcDbEntity
  8
LAY-2
  6
CONTINUOUS
 62
     6
100
AcDbLine
 10
966.341703
 20
1468.640268
 30
0.0
 11
966.318059
 21
1467.240444
 31
0.0
  0
LINE
  5
38B
100
AcDbEntity
  8
LAY-2
  6
CONTINUOUS
 62
     6
100
AcDbLine
 10
966.318058
 20
1467.240374
 30
0.0
 11
981.315921
 21
1466.988828
 31
0.0
  0
ARC
  5
38C
100
AcDbEntity
  8
LAY-2
  6
CONTINUOUS
 62
     6
100
AcDbCircle
 10
978.282799
 20
1465.039338
 30
0.0
 40
3.0
100
AcDbArc
 50
269.038752
 51
359.038691
  0
ARC
  5
38D
100
AcDbEntity
  8
LAY-2
  6
CONTINUOUS
 62
     6
100
AcDbCircle
 10
1064.135518
 20
1506.669956
 30
0.0
 40
25.000002
100
AcDbArc
 50
44.427241
 51
73.523249
  0
ARC
  5
38E
100
AcDbEntity
  8
LAY-2
  6
CONTINUOUS
 62
     6
100
AcDbCircle
 10
929.412527
 20
1051.176064
 30
0.0
 40
500.0
100
AcDbArc
 50
73.523188
 51
79.837946
  0
ARC
  5
38F
100
AcDbEntity
  8
LAY-2
  6
CONTINUOUS
 62
     6
100
AcDbCircle
 10
1088.357133
 20
1508.361633
 30
0.0
 40
2.999998
100
AcDbArc
 50
359.038935
 51
19.238947
  0
ARC
  5
390
100
AcDbEntity
  8
LAY-2
  6
CONTINUOUS
 62
     6
100
AcDbCircle
 10
1053.423461
 20
1496.169925
 30
0.0
 40
39.999996
100
AcDbArc
 50
19.238764
 51
44.427241
  0
ARC
  5
391
100
AcDbEntity
  8
LAY-2
  6
CONTINUOUS
 62
     6
100
AcDbCircle
 10
1090.348914
 20
1507.851821
 30
0.0
 40
1.0
100
AcDbArc
 50
269.038691
 51
359.038691
  0
LINE
  5
392
100
AcDbEntity
  8
LAY-2
  6
CONTINUOUS
 62
     6
100
AcDbLine
 10
1091.356693
 20
1508.311324
 30
0.0
 11
1091.348726
 21
1507.835072
 31
0.0
  0
ARC
  5
393
100
AcDbEntity
  8
LAY-2
  6
CONTINUOUS
 62
     6
100
AcDbCircle
 10
1081.406934
 20
1492.224303
 30
0.0
 40
8.0
100
AcDbArc
 50
8.778772
 51
86.016871
  0
ARC
  5
394
100
AcDbEntity
  8
LAY-2
  6
CONTINUOUS
 62
     6
100
AcDbCircle
 10
1071.543187
 20
1350.56733
 30
0.0
 40
150.0
100
AcDbArc
 50
86.016871
 51
90.034845
  0
ARC
  5
395
100
AcDbEntity
  8
LAY-2
  6
CONTINUOUS
 62
     6
100
AcDbCircle
 10
1091.112969
 20
1471.845785
 30
0.0
 40
0.3
100
AcDbArc
 50
269.03863
 51
359.036493
  0
LINE
  5
396
100
AcDbEntity
  8
LAY-2
  6
CONTINUOUS
 62
     6
100
AcDbLine
 10
1091.424754
 20
1472.540586
 30
0.0
 11
1091.412931
 21
1471.840797
 31
0.0
  0
ARC
  5
397
100
AcDbEntity
  8
LAY-2
  6
CONTINUOUS
 62
     6
100
AcDbCircle
 10
891.656184
 20
1462.921352
 30
0.0
 40
199.999939
100
AcDbArc
 50
2.756769
 51
8.778772
  0
LINE
  5
398
100
AcDbEntity
  8
LAY-2
  6
CONTINUOUS
 62
     6
100
AcDbLine
 10
1023.269305
 20
1501.415259
 30
0.0
 11
1071.452029
 21
1500.567313
 31
0.0
  0
LINE
  5
399
100
AcDbEntity
  8
LAY-2
  6
CONTINUOUS
 62
     6
100
AcDbLine
 10
1336.991626
 20
1378.986977
 30
0.0
 11
1356.991634
 21
1378.986977
 31
0.0
  0
LINE
  5
39A
100
AcDbEntity
  8
LAY-2
  6
CONTINUOUS
 62
     6
100
AcDbLine
 10
1353.991634
 20
1348.986977
 30
0.0
 11
1359.345974
 21
1365.536782
 31
0.0
  0
LINE
  5
39B
100
AcDbEntity
  8
LAY-2
  6
CONTINUOUS
 62
     6
100
AcDbLine
 10
1351.491634
 20
1348.986977
 30
0.0
 11
1356.369732
 21
1365.572549
 31
0.0
  0
ARC
  5
39C
100
AcDbEntity
  8
LAY-2
  6
CONTINUOUS
 62
     6
100
AcDbCircle
 10
1354.491634
 20
1373.486977
 30
0.0
 40
2.0
100
AcDbArc
 50
0.0
 51
90.0
  0
LINE
  5
39D
100
AcDbEntity
  8
LAY-2
  6
CONTINUOUS
 62
     6
100
AcDbLine
 10
1339.991642
 20
1348.986977
 30
0.0
 11
1334.637287
 21
1365.536782
 31
0.0
  0
LINE
  5
39E
100
AcDbEntity
  8
LAY-2
  6
CONTINUOUS
 62
     6
100
AcDbLine
 10
1342.491642
 20
1348.986977
 30
0.0
 11
1337.613529
 21
1365.572549
 31
0.0
  0
ARC
  5
39F
100
AcDbEntity
  8
LAY-2
  6
CONTINUOUS
 62
     6
100
AcDbCircle
 10
1336.991626
 20
1376.486977
 30
0.0
 40
2.5
100
AcDbArc
 50
90.0
 51
180.0
  0
LINE
  5
3A0
100
AcDbEntity
  8
LAY-2
  6
CONTINUOUS
 62
     6
100
AcDbLine
 10
1353.991634
 20
1378.986977
 30
0.0
 11
1353.991634
 21
1379.486977
 31
0.0
  0
LINE
  5
3A1
100
AcDbEntity
  8
LAY-2
  6
CONTINUOUS
 62
     6
100
AcDbLine
 10
1339.991626
 20
1378.986977
 30
0.0
 11
1339.991626
 21
1379.486977
 31
0.0
  0
LINE
  5
3A2
100
AcDbEntity
  8
LAY-2
  6
CONTINUOUS
 62
     6
100
AcDbLine
 10
1340.491626
 20
1379.986977
 30
0.0
 11
1353.491634
 21
1379.986977
 31
0.0
  0
ARC
  5
3A3
100
AcDbEntity
  8
LAY-2
  6
CONTINUOUS
 62
     6
100
AcDbCircle
 10
1340.491626
 20
1379.486977
 30
0.0
 40
0.5
100
AcDbArc
 50
90.0
 51
180.0
  0
ARC
  5
3A4
100
AcDbEntity
  8
LAY-2
  6
CONTINUOUS
 62
     6
100
AcDbCircle
 10
1353.491634
 20
1379.486977
 30
0.0
 40
0.5
100
AcDbArc
 50
0.0
 51
90.0
  0
LINE
  5
3A5
100
AcDbEntity
  8
LAY-2
  6
CONTINUOUS
 62
     6
100
AcDbLine
 10
1334.491626
 20
1376.486977
 30
0.0
 11
1334.491626
 21
1366.460244
 31
0.0
  0
LINE
  5
3A6
100
AcDbEntity
  8
LAY-2
  6
CONTINUOUS
 62
     6
100
AcDbLine
 10
1333.741626
 20
1373.986977
 30
0.0
 11
1334.491626
 21
1373.986977
 31
0.0
  0
LINE
  5
3A7
100
AcDbEntity
  8
LAY-2
  6
CONTINUOUS
 62
     6
100
AcDbLine
 10
1333.741626
 20
1373.986977
 30
0.0
 11
1333.741626
 21
1366.657388
 31
0.0
  0
LINE
  5
3A8
100
AcDbEntity
  8
LAY-2
  6
CONTINUOUS
 62
     6
100
AcDbLine
 10
1335.644519
 20
1359.986977
 30
0.0
 11
1336.432804
 21
1359.986977
 31
0.0
  0
LINE
  5
3A9
100
AcDbEntity
  8
LAY-2
  6
CONTINUOUS
 62
     6
100
AcDbLine
 10
1335.644519
 20
1359.986977
 30
0.0
 11
1333.984394
 21
1365.118264
 31
0.0
  0
LINE
  5
3AA
100
AcDbEntity
  8
LAY-2
  6
CONTINUOUS
 62
     6
100
AcDbLine
 10
1337.491626
 20
1373.486977
 30
0.0
 11
1337.491626
 21
1366.419045
 31
0.0
  0
LINE
  5
3AB
100
AcDbEntity
  8
LAY-2
  6
CONTINUOUS
 62
     6
100
AcDbLine
 10
1339.491626
 20
1375.486977
 30
0.0
 11
1354.491634
 21
1375.486977
 31
0.0
  0
ARC
  5
3AC
100
AcDbEntity
  8
LAY-2
  6
CONTINUOUS
 62
     6
100
AcDbCircle
 10
1337.491626
 20
1366.460244
 30
0.0
 40
3.0
100
AcDbArc
 50
180.0
 51
197.927734
  0
ARC
  5
3AD
100
AcDbEntity
  8
LAY-2
  6
CONTINUOUS
 62
     6
100
AcDbCircle
 10
1337.491626
 20
1366.460244
 30
0.0
 40
3.0
100
AcDbArc
 50
180.0
 51
197.927734
  0
ARC
  5
3AE
100
AcDbEntity
  8
LAY-2
  6
CONTINUOUS
 62
     6
100
AcDbCircle
 10
1337.491626
 20
1366.460244
 30
0.0
 40
3.0
100
AcDbArc
 50
180.0
 51
197.927979
  0
ARC
  5
3AF
100
AcDbEntity
  8
LAY-2
  6
CONTINUOUS
 62
     6
100
AcDbCircle
 10
1338.741626
 20
1366.657388
 30
0.0
 40
5.0
100
AcDbArc
 50
180.0
 51
197.927979
  0
ARC
  5
3B0
100
AcDbEntity
  8
LAY-2
  6
CONTINUOUS
 62
     6
100
AcDbCircle
 10
1339.491626
 20
1373.486977
 30
0.0
 40
2.0
100
AcDbArc
 50
90.0
 51
180.0
  0
ARC
  5
3B1
100
AcDbEntity
  8
LAY-2
  6
CONTINUOUS
 62
     6
100
AcDbCircle
 10
1340.491626
 20
1366.419045
 30
0.0
 40
3.0
100
AcDbArc
 50
180.0
 51
196.389526
  0
LINE
  5
3B2
100
AcDbEntity
  8
LAY-2
  6
CONTINUOUS
 62
     6
100
AcDbLine
 10
1339.991642
 20
1348.986977
 30
0.0
 11
1340.741642
 21
1346.986977
 31
0.0
  0
LINE
  5
3B3
100
AcDbEntity
  8
LAY-2
  6
CONTINUOUS
 62
     6
100
AcDbLine
 10
1353.991634
 20
1348.986977
 30
0.0
 11
1353.241634
 21
1346.986977
 31
0.0
  0
LINE
  5
3B4
100
AcDbEntity
  8
LAY-2
  6
CONTINUOUS
 62
     6
100
AcDbLine
 10
1341.241642
 20
1346.986977
 30
0.0
 11
1341.352741
 21
1345.486977
 31
0.0
  0
LINE
  5
3B5
100
AcDbEntity
  8
LAY-2
  6
CONTINUOUS
 62
     6
100
AcDbLine
 10
1352.741634
 20
1346.986977
 30
0.0
 11
1352.630519
 21
1345.486977
 31
0.0
  0
LINE
  5
3B6
100
AcDbEntity
  8
LAY-2
  6
CONTINUOUS
 62
     6
100
AcDbLine
 10
1341.908298
 20
1337.986977
 30
0.0
 11
1342.019413
 21
1336.486977
 31
0.0
  0
LINE
  5
3B7
100
AcDbEntity
  8
LAY-2
  6
CONTINUOUS
 62
     6
100
AcDbLine
 10
1341.686084
 20
1340.986977
 30
0.0
 11
1341.797184
 21
1339.486977
 31
0.0
  0
LINE
  5
3B8
100
AcDbEntity
  8
LAY-2
  6
CONTINUOUS
 62
     6
100
AcDbLine
 10
1341.463871
 20
1343.986977
 30
0.0
 11
1341.57497
 21
1342.486977
 31
0.0
  0
LINE
  5
3B9
100
AcDbEntity
  8
LAY-2
  6
CONTINUOUS
 62
     6
100
AcDbLine
 10
1352.186077
 20
1339.486977
 30
0.0
 11
1352.297191
 21
1340.986977
 31
0.0
  0
LINE
  5
3BA
100
AcDbEntity
  8
LAY-2
  6
CONTINUOUS
 62
     6
100
AcDbLine
 10
1352.297191
 20
1340.986977
 30
0.0
 11
1352.186077
 21
1339.486977
 31
0.0
  0
LINE
  5
3BB
100
AcDbEntity
  8
LAY-2
  6
CONTINUOUS
 62
     6
100
AcDbLine
 10
1352.519405
 20
1343.986977
 30
0.0
 11
1352.40829
 21
1342.486977
 31
0.0
  0
LINE
  5
3BC
100
AcDbEntity
  8
LAY-2
  6
CONTINUOUS
 62
     6
100
AcDbLine
 10
1352.297176
 20
1340.986977
 30
0.0
 11
1352.186077
 21
1339.486977
 31
0.0
  0
LINE
  5
3BD
100
AcDbEntity
  8
LAY-2
  6
CONTINUOUS
 62
     6
100
AcDbLine
 10
1352.074962
 20
1337.986977
 30
0.0
 11
1351.963863
 21
1336.486977
 31
0.0
  0
LINE
  5
3BE
100
AcDbEntity
  8
LAY-2
  6
CONTINUOUS
 62
     6
100
AcDbLine
 10
1351.491634
 20
1348.986977
 30
0.0
 11
1351.491634
 21
1350.486977
 31
0.0
  0
LINE
  5
3BF
100
AcDbEntity
  8
LAY-2
  6
CONTINUOUS
 62
     6
100
AcDbLine
 10
1342.491642
 20
1348.986977
 30
0.0
 11
1342.491642
 21
1350.486977
 31
0.0
  0
LINE
  5
3C0
100
AcDbEntity
  8
LAY-2
  6
CONTINUOUS
 62
     6
100
AcDbLine
 10
1342.491642
 20
1350.486977
 30
0.0
 11
1351.491634
 21
1350.486977
 31
0.0
  0
LINE
  5
3C1
100
AcDbEntity
  8
LAY-2
  6
CONTINUOUS
 62
     6
100
AcDbLine
 10
1339.991642
 20
1348.986977
 30
0.0
 11
1353.991619
 21
1348.986977
 31
0.0
  0
LINE
  5
3C2
100
AcDbEntity
  8
LAY-2
  6
CONTINUOUS
 62
     6
100
AcDbLine
 10
1340.741642
 20
1346.986977
 30
0.0
 11
1353.241619
 21
1346.986977
 31
0.0
  0
LINE
  5
3C3
100
AcDbEntity
  8
LAY-2
  6
CONTINUOUS
 62
     6
100
AcDbLine
 10
1341.796329
 20
1333.486977
 30
0.0
 11
1341.991642
 21
1330.986977
 31
0.0
  0
LINE
  5
3C4
100
AcDbEntity
  8
LAY-2
  6
CONTINUOUS
 62
     6
100
AcDbLine
 10
1352.186947
 20
1333.486977
 30
0.0
 11
1351.991634
 21
1330.986977
 31
0.0
  0
LINE
  5
3C5
100
AcDbEntity
  8
LAY-2
  6
CONTINUOUS
 62
     6
100
AcDbLine
 10
1342.130527
 20
1334.986977
 30
0.0
 11
1342.241642
 21
1333.486977
 31
0.0
  0
LINE
  5
3C6
100
AcDbEntity
  8
LAY-2
  6
CONTINUOUS
 62
     6
100
AcDbLine
 10
1351.852733
 20
1334.986977
 30
0.0
 11
1351.741634
 21
1333.486977
 31
0.0
  0
LINE
  5
3C7
100
AcDbEntity
  8
LAY-2
  6
CONTINUOUS
 62
     6
100
AcDbLine
 10
1341.796329
 20
1333.486977
 30
0.0
 11
1352.186947
 21
1333.486977
 31
0.0
  0
LINE
  5
3C8
100
AcDbEntity
  8
LAY-2
  6
CONTINUOUS
 62
     6
100
AcDbLine
 10
1341.991642
 20
1330.986977
 30
0.0
 11
1351.991634
 21
1330.986977
 31
0.0
  0
ARC
  5
3C9
100
AcDbEntity
  8
LAY-2
  6
CONTINUOUS
 62
     6
100
AcDbCircle
 10
1356.991634
 20
1376.486977
 30
0.0
 40
2.5
100
AcDbArc
 50
0.0
 51
90.0
  0
LINE
  5
3CA
100
AcDbEntity
  8
LAY-2
  6
CONTINUOUS
 62
     6
100
AcDbLine
 10
1359.491634
 20
1376.486977
 30
0.0
 11
1359.491634
 21
1366.460244
 31
0.0
  0
LINE
  5
3CB
100
AcDbEntity
  8
LAY-2
  6
CONTINUOUS
 62
     6
100
AcDbLine
 10
1360.241634
 20
1373.986977
 30
0.0
 11
1360.241634
 21
1366.657388
 31
0.0
  0
LINE
  5
3CC
100
AcDbEntity
  8
LAY-2
  6
CONTINUOUS
 62
     6
100
AcDbLine
 10
1358.338741
 20
1359.986977
 30
0.0
 11
1359.998851
 21
1365.118325
 31
0.0
  0
LINE
  5
3CD
100
AcDbEntity
  8
LAY-2
  6
CONTINUOUS
 62
     6
100
AcDbLine
 10
1357.550457
 20
1359.986977
 30
0.0
 11
1358.338741
 21
1359.986977
 31
0.0
  0
LINE
  5
3CE
100
AcDbEntity
  8
LAY-2
  6
CONTINUOUS
 62
     6
100
AcDbLine
 10
1359.491634
 20
1373.986977
 30
0.0
 11
1360.241634
 21
1373.986977
 31
0.0
  0
LINE
  5
3CF
100
AcDbEntity
  8
LAY-2
  6
CONTINUOUS
 62
     6
100
AcDbLine
 10
1356.491634
 20
1373.486977
 30
0.0
 11
1356.491634
 21
1366.419045
 31
0.0
  0
ARC
  5
3D0
100
AcDbEntity
  8
LAY-2
  6
CONTINUOUS
 62
     6
100
AcDbCircle
 10
1356.491634
 20
1366.460244
 30
0.0
 40
3.0
100
AcDbArc
 50
342.072021
 51
0.0
  0
ARC
  5
3D1
100
AcDbEntity
  8
LAY-2
  6
CONTINUOUS
 62
     6
100
AcDbCircle
 10
1356.491634
 20
1366.460244
 30
0.0
 40
3.0
100
AcDbArc
 50
342.072021
 51
0.0
  0
ARC
  5
3D2
100
AcDbEntity
  8
LAY-2
  6
CONTINUOUS
 62
     6
100
AcDbCircle
 10
1355.241634
 20
1366.657388
 30
0.0
 40
5.0
100
AcDbArc
 50
342.072021
 51
0.0
  0
ARC
  5
3D3
100
AcDbEntity
  8
LAY-2
  6
CONTINUOUS
 62
     6
100
AcDbCircle
 10
1353.491634
 20
1366.419045
 30
0.0
 40
3.0
100
AcDbArc
 50
343.610535
 51
0.0
  0
LINE
  5
3D4
100
AcDbEntity
  8
LAY-2
  6
CONTINUOUS
 62
     2
100
AcDbLine
 10
1350.362728
 20
1335.736977
 30
0.0
 11
1343.62054
 21
1335.736977
 31
0.0
  0
LINE
  5
3D5
100
AcDbEntity
  8
LAY-2
  6
CONTINUOUS
 62
     2
100
AcDbLine
 10
1350.597103
 20
1338.736977
 30
0.0
 11
1343.386165
 21
1338.736977
 31
0.0
  0
LINE
  5
3D6
100
AcDbEntity
  8
LAY-2
  6
CONTINUOUS
 62
     2
100
AcDbLine
 10
1350.831478
 20
1341.736977
 30
0.0
 11
1343.15179
 21
1341.736977
 31
0.0
  0
LINE
  5
3D7
100
AcDbEntity
  8
LAY-2
  6
CONTINUOUS
 62
     2
100
AcDbLine
 10
1351.065853
 20
1344.736977
 30
0.0
 11
1342.917415
 21
1344.736977
 31
0.0
  0
ARC
  5
3D8
100
AcDbEntity
  8
LAY-2
  6
CONTINUOUS
 62
     6
100
AcDbCircle
 10
1646.99163
 20
-406.499939
 30
0.0
 40
1998.481
100
AcDbArc
 50
86.614349
 51
90.0
  0
ARC
  5
3D9
100
AcDbEntity
  8
LAY-2
  6
CONTINUOUS
 62
     6
100
AcDbCircle
 10
1646.992922
 20
2058.788762
 30
0.0
 40
531.345886
100
AcDbArc
 50
269.999861
 51
285.399952
  0
ARC
  5
3DA
100
AcDbEntity
  8
LAY-2
  6
CONTINUOUS
 62
     6
100
AcDbCircle
 10
1646.989299
 20
3299.447219
 30
0.0
 40
1799.236328
100
AcDbArc
 50
264.234742
 51
275.765259
  0
ARC
  5
3DB
100
AcDbEntity
  8
LAY-2
  6
CONTINUOUS
 62
     6
100
AcDbCircle
 10
1646.989886
 20
6021.344187
 30
0.0
 40
4514.486328
100
AcDbArc
 50
267.731239
 51
272.268805
  0
ARC
  5
3DC
100
AcDbEntity
  8
LAY-2
  6
CONTINUOUS
 62
     6
100
AcDbCircle
 10
1646.991091
 20
7489.70213
 30
0.0
 40
6018.150391
100
AcDbArc
 50
268.190796
 51
271.809205
  0
ARC
  5
3DD
100
AcDbEntity
  8
LAY-2
  6
CONTINUOUS
 62
     6
100
AcDbCircle
 10
1646.99163
 20
-406.499939
 30
0.0
 40
2000.0
100
AcDbArc
 50
86.614349
 51
90.0
  0
ARC
  5
3DE
100
AcDbEntity
  8
LAY-2
  6
CONTINUOUS
 62
     6
100
AcDbCircle
 10
1558.40728
 20
1090.882019
 30
0.0
 40
498.481
100
AcDbArc
 50
93.385651
 51
100.358051
  0
ARC
  5
3DF
100
AcDbEntity
  8
LAY-2
  6
CONTINUOUS
 62
     6
100
AcDbCircle
 10
1646.990338
 20
2058.788762
 30
0.0
 40
531.345886
100
AcDbArc
 50
254.600048
 51
270.000139
  0
ARC
  5
3E0
100
AcDbEntity
  8
LAY-2
  6
CONTINUOUS
 62
     6
100
AcDbCircle
 10
1558.40728
 20
1090.882019
 30
0.0
 40
500.0
100
AcDbArc
 50
93.385651
 51
100.40626
  0
LINE
  5
3E1
100
AcDbEntity
  8
LAY-2
  6
CONTINUOUS
 62
     6
100
AcDbLine
 10
1504.489314
 20
1467.000002
 30
0.0
 11
1549.489314
 21
1466.999885
 31
0.0
  0
ARC
  5
3E2
100
AcDbEntity
  8
LAY-2
  6
CONTINUOUS
 62
     6
100
AcDbCircle
 10
1602.834284
 20
1530.837609
 30
0.0
 40
150.0
100
AcDbArc
 50
177.32186
 51
181.904473
  0
ARC
  5
3E3
100
AcDbEntity
  8
LAY-2
  6
CONTINUOUS
 62
     6
100
AcDbCircle
 10
1436.97958
 20
1529.821403
 30
0.0
 40
2.0
100
AcDbArc
 50
91.0
 51
169.134021
  0
LINE
  5
3E4
100
AcDbEntity
  8
LAY-2
  6
CONTINUOUS
 62
     6
100
AcDbLine
 10
1447.340778
 20
1532.002563
 30
0.0
 11
1447.340778
 21
1502.002563
 31
0.0
  0
LINE
  5
3E5
100
AcDbEntity
  8
LAY-2
  6
CONTINUOUS
 62
     6
100
AcDbLine
 10
1451.70806
 20
1539.779968
 30
0.0
 11
1449.009702
 21
1462.517452
 31
0.0
  0
LINE
  5
3E6
100
AcDbEntity
  8
LAY-2
  6
CONTINUOUS
 62
     6
100
AcDbLine
 10
1447.602661
 20
1532.006927
 30
0.0
 11
1446.99163
 21
1462.0
 31
0.0
  0
ARC
  5
3E7
100
AcDbEntity
  8
LAY-2
  6
CONTINUOUS
 62
     6
100
AcDbCircle
 10
1503.760395
 20
1517.002563
 30
0.0
 40
70.0
100
AcDbArc
 50
169.056093
 51
190.865979
  0
ARC
  5
3E8
100
AcDbEntity
  8
LAY-2
  6
CONTINUOUS
 62
     6
100
AcDbCircle
 10
1540.098876
 20
1434.39753
 30
0.0
 40
80.000092
100
AcDbArc
 50
111.35036
 51
113.470459
  0
ARC
  5
3E9
100
AcDbEntity
  8
LAY-2
  6
CONTINUOUS
 62
     6
100
AcDbCircle
 10
1505.448853
 20
1514.199757
 30
0.0
 40
7.000001
100
AcDbArc
 50
270.0
 51
293.470215
  0
LINE
  5
3EA
100
AcDbEntity
  8
LAY-2
  6
CONTINUOUS
 62
     6
100
AcDbLine
 10
1506.937687
 20
1507.359914
 30
0.0
 11
1506.912664
 21
1505.925588
 31
0.0
  0
ARC
  5
3EB
100
AcDbEntity
  8
LAY-2
  6
CONTINUOUS
 62
     6
100
AcDbCircle
 10
1497.609743
 20
1512.634689
 30
0.0
 40
5.999994
100
AcDbArc
 50
211.471007
 51
270.0
  0
LINE
  5
3EC
100
AcDbEntity
  8
LAY-2
  6
CONTINUOUS
 62
     6
100
AcDbLine
 10
1497.609682
 20
1506.634695
 30
0.0
 11
1498.609743
 21
1506.634695
 31
0.0
  0
ARC
  5
3ED
100
AcDbEntity
  8
LAY-2
  6
CONTINUOUS
 62
     6
100
AcDbCircle
 10
1465.445732
 20
1501.352395
 30
0.0
 40
8.000001
100
AcDbArc
 50
84.234772
 51
132.005799
  0
ARC
  5
3EE
100
AcDbEntity
  8
LAY-2
  6
CONTINUOUS
 62
     6
100
AcDbCircle
 10
1498.609743
 20
1512.634689
 30
0.0
 40
5.999994
100
AcDbArc
 50
270.0
 51
324.36802
  0
ARC
  5
3EF
100
AcDbEntity
  8
LAY-2
  6
CONTINUOUS
 62
     6
100
AcDbCircle
 10
1499.489313
 20
1469.759789
 30
0.0
 40
5.000018
100
AcDbArc
 50
359.999299
 51
44.641694
  0
ARC
  5
3F0
100
AcDbEntity
  8
LAY-2
  6
CONTINUOUS
 62
     6
100
AcDbCircle
 10
1507.489315
 20
1464.999994
 30
0.0
 40
2.999994
100
AcDbArc
 50
180.0
 51
270.0
  0
LINE
  5
3F1
100
AcDbEntity
  8
LAY-2
  6
CONTINUOUS
 62
     6
100
AcDbLine
 10
1504.489313
 20
1469.759669
 30
0.0
 11
1504.489315
 21
1464.999994
 31
0.0
  0
ARC
  5
3F2
100
AcDbEntity
  8
LAY-2
  6
CONTINUOUS
 62
     6
100
AcDbCircle
 10
1486.489193
 20
1465.770524
 30
0.0
 40
2.999994
100
AcDbArc
 50
180.0
 51
270.0
  0
LINE
  5
3F3
100
AcDbEntity
  8
LAY-2
  6
CONTINUOUS
 62
     6
100
AcDbLine
 10
1483.489189
 20
1473.772841
 30
0.0
 11
1483.489193
 21
1465.770644
 31
0.0
  0
LINE
  5
3F4
100
AcDbEntity
  8
LAY-2
  6
CONTINUOUS
 62
     6
100
AcDbLine
 10
1505.481825
 20
1462.770656
 30
0.0
 11
1486.489195
 21
1462.770646
 31
0.0
  0
LINE
  5
3F5
100
AcDbEntity
  8
LAY-2
  6
CONTINUOUS
 62
     6
100
AcDbLine
 10
1447.432424
 20
1512.502563
 30
0.0
 11
1447.340778
 21
1512.502563
 31
0.0
  0
LINE
  5
3F6
100
AcDbEntity
  8
LAY-2
  6
CONTINUOUS
 62
     6
100
AcDbLine
 10
1447.510977
 20
1521.502563
 30
0.0
 11
1447.340778
 21
1521.502563
 31
0.0
  0
ARC
  5
3F7
100
AcDbEntity
  8
LAY-2
  6
CONTINUOUS
 62
     6
100
AcDbCircle
 10
1444.99163
 20
1477.0
 30
0.0
 40
2.0
100
AcDbArc
 50
90.0
 51
180.0
  0
LINE
  5
3F8
100
AcDbEntity
  8
LAY-2
  6
CONTINUOUS
 62
     6
100
AcDbLine
 10
1446.99163
 20
1479.0
 30
0.0
 11
1444.99163
 21
1479.0
 31
0.0
  0
LINE
  5
3F9
100
AcDbEntity
  8
LAY-2
  6
CONTINUOUS
 62
     6
100
AcDbLine
 10
1455.032706
 20
1479.999939
 30
0.0
 11
1457.132597
 21
1479.999939
 31
0.0
  0
ARC
  5
3FA
100
AcDbEntity
  8
LAY-2
  6
CONTINUOUS
 62
     6
100
AcDbCircle
 10
1436.97958
 20
1504.183723
 30
0.0
 40
2.0
100
AcDbArc
 50
190.865979
 51
269.0
  0
LINE
  5
3FB
100
AcDbEntity
  8
LAY-2
  6
CONTINUOUS
 62
     6
100
AcDbLine
 10
1447.340778
 20
1502.002563
 30
0.0
 11
1436.944675
 21
1502.184028
 31
0.0
  0
LINE
  5
3FC
100
AcDbEntity
  8
LAY-2
  6
CONTINUOUS
 62
     6
100
AcDbLine
 10
1446.99163
 20
1462.0
 30
0.0
 11
1442.99163
 21
1462.0
 31
0.0
  0
ARC
  5
3FD
100
AcDbEntity
  8
LAY-2
  6
CONTINUOUS
 62
     6
100
AcDbCircle
 10
1447.496013
 20
1462.5
 30
0.0
 40
0.5
100
AcDbArc
 50
179.499927
 51
270.0
  0
ARC
  5
3FE
100
AcDbEntity
  8
LAY-2
  6
CONTINUOUS
 62
     6
100
AcDbCircle
 10
1449.509397
 20
1462.5
 30
0.0
 40
0.5
100
AcDbArc
 50
177.999784
 51
270.0
  0
LINE
  5
3FF
100
AcDbEntity
  8
LAY-2
  6
CONTINUOUS
 62
     6
100
AcDbLine
 10
1449.575675
 20
1462.0
 30
0.0
 11
1450.035697
 21
1475.174438
 31
0.0
  0
LINE
  5
400
100
AcDbEntity
  8
LAY-2
  6
CONTINUOUS
 62
     6
100
AcDbLine
 10
1436.486248
 20
1468.505382
 30
0.0
 11
1442.99163
 21
1475.010765
 31
0.0
  0
LINE
  5
401
100
AcDbEntity
  8
LAY-2
  6
CONTINUOUS
 62
     6
100
AcDbLine
 10
1442.99163
 20
1462.0
 30
0.0
 11
1436.486248
 21
1468.505382
 31
0.0
  0
LINE
  5
402
100
AcDbEntity
  8
LAY-2
  6
CONTINUOUS
 62
     6
100
AcDbLine
 10
1442.99163
 20
1462.0
 30
0.0
 11
1442.99163
 21
1477.0
 31
0.0
  0
LINE
  5
403
100
AcDbEntity
  8
LAY-2
  6
CONTINUOUS
 62
     6
100
AcDbLine
 10
1446.99163
 20
1462.0
 30
0.0
 11
1446.99163
 21
1479.0
 31
0.0
  0
ARC
  5
404
100
AcDbEntity
  8
LAY-2
  6
CONTINUOUS
 62
     6
100
AcDbCircle
 10
1455.032706
 20
1474.999939
 30
0.0
 40
5.0
100
AcDbArc
 50
90.0
 51
178.0
  0
LINE
  5
405
100
AcDbEntity
  8
LAY-2
  6
CONTINUOUS
 62
     6
100
AcDbLine
 10
1457.677063
 20
1513.955445
 30
0.0
 11
1456.989249
 21
1474.55127
 31
0.0
  0
ARC
  5
406
100
AcDbEntity
  8
LAY-2
  6
CONTINUOUS
 62
     6
100
AcDbCircle
 10
1468.908301
 20
1526.384099
 30
0.0
 40
16.0
100
AcDbArc
 50
181.904512
 51
267.731239
  0
ARC
  5
407
100
AcDbEntity
  8
LAY-2
  6
CONTINUOUS
 62
     6
100
AcDbCircle
 10
1471.204778
 20
1567.978156
 30
0.0
 40
13.481
100
AcDbArc
 50
100.358051
 51
164.923266
  0
ARC
  5
408
100
AcDbEntity
  8
LAY-2
  6
CONTINUOUS
 62
     6
100
AcDbCircle
 10
1470.80338
 20
1567.904615
 30
0.0
 40
15.0
100
AcDbArc
 50
100.40626
 51
165.693346
  0
ARC
  5
409
100
AcDbEntity
  8
LAY-2
  6
CONTINUOUS
 62
     6
100
AcDbCircle
 10
1602.99163
 20
1532.393243
 30
0.0
 40
150.0
100
AcDbArc
 50
164.95632
 51
177.925444
  0
LINE
  5
40A
100
AcDbEntity
  8
LAY-2
  6
CONTINUOUS
 62
     6
100
AcDbLine
 10
1450.988391
 20
1533.0
 30
0.0
 11
1448.632556
 21
1533.0
 31
0.0
  0
LINE
  5
40B
100
AcDbEntity
  8
LAY-2
  6
CONTINUOUS
 62
     6
100
AcDbLine
 10
1450.971057
 20
1532.502563
 30
0.0
 11
1448.102642
 21
1532.502563
 31
0.0
  0
ARC
  5
40C
100
AcDbEntity
  8
LAY-2
  6
CONTINUOUS
 62
     6
100
AcDbCircle
 10
1448.102642
 20
1532.002563
 30
0.0
 40
0.5
100
AcDbArc
 50
90.0
 51
179.499927
  0
ARC
  5
40D
100
AcDbEntity
  8
LAY-2
  6
CONTINUOUS
 62
     6
100
AcDbCircle
 10
1450.971057
 20
1533.002563
 30
0.0
 40
0.5
100
AcDbArc
 50
270.0
 51
357.999784
  0
LINE
  5
40E
100
AcDbEntity
  8
LAY-2
  6
CONTINUOUS
 62
     6
100
AcDbLine
 10
1451.4539
 20
1532.502563
 30
0.0
 11
1450.971057
 21
1532.502563
 31
0.0
  0
ARC
  5
40F
100
AcDbEntity
  8
LAY-2
  6
CONTINUOUS
 62
     6
100
AcDbCircle
 10
1448.683093
 20
1532.502563
 30
0.0
 40
0.5
100
AcDbArc
 50
95.804535
 51
180.0
  0
ARC
  5
410
100
AcDbEntity
  8
LAY-2
  6
CONTINUOUS
 62
     6
100
AcDbCircle
 10
1450.988391
 20
1533.5
 30
0.0
 40
0.5
100
AcDbArc
 50
270.0
 51
357.999268
  0
LINE
  5
411
100
AcDbEntity
  8
LAY-2
  6
CONTINUOUS
 62
     6
100
AcDbLine
 10
1451.471273
 20
1533.0
 30
0.0
 11
1450.988391
 21
1533.0
 31
0.0
  0
LINE
  5
412
100
AcDbEntity
  8
LAY-2
  6
CONTINUOUS
 62
     6
100
AcDbLine
 10
1447.340778
 20
1532.002563
 30
0.0
 11
1436.944675
 21
1531.821098
 31
0.0
  0
ARC
  5
413
100
AcDbEntity
  8
LAY-2
  6
CONTINUOUS
 62
     6
100
AcDbCircle
 10
1601.61663
 20
1534.544556
 30
0.0
 40
150.0
100
AcDbArc
 50
165.693346
 51
177.999817
  0
ARC
  5
414
100
AcDbEntity
  8
LAY-2
  6
CONTINUOUS
 62
     6
100
AcDbCircle
 10
1546.489315
 20
1464.999893
 30
0.0
 40
2.999994
100
AcDbArc
 50
270.0
 51
0.0
  0
LINE
  5
415
100
AcDbEntity
  8
LAY-2
  6
CONTINUOUS
 62
     6
100
AcDbLine
 10
1549.489313
 20
1469.759572
 30
0.0
 11
1549.489315
 21
1464.999893
 31
0.0
  0
ARC
  5
416
100
AcDbEntity
  8
LAY-2
  6
CONTINUOUS
 62
     6
100
AcDbCircle
 10
1554.489313
 20
1469.759575
 30
0.0
 40
5.000006
100
AcDbArc
 50
149.068451
 51
180.000733
  0
ARC
  5
417
100
AcDbEntity
  8
LAY-2
  6
CONTINUOUS
 62
     6
100
AcDbCircle
 10
1646.99163
 20
-406.499939
 30
0.0
 40
1998.481
100
AcDbArc
 50
90.0
 51
93.385651
  0
ARC
  5
418
100
AcDbEntity
  8
LAY-2
  6
CONTINUOUS
 62
     6
100
AcDbCircle
 10
1646.99163
 20
-406.499939
 30
0.0
 40
2000.0
100
AcDbArc
 50
90.0
 51
93.385651
  0
ARC
  5
419
100
AcDbEntity
  8
LAY-2
  6
CONTINUOUS
 62
     6
100
AcDbCircle
 10
1822.778482
 20
1567.978156
 30
0.0
 40
13.481
100
AcDbArc
 50
15.076734
 51
79.641949
  0
ARC
  5
41A
100
AcDbEntity
  8
LAY-2
  6
CONTINUOUS
 62
     6
100
AcDbCircle
 10
1822.778482
 20
1567.978156
 30
0.0
 40
15.0
100
AcDbArc
 50
15.076734
 51
79.641949
  0
ARC
  5
41B
100
AcDbEntity
  8
LAY-2
  6
CONTINUOUS
 62
     6
100
AcDbCircle
 10
1828.532783
 20
1501.352346
 30
0.0
 40
8.000002
100
AcDbArc
 50
43.370667
 51
95.765442
  0
ARC
  5
41C
100
AcDbEntity
  8
LAY-2
  6
CONTINUOUS
 62
     6
100
AcDbCircle
 10
1825.074958
 20
1526.384237
 30
0.0
 40
16.0
100
AcDbArc
 50
272.268805
 51
358.095527
  0
LINE
  5
41D
100
AcDbEntity
  8
LAY-2
  6
CONTINUOUS
 62
     6
100
AcDbLine
 10
1789.489192
 20
1466.993069
 30
0.0
 11
1744.489192
 21
1466.993185
 31
0.0
  0
ARC
  5
41E
100
AcDbEntity
  8
LAY-2
  6
CONTINUOUS
 62
     6
100
AcDbCircle
 10
1739.489191
 20
1469.759797
 30
0.0
 40
5.000009
100
AcDbArc
 50
359.999299
 51
30.931366
  0
LINE
  5
41F
100
AcDbEntity
  8
LAY-2
  6
CONTINUOUS
 62
     6
100
AcDbLine
 10
1744.489191
 20
1469.759677
 30
0.0
 11
1744.489193
 21
1464.993177
 31
0.0
  0
ARC
  5
420
100
AcDbEntity
  8
LAY-2
  6
CONTINUOUS
 62
     6
100
AcDbCircle
 10
1747.489193
 20
1464.993177
 30
0.0
 40
2.999994
100
AcDbArc
 50
180.0
 51
270.0
  0
ARC
  5
421
100
AcDbEntity
  8
LAY-2
  6
CONTINUOUS
 62
     6
100
AcDbCircle
 10
1796.373598
 20
1512.634606
 30
0.0
 40
5.999994
100
AcDbArc
 50
270.0
 51
328.531332
  0
ARC
  5
422
100
AcDbEntity
  8
LAY-2
  6
CONTINUOUS
 62
     6
100
AcDbCircle
 10
1795.373475
 20
1512.634606
 30
0.0
 40
5.999994
100
AcDbArc
 50
215.629763
 51
270.0
  0
LINE
  5
423
100
AcDbEntity
  8
LAY-2
  6
CONTINUOUS
 62
     6
100
AcDbLine
 10
1796.373598
 20
1506.634612
 30
0.0
 11
1795.373475
 21
1506.634612
 31
0.0
  0
LINE
  5
424
100
AcDbEntity
  8
LAY-2
  6
CONTINUOUS
 62
     6
100
AcDbLine
 10
1787.045598
 20
1507.359943
 30
0.0
 11
1787.070623
 21
1505.925495
 31
0.0
  0
ARC
  5
425
100
AcDbEntity
  8
LAY-2
  6
CONTINUOUS
 62
     6
100
AcDbCircle
 10
1807.489315
 20
1465.770453
 30
0.0
 40
2.999994
100
AcDbArc
 50
270.0
 51
0.0
  0
LINE
  5
426
100
AcDbEntity
  8
LAY-2
  6
CONTINUOUS
 62
     6
100
AcDbLine
 10
1810.489311
 20
1473.772774
 30
0.0
 11
1810.489315
 21
1465.770577
 31
0.0
  0
ARC
  5
427
100
AcDbEntity
  8
LAY-2
  6
CONTINUOUS
 62
     6
100
AcDbCircle
 10
1794.489313
 20
1469.759704
 30
0.0
 40
5.000026
100
AcDbArc
 50
135.357819
 51
180.001038
  0
LINE
  5
428
100
AcDbEntity
  8
LAY-2
  6
CONTINUOUS
 62
     6
100
AcDbLine
 10
1789.489191
 20
1469.75958
 30
0.0
 11
1789.489193
 21
1464.993076
 31
0.0
  0
LINE
  5
429
100
AcDbEntity
  8
LAY-2
  6
CONTINUOUS
 62
     6
100
AcDbLine
 10
1788.504238
 20
1462.770565
 30
0.0
 11
1807.489317
 21
1462.770575
 31
0.0
  0
ARC
  5
42A
100
AcDbEntity
  8
LAY-2
  6
CONTINUOUS
 62
     6
100
AcDbCircle
 10
1753.884322
 20
1434.397645
 30
0.0
 40
80.000092
100
AcDbArc
 50
66.529541
 51
68.649617
  0
ARC
  5
42B
100
AcDbEntity
  8
LAY-2
  6
CONTINUOUS
 62
     6
100
AcDbCircle
 10
1788.534363
 20
1514.199788
 30
0.0
 40
7.000001
100
AcDbArc
 50
246.529541
 51
270.0
  0
ARC
  5
42C
100
AcDbEntity
  8
LAY-2
  6
CONTINUOUS
 62
     6
100
AcDbCircle
 10
1786.489193
 20
1464.993076
 30
0.0
 40
2.999994
100
AcDbArc
 50
270.0
 51
0.0
  0
ARC
  5
42D
100
AcDbEntity
  8
LAY-2
  6
CONTINUOUS
 62
     6
100
AcDbCircle
 10
1735.57598
 20
1090.882019
 30
0.0
 40
498.481
100
AcDbArc
 50
79.641949
 51
86.614349
  0
ARC
  5
42E
100
AcDbEntity
  8
LAY-2
  6
CONTINUOUS
 62
     6
100
AcDbCircle
 10
1735.57598
 20
1090.882019
 30
0.0
 40
500.0
100
AcDbArc
 50
79.641949
 51
86.614349
  0
ARC
  5
42F
100
AcDbEntity
  8
LAY-2
  6
CONTINUOUS
 62
     6
100
AcDbCircle
 10
1691.148976
 20
1530.837609
 30
0.0
 40
150.0
100
AcDbArc
 50
358.095527
 51
2.67814
  0
LINE
  5
430
100
AcDbEntity
  8
LAY-2
  6
CONTINUOUS
 62
     6
100
AcDbLine
 10
1842.2752
 20
1539.779968
 30
0.0
 11
1844.973558
 21
1462.517452
 31
0.0
  0
LINE
  5
431
100
AcDbEntity
  8
LAY-2
  6
CONTINUOUS
 62
     6
100
AcDbLine
 10
1838.950614
 20
1479.999939
 30
0.0
 11
1836.845953
 21
1479.999939
 31
0.0
  0
ARC
  5
432
100
AcDbEntity
  8
LAY-2
  6
CONTINUOUS
 62
     6
100
AcDbCircle
 10
1844.473864
 20
1462.5
 30
0.0
 40
0.5
100
AcDbArc
 50
270.0
 51
2.00013
  0
LINE
  5
433
100
AcDbEntity
  8
LAY-2
  6
CONTINUOUS
 62
     6
100
AcDbLine
 10
1844.407645
 20
1462.0
 30
0.0
 11
1843.947562
 21
1475.174438
 31
0.0
  0
ARC
  5
434
100
AcDbEntity
  8
LAY-2
  6
CONTINUOUS
 62
     6
100
AcDbCircle
 10
1838.950614
 20
1474.999939
 30
0.0
 40
5.0
100
AcDbArc
 50
2.000031
 51
90.0
  0
LINE
  5
435
100
AcDbEntity
  8
LAY-2
  6
CONTINUOUS
 62
     6
100
AcDbLine
 10
1836.301453
 20
1513.955405
 30
0.0
 11
1836.98931
 21
1474.551231
 31
0.0
  0
ARC
  5
436
100
AcDbEntity
  8
LAY-2
  6
CONTINUOUS
 62
     6
100
AcDbCircle
 10
1690.99163
 20
1532.393243
 30
0.0
 40
150.0
100
AcDbArc
 50
2.074556
 51
15.04368
  0
ARC
  5
437
100
AcDbEntity
  8
LAY-2
  6
CONTINUOUS
 62
     6
100
AcDbCircle
 10
1692.425407
 20
1532.862976
 30
0.0
 40
150.0
100
AcDbArc
 50
2.549791
 51
15.076734
  0
ARC
  5
438
100
AcDbEntity
  8
LAY-2
  6
CONTINUOUS
 62
     6
100
AcDbCircle
 10
1448.918352
 20
1454.986668
 30
0.0
 40
15.15
100
AcDbArc
 50
135.0
 51
180.0
  0
ARC
  5
439
100
AcDbEntity
  8
LAY-2
  6
CONTINUOUS
 62
     6
100
AcDbCircle
 10
1448.918352
 20
1454.986668
 30
0.0
 40
9.15
100
AcDbArc
 50
135.0
 51
180.0
  0
ARC
  5
43A
100
AcDbEntity
  8
LAY-2
  6
CONTINUOUS
 62
     6
100
AcDbCircle
 10
1391.879993
 20
1190.881872
 30
0.0
 40
47.888359
100
AcDbArc
 50
180.0
 51
0.0
  0
ARC
  5
43B
100
AcDbEntity
  8
LAY-2
  6
CONTINUOUS
 62
     6
100
AcDbCircle
 10
1391.879993
 20
1190.881872
 30
0.0
 40
41.888359
100
AcDbArc
 50
180.0
 51
0.0
  0
LINE
  5
43C
100
AcDbEntity
  8
LAY-2
  6
CONTINUOUS
 62
     6
100
AcDbLine
 10
1343.991634
 20
1190.881872
 30
0.0
 11
1343.991634
 21
1330.986977
 31
0.0
  0
LINE
  5
43D
100
AcDbEntity
  8
LAY-2
  6
CONTINUOUS
 62
     6
100
AcDbLine
 10
1349.991634
 20
1190.881872
 30
0.0
 11
1349.991634
 21
1330.986977
 31
0.0
  0
LINE
  5
43E
100
AcDbEntity
  8
LAY-2
  6
CONTINUOUS
 62
     6
100
AcDbLine
 10
1433.768352
 20
1190.881872
 30
0.0
 11
1433.768352
 21
1454.986668
 31
0.0
  0
LINE
  5
43F
100
AcDbEntity
  8
LAY-2
  6
CONTINUOUS
 62
     6
100
AcDbLine
 10
1439.768352
 20
1190.881872
 30
0.0
 11
1439.768352
 21
1454.986668
 31
0.0
  0
LINE
  5
440
100
AcDbEntity
  8
LAY-2
  6
CONTINUOUS
 62
     6
100
AcDbLine
 10
1446.99163
 20
1462.0
 30
0.0
 11
1546.489315
 21
1462.0
 31
0.0
  0
LINE
  5
441
100
AcDbEntity
  8
LAY-2
  6
CONTINUOUS
 62
     6
100
AcDbLine
 10
1844.407645
 20
1462.0
 30
0.0
 11
1747.489193
 21
1462.0
 31
0.0
  0
LINE
  5
442
100
AcDbEntity
  8
LAY-2
  6
EXLTYPE3
 62
     1
100
AcDbLine
 10
1646.99163
 20
1442.0
 30
0.0
 11
1646.99163
 21
1613.500061
 31
0.0
  0
TEXT
  5
443
100
AcDbEntity
  8
LAY-2
  6
CONTINUOUS
 62
     2
100
AcDbText
 10
736.913721
 20
1264.000073
 30
0.0
 40
40.0
  1
電源コード
 41
0.8106
  7
EXCADSTD
 72
     5
 11
929.913721
 21
1264.000073
 31
0.0
100
AcDbText
  0
LINE
  5
444
100
AcDbEntity
  8
LAY-2
  6
CONTINUOUS
 62
     6
100
AcDbLine
 10
732.313721
 20
1259.8
 30
0.0
 11
921.898752
 21
1259.8
 31
0.0
  0
TEXT
  5
445
100
AcDbEntity
  8
LAY-2
  6
CONTINUOUS
 62
     2
100
AcDbText
 10
1101.854601
 20
1691.691184
 30
0.0
 40
40.0
  1
温度調節スイッチ
 41
0.798
  7
EXCADSTD
 72
     5
 11
1405.854601
 21
1691.691184
 31
0.0
100
AcDbText
  0
LINE
  5
446
100
AcDbEntity
  8
LAY-2
  6
CONTINUOUS
 62
     6
100
AcDbLine
 10
1099.889662
 20
1687.491111
 30
0.0
 11
1397.972132
 21
1687.491111
 31
0.0
  0
LINE
  5
447
100
AcDbEntity
  8
LAY-2
  6
CONTINUOUS
 62
     6
100
AcDbLine
 10
430.125339
 20
1200.933006
 30
0.0
 11
430.125339
 21
1422.244088
 31
0.0
  0
LINE
  5
448
100
AcDbEntity
  8
LAY-2
  6
CONTINUOUS
 62
     6
100
AcDbLine
 10
434.125339
 20
1201.583006
 30
0.0
 11
434.125339
 21
1422.244088
 31
0.0
  0
LINE
  5
449
100
AcDbEntity
  8
LAY-2
  6
CONTINUOUS
 62
     6
100
AcDbLine
 10
439.125339
 20
1442.244088
 30
0.0
 11
440.409824
 21
1466.244088
 31
0.0
  0
LINE
  5
44A
100
AcDbEntity
  8
LAY-2
  6
CONTINUOUS
 62
     6
100
AcDbLine
 10
431.125339
 20
1464.244088
 30
0.0
 11
431.125339
 21
1452.244088
 31
0.0
  0
LINE
  5
44B
100
AcDbEntity
  8
LAY-2
  6
CONTINUOUS
 62
     6
100
AcDbLine
 10
433.125339
 20
1464.244088
 30
0.0
 11
433.125339
 21
1452.244088
 31
0.0
  0
LINE
  5
44C
100
AcDbEntity
  8
LAY-2
  6
CONTINUOUS
 62
     6
100
AcDbLine
 10
437.125339
 20
1440.244088
 30
0.0
 11
439.451083
 21
1466.758004
 31
0.0
  0
LINE
  5
44D
100
AcDbEntity
  8
LAY-2
  6
CONTINUOUS
 62
     6
100
AcDbLine
 10
423.125339
 20
1470.244088
 30
0.0
 11
423.125339
 21
1454.244088
 31
0.0
  0
LINE
  5
44E
100
AcDbEntity
  8
LAY-2
  6
CONTINUOUS
 62
     6
100
AcDbLine
 10
423.125339
 20
1470.244088
 30
0.0
 11
437.639804
 21
1468.924569
 31
0.0
  0
ARC
  5
44F
100
AcDbEntity
  8
LAY-2
  6
CONTINUOUS
 62
     6
100
AcDbCircle
 10
411.125339
 20
1461.994088
 30
0.0
 40
5.0
100
AcDbArc
 50
139.458496
 51
220.541626
  0
CIRCLE
  5
450
100
AcDbEntity
  8
LAY-2
  6
CONTINUOUS
 62
     6
100
AcDbCircle
 10
411.125339
 20
1461.994088
 30
0.0
 40
2.0
  0
LINE
  5
451
100
AcDbEntity
  8
LAY-2
  6
CONTINUOUS
 62
     6
100
AcDbLine
 10
423.125339
 20
1458.744088
 30
0.0
 11
407.325656
 21
1458.744088
 31
0.0
  0
LINE
  5
452
100
AcDbEntity
  8
LAY-2
  6
CONTINUOUS
 62
     6
100
AcDbLine
 10
423.125339
 20
1465.244088
 30
0.0
 11
407.325656
 21
1465.244088
 31
0.0
  0
ARC
  5
453
100
AcDbEntity
  8
LAY-2
  6
CONTINUOUS
 62
     6
100
AcDbCircle
 10
439.541415
 20
1465.748299
 30
0.0
 40
1.0
100
AcDbArc
 50
29.723236
 51
95.25293
  0
ARC
  5
454
100
AcDbEntity
  8
LAY-2
  6
CONTINUOUS
 62
     6
100
AcDbCircle
 10
432.125339
 20
1470.244088
 30
0.0
 40
1.0
100
AcDbArc
 50
0.0
 51
180.0
  0
ARC
  5
455
100
AcDbEntity
  8
LAY-2
  6
CONTINUOUS
 62
     6
100
AcDbCircle
 10
432.125339
 20
1464.244088
 30
0.0
 40
1.0
100
AcDbArc
 50
0.0
 51
180.0
  0
ARC
  5
456
100
AcDbEntity
  8
LAY-2
  6
CONTINUOUS
 62
     6
100
AcDbCircle
 10
437.458713
 20
1466.932809
 30
0.0
 40
2.0
100
AcDbArc
 50
354.986938
 51
84.80542
  0
LINE
  5
457
100
AcDbEntity
  8
LAY-2
  6
CONTINUOUS
 62
     6
100
AcDbLine
 10
433.125339
 20
1470.244088
 30
0.0
 11
433.125339
 21
1469.334969
 31
0.0
  0
LINE
  5
458
100
AcDbEntity
  8
LAY-2
  6
CONTINUOUS
 62
     6
100
AcDbLine
 10
431.125339
 20
1469.516854
 30
0.0
 11
431.125339
 21
1470.244088
 31
0.0
  0
ARC
  5
459
100
AcDbEntity
  8
LAY-2
  6
CONTINUOUS
 62
     6
100
AcDbCircle
 10
423.125339
 20
1450.244088
 30
0.0
 40
4.0
100
AcDbArc
 50
0.0
 51
90.0
  0
LINE
  5
45A
100
AcDbEntity
  8
LAY-2
  6
CONTINUOUS
 62
     6
100
AcDbLine
 10
436.625339
 20
1438.244088
 30
0.0
 11
436.569736
 21
1436.744088
 31
0.0
  0
LINE
  5
45B
100
AcDbEntity
  8
LAY-2
  6
CONTINUOUS
 62
     6
100
AcDbLine
 10
427.625339
 20
1438.244088
 30
0.0
 11
427.680881
 21
1436.744088
 31
0.0
  0
ARC
  5
45C
100
AcDbEntity
  8
LAY-2
  6
CONTINUOUS
 62
     6
100
AcDbCircle
 10
432.125339
 20
1452.244088
 30
0.0
 40
1.0
100
AcDbArc
 50
180.0
 51
0.0
  0
LINE
  5
45D
100
AcDbEntity
  8
LAY-2
  6
CONTINUOUS
 62
     6
100
AcDbLine
 10
437.125339
 20
1440.244088
 30
0.0
 11
439.125339
 21
1442.244088
 31
0.0
  0
LINE
  5
45E
100
AcDbEntity
  8
LAY-2
  6
CONTINUOUS
 62
     6
100
AcDbLine
 10
437.125339
 20
1438.244088
 30
0.0
 11
437.125339
 21
1440.244088
 31
0.0
  0
LINE
  5
45F
100
AcDbEntity
  8
LAY-2
  6
CONTINUOUS
 62
     6
100
AcDbLine
 10
427.125339
 20
1438.244088
 30
0.0
 11
427.125339
 21
1450.244088
 31
0.0
  0
LINE
  5
460
100
AcDbEntity
  8
LAY-2
  6
CONTINUOUS
 62
     6
100
AcDbLine
 10
427.125339
 20
1438.244088
 30
0.0
 11
437.125339
 21
1438.244088
 31
0.0
  0
LINE
  5
461
100
AcDbEntity
  8
LAY-2
  6
CONTINUOUS
 62
     6
100
AcDbLine
 10
428.09238
 20
1440.244088
 30
0.0
 11
435.984103
 21
1440.244088
 31
0.0
  0
LINE
  5
462
100
AcDbEntity
  8
LAY-2
  6
CONTINUOUS
 62
     6
100
AcDbLine
 10
436.514194
 20
1435.244088
 30
0.0
 11
436.458652
 21
1433.744088
 31
0.0
  0
LINE
  5
463
100
AcDbEntity
  8
LAY-2
  6
CONTINUOUS
 62
     6
100
AcDbLine
 10
436.403049
 20
1432.244088
 30
0.0
 11
436.347507
 21
1430.744088
 31
0.0
  0
LINE
  5
464
100
AcDbEntity
  8
LAY-2
  6
CONTINUOUS
 62
     6
100
AcDbLine
 10
436.291965
 20
1429.244088
 30
0.0
 11
436.236423
 21
1427.744088
 31
0.0
  0
LINE
  5
465
100
AcDbEntity
  8
LAY-2
  6
CONTINUOUS
 62
     6
100
AcDbLine
 10
436.180881
 20
1426.244088
 30
0.0
 11
436.125339
 21
1424.744088
 31
0.0
  0
LINE
  5
466
100
AcDbEntity
  8
LAY-2
  6
CONTINUOUS
 62
     6
100
AcDbLine
 10
427.736423
 20
1435.244088
 30
0.0
 11
427.791965
 21
1433.744088
 31
0.0
  0
LINE
  5
467
100
AcDbEntity
  8
LAY-2
  6
CONTINUOUS
 62
     6
100
AcDbLine
 10
427.847507
 20
1432.244088
 30
0.0
 11
427.903049
 21
1430.744088
 31
0.0
  0
LINE
  5
468
100
AcDbEntity
  8
LAY-2
  6
CONTINUOUS
 62
     6
100
AcDbLine
 10
427.958652
 20
1429.244088
 30
0.0
 11
428.014194
 21
1427.744088
 31
0.0
  0
LINE
  5
469
100
AcDbEntity
  8
LAY-2
  6
CONTINUOUS
 62
     6
100
AcDbLine
 10
428.069736
 20
1426.244088
 30
0.0
 11
428.125339
 21
1424.744088
 31
0.0
  0
LINE
  5
46A
100
AcDbEntity
  8
LAY-2
  6
CONTINUOUS
 62
     6
100
AcDbLine
 10
436.703464
 20
1424.744088
 30
0.0
 11
436.625339
 21
1422.244088
 31
0.0
  0
LINE
  5
46B
100
AcDbEntity
  8
LAY-2
  6
CONTINUOUS
 62
     6
100
AcDbLine
 10
427.547214
 20
1424.744088
 30
0.0
 11
427.625339
 21
1422.244088
 31
0.0
  0
LINE
  5
46C
100
AcDbEntity
  8
LAY-2
  6
CONTINUOUS
 62
     6
100
AcDbLine
 10
427.625339
 20
1422.244088
 30
0.0
 11
436.625339
 21
1422.244088
 31
0.0
  0
LINE
  5
46D
100
AcDbEntity
  8
LAY-2
  6
CONTINUOUS
 62
     6
100
AcDbLine
 10
427.547214
 20
1424.744088
 30
0.0
 11
436.703464
 21
1424.744088
 31
0.0
  0
LINE
  5
46E
100
AcDbEntity
  8
LAY-2
  6
CONTINUOUS
 62
     2
100
AcDbLine
 10
427.976901
 20
1426.994088
 30
0.0
 11
436.273777
 21
1426.994088
 31
0.0
  0
LINE
  5
46F
100
AcDbEntity
  8
LAY-2
  6
CONTINUOUS
 62
     2
100
AcDbLine
 10
427.883152
 20
1429.994088
 30
0.0
 11
436.367527
 21
1429.994088
 31
0.0
  0
LINE
  5
470
100
AcDbEntity
  8
LAY-2
  6
CONTINUOUS
 62
     2
100
AcDbLine
 10
427.789401
 20
1432.994088
 30
0.0
 11
436.461276
 21
1432.994088
 31
0.0
  0
LINE
  5
471
100
AcDbEntity
  8
LAY-2
  6
CONTINUOUS
 62
     2
100
AcDbLine
 10
427.695652
 20
1435.994088
 30
0.0
 11
436.555027
 21
1435.994088
 31
0.0
  0
ARC
  5
472
100
AcDbEntity
  8
LAY-2
  6
CONTINUOUS
 62
     6
100
AcDbCircle
 10
606.456307
 20
1464.115408
 30
0.0
 40
1.52028
100
AcDbArc
 50
0.0
 51
90.0
  0
LINE
  5
473
100
AcDbEntity
  8
LAY-2
  6
CONTINUOUS
 62
     6
100
AcDbLine
 10
606.456307
 20
1465.635688
 30
0.0
 11
602.796867
 21
1465.635688
 31
0.0
  0
ARC
  5
474
100
AcDbEntity
  8
LAY-2
  6
CONTINUOUS
 62
     6
100
AcDbCircle
 10
602.796867
 20
1464.115408
 30
0.0
 40
1.52028
100
AcDbArc
 50
90.0
 51
180.0
  0
LINE
  5
475
100
AcDbEntity
  8
LAY-2
  6
CONTINUOUS
 62
     6
100
AcDbLine
 10
601.276587
 20
1199.474914
 30
0.0
 11
601.276587
 21
1464.115408
 31
0.0
  0
ARC
  5
476
100
AcDbEntity
  8
LAY-2
  6
CONTINUOUS
 62
     6
100
AcDbCircle
 10
517.714256
 20
1201.583006
 30
0.0
 40
83.588918
100
AcDbArc
 50
180.0
 51
1.445138
  0
ARC
  5
477
100
AcDbEntity
  8
LAY-2
  6
CONTINUOUS
 62
     6
100
AcDbCircle
 10
519.064257
 20
1200.933006
 30
0.0
 40
88.938918
100
AcDbArc
 50
180.0
 51
358.599003
  0
LINE
  5
478
100
AcDbEntity
  8
LAY-2
  6
CONTINUOUS
 62
     6
100
AcDbLine
 10
737.307004
 20
1468.501561
 30
0.0
 11
752.301621
 21
1468.291575
 31
0.0
  0
LINE
  5
479
100
AcDbEntity
  8
LAY-2
  6
CONTINUOUS
 62
     6
100
AcDbLine
 10
607.976587
 20
1198.758487
 30
0.0
 11
607.976587
 21
1464.115408
 31
0.0
  0
ARC
  5
47A
100
AcDbEntity
  8
LAY-2
  6
CONTINUOUS
 62
     6
100
AcDbCircle
 10
1705.99163
 20
1457.0
 30
0.0
 40
5.0
100
AcDbArc
 50
0.0
 51
90.0
  0
ARC
  5
47B
100
AcDbEntity
  8
LAY-2
  6
CONTINUOUS
 62
     6
100
AcDbCircle
 10
1727.99163
 20
1457.0
 30
0.0
 40
5.0
100
AcDbArc
 50
90.0
 51
180.0
  0
LINE
  5
47C
100
AcDbEntity
  8
LAY-2
  6
CONTINUOUS
 62
     6
100
AcDbLine
 10
1722.99163
 20
1451.5
 30
0.0
 11
1710.99163
 21
1451.5
 31
0.0
  0
LINE
  5
47D
100
AcDbEntity
  8
LAY-2
  6
CONTINUOUS
 62
     6
100
AcDbLine
 10
1712.49163
 20
1380.5
 30
0.0
 11
1721.49163
 21
1380.5
 31
0.0
  0
LINE
  5
47E
100
AcDbEntity
  8
LAY-2
  6
CONTINUOUS
 62
     6
100
AcDbLine
 10
1712.49163
 20
1380.5
 30
0.0
 11
1712.49163
 21
1382.5
 31
0.0
  0
LINE
  5
47F
100
AcDbEntity
  8
LAY-2
  6
CONTINUOUS
 62
     6
100
AcDbLine
 10
1721.49163
 20
1380.5
 30
0.0
 11
1721.49163
 21
1382.5
 31
0.0
  0
LINE
  5
480
100
AcDbEntity
  8
LAY-2
  6
CONTINUOUS
 62
     6
100
AcDbLine
 10
1722.99163
 20
1449.767949
 30
0.0
 11
1710.99163
 21
1449.767949
 31
0.0
  0
LINE
  5
481
100
AcDbEntity
  8
LAY-2
  6
CONTINUOUS
 62
     6
100
AcDbLine
 10
1711.99163
 20
1449.767949
 30
0.0
 11
1710.99163
 21
1451.5
 31
0.0
  0
LINE
  5
482
100
AcDbEntity
  8
LAY-2
  6
CONTINUOUS
 62
     6
100
AcDbLine
 10
1721.99163
 20
1449.767949
 30
0.0
 11
1722.99163
 21
1451.5
 31
0.0
  0
ARC
  5
483
100
AcDbEntity
  8
LAY-2
  6
CONTINUOUS
 62
     6
100
AcDbCircle
 10
1716.99163
 20
1424.8
 30
0.0
 40
12.5
100
AcDbArc
 50
118.685402
 51
180.0
  0
LINE
  5
484
100
AcDbEntity
  8
LAY-2
  6
CONTINUOUS
 62
     6
100
AcDbLine
 10
1704.29163
 20
1423.8
 30
0.0
 11
1729.69163
 21
1423.8
 31
0.0
  0
LINE
  5
485
100
AcDbEntity
  8
LAY-2
  6
CONTINUOUS
 62
     6
100
AcDbLine
 10
1704.29163
 20
1424.8
 30
0.0
 11
1729.69163
 21
1424.8
 31
0.0
  0
LINE
  5
486
100
AcDbEntity
  8
LAY-2
  6
CONTINUOUS
 62
     6
100
AcDbLine
 10
1704.49163
 20
1424.8
 30
0.0
 11
1729.49163
 21
1424.8
 31
0.0
  0
ARC
  5
487
100
AcDbEntity
  8
LAY-2
  6
CONTINUOUS
 62
     6
100
AcDbCircle
 10
1716.99163
 20
1424.8
 30
0.0
 40
12.5
100
AcDbArc
 50
0.0
 51
61.314598
  0
LINE
  5
488
100
AcDbEntity
  8
LAY-2
  6
CONTINUOUS
 62
     6
100
AcDbLine
 10
1704.99163
 20
1423.8
 30
0.0
 11
1728.99163
 21
1423.8
 31
0.0
  0
ARC
  5
489
100
AcDbEntity
  8
LAY-2
  6
CONTINUOUS
 62
     6
100
AcDbCircle
 10
1704.99163
 20
1422.8
 30
0.0
 40
1.0
100
AcDbArc
 50
90.0
 51
180.0
  0
ARC
  5
48A
100
AcDbEntity
  8
LAY-2
  6
CONTINUOUS
 62
     6
100
AcDbCircle
 10
1704.29163
 20
1424.5
 30
0.0
 40
0.3
100
AcDbArc
 50
90.0
 51
180.0
  0
ARC
  5
48B
100
AcDbEntity
  8
LAY-2
  6
CONTINUOUS
 62
     6
100
AcDbCircle
 10
1704.29163
 20
1424.1
 30
0.0
 40
0.3
100
AcDbArc
 50
180.0
 51
270.0
  0
LINE
  5
48C
100
AcDbEntity
  8
LAY-2
  6
CONTINUOUS
 62
     6
100
AcDbLine
 10
1703.99163
 20
1424.1
 30
0.0
 11
1703.99163
 21
1424.5
 31
0.0
  0
LINE
  5
48D
100
AcDbEntity
  8
LAY-2
  6
CONTINUOUS
 62
     6
100
AcDbLine
 10
1729.99163
 20
1424.1
 30
0.0
 11
1729.99163
 21
1424.5
 31
0.0
  0
ARC
  5
48E
100
AcDbEntity
  8
LAY-2
  6
CONTINUOUS
 62
     6
100
AcDbCircle
 10
1729.69163
 20
1424.1
 30
0.0
 40
0.3
100
AcDbArc
 50
270.0
 51
0.0
  0
ARC
  5
48F
100
AcDbEntity
  8
LAY-2
  6
CONTINUOUS
 62
     6
100
AcDbCircle
 10
1729.69163
 20
1424.5
 30
0.0
 40
0.3
100
AcDbArc
 50
0.0
 51
90.0
  0
LINE
  5
490
100
AcDbEntity
  8
LAY-2
  6
CONTINUOUS
 62
     6
100
AcDbLine
 10
1729.99163
 20
1422.8
 30
0.0
 11
1729.99163
 21
1421.8
 31
0.0
  0
ARC
  5
491
100
AcDbEntity
  8
LAY-2
  6
CONTINUOUS
 62
     6
100
AcDbCircle
 10
1728.99163
 20
1422.8
 30
0.0
 40
1.0
100
AcDbArc
 50
0.0
 51
90.0
  0
LINE
  5
492
100
AcDbEntity
  8
LAY-2
  6
CONTINUOUS
 62
     6
100
AcDbLine
 10
1710.99163
 20
1435.765856
 30
0.0
 11
1722.99163
 21
1435.765856
 31
0.0
  0
LINE
  5
493
100
AcDbEntity
  8
LAY-2
  6
CONTINUOUS
 62
     6
100
AcDbLine
 10
1703.99163
 20
1422.8
 30
0.0
 11
1703.99163
 21
1404.3
 31
0.0
  0
ARC
  5
494
100
AcDbEntity
  8
LAY-2
  6
CONTINUOUS
 62
     6
100
AcDbCircle
 10
1704.99163
 20
1404.3
 30
0.0
 40
1.0
100
AcDbArc
 50
180.0
 51
270.0
  0
LINE
  5
495
100
AcDbEntity
  8
LAY-2
  6
CONTINUOUS
 62
     6
100
AcDbLine
 10
1705.49163
 20
1420.8
 30
0.0
 11
1705.49163
 21
1404.3
 31
0.0
  0
ARC
  5
496
100
AcDbEntity
  8
LAY-2
  6
CONTINUOUS
 62
     6
100
AcDbCircle
 10
1706.49163
 20
1404.3
 30
0.0
 40
1.0
100
AcDbArc
 50
180.0
 51
270.0
  0
LINE
  5
497
100
AcDbEntity
  8
LAY-2
  6
CONTINUOUS
 62
     6
100
AcDbLine
 10
1728.49163
 20
1405.3
 30
0.0
 11
1705.49163
 21
1405.3
 31
0.0
  0
LINE
  5
498
100
AcDbEntity
  8
LAY-2
  6
CONTINUOUS
 62
     6
100
AcDbLine
 10
1729.99163
 20
1422.8
 30
0.0
 11
1729.99163
 21
1404.3
 31
0.0
  0
ARC
  5
499
100
AcDbEntity
  8
LAY-2
  6
CONTINUOUS
 62
     6
100
AcDbCircle
 10
1728.99163
 20
1404.3
 30
0.0
 40
1.0
100
AcDbArc
 50
270.0
 51
0.0
  0
ARC
  5
49A
100
AcDbEntity
  8
LAY-2
  6
CONTINUOUS
 62
     6
100
AcDbCircle
 10
1727.49163
 20
1404.3
 30
0.0
 40
1.0
100
AcDbArc
 50
270.0
 51
0.0
  0
LINE
  5
49B
100
AcDbEntity
  8
LAY-2
  6
CONTINUOUS
 62
     6
100
AcDbLine
 10
1704.99163
 20
1403.3
 30
0.0
 11
1728.99163
 21
1403.3
 31
0.0
  0
LINE
  5
49C
100
AcDbEntity
  8
LAY-2
  6
CONTINUOUS
 62
     6
100
AcDbLine
 10
1728.49163
 20
1420.8
 30
0.0
 11
1705.49163
 21
1420.8
 31
0.0
  0
LINE
  5
49D
100
AcDbEntity
  8
LAY-2
  6
CONTINUOUS
 62
     6
100
AcDbLine
 10
1728.49163
 20
1404.3
 30
0.0
 11
1728.49163
 21
1420.8
 31
0.0
  0
LINE
  5
49E
100
AcDbEntity
  8
LAY-2
  6
CONTINUOUS
 62
     6
100
AcDbLine
 10
1728.49163
 20
1414.3
 30
0.0
 11
1705.49163
 21
1414.3
 31
0.0
  0
LINE
  5
49F
100
AcDbEntity
  8
LAY-2
  6
CONTINUOUS
 62
     6
100
AcDbLine
 10
1728.49163
 20
1409.3
 30
0.0
 11
1705.49163
 21
1409.3
 31
0.0
  0
LINE
  5
4A0
100
AcDbEntity
  8
LAY-2
  6
CONTINUOUS
 62
     6
100
AcDbLine
 10
1728.49163
 20
1418.4
 30
0.0
 11
1705.49163
 21
1418.4
 31
0.0
  0
LINE
  5
4A1
100
AcDbEntity
  8
LAY-2
  6
CONTINUOUS
 62
     6
100
AcDbLine
 10
1709.357172
 20
1404.3
 30
0.0
 11
1709.357172
 21
1420.8
 31
0.0
  0
LINE
  5
4A2
100
AcDbEntity
  8
LAY-2
  6
CONTINUOUS
 62
     6
100
AcDbLine
 10
1724.626088
 20
1404.3
 30
0.0
 11
1724.626088
 21
1420.8
 31
0.0
  0
LINE
  5
4A3
100
AcDbEntity
  8
LAY-2
  6
CONTINUOUS
 62
     6
100
AcDbLine
 10
1714.19163
 20
1404.3
 30
0.0
 11
1714.19163
 21
1420.8
 31
0.0
  0
LINE
  5
4A4
100
AcDbEntity
  8
LAY-2
  6
CONTINUOUS
 62
     6
100
AcDbLine
 10
1719.726088
 20
1404.3
 30
0.0
 11
1719.726088
 21
1420.8
 31
0.0
  0
LINE
  5
4A5
100
AcDbEntity
  8
LAY-2
  6
CONTINUOUS
 62
     6
100
AcDbLine
 10
1710.99163
 20
1384.0
 30
0.0
 11
1712.49163
 21
1382.5
 31
0.0
  0
LINE
  5
4A6
100
AcDbEntity
  8
LAY-2
  6
CONTINUOUS
 62
     6
100
AcDbLine
 10
1722.99163
 20
1384.0
 30
0.0
 11
1721.49163
 21
1382.5
 31
0.0
  0
LINE
  5
4A7
100
AcDbEntity
  8
LAY-2
  6
CONTINUOUS
 62
     6
100
AcDbLine
 10
1710.99163
 20
1384.0
 30
0.0
 11
1712.49163
 21
1382.5
 31
0.0
  0
LINE
  5
4A8
100
AcDbEntity
  8
LAY-2
  6
CONTINUOUS
 62
     6
100
AcDbLine
 10
1722.99163
 20
1384.0
 30
0.0
 11
1721.49163
 21
1382.5
 31
0.0
  0
LINE
  5
4A9
100
AcDbEntity
  8
LAY-2
  6
CONTINUOUS
 62
     6
100
AcDbLine
 10
1712.49163
 20
1382.5
 30
0.0
 11
1721.49163
 21
1382.5
 31
0.0
  0
LINE
  5
4AA
100
AcDbEntity
  8
LAY-2
  6
CONTINUOUS
 62
     6
100
AcDbLine
 10
1710.99163
 20
1384.0
 30
0.0
 11
1722.99163
 21
1384.0
 31
0.0
  0
LINE
  5
4AB
100
AcDbEntity
  8
LAY-2
  6
CONTINUOUS
 62
     6
100
AcDbLine
 10
1721.99163
 20
1449.767949
 30
0.0
 11
1721.99163
 21
1435.765856
 31
0.0
  0
LINE
  5
4AC
100
AcDbEntity
  8
LAY-2
  6
CONTINUOUS
 62
     6
100
AcDbLine
 10
1722.99163
 20
1457.0
 30
0.0
 11
1722.99163
 21
1435.765856
 31
0.0
  0
LINE
  5
4AD
100
AcDbEntity
  8
LAY-2
  6
CONTINUOUS
 62
     6
100
AcDbLine
 10
1711.99163
 20
1449.767949
 30
0.0
 11
1711.99163
 21
1435.765856
 31
0.0
  0
LINE
  5
4AE
100
AcDbEntity
  8
LAY-2
  6
CONTINUOUS
 62
     6
100
AcDbLine
 10
1710.99163
 20
1457.0
 30
0.0
 11
1710.99163
 21
1435.765856
 31
0.0
  0
LINE
  5
4AF
100
AcDbEntity
  8
LAY-2
  6
CONTINUOUS
 62
     6
100
AcDbLine
 10
1710.99163
 20
1403.3
 30
0.0
 11
1710.99163
 21
1384.0
 31
0.0
  0
LINE
  5
4B0
100
AcDbEntity
  8
LAY-2
  6
CONTINUOUS
 62
     6
100
AcDbLine
 10
1711.99163
 20
1403.3
 30
0.0
 11
1711.99163
 21
1383.0
 31
0.0
  0
LINE
  5
4B1
100
AcDbEntity
  8
LAY-2
  6
CONTINUOUS
 62
     6
100
AcDbLine
 10
1722.99163
 20
1403.3
 30
0.0
 11
1722.99163
 21
1384.0
 31
0.0
  0
LINE
  5
4B2
100
AcDbEntity
  8
LAY-2
  6
CONTINUOUS
 62
     6
100
AcDbLine
 10
1721.99163
 20
1403.3
 30
0.0
 11
1721.99163
 21
1383.0
 31
0.0
  0
ARC
  5
4B3
100
AcDbEntity
  8
LAY-2
  6
CONTINUOUS
 62
     6
100
AcDbCircle
 10
1587.99163
 20
1457.0
 30
0.0
 40
5.0
100
AcDbArc
 50
90.0
 51
180.0
  0
ARC
  5
4B4
100
AcDbEntity
  8
LAY-2
  6
CONTINUOUS
 62
     6
100
AcDbCircle
 10
1565.99163
 20
1457.0
 30
0.0
 40
5.0
100
AcDbArc
 50
0.0
 51
90.0
  0
LINE
  5
4B5
100
AcDbEntity
  8
LAY-2
  6
CONTINUOUS
 62
     6
100
AcDbLine
 10
1570.99163
 20
1451.5
 30
0.0
 11
1582.99163
 21
1451.5
 31
0.0
  0
LINE
  5
4B6
100
AcDbEntity
  8
LAY-2
  6
CONTINUOUS
 62
     6
100
AcDbLine
 10
1581.49163
 20
1380.5
 30
0.0
 11
1572.49163
 21
1380.5
 31
0.0
  0
LINE
  5
4B7
100
AcDbEntity
  8
LAY-2
  6
CONTINUOUS
 62
     6
100
AcDbLine
 10
1581.49163
 20
1380.5
 30
0.0
 11
1581.49163
 21
1382.5
 31
0.0
  0
LINE
  5
4B8
100
AcDbEntity
  8
LAY-2
  6
CONTINUOUS
 62
     6
100
AcDbLine
 10
1572.49163
 20
1380.5
 30
0.0
 11
1572.49163
 21
1382.5
 31
0.0
  0
LINE
  5
4B9
100
AcDbEntity
  8
LAY-2
  6
CONTINUOUS
 62
     6
100
AcDbLine
 10
1570.99163
 20
1449.767949
 30
0.0
 11
1582.99163
 21
1449.767949
 31
0.0
  0
LINE
  5
4BA
100
AcDbEntity
  8
LAY-2
  6
CONTINUOUS
 62
     6
100
AcDbLine
 10
1581.99163
 20
1449.767949
 30
0.0
 11
1582.99163
 21
1451.5
 31
0.0
  0
LINE
  5
4BB
100
AcDbEntity
  8
LAY-2
  6
CONTINUOUS
 62
     6
100
AcDbLine
 10
1571.99163
 20
1449.767949
 30
0.0
 11
1570.99163
 21
1451.5
 31
0.0
  0
ARC
  5
4BC
100
AcDbEntity
  8
LAY-2
  6
CONTINUOUS
 62
     6
100
AcDbCircle
 10
1576.99163
 20
1424.8
 30
0.0
 40
12.5
100
AcDbArc
 50
0.0
 51
61.314598
  0
LINE
  5
4BD
100
AcDbEntity
  8
LAY-2
  6
CONTINUOUS
 62
     6
100
AcDbLine
 10
1589.69163
 20
1423.8
 30
0.0
 11
1564.29163
 21
1423.8
 31
0.0
  0
LINE
  5
4BE
100
AcDbEntity
  8
LAY-2
  6
CONTINUOUS
 62
     6
100
AcDbLine
 10
1589.69163
 20
1424.8
 30
0.0
 11
1564.29163
 21
1424.8
 31
0.0
  0
LINE
  5
4BF
100
AcDbEntity
  8
LAY-2
  6
CONTINUOUS
 62
     6
100
AcDbLine
 10
1589.49163
 20
1424.8
 30
0.0
 11
1564.49163
 21
1424.8
 31
0.0
  0
ARC
  5
4C0
100
AcDbEntity
  8
LAY-2
  6
CONTINUOUS
 62
     6
100
AcDbCircle
 10
1576.99163
 20
1424.8
 30
0.0
 40
12.5
100
AcDbArc
 50
118.685402
 51
180.0
  0
LINE
  5
4C1
100
AcDbEntity
  8
LAY-2
  6
CONTINUOUS
 62
     6
100
AcDbLine
 10
1588.99163
 20
1423.8
 30
0.0
 11
1564.99163
 21
1423.8
 31
0.0
  0
ARC
  5
4C2
100
AcDbEntity
  8
LAY-2
  6
CONTINUOUS
 62
     6
100
AcDbCircle
 10
1588.99163
 20
1422.8
 30
0.0
 40
1.0
100
AcDbArc
 50
0.0
 51
90.0
  0
ARC
  5
4C3
100
AcDbEntity
  8
LAY-2
  6
CONTINUOUS
 62
     6
100
AcDbCircle
 10
1589.69163
 20
1424.5
 30
0.0
 40
0.3
100
AcDbArc
 50
0.0
 51
90.0
  0
ARC
  5
4C4
100
AcDbEntity
  8
LAY-2
  6
CONTINUOUS
 62
     6
100
AcDbCircle
 10
1589.69163
 20
1424.1
 30
0.0
 40
0.3
100
AcDbArc
 50
270.0
 51
0.0
  0
LINE
  5
4C5
100
AcDbEntity
  8
LAY-2
  6
CONTINUOUS
 62
     6
100
AcDbLine
 10
1589.99163
 20
1424.1
 30
0.0
 11
1589.99163
 21
1424.5
 31
0.0
  0
LINE
  5
4C6
100
AcDbEntity
  8
LAY-2
  6
CONTINUOUS
 62
     6
100
AcDbLine
 10
1563.99163
 20
1424.1
 30
0.0
 11
1563.99163
 21
1424.5
 31
0.0
  0
ARC
  5
4C7
100
AcDbEntity
  8
LAY-2
  6
CONTINUOUS
 62
     6
100
AcDbCircle
 10
1564.29163
 20
1424.1
 30
0.0
 40
0.3
100
AcDbArc
 50
180.0
 51
270.0
  0
ARC
  5
4C8
100
AcDbEntity
  8
LAY-2
  6
CONTINUOUS
 62
     6
100
AcDbCircle
 10
1564.29163
 20
1424.5
 30
0.0
 40
0.3
100
AcDbArc
 50
90.0
 51
180.0
  0
LINE
  5
4C9
100
AcDbEntity
  8
LAY-2
  6
CONTINUOUS
 62
     6
100
AcDbLine
 10
1563.99163
 20
1422.8
 30
0.0
 11
1563.99163
 21
1421.8
 31
0.0
  0
ARC
  5
4CA
100
AcDbEntity
  8
LAY-2
  6
CONTINUOUS
 62
     6
100
AcDbCircle
 10
1564.99163
 20
1422.8
 30
0.0
 40
1.0
100
AcDbArc
 50
90.0
 51
180.0
  0
LINE
  5
4CB
100
AcDbEntity
  8
LAY-2
  6
CONTINUOUS
 62
     6
100
AcDbLine
 10
1582.99163
 20
1435.765856
 30
0.0
 11
1570.99163
 21
1435.765856
 31
0.0
  0
LINE
  5
4CC
100
AcDbEntity
  8
LAY-2
  6
CONTINUOUS
 62
     6
100
AcDbLine
 10
1589.99163
 20
1422.8
 30
0.0
 11
1589.99163
 21
1404.3
 31
0.0
  0
ARC
  5
4CD
100
AcDbEntity
  8
LAY-2
  6
CONTINUOUS
 62
     6
100
AcDbCircle
 10
1588.99163
 20
1404.3
 30
0.0
 40
1.0
100
AcDbArc
 50
270.0
 51
0.0
  0
LINE
  5
4CE
100
AcDbEntity
  8
LAY-2
  6
CONTINUOUS
 62
     6
100
AcDbLine
 10
1588.49163
 20
1420.8
 30
0.0
 11
1588.49163
 21
1404.3
 31
0.0
  0
ARC
  5
4CF
100
AcDbEntity
  8
LAY-2
  6
CONTINUOUS
 62
     6
100
AcDbCircle
 10
1587.49163
 20
1404.3
 30
0.0
 40
1.0
100
AcDbArc
 50
270.0
 51
0.0
  0
LINE
  5
4D0
100
AcDbEntity
  8
LAY-2
  6
CONTINUOUS
 62
     6
100
AcDbLine
 10
1565.49163
 20
1405.3
 30
0.0
 11
1588.49163
 21
1405.3
 31
0.0
  0
LINE
  5
4D1
100
AcDbEntity
  8
LAY-2
  6
CONTINUOUS
 62
     6
100
AcDbLine
 10
1563.99163
 20
1422.8
 30
0.0
 11
1563.99163
 21
1404.3
 31
0.0
  0
ARC
  5
4D2
100
AcDbEntity
  8
LAY-2
  6
CONTINUOUS
 62
     6
100
AcDbCircle
 10
1564.99163
 20
1404.3
 30
0.0
 40
1.0
100
AcDbArc
 50
180.0
 51
270.0
  0
ARC
  5
4D3
100
AcDbEntity
  8
LAY-2
  6
CONTINUOUS
 62
     6
100
AcDbCircle
 10
1566.49163
 20
1404.3
 30
0.0
 40
1.0
100
AcDbArc
 50
180.0
 51
270.0
  0
LINE
  5
4D4
100
AcDbEntity
  8
LAY-2
  6
CONTINUOUS
 62
     6
100
AcDbLine
 10
1588.99163
 20
1403.3
 30
0.0
 11
1564.99163
 21
1403.3
 31
0.0
  0
LINE
  5
4D5
100
AcDbEntity
  8
LAY-2
  6
CONTINUOUS
 62
     6
100
AcDbLine
 10
1565.49163
 20
1420.8
 30
0.0
 11
1588.49163
 21
1420.8
 31
0.0
  0
LINE
  5
4D6
100
AcDbEntity
  8
LAY-2
  6
CONTINUOUS
 62
     6
100
AcDbLine
 10
1565.49163
 20
1404.3
 30
0.0
 11
1565.49163
 21
1420.8
 31
0.0
  0
LINE
  5
4D7
100
AcDbEntity
  8
LAY-2
  6
CONTINUOUS
 62
     6
100
AcDbLine
 10
1565.49163
 20
1414.3
 30
0.0
 11
1588.49163
 21
1414.3
 31
0.0
  0
LINE
  5
4D8
100
AcDbEntity
  8
LAY-2
  6
CONTINUOUS
 62
     6
100
AcDbLine
 10
1565.49163
 20
1409.3
 30
0.0
 11
1588.49163
 21
1409.3
 31
0.0
  0
LINE
  5
4D9
100
AcDbEntity
  8
LAY-2
  6
CONTINUOUS
 62
     6
100
AcDbLine
 10
1565.49163
 20
1418.4
 30
0.0
 11
1588.49163
 21
1418.4
 31
0.0
  0
LINE
  5
4DA
100
AcDbEntity
  8
LAY-2
  6
CONTINUOUS
 62
     6
100
AcDbLine
 10
1584.626088
 20
1404.3
 30
0.0
 11
1584.626088
 21
1420.8
 31
0.0
  0
LINE
  5
4DB
100
AcDbEntity
  8
LAY-2
  6
CONTINUOUS
 62
     6
100
AcDbLine
 10
1569.357172
 20
1404.3
 30
0.0
 11
1569.357172
 21
1420.8
 31
0.0
  0
LINE
  5
4DC
100
AcDbEntity
  8
LAY-2
  6
CONTINUOUS
 62
     6
100
AcDbLine
 10
1579.79163
 20
1404.3
 30
0.0
 11
1579.79163
 21
1420.8
 31
0.0
  0
LINE
  5
4DD
100
AcDbEntity
  8
LAY-2
  6
CONTINUOUS
 62
     6
100
AcDbLine
 10
1574.257172
 20
1404.3
 30
0.0
 11
1574.257172
 21
1420.8
 31
0.0
  0
LINE
  5
4DE
100
AcDbEntity
  8
LAY-2
  6
CONTINUOUS
 62
     6
100
AcDbLine
 10
1582.99163
 20
1384.0
 30
0.0
 11
1581.49163
 21
1382.5
 31
0.0
  0
LINE
  5
4DF
100
AcDbEntity
  8
LAY-2
  6
CONTINUOUS
 62
     6
100
AcDbLine
 10
1570.99163
 20
1384.0
 30
0.0
 11
1572.49163
 21
1382.5
 31
0.0
  0
LINE
  5
4E0
100
AcDbEntity
  8
LAY-2
  6
CONTINUOUS
 62
     6
100
AcDbLine
 10
1582.99163
 20
1384.0
 30
0.0
 11
1581.49163
 21
1382.5
 31
0.0
  0
LINE
  5
4E1
100
AcDbEntity
  8
LAY-2
  6
CONTINUOUS
 62
     6
100
AcDbLine
 10
1570.99163
 20
1384.0
 30
0.0
 11
1572.49163
 21
1382.5
 31
0.0
  0
LINE
  5
4E2
100
AcDbEntity
  8
LAY-2
  6
CONTINUOUS
 62
     6
100
AcDbLine
 10
1581.49163
 20
1382.5
 30
0.0
 11
1572.49163
 21
1382.5
 31
0.0
  0
LINE
  5
4E3
100
AcDbEntity
  8
LAY-2
  6
CONTINUOUS
 62
     6
100
AcDbLine
 10
1582.99163
 20
1384.0
 30
0.0
 11
1570.99163
 21
1384.0
 31
0.0
  0
LINE
  5
4E4
100
AcDbEntity
  8
LAY-2
  6
CONTINUOUS
 62
     6
100
AcDbLine
 10
1571.99163
 20
1449.767949
 30
0.0
 11
1571.99163
 21
1435.765856
 31
0.0
  0
LINE
  5
4E5
100
AcDbEntity
  8
LAY-2
  6
CONTINUOUS
 62
     6
100
AcDbLine
 10
1570.99163
 20
1457.0
 30
0.0
 11
1570.99163
 21
1435.765856
 31
0.0
  0
LINE
  5
4E6
100
AcDbEntity
  8
LAY-2
  6
CONTINUOUS
 62
     6
100
AcDbLine
 10
1581.99163
 20
1449.767949
 30
0.0
 11
1581.99163
 21
1435.765856
 31
0.0
  0
LINE
  5
4E7
100
AcDbEntity
  8
LAY-2
  6
CONTINUOUS
 62
     6
100
AcDbLine
 10
1582.99163
 20
1457.0
 30
0.0
 11
1582.99163
 21
1435.765856
 31
0.0
  0
LINE
  5
4E8
100
AcDbEntity
  8
LAY-2
  6
CONTINUOUS
 62
     6
100
AcDbLine
 10
1582.99163
 20
1403.3
 30
0.0
 11
1582.99163
 21
1384.0
 31
0.0
  0
LINE
  5
4E9
100
AcDbEntity
  8
LAY-2
  6
CONTINUOUS
 62
     6
100
AcDbLine
 10
1581.99163
 20
1403.3
 30
0.0
 11
1581.99163
 21
1383.0
 31
0.0
  0
LINE
  5
4EA
100
AcDbEntity
  8
LAY-2
  6
CONTINUOUS
 62
     6
100
AcDbLine
 10
1570.99163
 20
1403.3
 30
0.0
 11
1570.99163
 21
1384.0
 31
0.0
  0
LINE
  5
4EB
100
AcDbEntity
  8
LAY-2
  6
CONTINUOUS
 62
     6
100
AcDbLine
 10
1571.99163
 20
1403.3
 30
0.0
 11
1571.99163
 21
1383.0
 31
0.0
  0
ARC
  5
4EC
100
AcDbEntity
  8
LAY-2
  6
CONTINUOUS
 62
     6
100
AcDbCircle
 10
624.528174
 20
1456.994088
 30
0.0
 40
5.0
100
AcDbArc
 50
90.0
 51
180.0
  0
LINE
  5
4ED
100
AcDbEntity
  8
LAY-2
  6
CONTINUOUS
 62
     6
100
AcDbLine
 10
609.028174
 20
1380.494088
 30
0.0
 11
618.028174
 21
1380.494088
 31
0.0
  0
LINE
  5
4EE
100
AcDbEntity
  8
LAY-2
  6
CONTINUOUS
 62
     6
100
AcDbLine
 10
609.028174
 20
1380.494088
 30
0.0
 11
609.028174
 21
1382.494088
 31
0.0
  0
LINE
  5
4EF
100
AcDbEntity
  8
LAY-2
  6
CONTINUOUS
 62
     6
100
AcDbLine
 10
618.028174
 20
1380.494088
 30
0.0
 11
618.028174
 21
1382.494088
 31
0.0
  0
LINE
  5
4F0
100
AcDbEntity
  8
LAY-2
  6
CONTINUOUS
 62
     6
100
AcDbLine
 10
618.528174
 20
1449.762037
 30
0.0
 11
619.528174
 21
1451.494088
 31
0.0
  0
LINE
  5
4F1
100
AcDbEntity
  8
LAY-2
  6
CONTINUOUS
 62
     6
100
AcDbLine
 10
609.028174
 20
1380.494088
 30
0.0
 11
618.028174
 21
1380.494088
 31
0.0
  0
LINE
  5
4F2
100
AcDbEntity
  8
LAY-2
  6
CONTINUOUS
 62
     6
100
AcDbLine
 10
609.028174
 20
1380.494088
 30
0.0
 11
609.028174
 21
1382.494088
 31
0.0
  0
LINE
  5
4F3
100
AcDbEntity
  8
LAY-2
  6
CONTINUOUS
 62
     6
100
AcDbLine
 10
618.028174
 20
1380.494088
 30
0.0
 11
618.028174
 21
1382.494088
 31
0.0
  0
LINE
  5
4F4
100
AcDbEntity
  8
LAY-2
  6
CONTINUOUS
 62
     6
100
AcDbLine
 10
608.528174
 20
1449.762037
 30
0.0
 11
607.976587
 21
1450.717414
 31
0.0
  0
LINE
  5
4F5
100
AcDbEntity
  8
LAY-2
  6
CONTINUOUS
 62
     6
100
AcDbLine
 10
619.528174
 20
1451.494088
 30
0.0
 11
607.976587
 21
1451.494088
 31
0.0
  0
LINE
  5
4F6
100
AcDbEntity
  8
LAY-2
  6
CONTINUOUS
 62
     6
100
AcDbLine
 10
619.528174
 20
1449.762037
 30
0.0
 11
607.976587
 21
1449.762037
 31
0.0
  0
LINE
  5
4F7
100
AcDbEntity
  8
LAY-2
  6
CONTINUOUS
 62
     6
100
AcDbLine
 10
609.778174
 20
1419.794088
 30
0.0
 11
609.778174
 21
1404.294088
 31
0.0
  0
LINE
  5
4F8
100
AcDbEntity
  8
LAY-2
  6
CONTINUOUS
 62
     6
100
AcDbLine
 10
611.028174
 20
1403.294088
 30
0.0
 11
611.028174
 21
1409.294088
 31
0.0
  0
LINE
  5
4F9
100
AcDbEntity
  8
LAY-2
  6
CONTINUOUS
 62
     6
100
AcDbLine
 10
616.028174
 20
1403.294088
 30
0.0
 11
616.028174
 21
1409.294088
 31
0.0
  0
LINE
  5
4FA
100
AcDbEntity
  8
LAY-2
  6
CONTINUOUS
 62
     6
100
AcDbLine
 10
625.028174
 20
1420.794088
 30
0.0
 11
625.028174
 21
1404.294088
 31
0.0
  0
LINE
  5
4FB
100
AcDbEntity
  8
LAY-2
  6
CONTINUOUS
 62
     6
100
AcDbLine
 10
617.278174
 20
1419.794088
 30
0.0
 11
617.278174
 21
1404.294088
 31
0.0
  0
ARC
  5
4FC
100
AcDbEntity
  8
LAY-2
  6
CONTINUOUS
 62
     6
100
AcDbCircle
 10
610.778174
 20
1404.294088
 30
0.0
 40
1.0
100
AcDbArc
 50
180.0
 51
270.0
  0
ARC
  5
4FD
100
AcDbEntity
  8
LAY-2
  6
CONTINUOUS
 62
     6
100
AcDbCircle
 10
616.278174
 20
1404.294088
 30
0.0
 40
1.0
100
AcDbArc
 50
270.0
 51
0.0
  0
ARC
  5
4FE
100
AcDbEntity
  8
LAY-2
  6
CONTINUOUS
 62
     6
100
AcDbCircle
 10
624.028174
 20
1404.294088
 30
0.0
 40
1.0
100
AcDbArc
 50
270.0
 51
0.0
  0
ARC
  5
4FF
100
AcDbEntity
  8
LAY-2
  6
CONTINUOUS
 62
     6
100
AcDbCircle
 10
613.528174
 20
1424.794088
 30
0.0
 40
12.5
100
AcDbArc
 50
0.0
 51
61.314598
  0
LINE
  5
500
100
AcDbEntity
  8
LAY-2
  6
CONTINUOUS
 62
     6
100
AcDbLine
 10
625.528174
 20
1420.794088
 30
0.0
 11
618.278174
 21
1420.794088
 31
0.0
  0
LINE
  5
501
100
AcDbEntity
  8
LAY-2
  6
CONTINUOUS
 62
     6
100
AcDbLine
 10
611.528174
 20
1409.794088
 30
0.0
 11
615.528174
 21
1409.794088
 31
0.0
  0
ARC
  5
502
100
AcDbEntity
  8
LAY-2
  6
CONTINUOUS
 62
     6
100
AcDbCircle
 10
608.778174
 20
1419.794088
 30
0.0
 40
1.0
100
AcDbArc
 50
0.0
 51
90.0
  0
LINE
  5
503
100
AcDbEntity
  8
LAY-2
  6
CONTINUOUS
 62
     6
100
AcDbLine
 10
600.528174
 20
1422.794088
 30
0.0
 11
600.528174
 21
1421.794088
 31
0.0
  0
ARC
  5
504
100
AcDbEntity
  8
LAY-2
  6
CONTINUOUS
 62
     6
100
AcDbCircle
 10
611.528174
 20
1409.294088
 30
0.0
 40
0.5
100
AcDbArc
 50
90.0
 51
180.0
  0
ARC
  5
505
100
AcDbEntity
  8
LAY-2
  6
CONTINUOUS
 62
     6
100
AcDbCircle
 10
600.828174
 20
1424.494088
 30
0.0
 40
0.3
100
AcDbArc
 50
90.0
 51
180.0
  0
ARC
  5
506
100
AcDbEntity
  8
LAY-2
  6
CONTINUOUS
 62
     6
100
AcDbCircle
 10
600.828174
 20
1424.094088
 30
0.0
 40
0.3
100
AcDbArc
 50
180.0
 51
270.0
  0
LINE
  5
507
100
AcDbEntity
  8
LAY-2
  6
CONTINUOUS
 62
     6
100
AcDbLine
 10
600.528174
 20
1424.094088
 30
0.0
 11
600.528174
 21
1424.494088
 31
0.0
  0
ARC
  5
508
100
AcDbEntity
  8
LAY-2
  6
CONTINUOUS
 62
     6
100
AcDbCircle
 10
615.528174
 20
1409.294088
 30
0.0
 40
0.5
100
AcDbArc
 50
0.0
 51
90.0
  0
ARC
  5
509
100
AcDbEntity
  8
LAY-2
  6
CONTINUOUS
 62
     6
100
AcDbCircle
 10
618.278174
 20
1419.794088
 30
0.0
 40
1.0
100
AcDbArc
 50
90.0
 51
180.0
  0
LINE
  5
50A
100
AcDbEntity
  8
LAY-2
  6
CONTINUOUS
 62
     6
100
AcDbLine
 10
626.528174
 20
1424.094088
 30
0.0
 11
626.528174
 21
1424.494088
 31
0.0
  0
ARC
  5
50B
100
AcDbEntity
  8
LAY-2
  6
CONTINUOUS
 62
     6
100
AcDbCircle
 10
626.228174
 20
1424.094088
 30
0.0
 40
0.3
100
AcDbArc
 50
270.0
 51
0.0
  0
ARC
  5
50C
100
AcDbEntity
  8
LAY-2
  6
CONTINUOUS
 62
     6
100
AcDbCircle
 10
626.228174
 20
1424.494088
 30
0.0
 40
0.3
100
AcDbArc
 50
0.0
 51
90.0
  0
LINE
  5
50D
100
AcDbEntity
  8
LAY-2
  6
CONTINUOUS
 62
     6
100
AcDbLine
 10
626.528174
 20
1422.794088
 30
0.0
 11
626.528174
 21
1421.794088
 31
0.0
  0
ARC
  5
50E
100
AcDbEntity
  8
LAY-2
  6
CONTINUOUS
 62
     6
100
AcDbCircle
 10
625.528174
 20
1422.794088
 30
0.0
 40
1.0
100
AcDbArc
 50
0.0
 51
90.0
  0
ARC
  5
50F
100
AcDbEntity
  8
LAY-2
  6
CONTINUOUS
 62
     6
100
AcDbCircle
 10
625.528174
 20
1421.794088
 30
0.0
 40
1.0
100
AcDbArc
 50
270.0
 51
0.0
  0
LINE
  5
510
100
AcDbEntity
  8
LAY-2
  6
CONTINUOUS
 62
     6
100
AcDbLine
 10
607.528174
 20
1435.759944
 30
0.0
 11
619.528174
 21
1435.759944
 31
0.0
  0
LINE
  5
511
100
AcDbEntity
  8
LAY-2
  6
CONTINUOUS
 62
     6
100
AcDbLine
 10
620.920231
 20
1404.294088
 30
0.0
 11
620.920231
 21
1420.794088
 31
0.0
  0
LINE
  5
512
100
AcDbEntity
  8
LAY-2
  6
CONTINUOUS
 62
     6
100
AcDbLine
 10
617.278174
 20
1417.794088
 30
0.0
 11
625.028174
 21
1417.794088
 31
0.0
  0
LINE
  5
513
100
AcDbEntity
  8
LAY-2
  6
CONTINUOUS
 62
     6
100
AcDbLine
 10
617.278174
 20
1412.794088
 30
0.0
 11
625.028174
 21
1412.794088
 31
0.0
  0
LINE
  5
514
100
AcDbEntity
  8
LAY-2
  6
CONTINUOUS
 62
     6
100
AcDbLine
 10
617.278174
 20
1407.794088
 30
0.0
 11
625.028174
 21
1407.794088
 31
0.0
  0
ARC
  5
515
100
AcDbEntity
  8
LAY-2
  6
CONTINUOUS
 62
     6
100
AcDbCircle
 10
613.528174
 20
1424.794088
 30
0.0
 40
12.5
100
AcDbArc
 50
168.558271
 51
180.0
  0
LINE
  5
516
100
AcDbEntity
  8
LAY-2
  6
CONTINUOUS
 62
     6
100
AcDbLine
 10
600.828174
 20
1424.794088
 30
0.0
 11
601.276587
 21
1424.794088
 31
0.0
  0
LINE
  5
517
100
AcDbEntity
  8
LAY-2
  6
CONTINUOUS
 62
     6
100
AcDbLine
 10
607.976587
 20
1424.794088
 30
0.0
 11
626.228174
 21
1424.794088
 31
0.0
  0
LINE
  5
518
100
AcDbEntity
  8
LAY-2
  6
CONTINUOUS
 62
     6
100
AcDbLine
 10
607.976587
 20
1423.794088
 30
0.0
 11
626.228174
 21
1423.794088
 31
0.0
  0
LINE
  5
519
100
AcDbEntity
  8
LAY-2
  6
CONTINUOUS
 62
     6
100
AcDbLine
 10
600.828174
 20
1423.794088
 30
0.0
 11
601.276587
 21
1423.794088
 31
0.0
  0
ARC
  5
51A
100
AcDbEntity
  8
LAY-2
  6
CONTINUOUS
 62
     6
100
AcDbCircle
 10
601.528174
 20
1421.794088
 30
0.0
 40
1.0
100
AcDbArc
 50
180.0
 51
255.428557
  0
ARC
  5
51B
100
AcDbEntity
  8
LAY-2
  6
CONTINUOUS
 62
     6
100
AcDbCircle
 10
601.528174
 20
1422.794088
 30
0.0
 40
1.0
100
AcDbArc
 50
104.571443
 51
180.0
  0
LINE
  5
51C
100
AcDbEntity
  8
LAY-2
  6
CONTINUOUS
 62
     6
100
AcDbLine
 10
607.976587
 20
1420.794088
 30
0.0
 11
608.778174
 21
1420.794088
 31
0.0
  0
LINE
  5
51D
100
AcDbEntity
  8
LAY-2
  6
CONTINUOUS
 62
     6
100
AcDbLine
 10
609.778174
 20
1417.794088
 30
0.0
 11
607.976587
 21
1417.794088
 31
0.0
  0
LINE
  5
51E
100
AcDbEntity
  8
LAY-2
  6
CONTINUOUS
 62
     6
100
AcDbLine
 10
609.778174
 20
1412.794088
 30
0.0
 11
607.976587
 21
1412.794088
 31
0.0
  0
LINE
  5
51F
100
AcDbEntity
  8
LAY-2
  6
CONTINUOUS
 62
     6
100
AcDbLine
 10
609.778174
 20
1407.794088
 30
0.0
 11
607.976587
 21
1407.794088
 31
0.0
  0
LINE
  5
520
100
AcDbEntity
  8
LAY-2
  6
CONTINUOUS
 62
     6
100
AcDbLine
 10
607.976587
 20
1403.294088
 30
0.0
 11
624.028174
 21
1403.294088
 31
0.0
  0
LINE
  5
521
100
AcDbEntity
  8
LAY-2
  6
CONTINUOUS
 62
     6
100
AcDbLine
 10
619.528174
 20
1383.994088
 30
0.0
 11
618.028174
 21
1382.494088
 31
0.0
  0
LINE
  5
522
100
AcDbEntity
  8
LAY-2
  6
CONTINUOUS
 62
     6
100
AcDbLine
 10
619.528174
 20
1383.994088
 30
0.0
 11
618.028174
 21
1382.494088
 31
0.0
  0
LINE
  5
523
100
AcDbEntity
  8
LAY-2
  6
CONTINUOUS
 62
     6
100
AcDbLine
 10
618.028174
 20
1382.494088
 30
0.0
 11
609.028174
 21
1382.494088
 31
0.0
  0
LINE
  5
524
100
AcDbEntity
  8
LAY-2
  6
CONTINUOUS
 62
     6
100
AcDbLine
 10
618.528174
 20
1403.294088
 30
0.0
 11
618.528174
 21
1382.994088
 31
0.0
  0
LINE
  5
525
100
AcDbEntity
  8
LAY-2
  6
CONTINUOUS
 62
     6
100
AcDbLine
 10
619.528174
 20
1403.294088
 30
0.0
 11
619.528174
 21
1383.994088
 31
0.0
  0
LINE
  5
526
100
AcDbEntity
  8
LAY-2
  6
CONTINUOUS
 62
     6
100
AcDbLine
 10
608.528174
 20
1403.294088
 30
0.0
 11
608.528174
 21
1382.994088
 31
0.0
  0
LINE
  5
527
100
AcDbEntity
  8
LAY-2
  6
CONTINUOUS
 62
     6
100
AcDbLine
 10
618.528174
 20
1449.762037
 30
0.0
 11
618.528174
 21
1435.759944
 31
0.0
  0
LINE
  5
528
100
AcDbEntity
  8
LAY-2
  6
CONTINUOUS
 62
     6
100
AcDbLine
 10
619.528174
 20
1456.994088
 30
0.0
 11
619.528174
 21
1435.759944
 31
0.0
  0
LINE
  5
529
100
AcDbEntity
  8
LAY-2
  6
CONTINUOUS
 62
     6
100
AcDbLine
 10
608.528174
 20
1449.762037
 30
0.0
 11
608.528174
 21
1435.759944
 31
0.0
  0
LINE
  5
52A
100
AcDbEntity
  8
LAY-2
  6
CONTINUOUS
 62
     6
100
AcDbLine
 10
607.976587
 20
1383.545675
 30
0.0
 11
609.028174
 21
1382.494088
 31
0.0
  0
LINE
  5
52B
100
AcDbEntity
  8
LAY-2
  6
CONTINUOUS
 62
     6
100
AcDbLine
 10
607.976587
 20
1383.545675
 30
0.0
 11
609.028174
 21
1382.494088
 31
0.0
  0
LINE
  5
52C
100
AcDbEntity
  8
LAY-2
  6
CONTINUOUS
 62
     6
100
AcDbLine
 10
619.528174
 20
1383.994088
 30
0.0
 11
607.976587
 21
1383.994088
 31
0.0
  0
TEXT
  5
52D
100
AcDbEntity
  8
LAY-3
  6
CONTINUOUS
 62
     2
100
AcDbText
 10
495.831573
 20
2256.883228
 30
0.0
 40
40.0
  1
１９８
 50
90.0
 41
0.833
  7
EXCADSTD
 72
     5
 11
495.831573
 21
2375.883228
 31
0.0
100
AcDbText
  0
LINE
  5
52E
100
AcDbEntity
  8
LAY-3
  6
CONTINUOUS
 62
     3
100
AcDbLine
 10
499.331573
 20
2415.383228
 30
0.0
 11
499.331573
 21
2217.383228
 31
0.0
  0
LINE
  5
52F
100
AcDbEntity
  8
LAY-3
  6
CONTINUOUS
 62
     3
100
AcDbLine
 10
505.164906
 20
2380.383228
 30
0.0
 11
499.331573
 21
2415.383228
 31
0.0
  0
LINE
  5
530
100
AcDbEntity
  8
LAY-3
  6
CONTINUOUS
 62
     3
100
AcDbLine
 10
499.331573
 20
2415.383228
 30
0.0
 11
493.49824
 21
2380.383228
 31
0.0
  0
LINE
  5
531
100
AcDbEntity
  8
LAY-3
  6
CONTINUOUS
 62
     3
100
AcDbLine
 10
493.49824
 20
2252.383228
 30
0.0
 11
499.331573
 21
2217.383228
 31
0.0
  0
LINE
  5
532
100
AcDbEntity
  8
LAY-3
  6
CONTINUOUS
 62
     3
100
AcDbLine
 10
499.331573
 20
2217.383228
 30
0.0
 11
505.164906
 21
2252.383228
 31
0.0
  0
TEXT
  5
533
100
AcDbEntity
  8
LAY-3
  6
CONTINUOUS
 62
     2
100
AcDbText
 10
495.831573
 20
2050.883228
 30
0.0
 40
40.0
  1
２１４
 50
90.0
 41
0.833
  7
EXCADSTD
 72
     5
 11
495.831573
 21
2169.883228
 31
0.0
100
AcDbText
  0
LINE
  5
534
100
AcDbEntity
  8
LAY-3
  6
CONTINUOUS
 62
     3
100
AcDbLine
 10
499.331573
 20
2217.383228
 30
0.0
 11
499.331573
 21
2003.383228
 31
0.0
  0
LINE
  5
535
100
AcDbEntity
  8
LAY-3
  6
CONTINUOUS
 62
     3
100
AcDbLine
 10
505.164906
 20
2182.383228
 30
0.0
 11
499.331573
 21
2217.383228
 31
0.0
  0
LINE
  5
536
100
AcDbEntity
  8
LAY-3
  6
CONTINUOUS
 62
     3
100
AcDbLine
 10
499.331573
 20
2217.383228
 30
0.0
 11
493.49824
 21
2182.383228
 31
0.0
  0
LINE
  5
537
100
AcDbEntity
  8
LAY-3
  6
CONTINUOUS
 62
     3
100
AcDbLine
 10
493.49824
 20
2038.383228
 30
0.0
 11
499.331573
 21
2003.383228
 31
0.0
  0
LINE
  5
538
100
AcDbEntity
  8
LAY-3
  6
CONTINUOUS
 62
     3
100
AcDbLine
 10
499.331573
 20
2003.383228
 30
0.0
 11
505.164906
 21
2038.383228
 31
0.0
  0
TEXT
  5
539
100
AcDbEntity
  8
LAY-3
  6
CONTINUOUS
 62
     2
100
AcDbText
 10
435.831573
 20
2149.883228
 30
0.0
 40
40.0
  1
４１２
 50
90.0
 41
0.833
  7
EXCADSTD
 72
     5
 11
435.831573
 21
2268.883228
 31
0.0
100
AcDbText
  0
LINE
  5
53A
100
AcDbEntity
  8
LAY-3
  6
CONTINUOUS
 62
     3
100
AcDbLine
 10
439.331573
 20
2415.383228
 30
0.0
 11
439.331573
 21
2003.383228
 31
0.0
  0
LINE
  5
53B
100
AcDbEntity
  8
LAY-3
  6
CONTINUOUS
 62
     3
100
AcDbLine
 10
445.164906
 20
2380.383228
 30
0.0
 11
439.331573
 21
2415.383228
 31
0.0
  0
LINE
  5
53C
100
AcDbEntity
  8
LAY-3
  6
CONTINUOUS
 62
     3
100
AcDbLine
 10
439.331573
 20
2415.383228
 30
0.0
 11
433.49824
 21
2380.383228
 31
0.0
  0
LINE
  5
53D
100
AcDbEntity
  8
LAY-3
  6
CONTINUOUS
 62
     3
100
AcDbLine
 10
433.49824
 20
2038.383228
 30
0.0
 11
439.331573
 21
2003.383228
 31
0.0
  0
LINE
  5
53E
100
AcDbEntity
  8
LAY-3
  6
CONTINUOUS
 62
     3
100
AcDbLine
 10
439.331573
 20
2003.383228
 30
0.0
 11
445.164906
 21
2038.383228
 31
0.0
  0
TEXT
  5
53F
100
AcDbEntity
  8
LAY-3
  6
CONTINUOUS
 62
     2
100
AcDbText
 10
1169.423463
 20
2157.883228
 30
0.0
 40
40.0
  1
３８８
 50
90.0
 41
0.833
  7
EXCADSTD
 72
     5
 11
1169.423463
 21
2276.883228
 31
0.0
100
AcDbText
  0
LINE
  5
540
100
AcDbEntity
  8
LAY-3
  6
CONTINUOUS
 62
     3
100
AcDbLine
 10
1172.923463
 20
2411.383228
 30
0.0
 11
1172.923463
 21
2023.383228
 31
0.0
  0
LINE
  5
541
100
AcDbEntity
  8
LAY-3
  6
CONTINUOUS
 62
     3
100
AcDbLine
 10
1178.756796
 20
2376.383228
 30
0.0
 11
1172.923463
 21
2411.383228
 31
0.0
  0
LINE
  5
542
100
AcDbEntity
  8
LAY-3
  6
CONTINUOUS
 62
     3
100
AcDbLine
 10
1172.923463
 20
2411.383228
 30
0.0
 11
1167.09013
 21
2376.383228
 31
0.0
  0
LINE
  5
543
100
AcDbEntity
  8
LAY-3
  6
CONTINUOUS
 62
     3
100
AcDbLine
 10
1167.09013
 20
2058.383228
 30
0.0
 11
1172.923463
 21
2023.383228
 31
0.0
  0
LINE
  5
544
100
AcDbEntity
  8
LAY-3
  6
CONTINUOUS
 62
     3
100
AcDbLine
 10
1172.923463
 20
2023.383228
 30
0.0
 11
1178.756796
 21
2058.383228
 31
0.0
  0
TEXT
  5
545
100
AcDbEntity
  8
LAY-3
  6
CONTINUOUS
 62
     2
100
AcDbText
 10
452.829986
 20
2474.883228
 30
0.0
 40
40.0
  1
５４
 41
0.861
  7
EXCADSTD
 72
     5
 11
527.991186
 21
2474.883228
 31
0.0
100
AcDbText
  0
LINE
  5
546
100
AcDbEntity
  8
LAY-3
  6
CONTINUOUS
 62
     3
100
AcDbLine
 10
658.0
 20
2471.383228
 30
0.0
 11
458.098756
 21
2471.383228
 31
0.0
  0
LINE
  5
547
100
AcDbEntity
  8
LAY-3
  6
CONTINUOUS
 62
     3
100
AcDbLine
 10
523.829986
 20
2465.549895
 30
0.0
 11
558.829986
 21
2471.383228
 31
0.0
  0
LINE
  5
548
100
AcDbEntity
  8
LAY-3
  6
CONTINUOUS
 62
     3
100
AcDbLine
 10
558.829986
 20
2471.383228
 30
0.0
 11
523.829986
 21
2477.216561
 31
0.0
  0
TEXT
  5
549
100
AcDbEntity
  8
LAY-3
  6
CONTINUOUS
 62
     2
100
AcDbText
 10
766.627518
 20
2534.883228
 30
0.0
 40
40.0
  1
５３４
 41
0.833
  7
EXCADSTD
 72
     5
 11
885.627518
 21
2534.883228
 31
0.0
100
AcDbText
  0
LINE
  5
54A
100
AcDbEntity
  8
LAY-3
  6
CONTINUOUS
 62
     3
100
AcDbLine
 10
559.331573
 20
2531.383228
 30
0.0
 11
1092.923463
 21
2531.383228
 31
0.0
  0
LINE
  5
54B
100
AcDbEntity
  8
LAY-3
  6
CONTINUOUS
 62
     3
100
AcDbLine
 10
594.331573
 20
2537.216561
 30
0.0
 11
559.331573
 21
2531.383228
 31
0.0
  0
LINE
  5
54C
100
AcDbEntity
  8
LAY-3
  6
CONTINUOUS
 62
     3
100
AcDbLine
 10
559.331573
 20
2531.383228
 30
0.0
 11
594.331573
 21
2525.549895
 31
0.0
  0
LINE
  5
54D
100
AcDbEntity
  8
LAY-3
  6
CONTINUOUS
 62
     3
100
AcDbLine
 10
1057.923463
 20
2525.549895
 30
0.0
 11
1092.923463
 21
2531.383228
 31
0.0
  0
LINE
  5
54E
100
AcDbEntity
  8
LAY-3
  6
CONTINUOUS
 62
     3
100
AcDbLine
 10
1092.923463
 20
2531.383228
 30
0.0
 11
1057.923463
 21
2537.216561
 31
0.0
  0
TEXT
  5
54F
100
AcDbEntity
  8
LAY-3
  6
CONTINUOUS
 62
     2
100
AcDbText
 10
793.461732
 20
2474.883228
 30
0.0
 40
40.0
  1
４８０
 41
0.833
  7
EXCADSTD
 72
     5
 11
912.461731
 21
2474.883228
 31
0.0
100
AcDbText
  0
LINE
  5
550
100
AcDbEntity
  8
LAY-3
  6
CONTINUOUS
 62
     3
100
AcDbLine
 10
613.0
 20
2471.383228
 30
0.0
 11
1092.923463
 21
2471.383228
 31
0.0
  0
LINE
  5
551
100
AcDbEntity
  8
LAY-3
  6
CONTINUOUS
 62
     3
100
AcDbLine
 10
648.0
 20
2477.216561
 30
0.0
 11
613.0
 21
2471.383228
 31
0.0
  0
LINE
  5
552
100
AcDbEntity
  8
LAY-3
  6
CONTINUOUS
 62
     3
100
AcDbLine
 10
613.0
 20
2471.383228
 30
0.0
 11
648.0
 21
2465.549895
 31
0.0
  0
LINE
  5
553
100
AcDbEntity
  8
LAY-3
  6
CONTINUOUS
 62
     3
100
AcDbLine
 10
1057.923463
 20
2465.549895
 30
0.0
 11
1092.923463
 21
2471.383228
 31
0.0
  0
LINE
  5
554
100
AcDbEntity
  8
LAY-3
  6
CONTINUOUS
 62
     3
100
AcDbLine
 10
1092.923463
 20
2471.383228
 30
0.0
 11
1057.923463
 21
2477.216561
 31
0.0
  0
TEXT
  5
555
100
AcDbEntity
  8
LAY-3
  6
CONTINUOUS
 62
     2
100
AcDbText
 10
815.168154
 20
1947.317935
 30
0.0
 40
40.0
  1
３０６
 41
0.833
  7
EXCADSTD
 72
     5
 11
934.168154
 21
1947.317935
 31
0.0
100
AcDbText
  0
LINE
  5
556
100
AcDbEntity
  8
LAY-3
  6
CONTINUOUS
 62
     3
100
AcDbLine
 10
721.412845
 20
1943.817935
 30
0.0
 11
1027.923463
 21
1943.817935
 31
0.0
  0
LINE
  5
557
100
AcDbEntity
  8
LAY-3
  6
CONTINUOUS
 62
     3
100
AcDbLine
 10
756.412845
 20
1949.651268
 30
0.0
 11
721.412845
 21
1943.817935
 31
0.0
  0
LINE
  5
558
100
AcDbEntity
  8
LAY-3
  6
CONTINUOUS
 62
     3
100
AcDbLine
 10
721.412845
 20
1943.817935
 30
0.0
 11
756.412845
 21
1937.984601
 31
0.0
  0
LINE
  5
559
100
AcDbEntity
  8
LAY-3
  6
CONTINUOUS
 62
     3
100
AcDbLine
 10
992.923463
 20
1937.984601
 30
0.0
 11
1027.923463
 21
1943.817935
 31
0.0
  0
LINE
  5
55A
100
AcDbEntity
  8
LAY-3
  6
CONTINUOUS
 62
     3
100
AcDbLine
 10
1027.923463
 20
1943.817935
 30
0.0
 11
992.923463
 21
1949.651268
 31
0.0
  0
TEXT
  5
55B
100
AcDbEntity
  8
LAY-3
  6
CONTINUOUS
 62
     2
100
AcDbText
 10
1383.83285
 20
1468.250031
 30
0.0
 40
40.0
  1
１３１
 50
90.0
 41
0.833
  7
EXCADSTD
 72
     5
 11
1383.83285
 21
1587.25003
 31
0.0
100
AcDbText
  0
LINE
  5
55C
100
AcDbEntity
  8
LAY-3
  6
CONTINUOUS
 62
     3
100
AcDbLine
 10
1387.33285
 20
1593.500061
 30
0.0
 11
1387.33285
 21
1462.0
 31
0.0
  0
LINE
  5
55D
100
AcDbEntity
  8
LAY-3
  6
CONTINUOUS
 62
     3
100
AcDbLine
 10
1393.166183
 20
1558.500061
 30
0.0
 11
1387.33285
 21
1593.500061
 31
0.0
  0
LINE
  5
55E
100
AcDbEntity
  8
LAY-3
  6
CONTINUOUS
 62
     3
100
AcDbLine
 10
1387.33285
 20
1593.500061
 30
0.0
 11
1381.499517
 21
1558.500061
 31
0.0
  0
LINE
  5
55F
100
AcDbEntity
  8
LAY-3
  6
CONTINUOUS
 62
     3
100
AcDbLine
 10
1381.499517
 20
1497.0
 30
0.0
 11
1387.33285
 21
1462.0
 31
0.0
  0
LINE
  5
560
100
AcDbEntity
  8
LAY-3
  6
CONTINUOUS
 62
     3
100
AcDbLine
 10
1387.33285
 20
1462.0
 30
0.0
 11
1393.166183
 21
1497.0
 31
0.0
  0
TEXT
  5
561
100
AcDbEntity
  8
LAY-3
  6
CONTINUOUS
 62
     2
100
AcDbText
 10
1500.491626
 20
1380.25
 30
0.0
 40
40.0
  1
８２
 50
90.0
 41
0.861
  7
EXCADSTD
 72
     5
 11
1500.491626
 21
1455.4112
 31
0.0
100
AcDbText
  0
LINE
  5
562
100
AcDbEntity
  8
LAY-3
  6
CONTINUOUS
 62
     3
100
AcDbLine
 10
1503.991626
 20
1462.0
 30
0.0
 11
1503.991626
 21
1380.5
 31
0.0
  0
LINE
  5
563
100
AcDbEntity
  8
LAY-3
  6
CONTINUOUS
 62
     3
100
AcDbLine
 10
1509.824959
 20
1427.0
 30
0.0
 11
1503.991626
 21
1462.0
 31
0.0
  0
LINE
  5
564
100
AcDbEntity
  8
LAY-3
  6
CONTINUOUS
 62
     3
100
AcDbLine
 10
1503.991626
 20
1462.0
 30
0.0
 11
1498.158293
 21
1427.0
 31
0.0
  0
LINE
  5
565
100
AcDbEntity
  8
LAY-3
  6
CONTINUOUS
 62
     3
100
AcDbLine
 10
1498.158293
 20
1415.5
 30
0.0
 11
1503.991626
 21
1380.5
 31
0.0
  0
LINE
  5
566
100
AcDbEntity
  8
LAY-3
  6
CONTINUOUS
 62
     3
100
AcDbLine
 10
1503.991626
 20
1380.5
 30
0.0
 11
1509.824959
 21
1415.5
 31
0.0
  0
DIMENSION
  5
573
100
AcDbEntity
  8
LAY-3
  6
CONTINUOUS
 62
     3
100
AcDbDimension
  2
*D14
 10
1716.99163
 20
1320.5
 30
0.0
 11
1646.99163
 21
1344.0
 31
0.0
 70
   160
  1
140
  3
STANDARD
100
AcDbAlignedDimension
 13
1576.99163
 23
1380.5
 33
0.0
 14
1716.99163
 24
1380.5
 34
0.0
100
AcDbRotatedDimension
1001
ACAD
1000
DSTYLE
1002
{
1070
     6
1000
_EX_NORM
1070
     7
1000
_EX_NORM
1070
    41
1040
35.0
1070
    42
1040
7.0
1070
    44
1040
20.0
1070
    73
1070
     0
1070
    74
1070
     0
1070
    75
1070
     0
1070
    76
1070
     0
1070
    77
1070
     1
1070
    78
1070
     0
1070
   140
1040
40.0
1070
   147
1040
3.5
1070
   173
1070
     1
1070
   176
1070
     3
1070
   177
1070
     3
1070
   178
1070
     2
1070
   271
1070
     0
1070
   279
1070
     2
1070
   280
1070
     0
1070
   287
1070
     5
1070
   340
1005
572
1002
}
  0
LINE
  5
574
100
AcDbEntity
  8
LAY-3
  6
CONTINUOUS
 62
     3
100
AcDbLine
 10
583.531524
 20
2217.383228
 30
0.0
 11
479.331573
 21
2217.383228
 31
0.0
  0
LINE
  5
575
100
AcDbEntity
  8
LAY-3
  6
CONTINUOUS
 62
     3
100
AcDbLine
 10
597.700339
 20
2003.383228
 30
0.0
 11
419.331573
 21
2003.383228
 31
0.0
  0
LINE
  5
576
100
AcDbEntity
  8
LAY-3
  6
CONTINUOUS
 62
     3
100
AcDbLine
 10
564.600339
 20
2415.383228
 30
0.0
 11
419.331573
 21
2415.383228
 31
0.0
  0
LINE
  5
577
100
AcDbEntity
  8
LAY-3
  6
CONTINUOUS
 62
     3
100
AcDbLine
 10
1092.923463
 20
2224.383228
 30
0.0
 11
1092.923463
 21
2551.383228
 31
0.0
  0
LINE
  5
578
100
AcDbEntity
  8
LAY-3
  6
CONTINUOUS
 62
     3
100
AcDbLine
 10
720.911258
 20
2210.383228
 30
0.0
 11
720.911258
 21
1923.817935
 31
0.0
  0
LINE
  5
579
100
AcDbEntity
  8
LAY-3
  6
CONTINUOUS
 62
     3
100
AcDbLine
 10
558.829986
 20
2412.216724
 30
0.0
 11
558.829986
 21
2551.383228
 31
0.0
  0
LINE
  5
57A
100
AcDbEntity
  8
LAY-3
  6
CONTINUOUS
 62
     3
100
AcDbLine
 10
1192.923463
 20
2411.383228
 30
0.0
 11
729.600339
 21
2411.383228
 31
0.0
  0
LINE
  5
57B
100
AcDbEntity
  8
LAY-3
  6
CONTINUOUS
 62
     3
100
AcDbLine
 10
1192.923463
 20
2023.383228
 30
0.0
 11
729.600339
 21
2023.383228
 31
0.0
  0
LINE
  5
57C
100
AcDbEntity
  8
LAY-3
  6
CONTINUOUS
 62
     3
100
AcDbLine
 10
1027.923463
 20
2210.383228
 30
0.0
 11
1027.923463
 21
1923.817935
 31
0.0
  0
LINE
  5
57D
100
AcDbEntity
  8
LAY-3
  6
CONTINUOUS
 62
     3
100
AcDbLine
 10
1438.918352
 20
1462.0
 30
0.0
 11
1367.33285
 21
1462.0
 31
0.0
  0
LINE
  5
57E
100
AcDbEntity
  8
LAY-3
  6
CONTINUOUS
 62
     3
100
AcDbLine
 10
1611.23285
 20
1593.500061
 30
0.0
 11
1367.33285
 21
1593.500061
 31
0.0
  0
LINE
  5
57F
100
AcDbEntity
  8
LAY-3
  6
CONTINUOUS
 62
     3
100
AcDbLine
 10
1565.49163
 20
1380.5
 30
0.0
 11
1483.991626
 21
1380.5
 31
0.0
  0
LINE
  5
580
100
AcDbEntity
  8
LAY-3
  6
CONTINUOUS
 62
     6
100
AcDbLine
 10
1747.489193
 20
1462.0
 30
0.0
 11
1546.489315
 21
1462.0
 31
0.0
  0
ENDSEC
  0
SECTION
  2
OBJECTS
  0
DICTIONARY
  5
19
100
AcDbDictionary
  3
ACAD_GROUP
350
1A
  3
ACAD_MLINESTYLE
350
1B
  0
DICTIONARY
  5
1A
102
{ACAD_REACTORS
330
19
102
}
100
AcDbDictionary
  0
DICTIONARY
  5
1B
102
{ACAD_REACTORS
330
19
102
}
100
AcDbDictionary
  3
STANDARD
350
1C
  0
MLINESTYLE
  5
1C
102
{ACAD_REACTORS
330
1B
102
}
100
AcDbMlineStyle
  2
Standard
 70
     0
  3

 62
     0
 51
90.0
 52
90.0
 71
     2
 49
0.5
 62
   256
  6
ByLayer
 49
-0.5
 62
   256
  6
ByLayer
  0
ENDSEC
  0
EOF
