  0
SECTION
  2
HEADER
  9
$ACADVER
  1
AC1014
  9
$ACADMAINTVER
 70
     0
  9
$DWGCODEPAGE
  3
ANSI_932
  9
$INSBASE
 10
0.0
 20
0.0
 30
0.0
  9
$EXTMIN
 10
9.0
 20
8.5
 30
0.0
  9
$EXTMAX
 10
289.0
 20
208.5
 30
0.0
  9
$LIMMIN
 10
0.0
 20
0.0
  9
$LIMMAX
 10
297.0
 20
210.0
  9
$ORTHOMODE
 70
     0
  9
$REGENMODE
 70
     1
  9
$FILLMODE
 70
     1
  9
$QTEXTMODE
 70
     0
  9
$MIRRTEXT
 70
     1
  9
$DRAGMODE
 70
     2
  9
$LTSCALE
 40
1.0
  9
$OSMODE
 70
     0
  9
$ATTMODE
 70
     1
  9
$TEXTSIZE
 40
0.2
  9
$TRACEWID
 40
0.05
  9
$TEXTSTYLE
  7
STANDARD
  9
$CLAYER
  8
枠・表
  9
$CELTYPE
  6
CONTINUOUS
  9
$CECOLOR
 62
   256
  9
$CELTSCALE
 40
1.0
  9
$DELOBJ
 70
     1
  9
$DISPSILH
 70
     0
  9
$DIMSCALE
 40
1.0
  9
$DIMASZ
 40
0.18
  9
$DIMEXO
 40
0.0625
  9
$DIMDLI
 40
0.38
  9
$DIMRND
 40
0.0
  9
$DIMDLE
 40
0.0
  9
$DIMEXE
 40
0.18
  9
$DIMTP
 40
0.0
  9
$DIMTM
 40
0.0
  9
$DIMTXT
 40
0.18
  9
$DIMCEN
 40
0.09
  9
$DIMTSZ
 40
0.0
  9
$DIMTOL
 70
     0
  9
$DIMLIM
 70
     0
  9
$DIMTIH
 70
     1
  9
$DIMTOH
 70
     1
  9
$DIMSE1
 70
     0
  9
$DIMSE2
 70
     0
  9
$DIMTAD
 70
     0
  9
$DIMZIN
 70
     0
  9
$DIMBLK
  1

  9
$DIMASO
 70
     1
  9
$DIMSHO
 70
     1
  9
$DIMPOST
  1

  9
$DIMAPOST
  1

  9
$DIMALT
 70
     0
  9
$DIMALTD
 70
     2
  9
$DIMALTF
 40
25.4
  9
$DIMLFAC
 40
1.0
  9
$DIMTOFL
 70
     0
  9
$DIMTVP
 40
0.0
  9
$DIMTIX
 70
     0
  9
$DIMSOXD
 70
     0
  9
$DIMSAH
 70
     0
  9
$DIMBLK1
  1

  9
$DIMBLK2
  1

  9
$DIMSTYLE
  2
STANDARD
  9
$DIMCLRD
 70
     0
  9
$DIMCLRE
 70
     0
  9
$DIMCLRT
 70
     0
  9
$DIMTFAC
 40
1.0
  9
$DIMGAP
 40
0.09
  9
$DIMJUST
 70
     0
  9
$DIMSD1
 70
     0
  9
$DIMSD2
 70
     0
  9
$DIMTOLJ
 70
     1
  9
$DIMTZIN
 70
     0
  9
$DIMALTZ
 70
     0
  9
$DIMALTTZ
 70
     0
  9
$DIMFIT
 70
     3
  9
$DIMUPT
 70
     0
  9
$DIMUNIT
 70
     2
  9
$DIMDEC
 70
     4
  9
$DIMTDEC
 70
     4
  9
$DIMALTU
 70
     2
  9
$DIMALTTD
 70
     2
  9
$DIMTXSTY
  7
STANDARD
  9
$DIMAUNIT
 70
     0
  9
$LUNITS
 70
     2
  9
$LUPREC
 70
     4
  9
$SKETCHINC
 40
0.1
  9
$FILLETRAD
 40
0.0
  9
$AUNITS
 70
     0
  9
$AUPREC
 70
     0
  9
$MENU
  1
acad
  9
$ELEVATION
 40
0.0
  9
$PELEVATION
 40
0.0
  9
$THICKNESS
 40
0.0
  9
$LIMCHECK
 70
     0
  9
$BLIPMODE
 70
     1
  9
$CHAMFERA
 40
0.0
  9
$CHAMFERB
 40
0.0
  9
$CHAMFERC
 40
0.0
  9
$CHAMFERD
 40
0.0
  9
$SKPOLY
 70
     0
  9
$TDCREATE
 40
2455201.764509248
  9
$TDUPDATE
 40
2455201.764509248
  9
$TDINDWG
 40
0.0000000000
  9
$TDUSRTIMER
 40
0.0000000000
  9
$USRTIMER
 70
     1
  9
$ANGBASE
 50
0.0
  9
$ANGDIR
 70
     0
  9
$PDMODE
 70
     0
  9
$PDSIZE
 40
0.0
  9
$PLINEWID
 40
0.0
  9
$COORDS
 70
     1
  9
$SPLFRAME
 70
     0
  9
$SPLINETYPE
 70
     6
  9
$SPLINESEGS
 70
     8
  9
$ATTDIA
 70
     0
  9
$ATTREQ
 70
     1
  9
$HANDLING
 70
     1
  9
$HANDSEED
  5
4CC
  9
$SURFTAB1
 70
     6
  9
$SURFTAB2
 70
     6
  9
$SURFTYPE
 70
     6
  9
$SURFU
 70
     6
  9
$SURFV
 70
     6
  9
$UCSNAME
  2

  9
$UCSORG
 10
0.0
 20
0.0
 30
0.0
  9
$UCSXDIR
 10
1.0
 20
0.0
 30
0.0
  9
$UCSYDIR
 10
0.0
 20
1.0
 30
0.0
  9
$PUCSNAME
  2

  9
$PUCSORG
 10
0.0
 20
0.0
 30
0.0
  9
$PUCSXDIR
 10
1.0
 20
0.0
 30
0.0
  9
$PUCSYDIR
 10
0.0
 20
1.0
 30
0.0
  9
$USERI1
 70
     0
  9
$USERI2
 70
     0
  9
$USERI3
 70
     0
  9
$USERI4
 70
     0
  9
$USERI5
 70
     0
  9
$USERR1
 40
0.0
  9
$USERR2
 40
0.0
  9
$USERR3
 40
0.0
  9
$USERR4
 40
0.0
  9
$USERR5
 40
0.0
  9
$WORLDVIEW
 70
     1
  9
$SHADEDGE
 70
     3
  9
$SHADEDIF
 70
    70
  9
$TILEMODE
 70
     1
  9
$MAXACTVP
 70
    16
  9
$PINSBASE
 10
0.0
 20
0.0
 30
0.0
  9
$PLIMCHECK
 70
     0
  9
$PEXTMIN
 10
1.000000E+20
 20
1.000000E+20
 30
1.000000E+20
  9
$PEXTMAX
 10
-1.000000E+20
 20
-1.000000E+20
 30
-1.000000E+20
  9
$PLIMMIN
 10
0.0
 20
0.0
  9
$PLIMMAX
 10
12.0
 20
9.0
  9
$UNITMODE
 70
     0
  9
$VISRETAIN
 70
     0
  9
$PLINEGEN
 70
     1
  9
$PSLTSCALE
 70
     0
  9
$TREEDEPTH
 70
  3020
  9
$PICKSTYLE
 70
     1
  9
$CMLSTYLE
  2
Standard
  9
$CMLJUST
 70
     0
  9
$CMLSCALE
 40
1.0
  9
$PROXYGRAPHICS
 70
     0
  9
$MEASUREMENT
 70
     0
  0
ENDSEC
  0
SECTION
  2
CLASSES
  0
CLASS
  1
LWPOLYLINE
  2
AcDbPolyline
  3
"AutoCAD"
 90
        0
280
     0
281
     1
  0
CLASS
  1
IMAGE
  2
AcDbRasterImage
  3
ISM
 90
      127
280
     0
281
     1
  0
CLASS
  1
OLE2FRAME
  2
AcDbOle2Frame
  3
""
 90
        0
280
     0
281
     1
  0
CLASS
  1
HATCH
  2
AcDbHatch
  3
"ACAD_SEDONA"
 90
        0
280
     0
281
     1
  0
CLASS
  1
DICTIONARYVAR
  2
AcDbDictionaryVar
  3
"AutoCAD"
 90
        0
280
     0
281
     0
  0
CLASS
  1
RASTERVARIABLES
  2
AcDbRasterVariables
  3
ISM
 90
        0
280
     0
281
     0
  0
CLASS
  1
IMAGEDEF
  2
AcDbRasterImageDef
  3
ISM
 90
        0
280
     0
281
     0
  0
CLASS
  1
IMAGEDEF_REACTOR
  2
AcDbRasterImageDefReactor
  3
ISM
 90
        1
280
     0
281
     0
  0
CLASS
  1
IDBUFFER
  2
AcDbIdBuffer
  3
"Acad"
 90
        0
280
     0
281
     0
  0
CLASS
  1
SPATIAL_FILTER
  2
AcDbSpatialFilter
  3
"Acad"
 90
        0
280
     0
281
     0
  0
CLASS
  1
XRECORD
  2
AcDbXrecord
  3
"<Built In>"
 90
        0
280
     0
281
     0
  0
CLASS
  1
SORTENTSTABLE
  2
AcDbSortentsTable
  3
"AutoCAD"
 90
        0
280
     0
281
     0
  0
CLASS
  1
LAYER_INDEX
  2
AcDbLayerIndex
  3
"Acad"
 90
        0
280
     0
281
     0
  0
CLASS
  1
SPATIAL_INDEX
  2
AcDbSpatialIndex
  3
"Acad"
 90
        0
280
     0
281
     0
  0
CLASS
  1
OBJECT_PTR
  2
CAseDLPNTableRecord
  3
"ASE-LPNTableRecord"
 90
        1
280
     0
281
     0
  0
CLASS
  1
LAYOUT
  2
AcDbLayout
  3
"AutoCAD 2000"
 90
        1
280
     0
281
     0
  0
CLASS
  1
PLOTSETTINGS
  2
AcDbPlotSettings
  3
"AutoCAD 2000"
 90
        1
280
     0
281
     0
  0
CLASS
  1
ACDBDICTIONARYWDFLT
  2
AcDbDictionaryWithDefault
  3
"AutoCAD 2000"
 90
        1
280
     0
281
     0
  0
CLASS
  1
ACDBPLACEHOLDER
  2
AcDbPlaceHolder
  3
"AutoCAD 2000"
 90
        1
280
     0
281
     0
  0
CLASS
  1
VBA_PROJECT
  2
AcDbVbaProject
  3
"acadvba"
 90
        1
280
     0
281
     0
  0
CLASS
  1
WIPEOUT
  2
AcDbWipeout
  3
WipeOut|AutoCAD Express Tool|expresstools@autodesk.com
 90
      127
280
     0
281
     1
  0
CLASS
  1
WIPEOUTVARIABLES
  2
AcDbWipeoutVariables
  3
WipeOut|AutoCAD Express Tool|expresstools@autodesk.com
 90
        0
280
     0
281
     0
  0
CLASS
  1
RTEXT
  2
RText
  3
RText|AutoCAD Express Tool|expresstools@autodesk.com
 90
        0
280
     0
281
     1
  0
CLASS
  1
ARCALIGNEDTEXT
  2
AcDbArcAlignedText
  3
ATEXT|AutoCAD Express Tool|expresstools@autodesk.com
 90
        0
280
     0
281
     1
  0
ENDSEC
  0
SECTION
  2
TABLES
  0
TABLE
  2
VPORT
  5
7
100
AcDbSymbolTable
 70
     1
  0
VPORT
  5
15
100
AcDbSymbolTableRecord
100
AcDbViewportTableRecord
  2
*ACTIVE
 70
     0
 10
0.0
 20
0.0
 11
1.0
 21
1.0
 12
2235.0
 22
1627.5
 13
0.0
 23
0.0
 14
1.0
 24
1.0
 15
0.0
 25
0.0
 16
0.0
 26
0.0
 36
1.0
 17
0.0
 27
0.0
 37
0.0
 40
3000.0
 41
1.722533
 42
50.0
 43
0.0
 44
0.0
 50
0.0
 51
0.0
 71
     0
 72
   100
 73
     1
 74
     1
 75
     0
 76
     0
 77
     0
 78
     0
  0
ENDTAB
  0
TABLE
  2
LTYPE
  5
4
100
AcDbSymbolTable
 70
     9
  0
LTYPE
  5
11
100
AcDbSymbolTableRecord
100
AcDbLinetypeTableRecord
  2
BYBLOCK
 70
    64
  3

 72
    65
 73
     0
 40
0.0
  0
LTYPE
  5
12
100
AcDbSymbolTableRecord
100
AcDbLinetypeTableRecord
  2
BYLAYER
 70
    64
  3

 72
    65
 73
     0
 40
0.0
  0
LTYPE
  5
13
100
AcDbSymbolTableRecord
100
AcDbLinetypeTableRecord
  2
CONTINUOUS
 70
    64
  3
実線
 72
    65
 73
     0
 40
0.0
  0
LTYPE
  5
1D
100
AcDbSymbolTableRecord
100
AcDbLinetypeTableRecord
  2
EXLTYPE1
 70
    64
  3
破線
 72
    65
 73
     2
 40
3.0
 49
2.0
 74
     0
 49
-1.0
 74
     0
  0
LTYPE
  5
1E
100
AcDbSymbolTableRecord
100
AcDbLinetypeTableRecord
  2
EXLTYPE2
 70
    64
  3
点線
 72
    65
 73
     2
 40
2.0
 49
1.0
 74
     0
 49
-1.0
 74
     0
  0
LTYPE
  5
1F
100
AcDbSymbolTableRecord
100
AcDbLinetypeTableRecord
  2
EXLTYPE3
 70
    64
  3
一点鎖線
 72
    65
 73
     4
 40
10.0
 49
7.0
 74
     0
 49
-1.0
 74
     0
 49
1.0
 74
     0
 49
-1.0
 74
     0
  0
LTYPE
  5
20
100
AcDbSymbolTableRecord
100
AcDbLinetypeTableRecord
  2
EXLTYPE4
 70
    64
  3
二点鎖線
 72
    65
 73
     6
 40
12.0
 49
7.0
 74
     0
 49
-1.0
 74
     0
 49
1.0
 74
     0
 49
-1.0
 74
     0
 49
1.0
 74
     0
 49
-1.0
 74
     0
  0
LTYPE
  5
21
100
AcDbSymbolTableRecord
100
AcDbLinetypeTableRecord
  2
EXLTYPE5
 70
    64
  3
三点鎖線
 72
    65
 73
     8
 40
37.0
 49
30.0
 74
     0
 49
-1.0
 74
     0
 49
1.0
 74
     0
 49
-1.0
 74
     0
 49
1.0
 74
     0
 49
-1.0
 74
     0
 49
1.0
 74
     0
 49
-1.0
 74
     0
  0
LTYPE
  5
22
100
AcDbSymbolTableRecord
100
AcDbLinetypeTableRecord
  2
EXLTYPE6
 70
    64
  3
四点鎖線
 72
    65
 73
    10
 40
39.0
 49
30.0
 74
     0
 49
-1.0
 74
     0
 49
1.0
 74
     0
 49
-1.0
 74
     0
 49
1.0
 74
     0
 49
-1.0
 74
     0
 49
1.0
 74
     0
 49
-1.0
 74
     0
 49
1.0
 74
     0
 49
-1.0
 74
     0
  0
ENDTAB
  0
TABLE
  2
LAYER
  5
2
100
AcDbSymbolTable
 70
     4
  0
LAYER
  5
14
100
AcDbSymbolTableRecord
100
AcDbLayerTableRecord
  2
0
 70
     0
 62
     7
  6
CONTINUOUS
  0
LAYER
  5
25
100
AcDbSymbolTableRecord
100
AcDbLayerTableRecord
  2
枠・表
 70
    64
 62
     7
  6
CONTINUOUS
  0
LAYER
  5
26
100
AcDbSymbolTableRecord
100
AcDbLayerTableRecord
  2
ｶｳﾝﾀｰ/ｷｬﾋﾞﾈｯﾄ
 70
    64
 62
     7
  6
CONTINUOUS
  0
LAYER
  5
27
100
AcDbSymbolTableRecord
100
AcDbLayerTableRecord
  2
寸法
 70
    64
 62
     7
  6
CONTINUOUS
  0
ENDTAB
  0
TABLE
  2
STYLE
  5
3
100
AcDbSymbolTable
 70
     8
  0
STYLE
  5
17
100
AcDbSymbolTableRecord
100
AcDbTextStyleTableRecord
  2
STANDARD
 70
     0
 40
0.0
 41
1.0
 50
0.0
 71
     0
 42
0.0
  3
monotxt
  4
extfont
  0
STYLE
  5
23
100
AcDbSymbolTableRecord
100
AcDbTextStyleTableRecord
  2
EXCADSTD
 70
    64
 40
0.0
 41
1.0
 50
0.0
 71
     0
 42
0.2
  3
monotxt
  4
extfont
  0
STYLE
  5
24
100
AcDbSymbolTableRecord
100
AcDbTextStyleTableRecord
  2
EXCADVERT
 70
    68
 40
0.0
 41
1.0
 50
0.0
 71
     0
 42
0.286885
  3
monotxt
  4
extfont
  0
STYLE
  5
DD
100
AcDbSymbolTableRecord
100
AcDbTextStyleTableRecord
  2
EXCADTTF1
 70
    64
 40
0.0
 41
1.0
 50
0.0
 71
     0
 42
0.2
  3
MS Gothic.ttf
  4

1001
ACAD
1000
MS Gothic
1071
    32817
  0
STYLE
  5
EC
100
AcDbSymbolTableRecord
100
AcDbTextStyleTableRecord
  2
EXCADDIM1
 70
    64
 40
0.0
 41
0.84
 50
0.0
 71
     0
 42
0.2
  3
monotxt
  4
extfont
  0
STYLE
  5
F9
100
AcDbSymbolTableRecord
100
AcDbTextStyleTableRecord
  2
EXCADDIM2
 70
    64
 40
0.0
 41
0.74
 50
0.0
 71
     0
 42
0.2
  3
monotxt
  4
extfont
  0
STYLE
  5
111
100
AcDbSymbolTableRecord
100
AcDbTextStyleTableRecord
  2
EXCADDIM3
 70
    64
 40
0.0
 41
0.76
 50
0.0
 71
     0
 42
0.2
  3
monotxt
  4
extfont
  0
STYLE
  5
4CA
100
AcDbSymbolTableRecord
100
AcDbTextStyleTableRecord
  2
EXCADDIM4
 70
    64
 40
0.0
 41
0.8
 50
0.0
 71
     0
 42
0.2
  3
monotxt
  4
extfont
  0
ENDTAB
  0
TABLE
  2
VIEW
  5
5
100
AcDbSymbolTable
 70
     0
  0
ENDTAB
  0
TABLE
  2
UCS
  5
6
100
AcDbSymbolTable
 70
     0
  0
ENDTAB
  0
TABLE
  2
APPID
  5
8
100
AcDbSymbolTable
 70
     1
  0
APPID
  5
16
100
AcDbSymbolTableRecord
100
AcDbRegAppTableRecord
  2
ACAD
 70
     0
  0
ENDTAB
  0
TABLE
  2
DIMSTYLE
  5
9
100
AcDbSymbolTable
 70
     1
  0
DIMSTYLE
105
18
100
AcDbSymbolTableRecord
100
AcDbDimStyleTableRecord
  2
STANDARD
 70
     0
  3

  4

  5

  6

  7

 40
1.0
 41
0.18
 42
0.0625
 43
0.38
 44
0.18
 45
0.0
 46
0.0
 47
0.0
 48
0.0
 71
     0
 72
     0
 73
     1
 74
     1
 75
     0
 76
     0
 77
     0
 78
     0
140
0.18
141
0.09
142
0.0
143
25.4
144
1.0
145
0.0
146
1.0
147
0.09
170
     0
171
     2
172
     1
173
     0
174
     0
175
     0
176
     0
177
     0
178
     0
270
     2
271
     4
272
     4
273
     2
274
     2
275
     0
280
     0
281
     0
282
     0
283
     1
284
     0
285
     0
286
     0
287
     0
288
     0
340
17
  0
ENDTAB
  0
TABLE
  2
BLOCK_RECORD
  5
1
100
AcDbSymbolTable
 70
    34
  0
BLOCK_RECORD
  5
A
100
AcDbSymbolTableRecord
100
AcDbBlockTableRecord
  2
*MODEL_SPACE
  0
BLOCK_RECORD
  5
B
100
AcDbSymbolTableRecord
100
AcDbBlockTableRecord
  2
*PAPER_SPACE
  0
BLOCK_RECORD
  5
28
100
AcDbSymbolTableRecord
100
AcDbBlockTableRecord
  2
_EX_NORM
  0
BLOCK_RECORD
  5
29
100
AcDbSymbolTableRecord
100
AcDbBlockTableRecord
  2
_EX_BNORM
  0
BLOCK_RECORD
  5
2A
100
AcDbSymbolTableRecord
100
AcDbBlockTableRecord
  2
_EX_BCIR
  0
BLOCK_RECORD
  5
2B
100
AcDbSymbolTableRecord
100
AcDbBlockTableRecord
  2
_EX_RCIVIL
  0
BLOCK_RECORD
  5
2C
100
AcDbSymbolTableRecord
100
AcDbBlockTableRecord
  2
_EX_SLANT
  0
BLOCK_RECORD
  5
2D
100
AcDbSymbolTableRecord
100
AcDbBlockTableRecord
  2
_EX_NONE
  0
BLOCK_RECORD
  5
2E
100
AcDbSymbolTableRecord
100
AcDbBlockTableRecord
  2
_EX_CIVIL
  0
BLOCK_RECORD
  5
2F
100
AcDbSymbolTableRecord
100
AcDbBlockTableRecord
  2
_EX_WCIR
  0
BLOCK_RECORD
  5
30
100
AcDbSymbolTableRecord
100
AcDbBlockTableRecord
  2
_EX_WCIR2
  0
BLOCK_RECORD
  5
31
100
AcDbSymbolTableRecord
100
AcDbBlockTableRecord
  2
_EX_WNORM
  0
BLOCK_RECORD
  5
32
100
AcDbSymbolTableRecord
100
AcDbBlockTableRecord
  2
_EX_NNORM
  0
BLOCK_RECORD
  5
33
100
AcDbSymbolTableRecord
100
AcDbBlockTableRecord
  2
_EX_BBOX
  0
BLOCK_RECORD
  5
34
100
AcDbSymbolTableRecord
100
AcDbBlockTableRecord
  2
_EX_WBOX
  0
BLOCK_RECORD
  5
35
100
AcDbSymbolTableRecord
100
AcDbBlockTableRecord
  2
_EX_INTEGRAL
  0
BLOCK_RECORD
  5
E1
100
AcDbSymbolTableRecord
100
AcDbBlockTableRecord
  2
*D14
  0
BLOCK_RECORD
  5
EE
100
AcDbSymbolTableRecord
100
AcDbBlockTableRecord
  2
*D15
  0
BLOCK_RECORD
  5
FB
100
AcDbSymbolTableRecord
100
AcDbBlockTableRecord
  2
*D16
  0
BLOCK_RECORD
  5
106
100
AcDbSymbolTableRecord
100
AcDbBlockTableRecord
  2
*D17
  0
BLOCK_RECORD
  5
113
100
AcDbSymbolTableRecord
100
AcDbBlockTableRecord
  2
*D18
  0
BLOCK_RECORD
  5
11F
100
AcDbSymbolTableRecord
100
AcDbBlockTableRecord
  2
*D19
  0
BLOCK_RECORD
  5
130
100
AcDbSymbolTableRecord
100
AcDbBlockTableRecord
  2
*D20
  0
BLOCK_RECORD
  5
13C
100
AcDbSymbolTableRecord
100
AcDbBlockTableRecord
  2
*D21
  0
BLOCK_RECORD
  5
148
100
AcDbSymbolTableRecord
100
AcDbBlockTableRecord
  2
*D22
  0
BLOCK_RECORD
  5
154
100
AcDbSymbolTableRecord
100
AcDbBlockTableRecord
  2
*D23
  0
BLOCK_RECORD
  5
15F
100
AcDbSymbolTableRecord
100
AcDbBlockTableRecord
  2
*D24
  0
BLOCK_RECORD
  5
16A
100
AcDbSymbolTableRecord
100
AcDbBlockTableRecord
  2
*D25
  0
BLOCK_RECORD
  5
176
100
AcDbSymbolTableRecord
100
AcDbBlockTableRecord
  2
*D26
  0
BLOCK_RECORD
  5
182
100
AcDbSymbolTableRecord
100
AcDbBlockTableRecord
  2
*D27
  0
BLOCK_RECORD
  5
18D
100
AcDbSymbolTableRecord
100
AcDbBlockTableRecord
  2
*D28
  0
BLOCK_RECORD
  5
2A5
100
AcDbSymbolTableRecord
100
AcDbBlockTableRecord
  2
*D29
  0
BLOCK_RECORD
  5
49A
100
AcDbSymbolTableRecord
100
AcDbBlockTableRecord
  2
*D30
  0
BLOCK_RECORD
  5
4A6
100
AcDbSymbolTableRecord
100
AcDbBlockTableRecord
  2
*D31
  0
BLOCK_RECORD
  5
4B2
100
AcDbSymbolTableRecord
100
AcDbBlockTableRecord
  2
*D32
  0
BLOCK_RECORD
  5
4BF
100
AcDbSymbolTableRecord
100
AcDbBlockTableRecord
  2
*D33
  0
ENDTAB
  0
ENDSEC
  0
SECTION
  2
BLOCKS
  0
BLOCK
  5
D
100
AcDbEntity
  8
0
100
AcDbBlockBegin
  2
*MODEL_SPACE
 70
     0
 10
0.0
 20
0.0
 30
0.0
  3
*MODEL_SPACE
  1

  0
ENDBLK
  5
E
100
AcDbEntity
  8
0
100
AcDbBlockEnd
  0
BLOCK
  5
F
100
AcDbEntity
 67
     1
  8
0
100
AcDbBlockBegin
  2
*PAPER_SPACE
 70
     0
 10
0.0
 20
0.0
 30
0.0
  3
*PAPER_SPACE
  1

  0
ENDBLK
  5
10
100
AcDbEntity
 67
     1
  8
0
100
AcDbBlockEnd
  0
BLOCK
  5
36
100
AcDbEntity
  8
0
100
AcDbBlockBegin
  2
_EX_NORM
 70
     0
 10
0.0
 20
0.0
 30
0.0
  3
_EX_NORM
  1

  0
LINE
  5
37
100
AcDbEntity
  8
0
  6
CONTINUOUS
 62
     0
100
AcDbLine
 10
0.0
 20
0.0
 30
0.0
 11
-1.0
 21
0.0
 31
0.0
  0
LINE
  5
38
100
AcDbEntity
  8
0
  6
CONTINUOUS
 62
     0
100
AcDbLine
 10
0.0
 20
0.0
 30
0.0
 11
-1.0
 21
0.166667
 31
0.0
  0
LINE
  5
39
100
AcDbEntity
  8
0
  6
CONTINUOUS
 62
     0
100
AcDbLine
 10
0.0
 20
0.0
 30
0.0
 11
-1.0
 21
-0.166667
 31
0.0
  0
ENDBLK
  5
3A
100
AcDbEntity
  8
0
100
AcDbBlockEnd
  0
BLOCK
  5
3B
100
AcDbEntity
  8
0
100
AcDbBlockBegin
  2
_EX_BNORM
 70
     0
 10
0.0
 20
0.0
 30
0.0
  3
_EX_BNORM
  1

  0
LINE
  5
3C
100
AcDbEntity
  8
0
  6
CONTINUOUS
 62
     0
100
AcDbLine
 10
0.0
 20
0.0
 30
0.0
 11
-1.0
 21
0.0
 31
0.0
  0
LINE
  5
3D
100
AcDbEntity
  8
0
  6
CONTINUOUS
 62
     0
100
AcDbLine
 10
0.0
 20
0.0
 30
0.0
 11
-1.0
 21
0.166667
 31
0.0
  0
LINE
  5
3E
100
AcDbEntity
  8
0
  6
CONTINUOUS
 62
     0
100
AcDbLine
 10
0.0
 20
0.0
 30
0.0
 11
-1.0
 21
-0.166667
 31
0.0
  0
LINE
  5
3F
100
AcDbEntity
  8
0
  6
CONTINUOUS
 62
     0
100
AcDbLine
 10
0.0
 20
0.0
 30
0.0
 11
-1.0
 21
0.083333
 31
0.0
  0
LINE
  5
40
100
AcDbEntity
  8
0
  6
CONTINUOUS
 62
     0
100
AcDbLine
 10
0.0
 20
0.0
 30
0.0
 11
-1.0
 21
-0.083333
 31
0.0
  0
LINE
  5
41
100
AcDbEntity
  8
0
  6
CONTINUOUS
 62
     0
100
AcDbLine
 10
-1.0
 20
0.166667
 30
0.0
 11
-1.0
 21
-0.166667
 31
0.0
  0
ENDBLK
  5
42
100
AcDbEntity
  8
0
100
AcDbBlockEnd
  0
BLOCK
  5
43
100
AcDbEntity
  8
0
100
AcDbBlockBegin
  2
_EX_BCIR
 70
     0
 10
0.0
 20
0.0
 30
0.0
  3
_EX_BCIR
  1

  0
LINE
  5
44
100
AcDbEntity
  8
0
  6
CONTINUOUS
 62
     0
100
AcDbLine
 10
0.0
 20
0.0
 30
0.0
 11
-1.0
 21
0.0
 31
0.0
  0
CIRCLE
  5
45
100
AcDbEntity
  8
0
  6
CONTINUOUS
 62
     0
100
AcDbCircle
 10
0.0
 20
0.0
 30
0.0
 40
0.5
  0
CIRCLE
  5
46
100
AcDbEntity
  8
0
  6
CONTINUOUS
 62
     0
100
AcDbCircle
 10
0.0
 20
0.0
 30
0.0
 40
0.25
  0
ENDBLK
  5
47
100
AcDbEntity
  8
0
100
AcDbBlockEnd
  0
BLOCK
  5
48
100
AcDbEntity
  8
0
100
AcDbBlockBegin
  2
_EX_RCIVIL
 70
     0
 10
0.0
 20
0.0
 30
0.0
  3
_EX_RCIVIL
  1

  0
LINE
  5
49
100
AcDbEntity
  8
0
  6
CONTINUOUS
 62
     0
100
AcDbLine
 10
0.0
 20
0.0
 30
0.0
 11
-1.0
 21
0.0
 31
0.0
  0
LINE
  5
4A
100
AcDbEntity
  8
0
  6
CONTINUOUS
 62
     0
100
AcDbLine
 10
-1.0
 20
-0.25
 30
0.0
 11
0.0
 21
-0.25
 31
0.0
  0
LINE
  5
4B
100
AcDbEntity
  8
0
  6
CONTINUOUS
 62
     0
100
AcDbLine
 10
-1.0
 20
-0.125
 30
0.0
 11
0.0
 21
-0.125
 31
0.0
  0
ENDBLK
  5
4C
100
AcDbEntity
  8
0
100
AcDbBlockEnd
  0
BLOCK
  5
4D
100
AcDbEntity
  8
0
100
AcDbBlockBegin
  2
_EX_SLANT
 70
     0
 10
0.0
 20
0.0
 30
0.0
  3
_EX_SLANT
  1

  0
LINE
  5
4E
100
AcDbEntity
  8
0
  6
CONTINUOUS
 62
     0
100
AcDbLine
 10
0.0
 20
0.0
 30
0.0
 11
-1.0
 21
0.0
 31
0.0
  0
LINE
  5
4F
100
AcDbEntity
  8
0
  6
CONTINUOUS
 62
     0
100
AcDbLine
 10
0.707107
 20
0.707107
 30
0.0
 11
-0.707107
 21
-0.707107
 31
0.0
  0
ENDBLK
  5
50
100
AcDbEntity
  8
0
100
AcDbBlockEnd
  0
BLOCK
  5
51
100
AcDbEntity
  8
0
100
AcDbBlockBegin
  2
_EX_NONE
 70
     0
 10
0.0
 20
0.0
 30
0.0
  3
_EX_NONE
  1

  0
LINE
  5
52
100
AcDbEntity
  8
0
  6
CONTINUOUS
 62
     0
100
AcDbLine
 10
0.0
 20
0.0
 30
0.0
 11
-1.0
 21
0.0
 31
0.0
  0
ENDBLK
  5
53
100
AcDbEntity
  8
0
100
AcDbBlockEnd
  0
BLOCK
  5
54
100
AcDbEntity
  8
0
100
AcDbBlockBegin
  2
_EX_CIVIL
 70
     0
 10
0.0
 20
0.0
 30
0.0
  3
_EX_CIVIL
  1

  0
LINE
  5
55
100
AcDbEntity
  8
0
  6
CONTINUOUS
 62
     0
100
AcDbLine
 10
0.0
 20
0.0
 30
0.0
 11
-1.0
 21
0.0
 31
0.0
  0
LINE
  5
56
100
AcDbEntity
  8
0
  6
CONTINUOUS
 62
     0
100
AcDbLine
 10
-1.0
 20
0.25
 30
0.0
 11
0.0
 21
0.25
 31
0.0
  0
LINE
  5
57
100
AcDbEntity
  8
0
  6
CONTINUOUS
 62
     0
100
AcDbLine
 10
-1.0
 20
0.125
 30
0.0
 11
0.0
 21
0.125
 31
0.0
  0
ENDBLK
  5
58
100
AcDbEntity
  8
0
100
AcDbBlockEnd
  0
BLOCK
  5
59
100
AcDbEntity
  8
0
100
AcDbBlockBegin
  2
_EX_WCIR
 70
     0
 10
0.0
 20
0.0
 30
0.0
  3
_EX_WCIR
  1

  0
LINE
  5
5A
100
AcDbEntity
  8
0
  6
CONTINUOUS
 62
     0
100
AcDbLine
 10
0.0
 20
0.0
 30
0.0
 11
-1.0
 21
0.0
 31
0.0
  0
CIRCLE
  5
5B
100
AcDbEntity
  8
0
  6
CONTINUOUS
 62
     0
100
AcDbCircle
 10
0.0
 20
0.0
 30
0.0
 40
0.5
  0
ENDBLK
  5
5C
100
AcDbEntity
  8
0
100
AcDbBlockEnd
  0
BLOCK
  5
5D
100
AcDbEntity
  8
0
100
AcDbBlockBegin
  2
_EX_WCIR2
 70
     0
 10
0.0
 20
0.0
 30
0.0
  3
_EX_WCIR2
  1

  0
LINE
  5
5E
100
AcDbEntity
  8
0
  6
CONTINUOUS
 62
     0
100
AcDbLine
 10
-0.5
 20
0.0
 30
0.0
 11
-1.0
 21
0.0
 31
0.0
  0
CIRCLE
  5
5F
100
AcDbEntity
  8
0
  6
CONTINUOUS
 62
     0
100
AcDbCircle
 10
0.0
 20
0.0
 30
0.0
 40
0.5
  0
ENDBLK
  5
60
100
AcDbEntity
  8
0
100
AcDbBlockEnd
  0
BLOCK
  5
61
100
AcDbEntity
  8
0
100
AcDbBlockBegin
  2
_EX_WNORM
 70
     0
 10
0.0
 20
0.0
 30
0.0
  3
_EX_WNORM
  1

  0
LINE
  5
62
100
AcDbEntity
  8
0
  6
CONTINUOUS
 62
     0
100
AcDbLine
 10
-1.0
 20
0.0
 30
0.0
 11
-1.0
 21
0.0
 31
0.0
  0
LINE
  5
63
100
AcDbEntity
  8
0
  6
CONTINUOUS
 62
     0
100
AcDbLine
 10
0.0
 20
0.0
 30
0.0
 11
-1.0
 21
0.166667
 31
0.0
  0
LINE
  5
64
100
AcDbEntity
  8
0
  6
CONTINUOUS
 62
     0
100
AcDbLine
 10
0.0
 20
0.0
 30
0.0
 11
-1.0
 21
-0.166667
 31
0.0
  0
LINE
  5
65
100
AcDbEntity
  8
0
  6
CONTINUOUS
 62
     0
100
AcDbLine
 10
-1.0
 20
0.166667
 30
0.0
 11
-1.0
 21
-0.166667
 31
0.0
  0
ENDBLK
  5
66
100
AcDbEntity
  8
0
100
AcDbBlockEnd
  0
BLOCK
  5
67
100
AcDbEntity
  8
0
100
AcDbBlockBegin
  2
_EX_NNORM
 70
     0
 10
0.0
 20
0.0
 30
0.0
  3
_EX_NNORM
  1

  0
LINE
  5
68
100
AcDbEntity
  8
0
  6
CONTINUOUS
 62
     0
100
AcDbLine
 10
0.0
 20
0.0
 30
0.0
 11
-1.0
 21
0.0
 31
0.0
  0
LINE
  5
69
100
AcDbEntity
  8
0
  6
CONTINUOUS
 62
     0
100
AcDbLine
 10
0.0
 20
0.0
 30
0.0
 11
-1.0
 21
0.166667
 31
0.0
  0
LINE
  5
6A
100
AcDbEntity
  8
0
  6
CONTINUOUS
 62
     0
100
AcDbLine
 10
0.0
 20
0.0
 30
0.0
 11
-1.0
 21
-0.166667
 31
0.0
  0
LINE
  5
6B
100
AcDbEntity
  8
0
  6
CONTINUOUS
 62
     0
100
AcDbLine
 10
-1.0
 20
0.166667
 30
0.0
 11
-1.0
 21
-0.166667
 31
0.0
  0
ENDBLK
  5
6C
100
AcDbEntity
  8
0
100
AcDbBlockEnd
  0
BLOCK
  5
6D
100
AcDbEntity
  8
0
100
AcDbBlockBegin
  2
_EX_BBOX
 70
     0
 10
0.0
 20
0.0
 30
0.0
  3
_EX_BBOX
  1

  0
LINE
  5
6E
100
AcDbEntity
  8
0
  6
CONTINUOUS
 62
     0
100
AcDbLine
 10
0.0
 20
0.0
 30
0.0
 11
-1.0
 21
0.0
 31
0.0
  0
LINE
  5
6F
100
AcDbEntity
  8
0
  6
CONTINUOUS
 62
     0
100
AcDbLine
 10
-0.5
 20
0.5
 30
0.0
 11
0.5
 21
0.5
 31
0.0
  0
LINE
  5
70
100
AcDbEntity
  8
0
  6
CONTINUOUS
 62
     0
100
AcDbLine
 10
0.5
 20
0.5
 30
0.0
 11
0.5
 21
-0.5
 31
0.0
  0
LINE
  5
71
100
AcDbEntity
  8
0
  6
CONTINUOUS
 62
     0
100
AcDbLine
 10
0.5
 20
-0.5
 30
0.0
 11
-0.5
 21
-0.5
 31
0.0
  0
LINE
  5
72
100
AcDbEntity
  8
0
  6
CONTINUOUS
 62
     0
100
AcDbLine
 10
-0.5
 20
-0.5
 30
0.0
 11
-0.5
 21
0.5
 31
0.0
  0
LINE
  5
73
100
AcDbEntity
  8
0
  6
CONTINUOUS
 62
     0
100
AcDbLine
 10
-0.25
 20
0.25
 30
0.0
 11
0.25
 21
0.25
 31
0.0
  0
LINE
  5
74
100
AcDbEntity
  8
0
  6
CONTINUOUS
 62
     0
100
AcDbLine
 10
0.25
 20
0.25
 30
0.0
 11
0.25
 21
-0.25
 31
0.0
  0
LINE
  5
75
100
AcDbEntity
  8
0
  6
CONTINUOUS
 62
     0
100
AcDbLine
 10
0.25
 20
-0.25
 30
0.0
 11
-0.25
 21
-0.25
 31
0.0
  0
LINE
  5
76
100
AcDbEntity
  8
0
  6
CONTINUOUS
 62
     0
100
AcDbLine
 10
-0.25
 20
-0.25
 30
0.0
 11
-0.25
 21
0.25
 31
0.0
  0
ENDBLK
  5
77
100
AcDbEntity
  8
0
100
AcDbBlockEnd
  0
BLOCK
  5
78
100
AcDbEntity
  8
0
100
AcDbBlockBegin
  2
_EX_WBOX
 70
     0
 10
0.0
 20
0.0
 30
0.0
  3
_EX_WBOX
  1

  0
LINE
  5
79
100
AcDbEntity
  8
0
  6
CONTINUOUS
 62
     0
100
AcDbLine
 10
-0.5
 20
0.0
 30
0.0
 11
-1.0
 21
0.0
 31
0.0
  0
LINE
  5
7A
100
AcDbEntity
  8
0
  6
CONTINUOUS
 62
     0
100
AcDbLine
 10
-0.5
 20
0.5
 30
0.0
 11
0.5
 21
0.5
 31
0.0
  0
LINE
  5
7B
100
AcDbEntity
  8
0
  6
CONTINUOUS
 62
     0
100
AcDbLine
 10
0.5
 20
0.5
 30
0.0
 11
0.5
 21
-0.5
 31
0.0
  0
LINE
  5
7C
100
AcDbEntity
  8
0
  6
CONTINUOUS
 62
     0
100
AcDbLine
 10
0.5
 20
-0.5
 30
0.0
 11
-0.5
 21
-0.5
 31
0.0
  0
LINE
  5
7D
100
AcDbEntity
  8
0
  6
CONTINUOUS
 62
     0
100
AcDbLine
 10
-0.5
 20
-0.5
 30
0.0
 11
-0.5
 21
0.5
 31
0.0
  0
ENDBLK
  5
7E
100
AcDbEntity
  8
0
100
AcDbBlockEnd
  0
BLOCK
  5
7F
100
AcDbEntity
  8
0
100
AcDbBlockBegin
  2
_EX_INTEGRAL
 70
     0
 10
0.0
 20
0.0
 30
0.0
  3
_EX_INTEGRAL
  1

  0
LINE
  5
80
100
AcDbEntity
  8
0
  6
CONTINUOUS
 62
     0
100
AcDbLine
 10
0.0
 20
0.0
 30
0.0
 11
-1.0
 21
0.0
 31
0.0
  0
ARC
  5
81
100
AcDbEntity
  8
0
  6
CONTINUOUS
 62
     0
100
AcDbCircle
 10
0.542115
 20
0.164992
 30
0.0
 40
0.56667
100
AcDbArc
 50
73.07249
 51
196.927513
  0
ARC
  5
82
100
AcDbEntity
  8
0
  6
CONTINUOUS
 62
     0
100
AcDbCircle
 10
-0.542115
 20
-0.164992
 30
0.0
 40
0.56667
100
AcDbArc
 50
253.072487
 51
16.927513
  0
ENDBLK
  5
83
100
AcDbEntity
  8
0
100
AcDbBlockEnd
  0
BLOCK
  5
E2
100
AcDbEntity
  8
0
100
AcDbBlockBegin
  2
*D14
 70
    65
 10
0.0
 20
0.0
 30
0.0
  3
*D14
  1

  0
LINE
  5
E3
100
AcDbEntity
  8
ｶｳﾝﾀｰ/ｷｬﾋﾞﾈｯﾄ
  6
CONTINUOUS
 62
     3
100
AcDbLine
 10
3294.0
 20
659.5
 30
0.0
 11
3294.0
 21
585.0
 31
0.0
  0
LINE
  5
E4
100
AcDbEntity
  8
ｶｳﾝﾀｰ/ｷｬﾋﾞﾈｯﾄ
  6
CONTINUOUS
 62
     3
100
AcDbLine
 10
3354.0
 20
689.5
 30
0.0
 11
3354.0
 21
585.0
 31
0.0
  0
TEXT
  5
E5
100
AcDbEntity
  8
ｶｳﾝﾀｰ/ｷｬﾋﾞﾈｯﾄ
  6
CONTINUOUS
 62
     2
100
AcDbText
 10
2815.8
 20
605.25
 30
0.0
 40
60.0
  1
60±10（床給排水）
 41
0.84
  7
EXCADSTD
 72
     1
 11
3030.0
 21
605.25
 31
0.0
100
AcDbText
  0
LINE
  5
E6
100
AcDbEntity
  8
ｶｳﾝﾀｰ/ｷｬﾋﾞﾈｯﾄ
  6
CONTINUOUS
 62
     3
100
AcDbLine
 10
2787.000011
 20
600.0
 30
0.0
 11
3399.0
 21
600.0
 31
0.0
  0
LINE
  5
E7
100
AcDbEntity
  8
ｶｳﾝﾀｰ/ｷｬﾋﾞﾈｯﾄ
  6
CONTINUOUS
 62
     3
100
AcDbLine
 10
3249.0
 20
592.5
 30
0.0
 11
3294.0
 21
600.0
 31
0.0
  0
LINE
  5
E8
100
AcDbEntity
  8
ｶｳﾝﾀｰ/ｷｬﾋﾞﾈｯﾄ
  6
CONTINUOUS
 62
     3
100
AcDbLine
 10
3294.0
 20
600.0
 30
0.0
 11
3249.0
 21
607.5
 31
0.0
  0
LINE
  5
E9
100
AcDbEntity
  8
ｶｳﾝﾀｰ/ｷｬﾋﾞﾈｯﾄ
  6
CONTINUOUS
 62
     3
100
AcDbLine
 10
3399.0
 20
607.5
 30
0.0
 11
3354.0
 21
600.0
 31
0.0
  0
LINE
  5
EA
100
AcDbEntity
  8
ｶｳﾝﾀｰ/ｷｬﾋﾞﾈｯﾄ
  6
CONTINUOUS
 62
     3
100
AcDbLine
 10
3354.0
 20
600.0
 30
0.0
 11
3399.0
 21
592.5
 31
0.0
  0
ENDBLK
  5
EB
100
AcDbEntity
  8
0
100
AcDbBlockEnd
  0
BLOCK
  5
EF
100
AcDbEntity
  8
0
100
AcDbBlockBegin
  2
*D15
 70
    65
 10
0.0
 20
0.0
 30
0.0
  3
*D15
  1

  0
LINE
  5
F0
100
AcDbEntity
  8
ｶｳﾝﾀｰ/ｷｬﾋﾞﾈｯﾄ
  6
CONTINUOUS
 62
     3
100
AcDbLine
 10
3364.5
 20
700.0
 30
0.0
 11
3489.0
 21
700.0
 31
0.0
  0
LINE
  5
F1
100
AcDbEntity
  8
ｶｳﾝﾀｰ/ｷｬﾋﾞﾈｯﾄ
  6
CONTINUOUS
 62
     3
100
AcDbLine
 10
3394.5
 20
1100.0
 30
0.0
 11
3489.0
 21
1100.0
 31
0.0
  0
TEXT
  5
F2
100
AcDbEntity
  8
ｶｳﾝﾀｰ/ｷｬﾋﾞﾈｯﾄ
  6
CONTINUOUS
 62
     2
100
AcDbText
 10
3468.75
 20
726.750002
 30
0.0
 40
60.0
  1
400±10（壁排水）
 50
90.0
 41
0.735
  7
EXCADSTD
 72
     1
 11
3468.75
 21
900.0
 31
0.0
100
AcDbText
  0
LINE
  5
F3
100
AcDbEntity
  8
ｶｳﾝﾀｰ/ｷｬﾋﾞﾈｯﾄ
  6
CONTINUOUS
 62
     3
100
AcDbLine
 10
3474.0
 20
700.0
 30
0.0
 11
3474.0
 21
1100.0
 31
0.0
  0
LINE
  5
F4
100
AcDbEntity
  8
ｶｳﾝﾀｰ/ｷｬﾋﾞﾈｯﾄ
  6
CONTINUOUS
 62
     3
100
AcDbLine
 10
3466.5
 20
745.0
 30
0.0
 11
3474.0
 21
700.0
 31
0.0
  0
LINE
  5
F5
100
AcDbEntity
  8
ｶｳﾝﾀｰ/ｷｬﾋﾞﾈｯﾄ
  6
CONTINUOUS
 62
     3
100
AcDbLine
 10
3474.0
 20
700.0
 30
0.0
 11
3481.5
 21
745.0
 31
0.0
  0
LINE
  5
F6
100
AcDbEntity
  8
ｶｳﾝﾀｰ/ｷｬﾋﾞﾈｯﾄ
  6
CONTINUOUS
 62
     3
100
AcDbLine
 10
3481.5
 20
1055.0
 30
0.0
 11
3474.0
 21
1100.0
 31
0.0
  0
LINE
  5
F7
100
AcDbEntity
  8
ｶｳﾝﾀｰ/ｷｬﾋﾞﾈｯﾄ
  6
CONTINUOUS
 62
     3
100
AcDbLine
 10
3474.0
 20
1100.0
 30
0.0
 11
3466.5
 21
1055.0
 31
0.0
  0
ENDBLK
  5
F8
100
AcDbEntity
  8
0
100
AcDbBlockEnd
  0
BLOCK
  5
FC
100
AcDbEntity
  8
0
100
AcDbBlockBegin
  2
*D16
 70
    65
 10
0.0
 20
0.0
 30
0.0
  3
*D16
  1

  0
LINE
  5
FD
100
AcDbEntity
  8
ｶｳﾝﾀｰ/ｷｬﾋﾞﾈｯﾄ
  6
CONTINUOUS
 62
     3
100
AcDbLine
 10
3154.0
 20
1486.5
 30
0.0
 11
3154.0
 21
1635.0
 31
0.0
  0
TEXT
  5
FE
100
AcDbEntity
  8
ｶｳﾝﾀｰ/ｷｬﾋﾞﾈｯﾄ
  6
CONTINUOUS
 62
     2
100
AcDbText
 10
3191.0
 20
1625.25
 30
0.0
 40
60.0
  1
200
 41
0.84
  7
EXCADSTD
 72
     1
 11
3254.0
 21
1625.25
 31
0.0
100
AcDbText
  0
LINE
  5
FF
100
AcDbEntity
  8
ｶｳﾝﾀｰ/ｷｬﾋﾞﾈｯﾄ
  6
CONTINUOUS
 62
     3
100
AcDbLine
 10
3154.0
 20
1620.0
 30
0.0
 11
3354.0
 21
1620.0
 31
0.0
  0
LINE
  5
100
100
AcDbEntity
  8
ｶｳﾝﾀｰ/ｷｬﾋﾞﾈｯﾄ
  6
CONTINUOUS
 62
     3
100
AcDbLine
 10
3199.0
 20
1627.5
 30
0.0
 11
3154.0
 21
1620.0
 31
0.0
  0
LINE
  5
101
100
AcDbEntity
  8
ｶｳﾝﾀｰ/ｷｬﾋﾞﾈｯﾄ
  6
CONTINUOUS
 62
     3
100
AcDbLine
 10
3154.0
 20
1620.0
 30
0.0
 11
3199.0
 21
1612.5
 31
0.0
  0
LINE
  5
102
100
AcDbEntity
  8
ｶｳﾝﾀｰ/ｷｬﾋﾞﾈｯﾄ
  6
CONTINUOUS
 62
     3
100
AcDbLine
 10
3309.0
 20
1612.5
 30
0.0
 11
3354.0
 21
1620.0
 31
0.0
  0
LINE
  5
103
100
AcDbEntity
  8
ｶｳﾝﾀｰ/ｷｬﾋﾞﾈｯﾄ
  6
CONTINUOUS
 62
     3
100
AcDbLine
 10
3354.0
 20
1620.0
 30
0.0
 11
3309.0
 21
1627.5
 31
0.0
  0
ENDBLK
  5
104
100
AcDbEntity
  8
0
100
AcDbBlockEnd
  0
BLOCK
  5
107
100
AcDbEntity
  8
0
100
AcDbBlockBegin
  2
*D17
 70
    65
 10
0.0
 20
0.0
 30
0.0
  3
*D17
  1

  0
LINE
  5
108
100
AcDbEntity
  8
ｶｳﾝﾀｰ/ｷｬﾋﾞﾈｯﾄ
  6
CONTINUOUS
 62
     3
100
AcDbLine
 10
3364.5
 20
700.0
 30
0.0
 11
3759.0
 21
700.0
 31
0.0
  0
LINE
  5
109
100
AcDbEntity
  8
ｶｳﾝﾀｰ/ｷｬﾋﾞﾈｯﾄ
  6
CONTINUOUS
 62
     3
100
AcDbLine
 10
3396.5
 20
1265.0
 30
0.0
 11
3759.0
 21
1265.0
 31
0.0
  0
TEXT
  5
10A
100
AcDbEntity
  8
ｶｳﾝﾀｰ/ｷｬﾋﾞﾈｯﾄ
  6
CONTINUOUS
 62
     2
100
AcDbText
 10
3738.75
 20
746.880008
 30
0.0
 40
60.0
  1
565（キャビネット壁固定）
 50
90.0
 41
0.756
  7
EXCADSTD
 72
     1
 11
3738.75
 21
982.5
 31
0.0
100
AcDbText
  0
LINE
  5
10B
100
AcDbEntity
  8
ｶｳﾝﾀｰ/ｷｬﾋﾞﾈｯﾄ
  6
CONTINUOUS
 62
     3
100
AcDbLine
 10
3744.0
 20
700.0
 30
0.0
 11
3744.0
 21
1265.0
 31
0.0
  0
LINE
  5
10C
100
AcDbEntity
  8
ｶｳﾝﾀｰ/ｷｬﾋﾞﾈｯﾄ
  6
CONTINUOUS
 62
     3
100
AcDbLine
 10
3736.5
 20
745.0
 30
0.0
 11
3744.0
 21
700.0
 31
0.0
  0
LINE
  5
10D
100
AcDbEntity
  8
ｶｳﾝﾀｰ/ｷｬﾋﾞﾈｯﾄ
  6
CONTINUOUS
 62
     3
100
AcDbLine
 10
3744.0
 20
700.0
 30
0.0
 11
3751.5
 21
745.0
 31
0.0
  0
LINE
  5
10E
100
AcDbEntity
  8
ｶｳﾝﾀｰ/ｷｬﾋﾞﾈｯﾄ
  6
CONTINUOUS
 62
     3
100
AcDbLine
 10
3751.5
 20
1220.0
 30
0.0
 11
3744.0
 21
1265.0
 31
0.0
  0
LINE
  5
10F
100
AcDbEntity
  8
ｶｳﾝﾀｰ/ｷｬﾋﾞﾈｯﾄ
  6
CONTINUOUS
 62
     3
100
AcDbLine
 10
3744.0
 20
1265.0
 30
0.0
 11
3736.5
 21
1220.0
 31
0.0
  0
ENDBLK
  5
110
100
AcDbEntity
  8
0
100
AcDbBlockEnd
  0
BLOCK
  5
114
100
AcDbEntity
  8
0
100
AcDbBlockBegin
  2
*D18
 70
    65
 10
0.0
 20
0.0
 30
0.0
  3
*D18
  1

  0
LINE
  5
115
100
AcDbEntity
  8
ｶｳﾝﾀｰ/ｷｬﾋﾞﾈｯﾄ
  6
CONTINUOUS
 62
     3
100
AcDbLine
 10
3364.5
 20
700.0
 30
0.0
 11
3849.0
 21
700.0
 31
0.0
  0
LINE
  5
116
100
AcDbEntity
  8
ｶｳﾝﾀｰ/ｷｬﾋﾞﾈｯﾄ
  6
CONTINUOUS
 62
     3
100
AcDbLine
 10
3396.5
 20
1310.0
 30
0.0
 11
3849.0
 21
1310.0
 31
0.0
  0
TEXT
  5
117
100
AcDbEntity
  8
ｶｳﾝﾀｰ/ｷｬﾋﾞﾈｯﾄ
  6
CONTINUOUS
 62
     2
100
AcDbText
 10
3828.75
 20
753.0
 30
0.0
 40
60.0
  1
610（ブラケット壁固定）
 50
90.0
 41
0.84
  7
EXCADSTD
 72
     1
 11
3828.75
 21
1005.0
 31
0.0
100
AcDbText
  0
LINE
  5
118
100
AcDbEntity
  8
ｶｳﾝﾀｰ/ｷｬﾋﾞﾈｯﾄ
  6
CONTINUOUS
 62
     3
100
AcDbLine
 10
3834.0
 20
700.0
 30
0.0
 11
3834.0
 21
1310.0
 31
0.0
  0
LINE
  5
119
100
AcDbEntity
  8
ｶｳﾝﾀｰ/ｷｬﾋﾞﾈｯﾄ
  6
CONTINUOUS
 62
     3
100
AcDbLine
 10
3826.5
 20
745.0
 30
0.0
 11
3834.0
 21
700.0
 31
0.0
  0
LINE
  5
11A
100
AcDbEntity
  8
ｶｳﾝﾀｰ/ｷｬﾋﾞﾈｯﾄ
  6
CONTINUOUS
 62
     3
100
AcDbLine
 10
3834.0
 20
700.0
 30
0.0
 11
3841.5
 21
745.0
 31
0.0
  0
LINE
  5
11B
100
AcDbEntity
  8
ｶｳﾝﾀｰ/ｷｬﾋﾞﾈｯﾄ
  6
CONTINUOUS
 62
     3
100
AcDbLine
 10
3841.5
 20
1265.0
 30
0.0
 11
3834.0
 21
1310.0
 31
0.0
  0
LINE
  5
11C
100
AcDbEntity
  8
ｶｳﾝﾀｰ/ｷｬﾋﾞﾈｯﾄ
  6
CONTINUOUS
 62
     3
100
AcDbLine
 10
3834.0
 20
1310.0
 30
0.0
 11
3826.5
 21
1265.0
 31
0.0
  0
ENDBLK
  5
11D
100
AcDbEntity
  8
0
100
AcDbBlockEnd
  0
BLOCK
  5
120
100
AcDbEntity
  8
0
100
AcDbBlockBegin
  2
*D19
 70
    65
 10
0.0
 20
0.0
 30
0.0
  3
*D19
  1

  0
LINE
  5
121
100
AcDbEntity
  8
ｶｳﾝﾀｰ/ｷｬﾋﾞﾈｯﾄ
  6
CONTINUOUS
 62
     3
100
AcDbLine
 10
3364.5
 20
700.0
 30
0.0
 11
3939.0
 21
700.0
 31
0.0
  0
LINE
  5
122
100
AcDbEntity
  8
ｶｳﾝﾀｰ/ｷｬﾋﾞﾈｯﾄ
  6
CONTINUOUS
 62
     3
100
AcDbLine
 10
3405.75183
 20
1515.0
 30
0.0
 11
3939.0
 21
1515.0
 31
0.0
  0
TEXT
  5
123
100
AcDbEntity
  8
ｶｳﾝﾀｰ/ｷｬﾋﾞﾈｯﾄ
  6
CONTINUOUS
 62
     2
100
AcDbText
 10
3918.75
 20
893.3
 30
0.0
 40
60.0
  1
815（手洗器壁固定）
 50
90.0
 41
0.84
  7
EXCADSTD
 72
     1
 11
3918.75
 21
1107.5
 31
0.0
100
AcDbText
  0
LINE
  5
124
100
AcDbEntity
  8
ｶｳﾝﾀｰ/ｷｬﾋﾞﾈｯﾄ
  6
CONTINUOUS
 62
     3
100
AcDbLine
 10
3924.0
 20
700.0
 30
0.0
 11
3924.0
 21
1515.0
 31
0.0
  0
LINE
  5
125
100
AcDbEntity
  8
ｶｳﾝﾀｰ/ｷｬﾋﾞﾈｯﾄ
  6
CONTINUOUS
 62
     3
100
AcDbLine
 10
3916.5
 20
745.0
 30
0.0
 11
3924.0
 21
700.0
 31
0.0
  0
LINE
  5
126
100
AcDbEntity
  8
ｶｳﾝﾀｰ/ｷｬﾋﾞﾈｯﾄ
  6
CONTINUOUS
 62
     3
100
AcDbLine
 10
3924.0
 20
700.0
 30
0.0
 11
3931.5
 21
745.0
 31
0.0
  0
LINE
  5
127
100
AcDbEntity
  8
ｶｳﾝﾀｰ/ｷｬﾋﾞﾈｯﾄ
  6
CONTINUOUS
 62
     3
100
AcDbLine
 10
3931.5
 20
1470.0
 30
0.0
 11
3924.0
 21
1515.0
 31
0.0
  0
LINE
  5
128
100
AcDbEntity
  8
ｶｳﾝﾀｰ/ｷｬﾋﾞﾈｯﾄ
  6
CONTINUOUS
 62
     3
100
AcDbLine
 10
3924.0
 20
1515.0
 30
0.0
 11
3916.5
 21
1470.0
 31
0.0
  0
ENDBLK
  5
129
100
AcDbEntity
  8
0
100
AcDbBlockEnd
  0
BLOCK
  5
131
100
AcDbEntity
  8
0
100
AcDbBlockBegin
  2
*D20
 70
    65
 10
0.0
 20
0.0
 30
0.0
  3
*D20
  1

  0
LINE
  5
132
100
AcDbEntity
  8
ｶｳﾝﾀｰ/ｷｬﾋﾞﾈｯﾄ
  6
CONTINUOUS
 62
     3
100
AcDbLine
 10
1946.0
 20
689.5
 30
0.0
 11
1946.0
 21
265.0
 31
0.0
  0
LINE
  5
133
100
AcDbEntity
  8
ｶｳﾝﾀｰ/ｷｬﾋﾞﾈｯﾄ
  6
CONTINUOUS
 62
     3
100
AcDbLine
 10
936.0
 20
280.0
 30
0.0
 11
1946.0
 21
280.0
 31
0.0
  0
LINE
  5
134
100
AcDbEntity
  8
ｶｳﾝﾀｰ/ｷｬﾋﾞﾈｯﾄ
  6
CONTINUOUS
 62
     3
100
AcDbLine
 10
981.0
 20
287.5
 30
0.0
 11
936.0
 21
280.0
 31
0.0
  0
LINE
  5
135
100
AcDbEntity
  8
ｶｳﾝﾀｰ/ｷｬﾋﾞﾈｯﾄ
  6
CONTINUOUS
 62
     3
100
AcDbLine
 10
936.0
 20
280.0
 30
0.0
 11
981.0
 21
272.5
 31
0.0
  0
LINE
  5
136
100
AcDbEntity
  8
ｶｳﾝﾀｰ/ｷｬﾋﾞﾈｯﾄ
  6
CONTINUOUS
 62
     3
100
AcDbLine
 10
1901.0
 20
272.5
 30
0.0
 11
1946.0
 21
280.0
 31
0.0
  0
LINE
  5
137
100
AcDbEntity
  8
ｶｳﾝﾀｰ/ｷｬﾋﾞﾈｯﾄ
  6
CONTINUOUS
 62
     3
100
AcDbLine
 10
1946.0
 20
280.0
 30
0.0
 11
1901.0
 21
287.5
 31
0.0
  0
TEXT
  5
138
100
AcDbEntity
  8
ｶｳﾝﾀｰ/ｷｬﾋﾞﾈｯﾄ
  6
CONTINUOUS
 62
     2
100
AcDbText
 10
1359.1
 20
285.25
 30
0.0
 40
60.0
  1
1010
 41
0.84
  7
EXCADSTD
 72
     1
 11
1441.0
 21
285.25
 31
0.0
100
AcDbText
  0
LINE
  5
139
100
AcDbEntity
  8
ｶｳﾝﾀｰ/ｷｬﾋﾞﾈｯﾄ
  6
CONTINUOUS
 62
     3
100
AcDbLine
 10
936.0
 20
700.0
 30
0.0
 11
936.0
 21
265.0
 31
0.0
  0
ENDBLK
  5
13A
100
AcDbEntity
  8
0
100
AcDbBlockEnd
  0
BLOCK
  5
13D
100
AcDbEntity
  8
0
100
AcDbBlockBegin
  2
*D21
 70
    65
 10
0.0
 20
0.0
 30
0.0
  3
*D21
  1

  0
LINE
  5
13E
100
AcDbEntity
  8
ｶｳﾝﾀｰ/ｷｬﾋﾞﾈｯﾄ
  6
CONTINUOUS
 62
     3
100
AcDbLine
 10
1946.0
 20
689.5
 30
0.0
 11
1946.0
 21
355.0
 31
0.0
  0
LINE
  5
13F
100
AcDbEntity
  8
ｶｳﾝﾀｰ/ｷｬﾋﾞﾈｯﾄ
  6
CONTINUOUS
 62
     3
100
AcDbLine
 10
2206.0
 20
689.5
 30
0.0
 11
2206.0
 21
355.0
 31
0.0
  0
TEXT
  5
140
100
AcDbEntity
  8
ｶｳﾝﾀｰ/ｷｬﾋﾞﾈｯﾄ
  6
CONTINUOUS
 62
     2
100
AcDbText
 10
1456.8
 20
375.25
 30
0.0
 40
60.0
  1
260±10（床給水）
 41
0.84
  7
EXCADSTD
 72
     1
 11
1671.0
 21
375.25
 31
0.0
100
AcDbText
  0
LINE
  5
141
100
AcDbEntity
  8
ｶｳﾝﾀｰ/ｷｬﾋﾞﾈｯﾄ
  6
CONTINUOUS
 62
     3
100
AcDbLine
 10
1417.999989
 20
370.0
 30
0.0
 11
2251.0
 21
370.0
 31
0.0
  0
LINE
  5
142
100
AcDbEntity
  8
ｶｳﾝﾀｰ/ｷｬﾋﾞﾈｯﾄ
  6
CONTINUOUS
 62
     3
100
AcDbLine
 10
1901.0
 20
362.5
 30
0.0
 11
1946.0
 21
370.0
 31
0.0
  0
LINE
  5
143
100
AcDbEntity
  8
ｶｳﾝﾀｰ/ｷｬﾋﾞﾈｯﾄ
  6
CONTINUOUS
 62
     3
100
AcDbLine
 10
1946.0
 20
370.0
 30
0.0
 11
1901.0
 21
377.5
 31
0.0
  0
LINE
  5
144
100
AcDbEntity
  8
ｶｳﾝﾀｰ/ｷｬﾋﾞﾈｯﾄ
  6
CONTINUOUS
 62
     3
100
AcDbLine
 10
2251.0
 20
377.5
 30
0.0
 11
2206.0
 21
370.0
 31
0.0
  0
LINE
  5
145
100
AcDbEntity
  8
ｶｳﾝﾀｰ/ｷｬﾋﾞﾈｯﾄ
  6
CONTINUOUS
 62
     3
100
AcDbLine
 10
2206.0
 20
370.0
 30
0.0
 11
2251.0
 21
362.5
 31
0.0
  0
ENDBLK
  5
146
100
AcDbEntity
  8
0
100
AcDbBlockEnd
  0
BLOCK
  5
149
100
AcDbEntity
  8
0
100
AcDbBlockBegin
  2
*D22
 70
    65
 10
0.0
 20
0.0
 30
0.0
  3
*D22
  1

  0
LINE
  5
14A
100
AcDbEntity
  8
ｶｳﾝﾀｰ/ｷｬﾋﾞﾈｯﾄ
  6
CONTINUOUS
 62
     3
100
AcDbLine
 10
1946.0
 20
689.5
 30
0.0
 11
1946.0
 21
445.0
 31
0.0
  0
LINE
  5
14B
100
AcDbEntity
  8
ｶｳﾝﾀｰ/ｷｬﾋﾞﾈｯﾄ
  6
CONTINUOUS
 62
     3
100
AcDbLine
 10
2071.0
 20
659.5
 30
0.0
 11
2071.0
 21
445.0
 31
0.0
  0
TEXT
  5
14C
100
AcDbEntity
  8
ｶｳﾝﾀｰ/ｷｬﾋﾞﾈｯﾄ
  6
CONTINUOUS
 62
     2
100
AcDbText
 10
1456.3
 20
465.25
 30
0.0
 40
60.0
  1
125±10（床排水）
 41
0.84
  7
EXCADSTD
 72
     1
 11
1670.5
 21
465.25
 31
0.0
100
AcDbText
  0
LINE
  5
14D
100
AcDbEntity
  8
ｶｳﾝﾀｰ/ｷｬﾋﾞﾈｯﾄ
  6
CONTINUOUS
 62
     3
100
AcDbLine
 10
1417.999989
 20
460.0
 30
0.0
 11
2116.0
 21
460.0
 31
0.0
  0
LINE
  5
14E
100
AcDbEntity
  8
ｶｳﾝﾀｰ/ｷｬﾋﾞﾈｯﾄ
  6
CONTINUOUS
 62
     3
100
AcDbLine
 10
1901.0
 20
452.5
 30
0.0
 11
1946.0
 21
460.0
 31
0.0
  0
LINE
  5
14F
100
AcDbEntity
  8
ｶｳﾝﾀｰ/ｷｬﾋﾞﾈｯﾄ
  6
CONTINUOUS
 62
     3
100
AcDbLine
 10
1946.0
 20
460.0
 30
0.0
 11
1901.0
 21
467.5
 31
0.0
  0
LINE
  5
150
100
AcDbEntity
  8
ｶｳﾝﾀｰ/ｷｬﾋﾞﾈｯﾄ
  6
CONTINUOUS
 62
     3
100
AcDbLine
 10
2116.0
 20
467.5
 30
0.0
 11
2071.0
 21
460.0
 31
0.0
  0
LINE
  5
151
100
AcDbEntity
  8
ｶｳﾝﾀｰ/ｷｬﾋﾞﾈｯﾄ
  6
CONTINUOUS
 62
     3
100
AcDbLine
 10
2071.0
 20
460.0
 30
0.0
 11
2116.0
 21
452.5
 31
0.0
  0
ENDBLK
  5
152
100
AcDbEntity
  8
0
100
AcDbBlockEnd
  0
BLOCK
  5
155
100
AcDbEntity
  8
0
100
AcDbBlockBegin
  2
*D23
 70
    65
 10
0.0
 20
0.0
 30
0.0
  3
*D23
  1

  0
LINE
  5
156
100
AcDbEntity
  8
ｶｳﾝﾀｰ/ｷｬﾋﾞﾈｯﾄ
  6
CONTINUOUS
 62
     3
100
AcDbLine
 10
2036.0
 20
1073.5
 30
0.0
 11
2036.0
 21
948.0
 31
0.0
  0
TEXT
  5
157
100
AcDbEntity
  8
ｶｳﾝﾀｰ/ｷｬﾋﾞﾈｯﾄ
  6
CONTINUOUS
 62
     2
100
AcDbText
 10
1492.7
 20
968.25
 30
0.0
 40
60.0
  1
90±10（壁排水）
 41
0.84
  7
EXCADSTD
 72
     1
 11
1688.0
 21
968.25
 31
0.0
100
AcDbText
  0
LINE
  5
158
100
AcDbEntity
  8
ｶｳﾝﾀｰ/ｷｬﾋﾞﾈｯﾄ
  6
CONTINUOUS
 62
     3
100
AcDbLine
 10
1457.000023
 20
963.0
 30
0.0
 11
2081.0
 21
963.0
 31
0.0
  0
LINE
  5
159
100
AcDbEntity
  8
ｶｳﾝﾀｰ/ｷｬﾋﾞﾈｯﾄ
  6
CONTINUOUS
 62
     3
100
AcDbLine
 10
1901.0
 20
955.5
 30
0.0
 11
1946.0
 21
963.0
 31
0.0
  0
LINE
  5
15A
100
AcDbEntity
  8
ｶｳﾝﾀｰ/ｷｬﾋﾞﾈｯﾄ
  6
CONTINUOUS
 62
     3
100
AcDbLine
 10
1946.0
 20
963.0
 30
0.0
 11
1901.0
 21
970.5
 31
0.0
  0
LINE
  5
15B
100
AcDbEntity
  8
ｶｳﾝﾀｰ/ｷｬﾋﾞﾈｯﾄ
  6
CONTINUOUS
 62
     3
100
AcDbLine
 10
2081.0
 20
970.5
 30
0.0
 11
2036.0
 21
963.0
 31
0.0
  0
LINE
  5
15C
100
AcDbEntity
  8
ｶｳﾝﾀｰ/ｷｬﾋﾞﾈｯﾄ
  6
CONTINUOUS
 62
     3
100
AcDbLine
 10
2036.0
 20
963.0
 30
0.0
 11
2081.0
 21
955.5
 31
0.0
  0
ENDBLK
  5
15D
100
AcDbEntity
  8
0
100
AcDbBlockEnd
  0
BLOCK
  5
160
100
AcDbEntity
  8
0
100
AcDbBlockBegin
  2
*D24
 70
    65
 10
0.0
 20
0.0
 30
0.0
  3
*D24
  1

  0
TEXT
  5
161
100
AcDbEntity
  8
ｶｳﾝﾀｰ/ｷｬﾋﾞﾈｯﾄ
  6
CONTINUOUS
 62
     2
100
AcDbText
 10
1458.8
 20
878.25
 30
0.0
 40
60.0
  1
260±10（壁給水）
 41
0.84
  7
EXCADSTD
 72
     1
 11
1673.0
 21
878.25
 31
0.0
100
AcDbText
  0
LINE
  5
162
100
AcDbEntity
  8
ｶｳﾝﾀｰ/ｷｬﾋﾞﾈｯﾄ
  6
CONTINUOUS
 62
     3
100
AcDbLine
 10
1417.000004
 20
873.0
 30
0.0
 11
2251.0
 21
873.0
 31
0.0
  0
LINE
  5
163
100
AcDbEntity
  8
ｶｳﾝﾀｰ/ｷｬﾋﾞﾈｯﾄ
  6
CONTINUOUS
 62
     3
100
AcDbLine
 10
1901.0
 20
865.5
 30
0.0
 11
1946.0
 21
873.0
 31
0.0
  0
LINE
  5
164
100
AcDbEntity
  8
ｶｳﾝﾀｰ/ｷｬﾋﾞﾈｯﾄ
  6
CONTINUOUS
 62
     3
100
AcDbLine
 10
1946.0
 20
873.0
 30
0.0
 11
1901.0
 21
880.5
 31
0.0
  0
LINE
  5
165
100
AcDbEntity
  8
ｶｳﾝﾀｰ/ｷｬﾋﾞﾈｯﾄ
  6
CONTINUOUS
 62
     3
100
AcDbLine
 10
2251.0
 20
880.5
 30
0.0
 11
2206.0
 21
873.0
 31
0.0
  0
LINE
  5
166
100
AcDbEntity
  8
ｶｳﾝﾀｰ/ｷｬﾋﾞﾈｯﾄ
  6
CONTINUOUS
 62
     3
100
AcDbLine
 10
2206.0
 20
873.0
 30
0.0
 11
2251.0
 21
865.5
 31
0.0
  0
LINE
  5
167
100
AcDbEntity
  8
ｶｳﾝﾀｰ/ｷｬﾋﾞﾈｯﾄ
  6
CONTINUOUS
 62
     3
100
AcDbLine
 10
2206.0
 20
1144.35
 30
0.0
 11
2206.0
 21
858.0
 31
0.0
  0
ENDBLK
  5
168
100
AcDbEntity
  8
0
100
AcDbBlockEnd
  0
BLOCK
  5
16B
100
AcDbEntity
  8
0
100
AcDbBlockBegin
  2
*D25
 70
    65
 10
0.0
 20
0.0
 30
0.0
  3
*D25
  1

  0
LINE
  5
16C
100
AcDbEntity
  8
ｶｳﾝﾀｰ/ｷｬﾋﾞﾈｯﾄ
  6
CONTINUOUS
 62
     3
100
AcDbLine
 10
1946.0
 20
689.5
 30
0.0
 11
1946.0
 21
265.0
 31
0.0
  0
LINE
  5
16D
100
AcDbEntity
  8
ｶｳﾝﾀｰ/ｷｬﾋﾞﾈｯﾄ
  6
CONTINUOUS
 62
     3
100
AcDbLine
 10
2276.0
 20
689.5
 30
0.0
 11
2276.0
 21
265.0
 31
0.0
  0
TEXT
  5
16E
100
AcDbEntity
  8
ｶｳﾝﾀｰ/ｷｬﾋﾞﾈｯﾄ
  6
CONTINUOUS
 62
     2
100
AcDbText
 10
2048.0
 20
285.25
 30
0.0
 40
60.0
  1
330
 41
0.84
  7
EXCADSTD
 72
     1
 11
2111.0
 21
285.25
 31
0.0
100
AcDbText
  0
LINE
  5
16F
100
AcDbEntity
  8
ｶｳﾝﾀｰ/ｷｬﾋﾞﾈｯﾄ
  6
CONTINUOUS
 62
     3
100
AcDbLine
 10
1946.0
 20
280.0
 30
0.0
 11
2276.0
 21
280.0
 31
0.0
  0
LINE
  5
170
100
AcDbEntity
  8
ｶｳﾝﾀｰ/ｷｬﾋﾞﾈｯﾄ
  6
CONTINUOUS
 62
     3
100
AcDbLine
 10
1991.0
 20
287.5
 30
0.0
 11
1946.0
 21
280.0
 31
0.0
  0
LINE
  5
171
100
AcDbEntity
  8
ｶｳﾝﾀｰ/ｷｬﾋﾞﾈｯﾄ
  6
CONTINUOUS
 62
     3
100
AcDbLine
 10
1946.0
 20
280.0
 30
0.0
 11
1991.0
 21
272.5
 31
0.0
  0
LINE
  5
172
100
AcDbEntity
  8
ｶｳﾝﾀｰ/ｷｬﾋﾞﾈｯﾄ
  6
CONTINUOUS
 62
     3
100
AcDbLine
 10
2231.0
 20
272.5
 30
0.0
 11
2276.0
 21
280.0
 31
0.0
  0
LINE
  5
173
100
AcDbEntity
  8
ｶｳﾝﾀｰ/ｷｬﾋﾞﾈｯﾄ
  6
CONTINUOUS
 62
     3
100
AcDbLine
 10
2276.0
 20
280.0
 30
0.0
 11
2231.0
 21
287.5
 31
0.0
  0
ENDBLK
  5
174
100
AcDbEntity
  8
0
100
AcDbBlockEnd
  0
BLOCK
  5
177
100
AcDbEntity
  8
0
100
AcDbBlockBegin
  2
*D26
 70
    65
 10
0.0
 20
0.0
 30
0.0
  3
*D26
  1

  0
LINE
  5
178
100
AcDbEntity
  8
ｶｳﾝﾀｰ/ｷｬﾋﾞﾈｯﾄ
  6
CONTINUOUS
 62
     3
100
AcDbLine
 10
1936.0011
 20
1486.593793
 30
0.0
 11
1936.0011
 21
1635.0
 31
0.0
  0
LINE
  5
179
100
AcDbEntity
  8
ｶｳﾝﾀｰ/ｷｬﾋﾞﾈｯﾄ
  6
CONTINUOUS
 62
     3
100
AcDbLine
 10
2285.9989
 20
1486.593793
 30
0.0
 11
2285.9989
 21
1635.0
 31
0.0
  0
TEXT
  5
17A
100
AcDbEntity
  8
ｶｳﾝﾀｰ/ｷｬﾋﾞﾈｯﾄ
  6
CONTINUOUS
 62
     2
100
AcDbText
 10
2048.0
 20
1625.25
 30
0.0
 40
60.0
  1
350
 41
0.84
  7
EXCADSTD
 72
     1
 11
2111.0
 21
1625.25
 31
0.0
100
AcDbText
  0
LINE
  5
17B
100
AcDbEntity
  8
ｶｳﾝﾀｰ/ｷｬﾋﾞﾈｯﾄ
  6
CONTINUOUS
 62
     3
100
AcDbLine
 10
1936.0011
 20
1620.0
 30
0.0
 11
2285.9989
 21
1620.0
 31
0.0
  0
LINE
  5
17C
100
AcDbEntity
  8
ｶｳﾝﾀｰ/ｷｬﾋﾞﾈｯﾄ
  6
CONTINUOUS
 62
     3
100
AcDbLine
 10
1981.0011
 20
1627.5
 30
0.0
 11
1936.0011
 21
1620.0
 31
0.0
  0
LINE
  5
17D
100
AcDbEntity
  8
ｶｳﾝﾀｰ/ｷｬﾋﾞﾈｯﾄ
  6
CONTINUOUS
 62
     3
100
AcDbLine
 10
1936.0011
 20
1620.0
 30
0.0
 11
1981.0011
 21
1612.5
 31
0.0
  0
LINE
  5
17E
100
AcDbEntity
  8
ｶｳﾝﾀｰ/ｷｬﾋﾞﾈｯﾄ
  6
CONTINUOUS
 62
     3
100
AcDbLine
 10
2240.9989
 20
1612.5
 30
0.0
 11
2285.9989
 21
1620.0
 31
0.0
  0
LINE
  5
17F
100
AcDbEntity
  8
ｶｳﾝﾀｰ/ｷｬﾋﾞﾈｯﾄ
  6
CONTINUOUS
 62
     3
100
AcDbLine
 10
2285.9989
 20
1620.0
 30
0.0
 11
2240.9989
 21
1627.5
 31
0.0
  0
ENDBLK
  5
180
100
AcDbEntity
  8
0
100
AcDbBlockEnd
  0
BLOCK
  5
183
100
AcDbEntity
  8
0
100
AcDbBlockBegin
  2
*D27
 70
    65
 10
0.0
 20
0.0
 30
0.0
  3
*D27
  1

  0
LINE
  5
184
100
AcDbEntity
  8
ｶｳﾝﾀｰ/ｷｬﾋﾞﾈｯﾄ
  6
CONTINUOUS
 62
     3
100
AcDbLine
 10
2292.5
 20
1480.0
 30
0.0
 11
2397.5
 21
1480.0
 31
0.0
  0
TEXT
  5
185
100
AcDbEntity
  8
ｶｳﾝﾀｰ/ｷｬﾋﾞﾈｯﾄ
  6
CONTINUOUS
 62
     2
100
AcDbText
 10
2377.25
 20
1027.0
 30
0.0
 40
60.0
  1
780
 50
90.0
 41
0.84
  7
EXCADSTD
 72
     1
 11
2377.25
 21
1090.0
 31
0.0
100
AcDbText
  0
LINE
  5
186
100
AcDbEntity
  8
ｶｳﾝﾀｰ/ｷｬﾋﾞﾈｯﾄ
  6
CONTINUOUS
 62
     3
100
AcDbLine
 10
2382.5
 20
700.0
 30
0.0
 11
2382.5
 21
1480.0
 31
0.0
  0
LINE
  5
187
100
AcDbEntity
  8
ｶｳﾝﾀｰ/ｷｬﾋﾞﾈｯﾄ
  6
CONTINUOUS
 62
     3
100
AcDbLine
 10
2375.0
 20
745.0
 30
0.0
 11
2382.5
 21
700.0
 31
0.0
  0
LINE
  5
188
100
AcDbEntity
  8
ｶｳﾝﾀｰ/ｷｬﾋﾞﾈｯﾄ
  6
CONTINUOUS
 62
     3
100
AcDbLine
 10
2382.5
 20
700.0
 30
0.0
 11
2390.0
 21
745.0
 31
0.0
  0
LINE
  5
189
100
AcDbEntity
  8
ｶｳﾝﾀｰ/ｷｬﾋﾞﾈｯﾄ
  6
CONTINUOUS
 62
     3
100
AcDbLine
 10
2390.0
 20
1435.0
 30
0.0
 11
2382.5
 21
1480.0
 31
0.0
  0
LINE
  5
18A
100
AcDbEntity
  8
ｶｳﾝﾀｰ/ｷｬﾋﾞﾈｯﾄ
  6
CONTINUOUS
 62
     3
100
AcDbLine
 10
2382.5
 20
1480.0
 30
0.0
 11
2375.0
 21
1435.0
 31
0.0
  0
ENDBLK
  5
18B
100
AcDbEntity
  8
0
100
AcDbBlockEnd
  0
BLOCK
  5
18E
100
AcDbEntity
  8
0
100
AcDbBlockBegin
  2
*D28
 70
    65
 10
0.0
 20
0.0
 30
0.0
  3
*D28
  1

  0
LINE
  5
18F
100
AcDbEntity
  8
ｶｳﾝﾀｰ/ｷｬﾋﾞﾈｯﾄ
  6
CONTINUOUS
 62
     3
100
AcDbLine
 10
2291.092718
 20
1540.0
 30
0.0
 11
2487.5
 21
1540.0
 31
0.0
  0
TEXT
  5
190
100
AcDbEntity
  8
ｶｳﾝﾀｰ/ｷｬﾋﾞﾈｯﾄ
  6
CONTINUOUS
 62
     2
100
AcDbText
 10
2467.25
 20
1057.0
 30
0.0
 40
60.0
  1
840
 50
90.0
 41
0.84
  7
EXCADSTD
 72
     1
 11
2467.25
 21
1120.0
 31
0.0
100
AcDbText
  0
LINE
  5
191
100
AcDbEntity
  8
ｶｳﾝﾀｰ/ｷｬﾋﾞﾈｯﾄ
  6
CONTINUOUS
 62
     3
100
AcDbLine
 10
2472.5
 20
700.0
 30
0.0
 11
2472.5
 21
1540.0
 31
0.0
  0
LINE
  5
192
100
AcDbEntity
  8
ｶｳﾝﾀｰ/ｷｬﾋﾞﾈｯﾄ
  6
CONTINUOUS
 62
     3
100
AcDbLine
 10
2465.0
 20
745.0
 30
0.0
 11
2472.5
 21
700.0
 31
0.0
  0
LINE
  5
193
100
AcDbEntity
  8
ｶｳﾝﾀｰ/ｷｬﾋﾞﾈｯﾄ
  6
CONTINUOUS
 62
     3
100
AcDbLine
 10
2472.5
 20
700.0
 30
0.0
 11
2480.0
 21
745.0
 31
0.0
  0
LINE
  5
194
100
AcDbEntity
  8
ｶｳﾝﾀｰ/ｷｬﾋﾞﾈｯﾄ
  6
CONTINUOUS
 62
     3
100
AcDbLine
 10
2480.0
 20
1495.0
 30
0.0
 11
2472.5
 21
1540.0
 31
0.0
  0
LINE
  5
195
100
AcDbEntity
  8
ｶｳﾝﾀｰ/ｷｬﾋﾞﾈｯﾄ
  6
CONTINUOUS
 62
     3
100
AcDbLine
 10
2472.5
 20
1540.0
 30
0.0
 11
2465.0
 21
1495.0
 31
0.0
  0
ENDBLK
  5
196
100
AcDbEntity
  8
0
100
AcDbBlockEnd
  0
BLOCK
  5
2A6
100
AcDbEntity
  8
0
100
AcDbBlockBegin
  2
*D29
 70
    65
 10
0.0
 20
0.0
 30
0.0
  3
*D29
  1

  0
LINE
  5
2A7
100
AcDbEntity
  8
ｶｳﾝﾀｰ/ｷｬﾋﾞﾈｯﾄ
  6
CONTINUOUS
 62
     3
100
AcDbLine
 10
925.5
 20
1359.0
 30
0.0
 11
831.0
 21
1359.0
 31
0.0
  0
LINE
  5
2A8
100
AcDbEntity
  8
ｶｳﾝﾀｰ/ｷｬﾋﾞﾈｯﾄ
  6
CONTINUOUS
 62
     3
100
AcDbLine
 10
925.5
 20
700.0
 30
0.0
 11
831.0
 21
700.0
 31
0.0
  0
TEXT
  5
2A9
100
AcDbEntity
  8
ｶｳﾝﾀｰ/ｷｬﾋﾞﾈｯﾄ
  6
CONTINUOUS
 62
     2
100
AcDbText
 10
840.75
 20
966.5
 30
0.0
 40
60.0
  1
659
 50
90.0
 41
0.84
  7
EXCADSTD
 72
     1
 11
840.75
 21
1029.5
 31
0.0
100
AcDbText
  0
LINE
  5
2AA
100
AcDbEntity
  8
ｶｳﾝﾀｰ/ｷｬﾋﾞﾈｯﾄ
  6
CONTINUOUS
 62
     3
100
AcDbLine
 10
846.0
 20
1359.0
 30
0.0
 11
846.0
 21
700.0
 31
0.0
  0
LINE
  5
2AB
100
AcDbEntity
  8
ｶｳﾝﾀｰ/ｷｬﾋﾞﾈｯﾄ
  6
CONTINUOUS
 62
     3
100
AcDbLine
 10
853.5
 20
1314.0
 30
0.0
 11
846.0
 21
1359.0
 31
0.0
  0
LINE
  5
2AC
100
AcDbEntity
  8
ｶｳﾝﾀｰ/ｷｬﾋﾞﾈｯﾄ
  6
CONTINUOUS
 62
     3
100
AcDbLine
 10
846.0
 20
1359.0
 30
0.0
 11
838.5
 21
1314.0
 31
0.0
  0
LINE
  5
2AD
100
AcDbEntity
  8
ｶｳﾝﾀｰ/ｷｬﾋﾞﾈｯﾄ
  6
CONTINUOUS
 62
     3
100
AcDbLine
 10
838.5
 20
745.0
 30
0.0
 11
846.0
 21
700.0
 31
0.0
  0
LINE
  5
2AE
100
AcDbEntity
  8
ｶｳﾝﾀｰ/ｷｬﾋﾞﾈｯﾄ
  6
CONTINUOUS
 62
     3
100
AcDbLine
 10
846.0
 20
700.0
 30
0.0
 11
853.5
 21
745.0
 31
0.0
  0
ENDBLK
  5
2AF
100
AcDbEntity
  8
0
100
AcDbBlockEnd
  0
BLOCK
  5
49B
100
AcDbEntity
  8
0
100
AcDbBlockBegin
  2
*D30
 70
    65
 10
0.0
 20
0.0
 30
0.0
  3
*D30
  1

  0
LINE
  5
49C
100
AcDbEntity
  8
寸法
  6
CONTINUOUS
 62
     3
100
AcDbLine
 10
3406.5
 20
1224.5
 30
0.0
 11
3669.0
 21
1224.5
 31
0.0
  0
TEXT
  5
49D
100
AcDbEntity
  8
寸法
  6
CONTINUOUS
 62
     2
100
AcDbText
 10
3648.75
 20
735.45
 30
0.0
 40
60.0
  1
525（キャビネット壁固定）
 50
90.0
 41
0.735
  7
EXCADSTD
 72
     1
 11
3648.75
 21
962.25
 31
0.0
100
AcDbText
  0
LINE
  5
49E
100
AcDbEntity
  8
寸法
  6
CONTINUOUS
 62
     3
100
AcDbLine
 10
3654.0
 20
1224.5
 30
0.0
 11
3654.0
 21
700.0
 31
0.0
  0
LINE
  5
49F
100
AcDbEntity
  8
寸法
  6
CONTINUOUS
 62
     3
100
AcDbLine
 10
3661.5
 20
1179.5
 30
0.0
 11
3654.0
 21
1224.5
 31
0.0
  0
LINE
  5
4A0
100
AcDbEntity
  8
寸法
  6
CONTINUOUS
 62
     3
100
AcDbLine
 10
3654.0
 20
1224.5
 30
0.0
 11
3646.5
 21
1179.5
 31
0.0
  0
LINE
  5
4A1
100
AcDbEntity
  8
寸法
  6
CONTINUOUS
 62
     3
100
AcDbLine
 10
3646.5
 20
745.0
 30
0.0
 11
3654.0
 21
700.0
 31
0.0
  0
LINE
  5
4A2
100
AcDbEntity
  8
寸法
  6
CONTINUOUS
 62
     3
100
AcDbLine
 10
3654.0
 20
700.0
 30
0.0
 11
3661.5
 21
745.0
 31
0.0
  0
ENDBLK
  5
4A3
100
AcDbEntity
  8
0
100
AcDbBlockEnd
  0
BLOCK
  5
4A7
100
AcDbEntity
  8
0
100
AcDbBlockBegin
  2
*D31
 70
    65
 10
0.0
 20
0.0
 30
0.0
  3
*D31
  1

  0
LINE
  5
4A8
100
AcDbEntity
  8
寸法
  6
CONTINUOUS
 62
     3
100
AcDbLine
 10
925.5
 20
2383.0
 30
0.0
 11
836.0
 21
2383.0
 31
0.0
  0
LINE
  5
4A9
100
AcDbEntity
  8
寸法
  6
CONTINUOUS
 62
     3
100
AcDbLine
 10
925.5
 20
2248.0
 30
0.0
 11
836.0
 21
2248.0
 31
0.0
  0
TEXT
  5
4AA
100
AcDbEntity
  8
寸法
  6
CONTINUOUS
 62
     2
100
AcDbText
 10
845.75
 20
2252.5
 30
0.0
 40
60.0
  1
135
 50
90.0
 41
0.84
  7
EXCADSTD
 72
     1
 11
845.75
 21
2315.5
 31
0.0
100
AcDbText
  0
LINE
  5
4AB
100
AcDbEntity
  8
寸法
  6
CONTINUOUS
 62
     3
100
AcDbLine
 10
851.0
 20
2383.0
 30
0.0
 11
851.0
 21
2248.0
 31
0.0
  0
LINE
  5
4AC
100
AcDbEntity
  8
寸法
  6
CONTINUOUS
 62
     3
100
AcDbLine
 10
858.5
 20
2338.0
 30
0.0
 11
851.0
 21
2383.0
 31
0.0
  0
LINE
  5
4AD
100
AcDbEntity
  8
寸法
  6
CONTINUOUS
 62
     3
100
AcDbLine
 10
851.0
 20
2383.0
 30
0.0
 11
843.5
 21
2338.0
 31
0.0
  0
LINE
  5
4AE
100
AcDbEntity
  8
寸法
  6
CONTINUOUS
 62
     3
100
AcDbLine
 10
843.5
 20
2293.0
 30
0.0
 11
851.0
 21
2248.0
 31
0.0
  0
LINE
  5
4AF
100
AcDbEntity
  8
寸法
  6
CONTINUOUS
 62
     3
100
AcDbLine
 10
851.0
 20
2248.0
 30
0.0
 11
858.5
 21
2293.0
 31
0.0
  0
ENDBLK
  5
4B0
100
AcDbEntity
  8
0
100
AcDbBlockEnd
  0
BLOCK
  5
4B3
100
AcDbEntity
  8
0
100
AcDbBlockBegin
  2
*D32
 70
    65
 10
0.0
 20
0.0
 30
0.0
  3
*D32
  1

  0
LINE
  5
4B4
100
AcDbEntity
  8
寸法
  6
CONTINUOUS
 62
     3
100
AcDbLine
 10
936.0
 20
2237.5
 30
0.0
 11
936.0
 21
2083.0
 31
0.0
  0
LINE
  5
4B5
100
AcDbEntity
  8
寸法
  6
CONTINUOUS
 62
     3
100
AcDbLine
 10
2288.5
 20
2200.617584
 30
0.0
 11
2288.5
 21
2083.0
 31
0.0
  0
TEXT
  5
4B6
100
AcDbEntity
  8
寸法
  6
CONTINUOUS
 62
     2
100
AcDbText
 10
1530.35
 20
2103.25
 30
0.0
 40
60.0
  1
1350
 41
0.84
  7
EXCADSTD
 72
     1
 11
1612.25
 21
2103.25
 31
0.0
100
AcDbText
  0
LINE
  5
4B7
100
AcDbEntity
  8
寸法
  6
CONTINUOUS
 62
     3
100
AcDbLine
 10
936.0
 20
2098.0
 30
0.0
 11
2288.5
 21
2098.0
 31
0.0
  0
LINE
  5
4B8
100
AcDbEntity
  8
寸法
  6
CONTINUOUS
 62
     3
100
AcDbLine
 10
981.0
 20
2105.5
 30
0.0
 11
936.0
 21
2098.0
 31
0.0
  0
LINE
  5
4B9
100
AcDbEntity
  8
寸法
  6
CONTINUOUS
 62
     3
100
AcDbLine
 10
936.0
 20
2098.0
 30
0.0
 11
981.0
 21
2090.5
 31
0.0
  0
LINE
  5
4BA
100
AcDbEntity
  8
寸法
  6
CONTINUOUS
 62
     3
100
AcDbLine
 10
2243.5
 20
2090.5
 30
0.0
 11
2288.5
 21
2098.0
 31
0.0
  0
LINE
  5
4BB
100
AcDbEntity
  8
寸法
  6
CONTINUOUS
 62
     3
100
AcDbLine
 10
2288.5
 20
2098.0
 30
0.0
 11
2243.5
 21
2105.5
 31
0.0
  0
ENDBLK
  5
4BC
100
AcDbEntity
  8
0
100
AcDbBlockEnd
  0
BLOCK
  5
4C0
100
AcDbEntity
  8
0
100
AcDbBlockBegin
  2
*D33
 70
    65
 10
0.0
 20
0.0
 30
0.0
  3
*D33
  1

  0
TEXT
  5
4C1
100
AcDbEntity
  8
寸法
  6
CONTINUOUS
 62
     2
100
AcDbText
 10
3558.75
 20
732.160003
 30
0.0
 40
60.0
  1
465±10（壁給水）
 50
90.0
 41
0.798
  7
EXCADSTD
 72
     1
 11
3558.75
 21
932.5
 31
0.0
100
AcDbText
  0
LINE
  5
4C2
100
AcDbEntity
  8
寸法
  6
CONTINUOUS
 62
     3
100
AcDbLine
 10
3378.5
 20
1165.0
 30
0.0
 11
3579.0
 21
1165.0
 31
0.0
  0
LINE
  5
4C3
100
AcDbEntity
  8
寸法
  6
CONTINUOUS
 62
     3
100
AcDbLine
 10
3481.5
 20
700.0
 30
0.0
 11
3579.0
 21
700.0
 31
0.0
  0
LINE
  5
4C4
100
AcDbEntity
  8
寸法
  6
CONTINUOUS
 62
     3
100
AcDbLine
 10
3564.0
 20
1165.0
 30
0.0
 11
3564.0
 21
700.0
 31
0.0
  0
LINE
  5
4C5
100
AcDbEntity
  8
寸法
  6
CONTINUOUS
 62
     3
100
AcDbLine
 10
3571.5
 20
1120.0
 30
0.0
 11
3564.0
 21
1165.0
 31
0.0
  0
LINE
  5
4C6
100
AcDbEntity
  8
寸法
  6
CONTINUOUS
 62
     3
100
AcDbLine
 10
3564.0
 20
1165.0
 30
0.0
 11
3556.5
 21
1120.0
 31
0.0
  0
LINE
  5
4C7
100
AcDbEntity
  8
寸法
  6
CONTINUOUS
 62
     3
100
AcDbLine
 10
3556.5
 20
745.0
 30
0.0
 11
3564.0
 21
700.0
 31
0.0
  0
LINE
  5
4C8
100
AcDbEntity
  8
寸法
  6
CONTINUOUS
 62
     3
100
AcDbLine
 10
3564.0
 20
700.0
 30
0.0
 11
3571.5
 21
745.0
 31
0.0
  0
ENDBLK
  5
4C9
100
AcDbEntity
  8
0
100
AcDbBlockEnd
  0
ENDSEC
  0
SECTION
  2
ENTITIES
  0
LINE
  5
84
100
AcDbEntity
  8
枠・表
  6
CONTINUOUS
 62
     7
100
AcDbLine
 10
135.0
 20
2857.5
 30
0.0
 11
135.0
 21
127.5
 31
0.0
  0
LINE
  5
85
100
AcDbEntity
  8
枠・表
  6
CONTINUOUS
 62
     7
100
AcDbLine
 10
135.0
 20
2857.5
 30
0.0
 11
4335.0
 21
2857.5
 31
0.0
  0
LINE
  5
86
100
AcDbEntity
  8
枠・表
  6
CONTINUOUS
 62
     7
100
AcDbLine
 10
4335.0
 20
2857.5
 30
0.0
 11
4335.0
 21
127.5
 31
0.0
  0
LINE
  5
87
100
AcDbEntity
  8
枠・表
  6
CONTINUOUS
 62
     7
100
AcDbLine
 10
465.0
 20
2857.5
 30
0.0
 11
465.0
 21
127.5
 31
0.0
  0
LINE
  5
88
100
AcDbEntity
  8
枠・表
  6
CONTINUOUS
 62
     6
100
AcDbLine
 10
285.0
 20
127.5
 30
0.0
 11
285.0
 21
2002.5
 31
0.0
  0
LINE
  5
89
100
AcDbEntity
  8
枠・表
  6
CONTINUOUS
 62
     6
100
AcDbLine
 10
465.0
 20
337.5
 30
0.0
 11
285.0
 21
337.5
 31
0.0
  0
LINE
  5
8A
100
AcDbEntity
  8
枠・表
  6
CONTINUOUS
 62
     6
100
AcDbLine
 10
465.0
 20
412.5
 30
0.0
 11
285.0
 21
412.5
 31
0.0
  0
LINE
  5
8B
100
AcDbEntity
  8
枠・表
  6
CONTINUOUS
 62
     6
100
AcDbLine
 10
465.0
 20
967.5
 30
0.0
 11
135.0
 21
967.5
 31
0.0
  0
LINE
  5
8C
100
AcDbEntity
  8
枠・表
  6
CONTINUOUS
 62
     6
100
AcDbLine
 10
465.0
 20
1042.5
 30
0.0
 11
135.0
 21
1042.5
 31
0.0
  0
LINE
  5
8D
100
AcDbEntity
  8
枠・表
  6
CONTINUOUS
 62
     6
100
AcDbLine
 10
465.0
 20
1927.5
 30
0.0
 11
285.0
 21
1927.5
 31
0.0
  0
LINE
  5
8E
100
AcDbEntity
  8
枠・表
  6
CONTINUOUS
 62
     6
100
AcDbLine
 10
465.0
 20
2002.5
 30
0.0
 11
135.0
 21
2002.5
 31
0.0
  0
LINE
  5
8F
100
AcDbEntity
  8
枠・表
  6
CONTINUOUS
 62
     6
100
AcDbLine
 10
319.504395
 20
288.519287
 30
0.0
 11
437.549744
 21
172.509155
 31
0.0
  0
TEXT
  5
90
100
AcDbEntity
  8
枠・表
  6
CONTINUOUS
 62
     2
100
AcDbText
 10
386.584167
 20
291.694336
 30
0.0
 40
45.0
  1
１
 50
270.0
 41
0.826
  7
EXCADSTD
 72
     5
 11
386.584167
 21
256.294335
 31
0.0
100
AcDbText
  0
TEXT
  5
91
100
AcDbEntity
  8
枠・表
  6
CONTINUOUS
 62
     2
100
AcDbText
 10
320.02327
 20
230.581055
 30
0.0
 40
45.0
  1
１５
 50
270.0
 41
0.791
  7
EXCADSTD
 72
     5
 11
320.02327
 21
152.899203
 31
0.0
100
AcDbText
  0
TEXT
  5
92
100
AcDbEntity
  8
枠・表
  6
CONTINUOUS
 62
     2
100
AcDbText
 10
380.625
 20
1993.875
 30
0.0
 40
63.75
  1
品
 50
270.0
 41
0.84
  7
EXCADSTD
 72
     5
 11
380.625
 21
1942.875
 31
0.0
100
AcDbText
  0
TEXT
  5
93
100
AcDbEntity
  8
枠・表
  6
CONTINUOUS
 62
     2
100
AcDbText
 10
305.625
 20
1993.875
 30
0.0
 40
63.75
  1
名
 50
270.0
 41
0.84
  7
EXCADSTD
 72
     5
 11
305.625
 21
1942.875
 31
0.0
100
AcDbText
  0
TEXT
  5
94
100
AcDbEntity
  8
枠・表
  6
CONTINUOUS
 62
     2
100
AcDbText
 10
380.625
 20
1033.875
 30
0.0
 40
63.75
  1
品
 50
270.0
 41
0.84
  7
EXCADSTD
 72
     5
 11
380.625
 21
982.875
 31
0.0
100
AcDbText
  0
TEXT
  5
95
100
AcDbEntity
  8
枠・表
  6
CONTINUOUS
 62
     2
100
AcDbText
 10
305.625
 20
1033.875
 30
0.0
 40
63.75
  1
番
 50
270.0
 41
0.84
  7
EXCADSTD
 72
     5
 11
305.625
 21
982.875
 31
0.0
100
AcDbText
  0
TEXT
  5
96
100
AcDbEntity
  8
枠・表
  6
CONTINUOUS
 62
     2
100
AcDbText
 10
380.625
 20
402.375
 30
0.0
 40
63.75
  1
尺
 50
270.0
 41
0.84
  7
EXCADSTD
 72
     5
 11
380.625
 21
351.375
 31
0.0
100
AcDbText
  0
TEXT
  5
97
100
AcDbEntity
  8
枠・表
  6
CONTINUOUS
 62
     2
100
AcDbText
 10
305.625
 20
402.375
 30
0.0
 40
63.75
  1
度
 50
270.0
 41
0.84
  7
EXCADSTD
 72
     5
 11
305.625
 21
351.375
 31
0.0
100
AcDbText
  0
TEXT
  5
98
100
AcDbEntity
  8
枠・表
  6
CONTINUOUS
 62
     2
100
AcDbText
 10
211.125
 20
1033.875
 30
0.0
 40
63.75
  1
図
 50
270.0
 41
0.84
  7
EXCADSTD
 72
     5
 11
211.125
 21
982.875
 31
0.0
100
AcDbText
  0
TEXT
  5
99
100
AcDbEntity
  8
枠・表
  6
CONTINUOUS
 62
     2
100
AcDbText
 10
146.625
 20
1033.875
 30
0.0
 40
63.75
  1
番
 50
270.0
 41
0.84
  7
EXCADSTD
 72
     5
 11
146.625
 21
982.875
 31
0.0
100
AcDbText
  0
LINE
  5
9A
100
AcDbEntity
  8
枠・表
  6
EXLTYPE2
 62
     6
100
AcDbLine
 10
2235.0
 20
3127.5
 30
0.0
 11
2235.0
 21
2857.5
 31
0.0
  0
LINE
  5
9B
100
AcDbEntity
  8
枠・表
  6
CONTINUOUS
 62
     6
100
AcDbLine
 10
465.0
 20
2197.5
 30
0.0
 11
135.0
 21
2197.5
 31
0.0
  0
LINE
  5
9C
100
AcDbEntity
  8
枠・表
  6
CONTINUOUS
 62
     6
100
AcDbLine
 10
465.0
 20
2392.5
 30
0.0
 11
135.0
 21
2392.5
 31
0.0
  0
LINE
  5
9D
100
AcDbEntity
  8
枠・表
  6
CONTINUOUS
 62
     6
100
AcDbLine
 10
465.0
 20
2625.0
 30
0.0
 11
135.0
 21
2625.0
 31
0.0
  0
TEXT
  5
9E
100
AcDbEntity
  8
枠・表
  6
CONTINUOUS
 62
     2
100
AcDbText
 10
395.625
 20
2823.75
 30
0.0
 40
63.75
  1
製図
 50
270.0
 41
1.087059
  7
EXCADSTD
 72
     5
 11
395.625
 21
2672.511
 31
0.0
100
AcDbText
  0
TEXT
  5
9F
100
AcDbEntity
  8
枠・表
  6
CONTINUOUS
 62
     2
100
AcDbText
 10
395.625
 20
2591.25
 30
0.0
 40
63.75
  1
写図
 50
270.0
 41
1.087059
  7
EXCADSTD
 72
     5
 11
395.625
 21
2440.011
 31
0.0
100
AcDbText
  0
TEXT
  5
A0
100
AcDbEntity
  8
枠・表
  6
CONTINUOUS
 62
     2
100
AcDbText
 10
395.625
 20
2366.25
 30
0.0
 40
63.75
  1
検図
 50
270.0
 41
0.938824
  7
EXCADSTD
 72
     5
 11
395.625
 21
2235.6345
 31
0.0
100
AcDbText
  0
TEXT
  5
A1
100
AcDbEntity
  8
枠・表
  6
CONTINUOUS
 62
     2
100
AcDbText
 10
395.625
 20
2171.25
 30
0.0
 40
63.75
  1
承認
 50
270.0
 41
0.938824
  7
EXCADSTD
 72
     5
 11
395.625
 21
2040.6345
 31
0.0
100
AcDbText
  0
LINE
  5
A2
100
AcDbEntity
  8
枠・表
  6
CONTINUOUS
 62
     6
100
AcDbLine
 10
390.0
 20
2857.5
 30
0.0
 11
390.0
 21
2002.5
 31
0.0
  0
LINE
  5
A3
100
AcDbEntity
  8
枠・表
  6
EXLTYPE2
 62
     6
100
AcDbLine
 10
210.0
 20
2857.5
 30
0.0
 11
210.0
 21
2392.5
 31
0.0
  0
CIRCLE
  5
A4
100
AcDbEntity
  8
枠・表
  6
CONTINUOUS
 62
     6
100
AcDbCircle
 10
172.5
 20
2782.5
 30
0.0
 40
1.5
  0
CIRCLE
  5
A5
100
AcDbEntity
  8
枠・表
  6
CONTINUOUS
 62
     6
100
AcDbCircle
 10
172.5
 20
2707.5
 30
0.0
 40
1.5
  0
CIRCLE
  5
A6
100
AcDbEntity
  8
枠・表
  6
CONTINUOUS
 62
     6
100
AcDbCircle
 10
172.5
 20
2550.0
 30
0.0
 40
1.5
  0
CIRCLE
  5
A7
100
AcDbEntity
  8
枠・表
  6
CONTINUOUS
 62
     6
100
AcDbCircle
 10
172.5
 20
2475.0
 30
0.0
 40
1.5
  0
LINE
  5
A8
100
AcDbEntity
  8
枠・表
  6
CONTINUOUS
 62
     7
100
AcDbLine
 10
135.0
 20
127.5
 30
0.0
 11
4335.0
 21
127.5
 31
0.0
  0
TEXT
  5
A9
100
AcDbEntity
  8
枠・表
  6
CONTINUOUS
 62
     2
100
AcDbText
 10
332.25
 20
1792.5
 30
0.0
 40
85.5
  1
カウンター付手洗器
 50
270.0
 41
0.671345
  7
EXCADSTD
 72
     5
 11
332.25
 21
1177.5
 31
0.0
100
AcDbText
  0
LINE
  5
AA
100
AcDbEntity
  8
枠・表
  6
CONTINUOUS
 62
     6
100
AcDbLine
 10
3225.0
 20
2715.0
 30
0.0
 11
4275.0
 21
2715.0
 31
0.0
  0
LINE
  5
AB
100
AcDbEntity
  8
枠・表
  6
CONTINUOUS
 62
     6
100
AcDbLine
 10
3225.0
 20
2632.5
 30
0.0
 11
4275.0
 21
2632.5
 31
0.0
  0
LINE
  5
AC
100
AcDbEntity
  8
枠・表
  6
CONTINUOUS
 62
     6
100
AcDbLine
 10
3225.0
 20
2550.0
 30
0.0
 11
4275.0
 21
2550.0
 31
0.0
  0
LINE
  5
AD
100
AcDbEntity
  8
枠・表
  6
CONTINUOUS
 62
     6
100
AcDbLine
 10
3225.0
 20
2467.5
 30
0.0
 11
4275.0
 21
2467.5
 31
0.0
  0
TEXT
  5
AE
100
AcDbEntity
  8
枠・表
  6
CONTINUOUS
 62
     2
100
AcDbText
 10
3345.0
 20
2643.75
 30
0.0
 40
60.0
  1
品番
 41
1.47
  7
EXCADSTD
 72
     5
 11
3537.486
 21
2643.75
 31
0.0
100
AcDbText
  0
TEXT
  5
AF
100
AcDbEntity
  8
枠・表
  6
CONTINUOUS
 62
     2
100
AcDbText
 10
3795.0
 20
2643.75
 30
0.0
 40
60.0
  1
品名
 41
1.47
  7
EXCADSTD
 72
     5
 11
3987.486
 21
2643.75
 31
0.0
100
AcDbText
  0
TEXT
  5
B0
100
AcDbEntity
  8
枠・表
  6
CONTINUOUS
 62
     2
100
AcDbText
 10
4138.5
 20
2643.75
 30
0.0
 40
60.0
  1
個数
 41
0.861
  7
EXCADSTD
 72
     5
 11
4251.2418
 21
2643.75
 31
0.0
100
AcDbText
  0
TEXT
  5
B1
100
AcDbEntity
  8
枠・表
  6
CONTINUOUS
 62
     2
100
AcDbText
 10
4166.25
 20
2561.25
 30
0.0
 40
60.0
  1
１
 41
0.945
  7
EXCADSTD
 72
     5
 11
4220.25
 21
2561.25
 31
0.0
100
AcDbText
  0
TEXT
  5
B2
100
AcDbEntity
  8
枠・表
  6
CONTINUOUS
 62
     2
100
AcDbText
 10
4166.25
 20
2478.75
 30
0.0
 40
60.0
  1
１
 41
0.945
  7
EXCADSTD
 72
     5
 11
4220.25
 21
2478.75
 31
0.0
100
AcDbText
  0
TEXT
  5
B3
100
AcDbEntity
  8
枠・表
  6
CONTINUOUS
 62
     2
100
AcDbText
 10
4166.25
 20
2396.25
 30
0.0
 40
60.0
  1
１
 41
0.945
  7
EXCADSTD
 72
     5
 11
4220.25
 21
2396.25
 31
0.0
100
AcDbText
  0
LINE
  5
B4
100
AcDbEntity
  8
枠・表
  6
CONTINUOUS
 62
     6
100
AcDbLine
 10
3225.0
 20
2797.5
 30
0.0
 11
4275.0
 21
2797.5
 31
0.0
  0
TEXT
  5
B5
100
AcDbEntity
  8
枠・表
  6
CONTINUOUS
 62
     2
100
AcDbText
 10
3690.0
 20
2478.75
 30
0.0
 40
60.0
  1
カウンター
 41
0.8106
  7
EXCADSTD
 72
     5
 11
3979.499999
 21
2478.75
 31
0.0
100
AcDbText
  0
TEXT
  5
B6
100
AcDbEntity
  8
枠・表
  6
CONTINUOUS
 62
     2
100
AcDbText
 10
3690.0
 20
2561.25
 30
0.0
 40
60.0
  1
キャビネット付手洗器
 41
0.588
  7
EXCADSTD
 72
     5
 11
4110.000015
 21
2561.25
 31
0.0
100
AcDbText
  0
LINE
  5
B7
100
AcDbEntity
  8
枠・表
  6
CONTINUOUS
 62
     6
100
AcDbLine
 10
3225.0
 20
2385.0
 30
0.0
 11
4275.0
 21
2385.0
 31
0.0
  0
LINE
  5
B8
100
AcDbEntity
  8
枠・表
  6
CONTINUOUS
 62
     6
100
AcDbLine
 10
3225.0
 20
2385.0
 30
0.0
 11
3225.0
 21
2797.5
 31
0.0
  0
LINE
  5
B9
100
AcDbEntity
  8
枠・表
  6
CONTINUOUS
 62
     6
100
AcDbLine
 10
3675.0
 20
2385.0
 30
0.0
 11
3675.0
 21
2715.0
 31
0.0
  0
LINE
  5
BA
100
AcDbEntity
  8
枠・表
  6
CONTINUOUS
 62
     6
100
AcDbLine
 10
4125.0
 20
2385.0
 30
0.0
 11
4125.0
 21
2715.0
 31
0.0
  0
LINE
  5
BB
100
AcDbEntity
  8
枠・表
  6
CONTINUOUS
 62
     6
100
AcDbLine
 10
4275.0
 20
2385.0
 30
0.0
 11
4275.0
 21
2797.5
 31
0.0
  0
TEXT
  5
BC
100
AcDbEntity
  8
枠・表
  6
CONTINUOUS
 62
     2
100
AcDbText
 10
4166.25
 20
2136.75
 30
0.0
 40
60.0
  1
１
 41
0.945
  7
EXCADSTD
 72
     5
 11
4220.25
 21
2136.75
 31
0.0
100
AcDbText
  0
TEXT
  5
BD
100
AcDbEntity
  8
枠・表
  6
CONTINUOUS
 62
     2
100
AcDbText
 10
4166.25
 20
2054.25
 30
0.0
 40
60.0
  1
１
 41
0.945
  7
EXCADSTD
 72
     5
 11
4220.25
 21
2054.25
 31
0.0
100
AcDbText
  0
TEXT
  5
BE
100
AcDbEntity
  8
枠・表
  6
CONTINUOUS
 62
     2
100
AcDbText
 10
3690.0
 20
2136.75
 30
0.0
 40
60.0
  1
アングル形止水栓（共用形）
 41
0.436154
  7
EXCADSTD
 72
     5
 11
4095.000046
 21
2136.75
 31
0.0
100
AcDbText
  0
LINE
  5
BF
100
AcDbEntity
  8
枠・表
  6
CONTINUOUS
 62
     6
100
AcDbLine
 10
3225.0
 20
2125.5
 30
0.0
 11
4275.0
 21
2125.5
 31
0.0
  0
TEXT
  5
C0
100
AcDbEntity
  8
枠・表
  6
CONTINUOUS
 62
     2
100
AcDbText
 10
4166.25
 20
1971.75
 30
0.0
 40
60.0
  1
１
 41
0.945
  7
EXCADSTD
 72
     5
 11
4220.25
 21
1971.75
 31
0.0
100
AcDbText
  0
LINE
  5
C1
100
AcDbEntity
  8
枠・表
  6
CONTINUOUS
 62
     6
100
AcDbLine
 10
3225.0
 20
1960.5
 30
0.0
 11
4275.0
 21
1960.5
 31
0.0
  0
LINE
  5
C2
100
AcDbEntity
  8
枠・表
  6
CONTINUOUS
 62
     6
100
AcDbLine
 10
3225.0
 20
2043.0
 30
0.0
 11
4275.0
 21
2043.0
 31
0.0
  0
LINE
  5
C3
100
AcDbEntity
  8
枠・表
  6
CONTINUOUS
 62
     6
100
AcDbLine
 10
3225.0
 20
2290.5
 30
0.0
 11
4275.0
 21
2290.5
 31
0.0
  0
TEXT
  5
C4
100
AcDbEntity
  8
枠・表
  6
CONTINUOUS
 62
     2
100
AcDbText
 10
3345.0
 20
2219.25
 30
0.0
 40
60.0
  1
品番
 41
1.47
  7
EXCADSTD
 72
     5
 11
3537.486
 21
2219.25
 31
0.0
100
AcDbText
  0
TEXT
  5
C5
100
AcDbEntity
  8
枠・表
  6
CONTINUOUS
 62
     2
100
AcDbText
 10
3795.0
 20
2219.25
 30
0.0
 40
60.0
  1
品名
 41
1.47
  7
EXCADSTD
 72
     5
 11
3987.486
 21
2219.25
 31
0.0
100
AcDbText
  0
TEXT
  5
C6
100
AcDbEntity
  8
枠・表
  6
CONTINUOUS
 62
     2
100
AcDbText
 10
4138.5
 20
2219.25
 30
0.0
 40
60.0
  1
個数
 41
0.861
  7
EXCADSTD
 72
     5
 11
4251.2418
 21
2219.25
 31
0.0
100
AcDbText
  0
LINE
  5
C7
100
AcDbEntity
  8
枠・表
  6
CONTINUOUS
 62
     6
100
AcDbLine
 10
3225.0
 20
1960.5
 30
0.0
 11
3225.0
 21
2290.5
 31
0.0
  0
LINE
  5
C8
100
AcDbEntity
  8
枠・表
  6
CONTINUOUS
 62
     6
100
AcDbLine
 10
3675.0
 20
1960.5
 30
0.0
 11
3675.0
 21
2290.5
 31
0.0
  0
LINE
  5
C9
100
AcDbEntity
  8
枠・表
  6
CONTINUOUS
 62
     6
100
AcDbLine
 10
4125.0
 20
1960.5
 30
0.0
 11
4125.0
 21
2290.5
 31
0.0
  0
LINE
  5
CA
100
AcDbEntity
  8
枠・表
  6
CONTINUOUS
 62
     6
100
AcDbLine
 10
4275.0
 20
1960.5
 30
0.0
 11
4275.0
 21
2290.5
 31
0.0
  0
LINE
  5
CB
100
AcDbEntity
  8
枠・表
  6
CONTINUOUS
 62
     6
100
AcDbLine
 10
3225.0
 20
2208.0
 30
0.0
 11
4275.0
 21
2208.0
 31
0.0
  0
TEXT
  5
CC
100
AcDbEntity
  8
枠・表
  6
CONTINUOUS
 62
     2
100
AcDbText
 10
3240.0
 20
2301.75
 30
0.0
 40
60.0
  1
※止水栓、壁排水用の排水Ｌ管は別途手配になります。
 41
0.57372
  7
EXCADSTD
 72
     5
 11
4264.499996
 21
2301.75
 31
0.0
100
AcDbText
  0
TEXT
  5
CD
100
AcDbEntity
  8
枠・表
  6
CONTINUOUS
 62
     2
100
AcDbText
 10
3240.0
 20
1971.75
 30
0.0
 40
60.0
  1
４４１３１
 41
0.5796
  7
EXCADSTD
 72
     5
 11
3447.000006
 21
1971.75
 31
0.0
100
AcDbText
  0
TEXT
  5
CE
100
AcDbEntity
  8
枠・表
  6
CONTINUOUS
 62
     2
100
AcDbText
 10
3690.0
 20
2054.25
 30
0.0
 40
60.0
  1
ストレート形止水栓（共用形）
 41
0.435
  7
EXCADSTD
 72
     5
 11
4125.0
 21
2054.25
 31
0.0
100
AcDbText
  0
TEXT
  5
CF
100
AcDbEntity
  8
枠・表
  6
CONTINUOUS
 62
     2
100
AcDbText
 10
3690.0
 20
1971.75
 30
0.0
 40
60.0
  1
排水Ｌ管
 41
0.6825
  7
EXCADSTD
 72
     5
 11
3885.0
 21
1971.75
 31
0.0
100
AcDbText
  0
TEXT
  5
D0
100
AcDbEntity
  8
枠・表
  6
CONTINUOUS
 62
     2
100
AcDbText
 10
3240.0
 20
2396.25
 30
0.0
 40
60.0
  1
ＬＴＣＪ３６０Ａ
 41
0.567
  7
EXCADSTD
 72
     5
 11
3564.00001
 21
2396.25
 31
0.0
100
AcDbText
  0
TEXT
  5
D1
100
AcDbEntity
  8
枠・表
  6
CONTINUOUS
 62
     2
100
AcDbText
 10
3690.0
 20
2396.25
 30
0.0
 40
60.0
  1
紙巻器付サイドキャビネット
 41
0.457154
  7
EXCADSTD
 72
     5
 11
4114.499981
 21
2396.25
 31
0.0
100
AcDbText
  0
TEXT
  5
D2
100
AcDbEntity
  8
枠・表
  6
CONTINUOUS
 62
     2
100
AcDbText
 10
3240.0
 20
2478.75
 30
0.0
 40
60.0
  1
ＬＵＣＰ３５０３ＴＮ
 41
0.5628
  7
EXCADSTD
 72
     5
 11
3642.000013
 21
2478.75
 31
0.0
100
AcDbText
  0
TEXT
  5
D3
100
AcDbEntity
  8
枠・表
  6
CONTINUOUS
 62
     2
100
AcDbText
 10
262.5
 20
2823.75
 30
0.0
 40
75.0
  1
間瀬
 50
270.0
 41
0.924
  7
EXCADSTD
 72
     5
 11
262.5
 21
2672.511
 31
0.0
100
AcDbText
  0
TEXT
  5
D4
100
AcDbEntity
  8
枠・表
  6
CONTINUOUS
 62
     2
100
AcDbText
 10
262.5
 20
2182.5
 30
0.0
 40
75.0
  1
古林
 50
270.0
 41
0.924
  7
EXCADSTD
 72
     5
 11
262.5
 21
2031.261
 31
0.0
100
AcDbText
  0
TEXT
  5
D5
100
AcDbEntity
  8
枠・表
  6
CONTINUOUS
 62
     2
100
AcDbText
 10
3240.0
 20
2136.75
 30
0.0
 40
60.0
  1
ＮＬ２２１Ｆ６０ＷＹ
 41
0.4998
  7
EXCADSTD
 72
     5
 11
3596.999976
 21
2136.75
 31
0.0
100
AcDbText
  0
TEXT
  5
D6
100
AcDbEntity
  8
枠・表
  6
CONTINUOUS
 62
     2
100
AcDbText
 10
3240.0
 20
2054.25
 30
0.0
 40
60.0
  1
ＮＬ２１１Ｆ４２０ＷＹ３０
 41
0.474923
  7
EXCADSTD
 72
     5
 11
3680.999987
 21
2054.25
 31
0.0
100
AcDbText
  0
TEXT
  5
D7
100
AcDbEntity
  8
枠・表
  6
CONTINUOUS
 62
     2
100
AcDbText
 10
142.5
 20
2850.75
 30
0.0
 40
60.0
  1
21
 50
270.0
 41
0.5
  7
EXCADSTD
 72
     5
 11
142.5
 21
2802.75
 31
0.0
100
AcDbText
  0
TEXT
  5
D8
100
AcDbEntity
  8
枠・表
  6
CONTINUOUS
 62
     2
100
AcDbText
 10
142.5
 20
2775.0
 30
0.0
 40
60.0
  1
11
 50
270.0
 41
0.5
  7
EXCADSTD
 72
     5
 11
142.5
 21
2727.0
 31
0.0
100
AcDbText
  0
TEXT
  5
D9
100
AcDbEntity
  8
枠・表
  6
CONTINUOUS
 62
     2
100
AcDbText
 10
142.5
 20
2695.5
 30
0.0
 40
60.0
  1
26
 50
270.0
 41
0.5
  7
EXCADSTD
 72
     5
 11
142.5
 21
2647.5
 31
0.0
100
AcDbText
  0
TEXT
  5
DA
100
AcDbEntity
  8
枠・表
  6
CONTINUOUS
 62
     2
100
AcDbText
 10
3240.0
 20
2561.25
 30
0.0
 40
60.0
  1
ＬＴＣＪ３５０１Ｒ
 41
0.564667
  7
EXCADSTD
 72
     5
 11
3603.000004
 21
2561.25
 31
0.0
100
AcDbText
  0
TEXT
  5
DB
100
AcDbEntity
  8
枠・表
  6
CONTINUOUS
 62
     2
100
AcDbText
 10
3411.000001
 20
2722.5
 30
0.0
 40
67.5
  1
ＳＤＪ１３５ＲＡ３の内訳
 41
0.703111
  7
EXCADSTD
 72
     5
 11
4088.999999
 21
2722.5
 31
0.0
100
AcDbText
  0
TEXT
  5
DC
100
AcDbEntity
  8
枠・表
  6
CONTINUOUS
 62
     7
100
AcDbText
 10
159.75
 20
949.499997
 30
0.0
 40
105.0
  1
ＬＵ７１７４１０
 50
270.0
 41
0.804
  7
EXCADSTD
 72
     5
 11
159.75
 21
145.500003
 31
0.0
100
AcDbText
  0
TEXT
  5
DE
100
AcDbEntity
  8
枠・表
  6
CONTINUOUS
 62
     2
100
AcDbText
 10
165.0
 20
1960.5
 30
0.0
 40
67.5
  1
ジャニス工業株式会社
 50
270.0
 41
1.0
  7
EXCADTTF1
 72
     5
 11
165.0
 21
1060.5
 31
0.0
100
AcDbText
  0
TEXT
  5
DF
100
AcDbEntity
  8
ｶｳﾝﾀｰ/ｷｬﾋﾞﾈｯﾄ
  6
CONTINUOUS
 62
     2
100
AcDbText
 10
3428.5
 20
1351.25
 30
0.0
 40
60.0
  1
φ３２
 41
0.728
  7
EXCADSTD
 72
     5
 11
3584.5
 21
1351.25
 31
0.0
100
AcDbText
  0
TEXT
  5
E0
100
AcDbEntity
  8
ｶｳﾝﾀｰ/ｷｬﾋﾞﾈｯﾄ
  6
CONTINUOUS
 62
     2
100
AcDbText
 10
3419.1
 20
1436.25
 30
0.0
 40
60.0
  1
Ｒ１/２
 41
0.638
  7
EXCADSTD
 72
     5
 11
3593.099999
 21
1436.25
 31
0.0
100
AcDbText
  0
DIMENSION
  5
ED
100
AcDbEntity
  8
ｶｳﾝﾀｰ/ｷｬﾋﾞﾈｯﾄ
  6
CONTINUOUS
 62
     3
100
AcDbDimension
  2
*D14
 10
3354.0
 20
600.0
 30
0.0
 11
3030.0
 21
635.25
 31
0.0
 70
   160
  1
60±10（床給排水）
  3
STANDARD
100
AcDbAlignedDimension
 13
3294.0
 23
670.0
 33
0.0
 14
3354.0
 24
700.0
 34
0.0
100
AcDbRotatedDimension
1001
ACAD
1000
DSTYLE
1002
{
1070
     6
1000
_EX_NORM
1070
     7
1000
_EX_NORM
1070
    41
1040
45.0
1070
    42
1040
10.5
1070
    44
1040
15.0
1070
    73
1070
     0
1070
    74
1070
     0
1070
    75
1070
     0
1070
    76
1070
     0
1070
    77
1070
     1
1070
    78
1070
     8
1070
   140
1040
60.0
1070
   147
1040
5.25
1070
   173
1070
     1
1070
   176
1070
     3
1070
   177
1070
     3
1070
   178
1070
     2
1070
   271
1070
     2
1070
   279
1070
     2
1070
   280
1070
     0
1070
   287
1070
     5
1070
   340
1005
EC
1002
}
  0
DIMENSION
  5
FA
100
AcDbEntity
  8
ｶｳﾝﾀｰ/ｷｬﾋﾞﾈｯﾄ
  6
CONTINUOUS
 62
     3
100
AcDbDimension
  2
*D15
 10
3474.0
 20
1100.0
 30
0.0
 11
3438.75
 21
900.0
 31
0.0
 70
   160
  1
400±10（壁排水）
  3
STANDARD
100
AcDbAlignedDimension
 13
3354.0
 23
700.0
 33
0.0
 14
3384.0
 24
1100.0
 34
0.0
 50
90.0
100
AcDbRotatedDimension
1001
ACAD
1000
DSTYLE
1002
{
1070
     6
1000
_EX_NORM
1070
     7
1000
_EX_NORM
1070
    41
1040
45.0
1070
    42
1040
10.5
1070
    44
1040
15.0
1070
    73
1070
     0
1070
    74
1070
     0
1070
    75
1070
     0
1070
    76
1070
     0
1070
    77
1070
     1
1070
    78
1070
     8
1070
   140
1040
60.0
1070
   147
1040
5.25
1070
   173
1070
     1
1070
   176
1070
     3
1070
   177
1070
     3
1070
   178
1070
     2
1070
   271
1070
     2
1070
   279
1070
     2
1070
   280
1070
     0
1070
   287
1070
     5
1070
   340
1005
F9
1002
}
  0
DIMENSION
  5
105
100
AcDbEntity
  8
ｶｳﾝﾀｰ/ｷｬﾋﾞﾈｯﾄ
  6
CONTINUOUS
 62
     3
100
AcDbDimension
  2
*D16
 10
3354.0
 20
1620.0
 30
0.0
 11
3254.0
 21
1655.25
 31
0.0
 70
   160
  1
200
  3
STANDARD
100
AcDbAlignedDimension
 13
3154.0
 23
1476.0
 33
0.0
 14
3354.0
 24
1540.0
 34
0.0
100
AcDbRotatedDimension
1001
ACAD
1000
DSTYLE
1002
{
1070
     6
1000
_EX_NORM
1070
     7
1000
_EX_NORM
1070
    41
1040
45.0
1070
    42
1040
10.5
1070
    44
1040
15.0
1070
    73
1070
     0
1070
    74
1070
     0
1070
    75
1070
     0
1070
    76
1070
     1
1070
    77
1070
     1
1070
    78
1070
     8
1070
   140
1040
60.0
1070
   147
1040
5.25
1070
   173
1070
     1
1070
   176
1070
     3
1070
   177
1070
     3
1070
   178
1070
     2
1070
   271
1070
     2
1070
   279
1070
     2
1070
   280
1070
     0
1070
   287
1070
     5
1070
   340
1005
EC
1002
}
  0
DIMENSION
  5
112
100
AcDbEntity
  8
ｶｳﾝﾀｰ/ｷｬﾋﾞﾈｯﾄ
  6
CONTINUOUS
 62
     3
100
AcDbDimension
  2
*D17
 10
3744.0
 20
1265.0
 30
0.0
 11
3708.75
 21
982.5
 31
0.0
 70
   160
  1
565（キャビネット壁固定）
  3
STANDARD
100
AcDbAlignedDimension
 13
3354.0
 23
700.0
 33
0.0
 14
3386.0
 24
1265.0
 34
0.0
 50
90.0
100
AcDbRotatedDimension
1001
ACAD
1000
DSTYLE
1002
{
1070
     6
1000
_EX_NORM
1070
     7
1000
_EX_NORM
1070
    41
1040
45.0
1070
    42
1040
10.5
1070
    44
1040
15.0
1070
    73
1070
     0
1070
    74
1070
     0
1070
    75
1070
     0
1070
    76
1070
     0
1070
    77
1070
     1
1070
    78
1070
     8
1070
   140
1040
60.0
1070
   147
1040
5.25
1070
   173
1070
     1
1070
   176
1070
     3
1070
   177
1070
     3
1070
   178
1070
     2
1070
   271
1070
     2
1070
   279
1070
     2
1070
   280
1070
     0
1070
   287
1070
     5
1070
   340
1005
111
1002
}
  0
DIMENSION
  5
11E
100
AcDbEntity
  8
ｶｳﾝﾀｰ/ｷｬﾋﾞﾈｯﾄ
  6
CONTINUOUS
 62
     3
100
AcDbDimension
  2
*D18
 10
3834.0
 20
1310.0
 30
0.0
 11
3798.75
 21
1005.0
 31
0.0
 70
   160
  1
610（ブラケット壁固定）
  3
STANDARD
100
AcDbAlignedDimension
 13
3354.0
 23
700.0
 33
0.0
 14
3386.0
 24
1310.0
 34
0.0
 50
90.0
100
AcDbRotatedDimension
1001
ACAD
1000
DSTYLE
1002
{
1070
     6
1000
_EX_NORM
1070
     7
1000
_EX_NORM
1070
    41
1040
45.0
1070
    42
1040
10.5
1070
    44
1040
15.0
1070
    73
1070
     0
1070
    74
1070
     0
1070
    75
1070
     0
1070
    76
1070
     0
1070
    77
1070
     1
1070
    78
1070
     8
1070
   140
1040
60.0
1070
   147
1040
5.25
1070
   173
1070
     1
1070
   176
1070
     3
1070
   177
1070
     3
1070
   178
1070
     2
1070
   271
1070
     2
1070
   279
1070
     2
1070
   280
1070
     0
1070
   287
1070
     5
1070
   340
1005
EC
1002
}
  0
DIMENSION
  5
12A
100
AcDbEntity
  8
ｶｳﾝﾀｰ/ｷｬﾋﾞﾈｯﾄ
  6
CONTINUOUS
 62
     3
100
AcDbDimension
  2
*D19
 10
3924.0
 20
1515.0
 30
0.0
 11
3888.75
 21
1107.5
 31
0.0
 70
   160
  1
815（手洗器壁固定）
  3
STANDARD
100
AcDbAlignedDimension
 13
3354.0
 23
700.0
 33
0.0
 14
3395.25183
 24
1515.0
 34
0.0
 50
90.0
100
AcDbRotatedDimension
1001
ACAD
1000
DSTYLE
1002
{
1070
     6
1000
_EX_NORM
1070
     7
1000
_EX_NORM
1070
    41
1040
45.0
1070
    42
1040
10.5
1070
    44
1040
15.0
1070
    73
1070
     0
1070
    74
1070
     0
1070
    75
1070
     0
1070
    76
1070
     0
1070
    77
1070
     1
1070
    78
1070
     8
1070
   140
1040
60.0
1070
   147
1040
5.25
1070
   173
1070
     1
1070
   176
1070
     3
1070
   177
1070
     3
1070
   178
1070
     2
1070
   271
1070
     2
1070
   279
1070
     2
1070
   280
1070
     0
1070
   287
1070
     5
1070
   340
1005
EC
1002
}
  0
TEXT
  5
12B
100
AcDbEntity
  8
ｶｳﾝﾀｰ/ｷｬﾋﾞﾈｯﾄ
  6
CONTINUOUS
 62
     2
100
AcDbText
 10
2347.5
 20
555.25
 30
0.0
 40
60.0
  1
Ｒ１/２
 41
0.605
  7
EXCADSTD
 72
     5
 11
2512.5
 21
555.25
 31
0.0
100
AcDbText
  0
LEADER
  5
12C
100
AcDbEntity
  8
ｶｳﾝﾀｰ/ｷｬﾋﾞﾈｯﾄ
  6
CONTINUOUS
 62
     3
100
AcDbLeader
  3
STANDARD
 73
     3
 74
     1
 75
     0
 40
0.0
 76
     3
 10
2216.0
 20
693.0
 30
0.0
 10
2340.0
 20
550.0
 30
0.0
 10
2503.0
 20
550.0
 30
0.0
 77
     3
1001
ACAD
1000
DSTYLE
1002
{
1070
    41
1040
45.0
1070
     5
1000
_EX_NORM
1070
     6
1000
_EX_NORM
1070
     7
1000
_EX_NORM
1070
   341
1005
28
1002
}
  0
TEXT
  5
12D
100
AcDbEntity
  8
ｶｳﾝﾀｰ/ｷｬﾋﾞﾈｯﾄ
  6
CONTINUOUS
 62
     2
100
AcDbText
 10
1405.0
 20
613.5
 30
0.0
 40
60.0
  1
４０又５０塩ビ管
 41
0.65625
  7
EXCADSTD
 72
     5
 11
1780.0
 21
613.5
 31
0.0
100
AcDbText
  0
TEXT
  5
12E
100
AcDbEntity
  8
ｶｳﾝﾀｰ/ｷｬﾋﾞﾈｯﾄ
  6
CONTINUOUS
 62
     2
100
AcDbText
 10
1405.0
 20
553.5
 30
0.0
 40
60.0
  1
（４０～５０立上げ）
 41
0.651
  7
EXCADSTD
 72
     5
 11
1870.0
 21
553.5
 31
0.0
100
AcDbText
  0
LEADER
  5
12F
100
AcDbEntity
  8
ｶｳﾝﾀｰ/ｷｬﾋﾞﾈｯﾄ
  6
CONTINUOUS
 62
     3
100
AcDbLeader
  3
STANDARD
 73
     3
 74
     1
 75
     0
 40
0.0
 76
     3
 10
2055.0
 20
670.0
 30
0.0
 10
1875.0
 20
550.0
 30
0.0
 10
1415.0
 20
550.0
 30
0.0
 77
     3
1001
ACAD
1000
DSTYLE
1002
{
1070
    41
1040
45.0
1070
     5
1000
_EX_NORM
1070
     6
1000
_EX_NORM
1070
     7
1000
_EX_NORM
1070
   341
1005
28
1002
}
  0
DIMENSION
  5
13B
100
AcDbEntity
  8
ｶｳﾝﾀｰ/ｷｬﾋﾞﾈｯﾄ
  6
CONTINUOUS
 62
     3
100
AcDbDimension
  2
*D20
 10
1946.0
 20
280.0
 30
0.0
 11
1441.0
 21
315.25
 31
0.0
 70
   160
  1
1010
  3
STANDARD
100
AcDbAlignedDimension
 13
936.0
 23
1980.000038
 33
0.0
 14
1946.0
 24
700.0
 34
0.0
100
AcDbRotatedDimension
1001
ACAD
1000
DSTYLE
1002
{
1070
     6
1000
_EX_NORM
1070
     7
1000
_EX_NORM
1070
    41
1040
45.0
1070
    42
1040
1280.000038
1070
    44
1040
15.0
1070
    73
1070
     0
1070
    74
1070
     0
1070
    75
1070
     0
1070
    76
1070
     0
1070
    77
1070
     1
1070
    78
1070
     8
1070
   140
1040
60.0
1070
   147
1040
5.25
1070
   173
1070
     1
1070
   176
1070
     3
1070
   177
1070
     3
1070
   178
1070
     2
1070
   271
1070
     2
1070
   279
1070
     2
1070
   280
1070
     0
1070
   287
1070
     5
1070
   340
1005
EC
1002
}
  0
DIMENSION
  5
147
100
AcDbEntity
  8
ｶｳﾝﾀｰ/ｷｬﾋﾞﾈｯﾄ
  6
CONTINUOUS
 62
     3
100
AcDbDimension
  2
*D21
 10
2206.0
 20
370.0
 30
0.0
 11
1671.0
 21
405.25
 31
0.0
 70
   160
  1
260±10（床給水）
  3
STANDARD
100
AcDbAlignedDimension
 13
1946.0
 23
700.0
 33
0.0
 14
2206.0
 24
700.0
 34
0.0
100
AcDbRotatedDimension
1001
ACAD
1000
DSTYLE
1002
{
1070
     6
1000
_EX_NORM
1070
     7
1000
_EX_NORM
1070
    41
1040
45.0
1070
    42
1040
10.5
1070
    44
1040
15.0
1070
    73
1070
     0
1070
    74
1070
     0
1070
    75
1070
     0
1070
    76
1070
     0
1070
    77
1070
     1
1070
    78
1070
     8
1070
   140
1040
60.0
1070
   147
1040
5.25
1070
   173
1070
     1
1070
   176
1070
     3
1070
   177
1070
     3
1070
   178
1070
     2
1070
   271
1070
     2
1070
   279
1070
     2
1070
   280
1070
     0
1070
   287
1070
     5
1070
   340
1005
EC
1002
}
  0
DIMENSION
  5
153
100
AcDbEntity
  8
ｶｳﾝﾀｰ/ｷｬﾋﾞﾈｯﾄ
  6
CONTINUOUS
 62
     3
100
AcDbDimension
  2
*D22
 10
2071.0
 20
460.0
 30
0.0
 11
1670.5
 21
495.25
 31
0.0
 70
   160
  1
125±10（床排水）
  3
STANDARD
100
AcDbAlignedDimension
 13
1946.0
 23
700.0
 33
0.0
 14
2071.0
 24
670.0
 34
0.0
100
AcDbRotatedDimension
1001
ACAD
1000
DSTYLE
1002
{
1070
     6
1000
_EX_NORM
1070
     7
1000
_EX_NORM
1070
    41
1040
45.0
1070
    42
1040
10.5
1070
    44
1040
15.0
1070
    73
1070
     0
1070
    74
1070
     0
1070
    75
1070
     0
1070
    76
1070
     0
1070
    77
1070
     1
1070
    78
1070
     8
1070
   140
1040
60.0
1070
   147
1040
5.25
1070
   173
1070
     1
1070
   176
1070
     3
1070
   177
1070
     3
1070
   178
1070
     2
1070
   271
1070
     2
1070
   279
1070
     2
1070
   280
1070
     0
1070
   287
1070
     5
1070
   340
1005
EC
1002
}
  0
DIMENSION
  5
15E
100
AcDbEntity
  8
ｶｳﾝﾀｰ/ｷｬﾋﾞﾈｯﾄ
  6
CONTINUOUS
 62
     3
100
AcDbDimension
  2
*D23
 10
2036.0
 20
963.0
 30
0.0
 11
1688.0
 21
998.25
 31
0.0
 70
   160
  1
90±10（壁排水）
  3
STANDARD
100
AcDbAlignedDimension
 13
1946.0
 23
700.0
 33
0.0
 14
2036.0
 24
1084.0
 34
0.0
100
AcDbRotatedDimension
1001
ACAD
1000
DSTYLE
1002
{
1070
     6
1000
_EX_NORM
1070
     7
1000
_EX_NORM
1070
    41
1040
45.0
1070
    42
1040
10.5
1070
    44
1040
15.0
1070
    73
1070
     0
1070
    74
1070
     0
1070
    75
1070
     1
1070
    76
1070
     0
1070
    77
1070
     1
1070
    78
1070
     8
1070
   140
1040
60.0
1070
   147
1040
5.25
1070
   173
1070
     1
1070
   176
1070
     3
1070
   177
1070
     3
1070
   178
1070
     2
1070
   271
1070
     2
1070
   279
1070
     2
1070
   280
1070
     0
1070
   287
1070
     5
1070
   340
1005
EC
1002
}
  0
DIMENSION
  5
169
100
AcDbEntity
  8
ｶｳﾝﾀｰ/ｷｬﾋﾞﾈｯﾄ
  6
CONTINUOUS
 62
     3
100
AcDbDimension
  2
*D24
 10
2206.0
 20
873.0
 30
0.0
 11
1673.0
 21
908.25
 31
0.0
 70
   160
  1
260±10（壁給水）
  3
STANDARD
100
AcDbAlignedDimension
 13
1946.0
 23
700.0
 33
0.0
 14
2206.0
 24
1145.0
 34
0.0
100
AcDbRotatedDimension
1001
ACAD
1000
DSTYLE
1002
{
1070
     6
1000
_EX_NORM
1070
     7
1000
_EX_NORM
1070
    41
1040
45.0
1070
    42
1040
0.65
1070
    44
1040
15.0
1070
    73
1070
     0
1070
    74
1070
     0
1070
    75
1070
     1
1070
    76
1070
     0
1070
    77
1070
     1
1070
    78
1070
     8
1070
   140
1040
60.0
1070
   147
1040
5.25
1070
   173
1070
     1
1070
   176
1070
     3
1070
   177
1070
     3
1070
   178
1070
     2
1070
   271
1070
     2
1070
   279
1070
     2
1070
   280
1070
     0
1070
   287
1070
     5
1070
   340
1005
EC
1002
}
  0
DIMENSION
  5
175
100
AcDbEntity
  8
ｶｳﾝﾀｰ/ｷｬﾋﾞﾈｯﾄ
  6
CONTINUOUS
 62
     3
100
AcDbDimension
  2
*D25
 10
2276.0
 20
280.0
 30
0.0
 11
2111.0
 21
315.25
 31
0.0
 70
   160
  1
330
  3
STANDARD
100
AcDbAlignedDimension
 13
1946.0
 23
700.0
 33
0.0
 14
2276.0
 24
700.0
 34
0.0
100
AcDbRotatedDimension
1001
ACAD
1000
DSTYLE
1002
{
1070
     6
1000
_EX_NORM
1070
     7
1000
_EX_NORM
1070
    41
1040
45.0
1070
    42
1040
10.5
1070
    44
1040
15.0
1070
    73
1070
     0
1070
    74
1070
     0
1070
    75
1070
     0
1070
    76
1070
     0
1070
    77
1070
     1
1070
    78
1070
     8
1070
   140
1040
60.0
1070
   147
1040
5.25
1070
   173
1070
     1
1070
   176
1070
     3
1070
   177
1070
     3
1070
   178
1070
     2
1070
   271
1070
     2
1070
   279
1070
     2
1070
   280
1070
     0
1070
   287
1070
     5
1070
   340
1005
EC
1002
}
  0
DIMENSION
  5
181
100
AcDbEntity
  8
ｶｳﾝﾀｰ/ｷｬﾋﾞﾈｯﾄ
  6
CONTINUOUS
 62
     3
100
AcDbDimension
  2
*D26
 10
2285.9989
 20
1620.0
 30
0.0
 11
2111.0
 21
1655.25
 31
0.0
 70
   160
  1
350
  3
STANDARD
100
AcDbAlignedDimension
 13
1936.0011
 23
1476.093793
 33
0.0
 14
2285.9989
 24
1476.093793
 34
0.0
100
AcDbRotatedDimension
1001
ACAD
1000
DSTYLE
1002
{
1070
     6
1000
_EX_NORM
1070
     7
1000
_EX_NORM
1070
    41
1040
45.0
1070
    42
1040
10.5
1070
    44
1040
15.0
1070
    73
1070
     0
1070
    74
1070
     0
1070
    75
1070
     0
1070
    76
1070
     0
1070
    77
1070
     1
1070
    78
1070
     8
1070
   140
1040
60.0
1070
   147
1040
5.25
1070
   173
1070
     1
1070
   176
1070
     3
1070
   177
1070
     3
1070
   178
1070
     2
1070
   271
1070
     2
1070
   279
1070
     2
1070
   280
1070
     0
1070
   287
1070
     5
1070
   340
1005
EC
1002
}
  0
DIMENSION
  5
18C
100
AcDbEntity
  8
ｶｳﾝﾀｰ/ｷｬﾋﾞﾈｯﾄ
  6
CONTINUOUS
 62
     3
100
AcDbDimension
  2
*D27
 10
2382.5
 20
1480.0
 30
0.0
 11
2347.25
 21
1090.0
 31
0.0
 70
   160
  1
780
  3
STANDARD
100
AcDbAlignedDimension
 13
2276.0
 23
700.0
 33
0.0
 14
2282.0
 24
1480.0
 34
0.0
 50
90.0
100
AcDbRotatedDimension
1001
ACAD
1000
DSTYLE
1002
{
1070
     6
1000
_EX_NORM
1070
     7
1000
_EX_NORM
1070
    41
1040
45.0
1070
    42
1040
10.5
1070
    44
1040
15.0
1070
    73
1070
     0
1070
    74
1070
     0
1070
    75
1070
     1
1070
    76
1070
     0
1070
    77
1070
     1
1070
    78
1070
     8
1070
   140
1040
60.0
1070
   147
1040
5.25
1070
   173
1070
     1
1070
   176
1070
     3
1070
   177
1070
     3
1070
   178
1070
     2
1070
   271
1070
     2
1070
   279
1070
     2
1070
   280
1070
     0
1070
   287
1070
     5
1070
   340
1005
EC
1002
}
  0
DIMENSION
  5
197
100
AcDbEntity
  8
ｶｳﾝﾀｰ/ｷｬﾋﾞﾈｯﾄ
  6
CONTINUOUS
 62
     3
100
AcDbDimension
  2
*D28
 10
2472.5
 20
1540.0
 30
0.0
 11
2437.25
 21
1120.0
 31
0.0
 70
   160
  1
840
  3
STANDARD
100
AcDbAlignedDimension
 13
2276.0
 23
700.0
 33
0.0
 14
2280.592719
 24
1540.0
 34
0.0
 50
90.0
100
AcDbRotatedDimension
1001
ACAD
1000
DSTYLE
1002
{
1070
     6
1000
_EX_NORM
1070
     7
1000
_EX_NORM
1070
    41
1040
45.0
1070
    42
1040
10.5
1070
    44
1040
15.0
1070
    73
1070
     0
1070
    74
1070
     0
1070
    75
1070
     1
1070
    76
1070
     0
1070
    77
1070
     1
1070
    78
1070
     8
1070
   140
1040
60.0
1070
   147
1040
5.25
1070
   173
1070
     1
1070
   176
1070
     3
1070
   177
1070
     3
1070
   178
1070
     2
1070
   271
1070
     2
1070
   279
1070
     2
1070
   280
1070
     0
1070
   287
1070
     5
1070
   340
1005
EC
1002
}
  0
LINE
  5
198
100
AcDbEntity
  8
ｶｳﾝﾀｰ/ｷｬﾋﾞﾈｯﾄ
  6
CONTINUOUS
 62
     2
100
AcDbLine
 10
1948.0
 20
820.0
 30
0.0
 11
2274.0
 21
820.0
 31
0.0
  0
LINE
  5
199
100
AcDbEntity
  8
ｶｳﾝﾀｰ/ｷｬﾋﾞﾈｯﾄ
  6
CONTINUOUS
 62
     2
100
AcDbLine
 10
1948.0
 20
1336.0
 30
0.0
 11
1948.0
 21
820.0
 31
0.0
  0
LINE
  5
19A
100
AcDbEntity
  8
ｶｳﾝﾀｰ/ｷｬﾋﾞﾈｯﾄ
  6
CONTINUOUS
 62
     2
100
AcDbLine
 10
1948.0
 20
1336.0
 30
0.0
 11
2274.0
 21
1336.0
 31
0.0
  0
LINE
  5
19B
100
AcDbEntity
  8
ｶｳﾝﾀｰ/ｷｬﾋﾞﾈｯﾄ
  6
CONTINUOUS
 62
     2
100
AcDbLine
 10
2274.0
 20
820.0
 30
0.0
 11
2274.0
 21
1336.0
 31
0.0
  0
LINE
  5
19C
100
AcDbEntity
  8
ｶｳﾝﾀｰ/ｷｬﾋﾞﾈｯﾄ
  6
CONTINUOUS
 62
     2
100
AcDbLine
 10
1946.0
 20
700.0
 30
0.0
 11
1946.0
 21
1340.0
 31
0.0
  0
LINE
  5
19D
100
AcDbEntity
  8
ｶｳﾝﾀｰ/ｷｬﾋﾞﾈｯﾄ
  6
CONTINUOUS
 62
     2
100
AcDbLine
 10
2276.0
 20
700.0
 30
0.0
 11
2276.0
 21
1340.0
 31
0.0
  0
LINE
  5
19E
100
AcDbEntity
  8
ｶｳﾝﾀｰ/ｷｬﾋﾞﾈｯﾄ
  6
CONTINUOUS
 62
     2
100
AcDbLine
 10
1946.0
 20
700.0
 30
0.0
 11
2276.0
 21
700.0
 31
0.0
  0
LINE
  5
19F
100
AcDbEntity
  8
ｶｳﾝﾀｰ/ｷｬﾋﾞﾈｯﾄ
  6
CONTINUOUS
 62
     2
100
AcDbLine
 10
2242.0
 20
1302.0
 30
0.0
 11
2242.0
 21
1290.0
 31
0.0
  0
LINE
  5
1A0
100
AcDbEntity
  8
ｶｳﾝﾀｰ/ｷｬﾋﾞﾈｯﾄ
  6
CONTINUOUS
 62
     2
100
AcDbLine
 10
2252.0
 20
1302.0
 30
0.0
 11
2252.0
 21
1290.0
 31
0.0
  0
LINE
  5
1A1
100
AcDbEntity
  8
ｶｳﾝﾀｰ/ｷｬﾋﾞﾈｯﾄ
  6
CONTINUOUS
 62
     2
100
AcDbLine
 10
1980.0
 20
1302.0
 30
0.0
 11
1980.0
 21
1290.0
 31
0.0
  0
LINE
  5
1A2
100
AcDbEntity
  8
ｶｳﾝﾀｰ/ｷｬﾋﾞﾈｯﾄ
  6
CONTINUOUS
 62
     2
100
AcDbLine
 10
1970.0
 20
1302.0
 30
0.0
 11
1970.0
 21
1290.0
 31
0.0
  0
LINE
  5
1A3
100
AcDbEntity
  8
ｶｳﾝﾀｰ/ｷｬﾋﾞﾈｯﾄ
  6
CONTINUOUS
 62
     2
100
AcDbLine
 10
1970.0
 20
1302.0
 30
0.0
 11
2252.0
 21
1302.0
 31
0.0
  0
LINE
  5
1A4
100
AcDbEntity
  8
ｶｳﾝﾀｰ/ｷｬﾋﾞﾈｯﾄ
  6
CONTINUOUS
 62
     2
100
AcDbLine
 10
1970.0
 20
1290.0
 30
0.0
 11
2252.0
 21
1290.0
 31
0.0
  0
LINE
  5
1A5
100
AcDbEntity
  8
ｶｳﾝﾀｰ/ｷｬﾋﾞﾈｯﾄ
  6
CONTINUOUS
 62
     2
100
AcDbLine
 10
1956.0
 20
1360.0
 30
0.0
 11
1956.0
 21
1340.0
 31
0.0
  0
LINE
  5
1A6
100
AcDbEntity
  8
ｶｳﾝﾀｰ/ｷｬﾋﾞﾈｯﾄ
  6
CONTINUOUS
 62
     2
100
AcDbLine
 10
2266.0
 20
1360.0
 30
0.0
 11
2266.0
 21
1340.0
 31
0.0
  0
LINE
  5
1A7
100
AcDbEntity
  8
ｶｳﾝﾀｰ/ｷｬﾋﾞﾈｯﾄ
  6
CONTINUOUS
 62
     2
100
AcDbLine
 10
1946.0
 20
1360.0
 30
0.0
 11
2276.0
 21
1360.0
 31
0.0
  0
LINE
  5
1A8
100
AcDbEntity
  8
ｶｳﾝﾀｰ/ｷｬﾋﾞﾈｯﾄ
  6
EXLTYPE3
 62
     6
100
AcDbLine
 10
2111.0
 20
1550.0
 30
0.0
 11
2111.0
 21
690.0
 31
0.0
  0
LINE
  5
1A9
100
AcDbEntity
  8
ｶｳﾝﾀｰ/ｷｬﾋﾞﾈｯﾄ
  6
CONTINUOUS
 62
     6
100
AcDbLine
 10
2216.0
 20
1277.5
 30
0.0
 11
2216.0
 21
1252.5
 31
0.0
  0
LINE
  5
1AA
100
AcDbEntity
  8
ｶｳﾝﾀｰ/ｷｬﾋﾞﾈｯﾄ
  6
CONTINUOUS
 62
     6
100
AcDbLine
 10
2228.5
 20
1265.0
 30
0.0
 11
2203.5
 21
1265.0
 31
0.0
  0
LINE
  5
1AB
100
AcDbEntity
  8
ｶｳﾝﾀｰ/ｷｬﾋﾞﾈｯﾄ
  6
CONTINUOUS
 62
     6
100
AcDbLine
 10
2006.0
 20
1277.5
 30
0.0
 11
2006.0
 21
1252.5
 31
0.0
  0
LINE
  5
1AC
100
AcDbEntity
  8
ｶｳﾝﾀｰ/ｷｬﾋﾞﾈｯﾄ
  6
CONTINUOUS
 62
     6
100
AcDbLine
 10
1993.5
 20
1265.0
 30
0.0
 11
2018.5
 21
1265.0
 31
0.0
  0
CIRCLE
  5
1AD
100
AcDbEntity
  8
ｶｳﾝﾀｰ/ｷｬﾋﾞﾈｯﾄ
  6
EXLTYPE2
 62
     6
100
AcDbCircle
 10
2006.0
 20
1265.0
 30
0.0
 40
2.5
  0
CIRCLE
  5
1AE
100
AcDbEntity
  8
ｶｳﾝﾀｰ/ｷｬﾋﾞﾈｯﾄ
  6
EXLTYPE2
 62
     6
100
AcDbCircle
 10
2216.0
 20
1265.0
 30
0.0
 40
2.5
  0
LINE
  5
1AF
100
AcDbEntity
  8
ｶｳﾝﾀｰ/ｷｬﾋﾞﾈｯﾄ
  6
EXLTYPE3
 62
     6
100
AcDbLine
 10
1948.0
 20
1336.0
 30
0.0
 11
2274.0
 21
1078.0
 31
0.0
  0
LINE
  5
1B0
100
AcDbEntity
  8
ｶｳﾝﾀｰ/ｷｬﾋﾞﾈｯﾄ
  6
EXLTYPE3
 62
     6
100
AcDbLine
 10
2274.0
 20
1078.0
 30
0.0
 11
1948.0
 21
820.0
 31
0.0
  0
LINE
  5
1B1
100
AcDbEntity
  8
ｶｳﾝﾀｰ/ｷｬﾋﾞﾈｯﾄ
  6
CONTINUOUS
 62
     2
100
AcDbLine
 10
2276.0
 20
1360.0
 30
0.0
 11
2285.985175
 21
1475.655939
 31
0.0
  0
ARC
  5
1B2
100
AcDbEntity
  8
ｶｳﾝﾀｰ/ｷｬﾋﾞﾈｯﾄ
  6
CONTINUOUS
 62
     2
100
AcDbCircle
 10
2282.0
 20
1476.0
 30
0.0
 40
4.0
100
AcDbArc
 50
355.065595
 51
90.0
  0
ARC
  5
1B3
100
AcDbEntity
  8
ｶｳﾝﾀｰ/ｷｬﾋﾞﾈｯﾄ
  6
CONTINUOUS
 62
     2
100
AcDbCircle
 10
1941.407281
 20
1536.0
 30
0.0
 40
4.0
100
AcDbArc
 50
90.0
 51
178.656392
  0
LINE
  5
1B4
100
AcDbEntity
  8
ｶｳﾝﾀｰ/ｷｬﾋﾞﾈｯﾄ
  6
CONTINUOUS
 62
     2
100
AcDbLine
 10
1946.0
 20
1360.0
 30
0.0
 11
1936.014825
 21
1475.655939
 31
0.0
  0
LINE
  5
1B5
100
AcDbEntity
  8
ｶｳﾝﾀｰ/ｷｬﾋﾞﾈｯﾄ
  6
CONTINUOUS
 62
     2
100
AcDbLine
 10
1936.0011
 20
1476.093793
 30
0.0
 11
1937.408381
 21
1536.093793
 31
0.0
  0
LINE
  5
1B6
100
AcDbEntity
  8
ｶｳﾝﾀｰ/ｷｬﾋﾞﾈｯﾄ
  6
CONTINUOUS
 62
     2
100
AcDbLine
 10
2285.9989
 20
1476.093793
 30
0.0
 11
2284.591619
 21
1536.093793
 31
0.0
  0
ARC
  5
1B7
100
AcDbEntity
  8
ｶｳﾝﾀｰ/ｷｬﾋﾞﾈｯﾄ
  6
CONTINUOUS
 62
     2
100
AcDbCircle
 10
2280.592719
 20
1536.0
 30
0.0
 40
4.0
100
AcDbArc
 50
1.343608
 51
90.0
  0
LINE
  5
1B8
100
AcDbEntity
  8
ｶｳﾝﾀｰ/ｷｬﾋﾞﾈｯﾄ
  6
CONTINUOUS
 62
     2
100
AcDbLine
 10
1940.0
 20
1480.0
 30
0.0
 11
2282.0
 21
1480.0
 31
0.0
  0
ARC
  5
1B9
100
AcDbEntity
  8
ｶｳﾝﾀｰ/ｷｬﾋﾞﾈｯﾄ
  6
CONTINUOUS
 62
     2
100
AcDbCircle
 10
1940.0
 20
1476.0
 30
0.0
 40
4.0
100
AcDbArc
 50
90.0
 51
184.934405
  0
LINE
  5
1BA
100
AcDbEntity
  8
ｶｳﾝﾀｰ/ｷｬﾋﾞﾈｯﾄ
  6
CONTINUOUS
 62
     6
100
AcDbLine
 10
2055.0
 20
670.0
 30
0.0
 11
2087.0
 21
670.0
 31
0.0
  0
LINE
  5
1BB
100
AcDbEntity
  8
ｶｳﾝﾀｰ/ｷｬﾋﾞﾈｯﾄ
  6
CONTINUOUS
 62
     6
100
AcDbLine
 10
2196.0
 20
693.0
 30
0.0
 11
2216.0
 21
693.0
 31
0.0
  0
CIRCLE
  5
1BC
100
AcDbEntity
  8
ｶｳﾝﾀｰ/ｷｬﾋﾞﾈｯﾄ
  6
CONTINUOUS
 62
     6
100
AcDbCircle
 10
2036.0
 20
1100.0
 30
0.0
 40
16.0
  0
LINE
  5
1BD
100
AcDbEntity
  8
ｶｳﾝﾀｰ/ｷｬﾋﾞﾈｯﾄ
  6
CONTINUOUS
 62
     6
100
AcDbLine
 10
2036.0
 20
1126.0
 30
0.0
 11
2036.0
 21
1074.0
 31
0.0
  0
LINE
  5
1BE
100
AcDbEntity
  8
ｶｳﾝﾀｰ/ｷｬﾋﾞﾈｯﾄ
  6
CONTINUOUS
 62
     6
100
AcDbLine
 10
2010.0
 20
1100.0
 30
0.0
 11
2062.0
 21
1100.0
 31
0.0
  0
LINE
  5
1BF
100
AcDbEntity
  8
ｶｳﾝﾀｰ/ｷｬﾋﾞﾈｯﾄ
  6
CONTINUOUS
 62
     6
100
AcDbLine
 10
1951.5
 20
1515.0
 30
0.0
 11
1973.5
 21
1515.0
 31
0.0
  0
LINE
  5
1C0
100
AcDbEntity
  8
ｶｳﾝﾀｰ/ｷｬﾋﾞﾈｯﾄ
  6
CONTINUOUS
 62
     6
100
AcDbLine
 10
1962.5
 20
1504.0
 30
0.0
 11
1962.5
 21
1526.0
 31
0.0
  0
CIRCLE
  5
1C1
100
AcDbEntity
  8
ｶｳﾝﾀｰ/ｷｬﾋﾞﾈｯﾄ
  6
CONTINUOUS
 62
     2
100
AcDbCircle
 10
1962.5
 20
1515.0
 30
0.0
 40
11.5
  0
LINE
  5
1C2
100
AcDbEntity
  8
ｶｳﾝﾀｰ/ｷｬﾋﾞﾈｯﾄ
  6
CONTINUOUS
 62
     6
100
AcDbLine
 10
2270.5
 20
1515.0
 30
0.0
 11
2248.5
 21
1515.0
 31
0.0
  0
LINE
  5
1C3
100
AcDbEntity
  8
ｶｳﾝﾀｰ/ｷｬﾋﾞﾈｯﾄ
  6
CONTINUOUS
 62
     6
100
AcDbLine
 10
2259.5
 20
1504.0
 30
0.0
 11
2259.5
 21
1526.0
 31
0.0
  0
CIRCLE
  5
1C4
100
AcDbEntity
  8
ｶｳﾝﾀｰ/ｷｬﾋﾞﾈｯﾄ
  6
CONTINUOUS
 62
     2
100
AcDbCircle
 10
2259.5
 20
1515.0
 30
0.0
 40
11.5
  0
LINE
  5
1C5
100
AcDbEntity
  8
ｶｳﾝﾀｰ/ｷｬﾋﾞﾈｯﾄ
  6
EXLTYPE3
 62
     6
100
AcDbLine
 10
2071.0
 20
790.0
 30
0.0
 11
2071.0
 21
660.0
 31
0.0
  0
LINE
  5
1C6
100
AcDbEntity
  8
ｶｳﾝﾀｰ/ｷｬﾋﾞﾈｯﾄ
  6
CONTINUOUS
 62
     6
100
AcDbLine
 10
2055.0
 20
790.0
 30
0.0
 11
2055.0
 21
670.0
 31
0.0
  0
LINE
  5
1C7
100
AcDbEntity
  8
ｶｳﾝﾀｰ/ｷｬﾋﾞﾈｯﾄ
  6
CONTINUOUS
 62
     6
100
AcDbLine
 10
2087.0
 20
790.0
 30
0.0
 11
2087.0
 21
670.0
 31
0.0
  0
LINE
  5
1C8
100
AcDbEntity
  8
ｶｳﾝﾀｰ/ｷｬﾋﾞﾈｯﾄ
  6
CONTINUOUS
 62
     6
100
AcDbLine
 10
2216.0
 20
693.0
 30
0.0
 11
2216.0
 21
790.0
 31
0.0
  0
LINE
  5
1C9
100
AcDbEntity
  8
ｶｳﾝﾀｰ/ｷｬﾋﾞﾈｯﾄ
  6
CONTINUOUS
 62
     6
100
AcDbLine
 10
2196.0
 20
693.0
 30
0.0
 11
2196.0
 21
790.0
 31
0.0
  0
LINE
  5
1CA
100
AcDbEntity
  8
ｶｳﾝﾀｰ/ｷｬﾋﾞﾈｯﾄ
  6
EXLTYPE3
 62
     6
100
AcDbLine
 10
2206.0
 20
790.0
 30
0.0
 11
2206.0
 21
683.0
 31
0.0
  0
CIRCLE
  5
1CB
100
AcDbEntity
  8
ｶｳﾝﾀｰ/ｷｬﾋﾞﾈｯﾄ
  6
CONTINUOUS
 62
     2
100
AcDbCircle
 10
2086.0
 20
2308.0
 30
0.0
 40
30.5
  0
CIRCLE
  5
1CC
100
AcDbEntity
  8
ｶｳﾝﾀｰ/ｷｬﾋﾞﾈｯﾄ
  6
CONTINUOUS
 62
     2
100
AcDbCircle
 10
2086.0
 20
2308.0
 30
0.0
 40
20.5
  0
LINE
  5
1CD
100
AcDbEntity
  8
ｶｳﾝﾀｰ/ｷｬﾋﾞﾈｯﾄ
  6
CONTINUOUS
 62
     2
100
AcDbLine
 10
2006.0
 20
2342.631825
 30
0.0
 11
2006.0
 21
2258.0
 31
0.0
  0
ARC
  5
1CE
100
AcDbEntity
  8
ｶｳﾝﾀｰ/ｷｬﾋﾞﾈｯﾄ
  6
CONTINUOUS
 62
     2
100
AcDbCircle
 10
2016.0
 20
2342.631825
 30
0.0
 40
10.0
100
AcDbArc
 50
90.0
 51
180.0
  0
LINE
  5
1CF
100
AcDbEntity
  8
ｶｳﾝﾀｰ/ｷｬﾋﾞﾈｯﾄ
  6
CONTINUOUS
 62
     2
100
AcDbLine
 10
2126.0
 20
2352.631825
 30
0.0
 11
2016.0
 21
2352.631825
 31
0.0
  0
ARC
  5
1D0
100
AcDbEntity
  8
ｶｳﾝﾀｰ/ｷｬﾋﾞﾈｯﾄ
  6
CONTINUOUS
 62
     2
100
AcDbCircle
 10
2126.0
 20
2342.631825
 30
0.0
 40
10.0
100
AcDbArc
 50
0.0
 51
90.0
  0
ARC
  5
1D1
100
AcDbEntity
  8
ｶｳﾝﾀｰ/ｷｬﾋﾞﾈｯﾄ
  6
CONTINUOUS
 62
     2
100
AcDbCircle
 10
2126.0
 20
2258.0
 30
0.0
 40
10.0
100
AcDbArc
 50
270.0
 51
0.0
  0
LINE
  5
1D2
100
AcDbEntity
  8
ｶｳﾝﾀｰ/ｷｬﾋﾞﾈｯﾄ
  6
CONTINUOUS
 62
     2
100
AcDbLine
 10
2126.0
 20
2248.0
 30
0.0
 11
2016.0
 21
2248.0
 31
0.0
  0
ARC
  5
1D3
100
AcDbEntity
  8
ｶｳﾝﾀｰ/ｷｬﾋﾞﾈｯﾄ
  6
CONTINUOUS
 62
     2
100
AcDbCircle
 10
2016.0
 20
2258.0
 30
0.0
 40
10.0
100
AcDbArc
 50
180.0
 51
270.0
  0
LINE
  5
1D4
100
AcDbEntity
  8
ｶｳﾝﾀｰ/ｷｬﾋﾞﾈｯﾄ
  6
CONTINUOUS
 62
     2
100
AcDbLine
 10
1935.0
 20
2367.0
 30
0.0
 11
1935.0
 21
2383.0
 31
0.0
  0
ARC
  5
1D5
100
AcDbEntity
  8
ｶｳﾝﾀｰ/ｷｬﾋﾞﾈｯﾄ
  6
CONTINUOUS
 62
     2
100
AcDbCircle
 10
1937.5
 20
2367.0
 30
0.0
 40
4.0
100
AcDbArc
 50
180.0
 51
270.0
  0
ARC
  5
1D6
100
AcDbEntity
  8
ｶｳﾝﾀｰ/ｷｬﾋﾞﾈｯﾄ
  6
CONTINUOUS
 62
     2
100
AcDbCircle
 10
1939.0
 20
2367.0
 30
0.0
 40
4.0
100
AcDbArc
 50
180.0
 51
270.0
  0
LINE
  5
1D7
100
AcDbEntity
  8
ｶｳﾝﾀｰ/ｷｬﾋﾞﾈｯﾄ
  6
CONTINUOUS
 62
     2
100
AcDbLine
 10
2287.0
 20
2367.0
 30
0.0
 11
2287.0
 21
2383.0
 31
0.0
  0
ARC
  5
1D8
100
AcDbEntity
  8
ｶｳﾝﾀｰ/ｷｬﾋﾞﾈｯﾄ
  6
CONTINUOUS
 62
     2
100
AcDbCircle
 10
2284.5
 20
2367.0
 30
0.0
 40
4.0
100
AcDbArc
 50
270.0
 51
0.0
  0
ARC
  5
1D9
100
AcDbEntity
  8
ｶｳﾝﾀｰ/ｷｬﾋﾞﾈｯﾄ
  6
CONTINUOUS
 62
     2
100
AcDbCircle
 10
2283.0
 20
2367.0
 30
0.0
 40
4.0
100
AcDbArc
 50
270.0
 51
0.0
  0
LINE
  5
1DA
100
AcDbEntity
  8
ｶｳﾝﾀｰ/ｷｬﾋﾞﾈｯﾄ
  6
CONTINUOUS
 62
     2
100
AcDbLine
 10
1937.5
 20
2363.0
 30
0.0
 11
2284.5
 21
2363.0
 31
0.0
  0
LINE
  5
1DB
100
AcDbEntity
  8
ｶｳﾝﾀｰ/ｷｬﾋﾞﾈｯﾄ
  6
CONTINUOUS
 62
     2
100
AcDbLine
 10
1933.5
 20
2383.0
 30
0.0
 11
1933.5
 21
2211.117584
 31
0.0
  0
LINE
  5
1DC
100
AcDbEntity
  8
ｶｳﾝﾀｰ/ｷｬﾋﾞﾈｯﾄ
  6
CONTINUOUS
 62
     2
100
AcDbLine
 10
2288.5
 20
2383.0
 30
0.0
 11
2288.5
 21
2211.117584
 31
0.0
  0
ARC
  5
1DD
100
AcDbEntity
  8
ｶｳﾝﾀｰ/ｷｬﾋﾞﾈｯﾄ
  6
CONTINUOUS
 62
     2
100
AcDbCircle
 10
1951.5
 20
2348.804391
 30
0.0
 40
10.0
100
AcDbArc
 50
90.0
 51
180.0
  0
LINE
  5
1DE
100
AcDbEntity
  8
ｶｳﾝﾀｰ/ｷｬﾋﾞﾈｯﾄ
  6
CONTINUOUS
 62
     2
100
AcDbLine
 10
1941.5
 20
2348.804391
 30
0.0
 11
1941.5
 21
2211.117584
 31
0.0
  0
ARC
  5
1DF
100
AcDbEntity
  8
ｶｳﾝﾀｰ/ｷｬﾋﾞﾈｯﾄ
  6
CONTINUOUS
 62
     2
100
AcDbCircle
 10
1953.5
 20
2211.117584
 30
0.0
 40
12.0
100
AcDbArc
 50
180.0
 51
267.73205
  0
ARC
  5
1E0
100
AcDbEntity
  8
ｶｳﾝﾀｰ/ｷｬﾋﾞﾈｯﾄ
  6
CONTINUOUS
 62
     2
100
AcDbCircle
 10
1953.5
 20
2211.117584
 30
0.0
 40
20.0
100
AcDbArc
 50
180.0
 51
267.73205
  0
ARC
  5
1E1
100
AcDbEntity
  8
ｶｳﾝﾀｰ/ｷｬﾋﾞﾈｯﾄ
  6
CONTINUOUS
 62
     2
100
AcDbCircle
 10
2111.0
 20
6188.0
 30
0.0
 40
3992.0
100
AcDbArc
 50
267.73205
 51
272.26795
  0
ARC
  5
1E2
100
AcDbEntity
  8
ｶｳﾝﾀｰ/ｷｬﾋﾞﾈｯﾄ
  6
CONTINUOUS
 62
     2
100
AcDbCircle
 10
2111.0
 20
6188.0
 30
0.0
 40
4000.0
100
AcDbArc
 50
267.73205
 51
272.26795
  0
ARC
  5
1E3
100
AcDbEntity
  8
ｶｳﾝﾀｰ/ｷｬﾋﾞﾈｯﾄ
  6
CONTINUOUS
 62
     2
100
AcDbCircle
 10
2268.5
 20
2211.117584
 30
0.0
 40
12.0
100
AcDbArc
 50
272.26795
 51
0.0
  0
ARC
  5
1E4
100
AcDbEntity
  8
ｶｳﾝﾀｰ/ｷｬﾋﾞﾈｯﾄ
  6
CONTINUOUS
 62
     2
100
AcDbCircle
 10
2268.5
 20
2211.117584
 30
0.0
 40
20.0
100
AcDbArc
 50
272.26795
 51
0.0
  0
ARC
  5
1E5
100
AcDbEntity
  8
ｶｳﾝﾀｰ/ｷｬﾋﾞﾈｯﾄ
  6
CONTINUOUS
 62
     2
100
AcDbCircle
 10
2172.0
 20
2206.467255
 30
0.0
 40
10.0
100
AcDbArc
 50
270.877745
 51
0.0
  0
ARC
  5
1E6
100
AcDbEntity
  8
ｶｳﾝﾀｰ/ｷｬﾋﾞﾈｯﾄ
  6
CONTINUOUS
 62
     2
100
AcDbCircle
 10
2172.0
 20
2348.804391
 30
0.0
 40
10.0
100
AcDbArc
 50
0.0
 51
90.0
  0
ARC
  5
1E7
100
AcDbEntity
  8
ｶｳﾝﾀｰ/ｷｬﾋﾞﾈｯﾄ
  6
CONTINUOUS
 62
     2
100
AcDbCircle
 10
2270.5
 20
2348.804391
 30
0.0
 40
10.0
100
AcDbArc
 50
0.0
 51
90.0
  0
LINE
  5
1E8
100
AcDbEntity
  8
ｶｳﾝﾀｰ/ｷｬﾋﾞﾈｯﾄ
  6
CONTINUOUS
 62
     2
100
AcDbLine
 10
2280.5
 20
2348.804391
 30
0.0
 11
2280.5
 21
2211.117584
 31
0.0
  0
LINE
  5
1E9
100
AcDbEntity
  8
ｶｳﾝﾀｰ/ｷｬﾋﾞﾈｯﾄ
  6
EXLTYPE3
 62
     6
100
AcDbLine
 10
2038.0
 20
2308.0
 30
0.0
 11
2297.0
 21
2308.0
 31
0.0
  0
LINE
  5
1EA
100
AcDbEntity
  8
ｶｳﾝﾀｰ/ｷｬﾋﾞﾈｯﾄ
  6
EXLTYPE3
 62
     6
100
AcDbLine
 10
2086.0
 20
2352.631825
 30
0.0
 11
2086.0
 21
2248.0
 31
0.0
  0
LINE
  5
1EB
100
AcDbEntity
  8
ｶｳﾝﾀｰ/ｷｬﾋﾞﾈｯﾄ
  6
EXLTYPE3
 62
     6
100
AcDbLine
 10
2111.0
 20
2394.77232
 30
0.0
 11
2111.0
 21
2174.0
 31
0.0
  0
LINE
  5
1EC
100
AcDbEntity
  8
ｶｳﾝﾀｰ/ｷｬﾋﾞﾈｯﾄ
  6
CONTINUOUS
 62
     6
100
AcDbLine
 10
1941.5
 20
2211.117584
 30
0.0
 11
2006.0
 21
2258.0
 31
0.0
  0
LINE
  5
1ED
100
AcDbEntity
  8
ｶｳﾝﾀｰ/ｷｬﾋﾞﾈｯﾄ
  6
CONTINUOUS
 62
     6
100
AcDbLine
 10
1953.025126
 20
2199.126984
 30
0.0
 11
2016.0
 21
2248.0
 31
0.0
  0
LINE
  5
1EE
100
AcDbEntity
  8
ｶｳﾝﾀｰ/ｷｬﾋﾞﾈｯﾄ
  6
CONTINUOUS
 62
     6
100
AcDbLine
 10
2182.0
 20
2206.467255
 30
0.0
 11
2136.0
 21
2258.0
 31
0.0
  0
LINE
  5
1EF
100
AcDbEntity
  8
ｶｳﾝﾀｰ/ｷｬﾋﾞﾈｯﾄ
  6
CONTINUOUS
 62
     6
100
AcDbLine
 10
2126.0
 20
2248.0
 30
0.0
 11
2172.153189
 21
2196.468428
 31
0.0
  0
LINE
  5
1F0
100
AcDbEntity
  8
ｶｳﾝﾀｰ/ｷｬﾋﾞﾈｯﾄ
  6
CONTINUOUS
 62
     6
100
AcDbLine
 10
2182.0
 20
2348.804391
 30
0.0
 11
2136.0
 21
2342.631825
 31
0.0
  0
LINE
  5
1F1
100
AcDbEntity
  8
ｶｳﾝﾀｰ/ｷｬﾋﾞﾈｯﾄ
  6
CONTINUOUS
 62
     6
100
AcDbLine
 10
2126.0
 20
2352.631825
 30
0.0
 11
2172.0
 21
2358.804391
 31
0.0
  0
LINE
  5
1F2
100
AcDbEntity
  8
ｶｳﾝﾀｰ/ｷｬﾋﾞﾈｯﾄ
  6
CONTINUOUS
 62
     6
100
AcDbLine
 10
1941.5
 20
2348.804391
 30
0.0
 11
2006.0
 21
2342.631825
 31
0.0
  0
LINE
  5
1F3
100
AcDbEntity
  8
ｶｳﾝﾀｰ/ｷｬﾋﾞﾈｯﾄ
  6
CONTINUOUS
 62
     6
100
AcDbLine
 10
1951.5
 20
2358.804391
 30
0.0
 11
2016.0
 21
2352.631825
 31
0.0
  0
LINE
  5
1F4
100
AcDbEntity
  8
ｶｳﾝﾀｰ/ｷｬﾋﾞﾈｯﾄ
  6
CONTINUOUS
 62
     6
100
AcDbLine
 10
1960.535627
 20
2383.0
 30
0.0
 11
1962.5
 21
2424.25183
 31
0.0
  0
LINE
  5
1F5
100
AcDbEntity
  8
ｶｳﾝﾀｰ/ｷｬﾋﾞﾈｯﾄ
  6
CONTINUOUS
 62
     6
100
AcDbLine
 10
1964.464373
 20
2383.0
 30
0.0
 11
1962.5
 21
2424.25183
 31
0.0
  0
LINE
  5
1F6
100
AcDbEntity
  8
ｶｳﾝﾀｰ/ｷｬﾋﾞﾈｯﾄ
  6
CONTINUOUS
 62
     6
100
AcDbLine
 10
1962.5
 20
2356.25183
 30
0.0
 11
1962.5
 21
2434.25183
 31
0.0
  0
LINE
  5
1F7
100
AcDbEntity
  8
ｶｳﾝﾀｰ/ｷｬﾋﾞﾈｯﾄ
  6
CONTINUOUS
 62
     6
100
AcDbLine
 10
2257.535627
 20
2383.0
 30
0.0
 11
2259.5
 21
2424.25183
 31
0.0
  0
LINE
  5
1F8
100
AcDbEntity
  8
ｶｳﾝﾀｰ/ｷｬﾋﾞﾈｯﾄ
  6
CONTINUOUS
 62
     6
100
AcDbLine
 10
2261.464373
 20
2383.0
 30
0.0
 11
2259.5
 21
2424.25183
 31
0.0
  0
LINE
  5
1F9
100
AcDbEntity
  8
ｶｳﾝﾀｰ/ｷｬﾋﾞﾈｯﾄ
  6
CONTINUOUS
 62
     6
100
AcDbLine
 10
2259.5
 20
2356.25183
 30
0.0
 11
2259.5
 21
2434.25183
 31
0.0
  0
LINE
  5
1FA
100
AcDbEntity
  8
ｶｳﾝﾀｰ/ｷｬﾋﾞﾈｯﾄ
  6
CONTINUOUS
 62
     6
100
AcDbLine
 10
2004.0
 20
2383.0
 30
0.0
 11
2006.0
 21
2415.0
 31
0.0
  0
LINE
  5
1FB
100
AcDbEntity
  8
ｶｳﾝﾀｰ/ｷｬﾋﾞﾈｯﾄ
  6
CONTINUOUS
 62
     6
100
AcDbLine
 10
2008.0
 20
2383.0
 30
0.0
 11
2006.0
 21
2415.0
 31
0.0
  0
LINE
  5
1FC
100
AcDbEntity
  8
ｶｳﾝﾀｰ/ｷｬﾋﾞﾈｯﾄ
  6
CONTINUOUS
 62
     6
100
AcDbLine
 10
2006.0
 20
2373.0
 30
0.0
 11
2006.0
 21
2425.0
 31
0.0
  0
LINE
  5
1FD
100
AcDbEntity
  8
ｶｳﾝﾀｰ/ｷｬﾋﾞﾈｯﾄ
  6
CONTINUOUS
 62
     6
100
AcDbLine
 10
2214.0
 20
2383.0
 30
0.0
 11
2216.0
 21
2415.0
 31
0.0
  0
LINE
  5
1FE
100
AcDbEntity
  8
ｶｳﾝﾀｰ/ｷｬﾋﾞﾈｯﾄ
  6
CONTINUOUS
 62
     6
100
AcDbLine
 10
2218.0
 20
2383.0
 30
0.0
 11
2216.0
 21
2415.0
 31
0.0
  0
LINE
  5
1FF
100
AcDbEntity
  8
ｶｳﾝﾀｰ/ｷｬﾋﾞﾈｯﾄ
  6
CONTINUOUS
 62
     6
100
AcDbLine
 10
2216.0
 20
2373.0
 30
0.0
 11
2216.0
 21
2425.0
 31
0.0
  0
LINE
  5
200
100
AcDbEntity
  8
ｶｳﾝﾀｰ/ｷｬﾋﾞﾈｯﾄ
  6
CONTINUOUS
 62
     6
100
AcDbLine
 10
2020.0
 20
2413.0
 30
0.0
 11
2052.0
 21
2413.0
 31
0.0
  0
LINE
  5
201
100
AcDbEntity
  8
ｶｳﾝﾀｰ/ｷｬﾋﾞﾈｯﾄ
  6
CONTINUOUS
 62
     6
100
AcDbLine
 10
2020.0
 20
2383.0
 30
0.0
 11
2020.0
 21
2413.0
 31
0.0
  0
LINE
  5
202
100
AcDbEntity
  8
ｶｳﾝﾀｰ/ｷｬﾋﾞﾈｯﾄ
  6
CONTINUOUS
 62
     6
100
AcDbLine
 10
2052.0
 20
2383.0
 30
0.0
 11
2052.0
 21
2413.0
 31
0.0
  0
LINE
  5
203
100
AcDbEntity
  8
ｶｳﾝﾀｰ/ｷｬﾋﾞﾈｯﾄ
  6
CONTINUOUS
 62
     6
100
AcDbLine
 10
2196.0
 20
2390.0
 30
0.0
 11
2196.0
 21
2383.0
 31
0.0
  0
LINE
  5
204
100
AcDbEntity
  8
ｶｳﾝﾀｰ/ｷｬﾋﾞﾈｯﾄ
  6
CONTINUOUS
 62
     6
100
AcDbLine
 10
2216.0
 20
2390.0
 30
0.0
 11
2216.0
 21
2383.0
 31
0.0
  0
LINE
  5
205
100
AcDbEntity
  8
ｶｳﾝﾀｰ/ｷｬﾋﾞﾈｯﾄ
  6
CONTINUOUS
 62
     6
100
AcDbLine
 10
2214.4375
 20
2390.0
 30
0.0
 11
2196.0
 21
2390.0
 31
0.0
  0
LINE
  5
206
100
AcDbEntity
  8
ｶｳﾝﾀｰ/ｷｬﾋﾞﾈｯﾄ
  6
CONTINUOUS
 62
     2
100
AcDbLine
 10
1601.0
 20
1065.0
 30
0.0
 11
1931.0
 21
1065.0
 31
0.0
  0
LINE
  5
207
100
AcDbEntity
  8
ｶｳﾝﾀｰ/ｷｬﾋﾞﾈｯﾄ
  6
CONTINUOUS
 62
     2
100
AcDbLine
 10
1601.0
 20
1050.0
 30
0.0
 11
1931.0
 21
1050.0
 31
0.0
  0
LINE
  5
208
100
AcDbEntity
  8
ｶｳﾝﾀｰ/ｷｬﾋﾞﾈｯﾄ
  6
CONTINUOUS
 62
     2
100
AcDbLine
 10
1601.0
 20
845.0
 30
0.0
 11
1931.0
 21
845.0
 31
0.0
  0
LINE
  5
209
100
AcDbEntity
  8
ｶｳﾝﾀｰ/ｷｬﾋﾞﾈｯﾄ
  6
CONTINUOUS
 62
     2
100
AcDbLine
 10
1586.0
 20
830.0
 30
0.0
 11
1946.0
 21
830.0
 31
0.0
  0
LINE
  5
20A
100
AcDbEntity
  8
ｶｳﾝﾀｰ/ｷｬﾋﾞﾈｯﾄ
  6
CONTINUOUS
 62
     2
100
AcDbLine
 10
1931.0
 20
830.0
 30
0.0
 11
1931.0
 21
1340.0
 31
0.0
  0
LINE
  5
20B
100
AcDbEntity
  8
ｶｳﾝﾀｰ/ｷｬﾋﾞﾈｯﾄ
  6
CONTINUOUS
 62
     2
100
AcDbLine
 10
1601.0
 20
1324.5
 30
0.0
 11
1931.0
 21
1324.5
 31
0.0
  0
CIRCLE
  5
20C
100
AcDbEntity
  8
ｶｳﾝﾀｰ/ｷｬﾋﾞﾈｯﾄ
  6
CONTINUOUS
 62
     2
100
AcDbCircle
 10
1661.0
 20
1224.5
 30
0.0
 40
2.5
  0
LINE
  5
20D
100
AcDbEntity
  8
ｶｳﾝﾀｰ/ｷｬﾋﾞﾈｯﾄ
  6
CONTINUOUS
 62
     6
100
AcDbLine
 10
1661.0
 20
1237.0
 30
0.0
 11
1661.0
 21
1212.0
 31
0.0
  0
LINE
  5
20E
100
AcDbEntity
  8
ｶｳﾝﾀｰ/ｷｬﾋﾞﾈｯﾄ
  6
CONTINUOUS
 62
     6
100
AcDbLine
 10
1648.5
 20
1224.5
 30
0.0
 11
1673.5
 21
1224.5
 31
0.0
  0
CIRCLE
  5
20F
100
AcDbEntity
  8
ｶｳﾝﾀｰ/ｷｬﾋﾞﾈｯﾄ
  6
CONTINUOUS
 62
     2
100
AcDbCircle
 10
1871.0
 20
1224.5
 30
0.0
 40
2.5
  0
LINE
  5
210
100
AcDbEntity
  8
ｶｳﾝﾀｰ/ｷｬﾋﾞﾈｯﾄ
  6
CONTINUOUS
 62
     6
100
AcDbLine
 10
1871.0
 20
1237.0
 30
0.0
 11
1871.0
 21
1212.0
 31
0.0
  0
LINE
  5
211
100
AcDbEntity
  8
ｶｳﾝﾀｰ/ｷｬﾋﾞﾈｯﾄ
  6
CONTINUOUS
 62
     6
100
AcDbLine
 10
1858.5
 20
1224.5
 30
0.0
 11
1883.5
 21
1224.5
 31
0.0
  0
LINE
  5
212
100
AcDbEntity
  8
ｶｳﾝﾀｰ/ｷｬﾋﾞﾈｯﾄ
  6
CONTINUOUS
 62
     2
100
AcDbLine
 10
1750.025
 20
1316.3
 30
0.0
 11
1621.975
 21
1316.3
 31
0.0
  0
ARC
  5
213
100
AcDbEntity
  8
ｶｳﾝﾀｰ/ｷｬﾋﾞﾈｯﾄ
  6
CONTINUOUS
 62
     2
100
AcDbCircle
 10
1609.955
 20
1202.5
 30
0.0
 40
5.0
100
AcDbArc
 50
180.535
 51
270.0
  0
ARC
  5
214
100
AcDbEntity
  8
ｶｳﾝﾀｰ/ｷｬﾋﾞﾈｯﾄ
  6
CONTINUOUS
 62
     2
100
AcDbCircle
 10
1616.05
 20
1202.5
 30
0.0
 40
5.0
100
AcDbArc
 50
270.0
 51
359.434
  0
LINE
  5
215
100
AcDbEntity
  8
ｶｳﾝﾀｰ/ｷｬﾋﾞﾈｯﾄ
  6
CONTINUOUS
 62
     2
100
AcDbLine
 10
1609.955
 20
1197.5
 30
0.0
 11
1616.05
 21
1197.5
 31
0.0
  0
LINE
  5
216
100
AcDbEntity
  8
ｶｳﾝﾀｰ/ｷｬﾋﾞﾈｯﾄ
  6
CONTINUOUS
 62
     2
100
AcDbLine
 10
1621.05
 20
1202.45
 30
0.0
 11
1621.975
 21
1316.3
 31
0.0
  0
LINE
  5
217
100
AcDbEntity
  8
ｶｳﾝﾀｰ/ｷｬﾋﾞﾈｯﾄ
  6
CONTINUOUS
 62
     2
100
AcDbLine
 10
1750.635
 20
1241.8
 30
0.0
 11
1621.37
 21
1241.8
 31
0.0
  0
ARC
  5
218
100
AcDbEntity
  8
ｶｳﾝﾀｰ/ｷｬﾋﾞﾈｯﾄ
  6
CONTINUOUS
 62
     2
100
AcDbCircle
 10
1723.0
 20
1231.975
 30
0.0
 40
2.0
100
AcDbArc
 50
180.0
 51
259.875
  0
ARC
  5
219
100
AcDbEntity
  8
ｶｳﾝﾀｰ/ｷｬﾋﾞﾈｯﾄ
  6
CONTINUOUS
 62
     2
100
AcDbCircle
 10
1723.0
 20
1235.3
 30
0.0
 40
2.0
100
AcDbArc
 50
90.0
 51
180.0
  0
LINE
  5
21A
100
AcDbEntity
  8
ｶｳﾝﾀｰ/ｷｬﾋﾞﾈｯﾄ
  6
CONTINUOUS
 62
     2
100
AcDbLine
 10
1722.65
 20
1230.005
 30
0.0
 11
1750.83
 21
1225.33
 31
0.0
  0
LINE
  5
21B
100
AcDbEntity
  8
ｶｳﾝﾀｰ/ｷｬﾋﾞﾈｯﾄ
  6
CONTINUOUS
 62
     2
100
AcDbLine
 10
1721.0
 20
1235.3
 30
0.0
 11
1721.0
 21
1231.975
 31
0.0
  0
LINE
  5
21C
100
AcDbEntity
  8
ｶｳﾝﾀｰ/ｷｬﾋﾞﾈｯﾄ
  6
CONTINUOUS
 62
     2
100
AcDbLine
 10
1750.67
 20
1237.3
 30
0.0
 11
1723.0
 21
1237.3
 31
0.0
  0
ARC
  5
21D
100
AcDbEntity
  8
ｶｳﾝﾀｰ/ｷｬﾋﾞﾈｯﾄ
  6
CONTINUOUS
 62
     2
100
AcDbCircle
 10
1649.0
 20
1231.975
 30
0.0
 40
2.0
100
AcDbArc
 50
280.125
 51
0.0
  0
ARC
  5
21E
100
AcDbEntity
  8
ｶｳﾝﾀｰ/ｷｬﾋﾞﾈｯﾄ
  6
CONTINUOUS
 62
     2
100
AcDbCircle
 10
1649.0
 20
1235.3
 30
0.0
 40
2.0
100
AcDbArc
 50
0.0
 51
90.0
  0
LINE
  5
21F
100
AcDbEntity
  8
ｶｳﾝﾀｰ/ｷｬﾋﾞﾈｯﾄ
  6
CONTINUOUS
 62
     2
100
AcDbLine
 10
1649.355
 20
1230.005
 30
0.0
 11
1621.175
 21
1225.33
 31
0.0
  0
LINE
  5
220
100
AcDbEntity
  8
ｶｳﾝﾀｰ/ｷｬﾋﾞﾈｯﾄ
  6
CONTINUOUS
 62
     2
100
AcDbLine
 10
1651.0
 20
1235.3
 30
0.0
 11
1651.0
 21
1231.975
 31
0.0
  0
LINE
  5
221
100
AcDbEntity
  8
ｶｳﾝﾀｰ/ｷｬﾋﾞﾈｯﾄ
  6
CONTINUOUS
 62
     2
100
AcDbLine
 10
1621.335
 20
1237.3
 30
0.0
 11
1649.0
 21
1237.3
 31
0.0
  0
LINE
  5
222
100
AcDbEntity
  8
ｶｳﾝﾀｰ/ｷｬﾋﾞﾈｯﾄ
  6
EXLTYPE4
 62
     6
100
AcDbLine
 10
1629.0
 20
1263.454545
 30
0.0
 11
1629.0
 21
1164.795914
 31
0.0
  0
LINE
  5
223
100
AcDbEntity
  8
ｶｳﾝﾀｰ/ｷｬﾋﾞﾈｯﾄ
  6
EXLTYPE4
 62
     6
100
AcDbLine
 10
1743.0
 20
1164.795914
 30
0.0
 11
1629.0
 21
1164.795914
 31
0.0
  0
LINE
  5
224
100
AcDbEntity
  8
ｶｳﾝﾀｰ/ｷｬﾋﾞﾈｯﾄ
  6
EXLTYPE4
 62
     6
100
AcDbLine
 10
1743.0
 20
1263.454545
 30
0.0
 11
1743.0
 21
1164.795914
 31
0.0
  0
LINE
  5
225
100
AcDbEntity
  8
ｶｳﾝﾀｰ/ｷｬﾋﾞﾈｯﾄ
  6
CONTINUOUS
 62
     2
100
AcDbLine
 10
1623.25
 20
1302.245
 30
0.0
 11
1748.75
 21
1302.245
 31
0.0
  0
LINE
  5
226
100
AcDbEntity
  8
ｶｳﾝﾀｰ/ｷｬﾋﾞﾈｯﾄ
  6
CONTINUOUS
 62
     2
100
AcDbLine
 10
1748.75
 20
1302.245
 30
0.0
 11
1748.75
 21
1266.265
 31
0.0
  0
LINE
  5
227
100
AcDbEntity
  8
ｶｳﾝﾀｰ/ｷｬﾋﾞﾈｯﾄ
  6
CONTINUOUS
 62
     2
100
AcDbLine
 10
1623.25
 20
1266.265
 30
0.0
 11
1623.25
 21
1302.245
 31
0.0
  0
LINE
  5
228
100
AcDbEntity
  8
ｶｳﾝﾀｰ/ｷｬﾋﾞﾈｯﾄ
  6
CONTINUOUS
 62
     2
100
AcDbLine
 10
1748.75
 20
1266.265
 30
0.0
 11
1623.25
 21
1266.265
 31
0.0
  0
LINE
  5
229
100
AcDbEntity
  8
ｶｳﾝﾀｰ/ｷｬﾋﾞﾈｯﾄ
  6
CONTINUOUS
 62
     6
100
AcDbLine
 10
1748.75
 20
1268.94
 30
0.0
 11
1623.25
 21
1268.94
 31
0.0
  0
LINE
  5
22A
100
AcDbEntity
  8
ｶｳﾝﾀｰ/ｷｬﾋﾞﾈｯﾄ
  6
CONTINUOUS
 62
     2
100
AcDbLine
 10
1750.954925
 20
1202.459158
 30
0.0
 11
1750.025
 21
1316.3
 31
0.0
  0
ARC
  5
22B
100
AcDbEntity
  8
ｶｳﾝﾀｰ/ｷｬﾋﾞﾈｯﾄ
  6
CONTINUOUS
 62
     2
100
AcDbCircle
 10
1755.954758
 20
1202.5
 30
0.0
 40
5.0
100
AcDbArc
 50
180.468018
 51
270.0
  0
LINE
  5
22C
100
AcDbEntity
  8
ｶｳﾝﾀｰ/ｷｬﾋﾞﾈｯﾄ
  6
CONTINUOUS
 62
     2
100
AcDbLine
 10
1781.975
 20
1316.3
 30
0.0
 11
1910.025
 21
1316.3
 31
0.0
  0
ARC
  5
22D
100
AcDbEntity
  8
ｶｳﾝﾀｰ/ｷｬﾋﾞﾈｯﾄ
  6
CONTINUOUS
 62
     2
100
AcDbCircle
 10
1922.045
 20
1202.5
 30
0.0
 40
5.0
100
AcDbArc
 50
270.0
 51
359.465
  0
ARC
  5
22E
100
AcDbEntity
  8
ｶｳﾝﾀｰ/ｷｬﾋﾞﾈｯﾄ
  6
CONTINUOUS
 62
     2
100
AcDbCircle
 10
1915.95
 20
1202.5
 30
0.0
 40
5.0
100
AcDbArc
 50
180.566
 51
270.0
  0
LINE
  5
22F
100
AcDbEntity
  8
ｶｳﾝﾀｰ/ｷｬﾋﾞﾈｯﾄ
  6
CONTINUOUS
 62
     2
100
AcDbLine
 10
1922.045
 20
1197.5
 30
0.0
 11
1915.95
 21
1197.5
 31
0.0
  0
LINE
  5
230
100
AcDbEntity
  8
ｶｳﾝﾀｰ/ｷｬﾋﾞﾈｯﾄ
  6
CONTINUOUS
 62
     2
100
AcDbLine
 10
1910.95
 20
1202.45
 30
0.0
 11
1910.025
 21
1316.3
 31
0.0
  0
LINE
  5
231
100
AcDbEntity
  8
ｶｳﾝﾀｰ/ｷｬﾋﾞﾈｯﾄ
  6
CONTINUOUS
 62
     2
100
AcDbLine
 10
1781.365
 20
1241.8
 30
0.0
 11
1910.63
 21
1241.8
 31
0.0
  0
ARC
  5
232
100
AcDbEntity
  8
ｶｳﾝﾀｰ/ｷｬﾋﾞﾈｯﾄ
  6
CONTINUOUS
 62
     2
100
AcDbCircle
 10
1809.0
 20
1231.975
 30
0.0
 40
2.0
100
AcDbArc
 50
280.125
 51
0.0
  0
ARC
  5
233
100
AcDbEntity
  8
ｶｳﾝﾀｰ/ｷｬﾋﾞﾈｯﾄ
  6
CONTINUOUS
 62
     2
100
AcDbCircle
 10
1809.0
 20
1235.3
 30
0.0
 40
2.0
100
AcDbArc
 50
0.0
 51
90.0
  0
LINE
  5
234
100
AcDbEntity
  8
ｶｳﾝﾀｰ/ｷｬﾋﾞﾈｯﾄ
  6
CONTINUOUS
 62
     2
100
AcDbLine
 10
1809.35
 20
1230.005
 30
0.0
 11
1781.17
 21
1225.33
 31
0.0
  0
LINE
  5
235
100
AcDbEntity
  8
ｶｳﾝﾀｰ/ｷｬﾋﾞﾈｯﾄ
  6
CONTINUOUS
 62
     2
100
AcDbLine
 10
1811.0
 20
1235.3
 30
0.0
 11
1811.0
 21
1231.975
 31
0.0
  0
LINE
  5
236
100
AcDbEntity
  8
ｶｳﾝﾀｰ/ｷｬﾋﾞﾈｯﾄ
  6
CONTINUOUS
 62
     2
100
AcDbLine
 10
1781.33
 20
1237.3
 30
0.0
 11
1809.0
 21
1237.3
 31
0.0
  0
ARC
  5
237
100
AcDbEntity
  8
ｶｳﾝﾀｰ/ｷｬﾋﾞﾈｯﾄ
  6
CONTINUOUS
 62
     2
100
AcDbCircle
 10
1883.0
 20
1231.975
 30
0.0
 40
2.0
100
AcDbArc
 50
180.0
 51
259.875
  0
ARC
  5
238
100
AcDbEntity
  8
ｶｳﾝﾀｰ/ｷｬﾋﾞﾈｯﾄ
  6
CONTINUOUS
 62
     2
100
AcDbCircle
 10
1883.0
 20
1235.3
 30
0.0
 40
2.0
100
AcDbArc
 50
90.0
 51
180.0
  0
LINE
  5
239
100
AcDbEntity
  8
ｶｳﾝﾀｰ/ｷｬﾋﾞﾈｯﾄ
  6
CONTINUOUS
 62
     2
100
AcDbLine
 10
1882.645
 20
1230.005
 30
0.0
 11
1910.825
 21
1225.33
 31
0.0
  0
LINE
  5
23A
100
AcDbEntity
  8
ｶｳﾝﾀｰ/ｷｬﾋﾞﾈｯﾄ
  6
CONTINUOUS
 62
     2
100
AcDbLine
 10
1881.0
 20
1235.3
 30
0.0
 11
1881.0
 21
1231.975
 31
0.0
  0
LINE
  5
23B
100
AcDbEntity
  8
ｶｳﾝﾀｰ/ｷｬﾋﾞﾈｯﾄ
  6
CONTINUOUS
 62
     2
100
AcDbLine
 10
1910.665
 20
1237.3
 30
0.0
 11
1883.0
 21
1237.3
 31
0.0
  0
LINE
  5
23C
100
AcDbEntity
  8
ｶｳﾝﾀｰ/ｷｬﾋﾞﾈｯﾄ
  6
EXLTYPE4
 62
     6
100
AcDbLine
 10
1903.0
 20
1263.454545
 30
0.0
 11
1903.0
 21
1164.795914
 31
0.0
  0
LINE
  5
23D
100
AcDbEntity
  8
ｶｳﾝﾀｰ/ｷｬﾋﾞﾈｯﾄ
  6
EXLTYPE4
 62
     6
100
AcDbLine
 10
1789.0
 20
1164.795914
 30
0.0
 11
1903.0
 21
1164.795914
 31
0.0
  0
LINE
  5
23E
100
AcDbEntity
  8
ｶｳﾝﾀｰ/ｷｬﾋﾞﾈｯﾄ
  6
EXLTYPE4
 62
     6
100
AcDbLine
 10
1789.0
 20
1263.454545
 30
0.0
 11
1789.0
 21
1164.795914
 31
0.0
  0
LINE
  5
23F
100
AcDbEntity
  8
ｶｳﾝﾀｰ/ｷｬﾋﾞﾈｯﾄ
  6
CONTINUOUS
 62
     2
100
AcDbLine
 10
1908.75
 20
1302.245
 30
0.0
 11
1783.25
 21
1302.245
 31
0.0
  0
LINE
  5
240
100
AcDbEntity
  8
ｶｳﾝﾀｰ/ｷｬﾋﾞﾈｯﾄ
  6
CONTINUOUS
 62
     2
100
AcDbLine
 10
1783.25
 20
1302.245
 30
0.0
 11
1783.25
 21
1266.265
 31
0.0
  0
LINE
  5
241
100
AcDbEntity
  8
ｶｳﾝﾀｰ/ｷｬﾋﾞﾈｯﾄ
  6
CONTINUOUS
 62
     2
100
AcDbLine
 10
1908.75
 20
1266.265
 30
0.0
 11
1908.75
 21
1302.245
 31
0.0
  0
LINE
  5
242
100
AcDbEntity
  8
ｶｳﾝﾀｰ/ｷｬﾋﾞﾈｯﾄ
  6
CONTINUOUS
 62
     2
100
AcDbLine
 10
1783.25
 20
1266.265
 30
0.0
 11
1908.75
 21
1266.265
 31
0.0
  0
LINE
  5
243
100
AcDbEntity
  8
ｶｳﾝﾀｰ/ｷｬﾋﾞﾈｯﾄ
  6
CONTINUOUS
 62
     6
100
AcDbLine
 10
1783.25
 20
1268.94
 30
0.0
 11
1908.75
 21
1268.94
 31
0.0
  0
LINE
  5
244
100
AcDbEntity
  8
ｶｳﾝﾀｰ/ｷｬﾋﾞﾈｯﾄ
  6
CONTINUOUS
 62
     2
100
AcDbLine
 10
1781.045075
 20
1202.459158
 30
0.0
 11
1781.975
 21
1316.3
 31
0.0
  0
LINE
  5
245
100
AcDbEntity
  8
ｶｳﾝﾀｰ/ｷｬﾋﾞﾈｯﾄ
  6
CONTINUOUS
 62
     2
100
AcDbLine
 10
1755.954758
 20
1197.5
 30
0.0
 11
1776.045242
 21
1197.5
 31
0.0
  0
ARC
  5
246
100
AcDbEntity
  8
ｶｳﾝﾀｰ/ｷｬﾋﾞﾈｯﾄ
  6
CONTINUOUS
 62
     2
100
AcDbCircle
 10
1776.045242
 20
1202.5
 30
0.0
 40
5.0
100
AcDbArc
 50
270.0
 51
359.531982
  0
LINE
  5
247
100
AcDbEntity
  8
ｶｳﾝﾀｰ/ｷｬﾋﾞﾈｯﾄ
  6
CONTINUOUS
 62
     2
100
AcDbLine
 10
1604.955
 20
1202.45
 30
0.0
 11
1604.0
 21
1324.5
 31
0.0
  0
LINE
  5
248
100
AcDbEntity
  8
ｶｳﾝﾀｰ/ｷｬﾋﾞﾈｯﾄ
  6
CONTINUOUS
 62
     2
100
AcDbLine
 10
1927.045
 20
1202.45
 30
0.0
 11
1928.0
 21
1324.5
 31
0.0
  0
LINE
  5
249
100
AcDbEntity
  8
ｶｳﾝﾀｰ/ｷｬﾋﾞﾈｯﾄ
  6
CONTINUOUS
 62
     2
100
AcDbLine
 10
1601.0
 20
830.0
 30
0.0
 11
1601.0
 21
865.0
 31
0.0
  0
LINE
  5
24A
100
AcDbEntity
  8
ｶｳﾝﾀｰ/ｷｬﾋﾞﾈｯﾄ
  6
CONTINUOUS
 62
     2
100
AcDbLine
 10
1586.0
 20
700.0
 30
0.0
 11
1586.0
 21
865.0
 31
0.0
  0
LINE
  5
24B
100
AcDbEntity
  8
ｶｳﾝﾀｰ/ｷｬﾋﾞﾈｯﾄ
  6
CONTINUOUS
 62
     2
100
AcDbLine
 10
1586.0
 20
1032.0
 30
0.0
 11
1586.0
 21
1340.0
 31
0.0
  0
LINE
  5
24C
100
AcDbEntity
  8
ｶｳﾝﾀｰ/ｷｬﾋﾞﾈｯﾄ
  6
CONTINUOUS
 62
     2
100
AcDbLine
 10
1601.0
 20
1032.0
 30
0.0
 11
1601.0
 21
1340.0
 31
0.0
  0
LINE
  5
24D
100
AcDbEntity
  8
ｶｳﾝﾀｰ/ｷｬﾋﾞﾈｯﾄ
  6
CONTINUOUS
 62
     6
100
AcDbLine
 10
1659.0
 20
2383.0
 30
0.0
 11
1661.0
 21
2415.0
 31
0.0
  0
LINE
  5
24E
100
AcDbEntity
  8
ｶｳﾝﾀｰ/ｷｬﾋﾞﾈｯﾄ
  6
CONTINUOUS
 62
     6
100
AcDbLine
 10
1663.0
 20
2383.0
 30
0.0
 11
1661.0
 21
2415.0
 31
0.0
  0
LINE
  5
24F
100
AcDbEntity
  8
ｶｳﾝﾀｰ/ｷｬﾋﾞﾈｯﾄ
  6
CONTINUOUS
 62
     6
100
AcDbLine
 10
1661.0
 20
2373.0
 30
0.0
 11
1661.0
 21
2425.0
 31
0.0
  0
LINE
  5
250
100
AcDbEntity
  8
ｶｳﾝﾀｰ/ｷｬﾋﾞﾈｯﾄ
  6
CONTINUOUS
 62
     6
100
AcDbLine
 10
1869.0
 20
2383.0
 30
0.0
 11
1871.0
 21
2415.0
 31
0.0
  0
LINE
  5
251
100
AcDbEntity
  8
ｶｳﾝﾀｰ/ｷｬﾋﾞﾈｯﾄ
  6
CONTINUOUS
 62
     6
100
AcDbLine
 10
1873.0
 20
2383.0
 30
0.0
 11
1871.0
 21
2415.0
 31
0.0
  0
LINE
  5
252
100
AcDbEntity
  8
ｶｳﾝﾀｰ/ｷｬﾋﾞﾈｯﾄ
  6
CONTINUOUS
 62
     6
100
AcDbLine
 10
1871.0
 20
2373.0
 30
0.0
 11
1871.0
 21
2425.0
 31
0.0
  0
LINE
  5
253
100
AcDbEntity
  8
ｶｳﾝﾀｰ/ｷｬﾋﾞﾈｯﾄ
  6
CONTINUOUS
 62
     2
100
AcDbLine
 10
936.0
 20
1340.0
 30
0.0
 11
2276.0
 21
1340.0
 31
0.0
  0
LINE
  5
254
100
AcDbEntity
  8
ｶｳﾝﾀｰ/ｷｬﾋﾞﾈｯﾄ
  6
CONTINUOUS
 62
     2
100
AcDbLine
 10
1074.0
 20
1340.0
 30
0.0
 11
1074.0
 21
1290.0
 31
0.0
  0
LINE
  5
255
100
AcDbEntity
  8
ｶｳﾝﾀｰ/ｷｬﾋﾞﾈｯﾄ
  6
CONTINUOUS
 62
     2
100
AcDbLine
 10
998.0
 20
1290.0
 30
0.0
 11
1074.0
 21
1290.0
 31
0.0
  0
LINE
  5
256
100
AcDbEntity
  8
ｶｳﾝﾀｰ/ｷｬﾋﾞﾈｯﾄ
  6
CONTINUOUS
 62
     2
100
AcDbLine
 10
998.0
 20
1290.0
 30
0.0
 11
998.0
 21
1340.0
 31
0.0
  0
LINE
  5
257
100
AcDbEntity
  8
ｶｳﾝﾀｰ/ｷｬﾋﾞﾈｯﾄ
  6
CONTINUOUS
 62
     2
100
AcDbLine
 10
998.0
 20
1329.0
 30
0.0
 11
1074.0
 21
1329.0
 31
0.0
  0
CIRCLE
  5
258
100
AcDbEntity
  8
ｶｳﾝﾀｰ/ｷｬﾋﾞﾈｯﾄ
  6
CONTINUOUS
 62
     6
100
AcDbCircle
 10
1018.0
 20
1310.0
 30
0.0
 40
3.0
  0
LINE
  5
259
100
AcDbEntity
  8
ｶｳﾝﾀｰ/ｷｬﾋﾞﾈｯﾄ
  6
CONTINUOUS
 62
     6
100
AcDbLine
 10
1018.0
 20
1323.0
 30
0.0
 11
1018.0
 21
1297.0
 31
0.0
  0
LINE
  5
25A
100
AcDbEntity
  8
ｶｳﾝﾀｰ/ｷｬﾋﾞﾈｯﾄ
  6
CONTINUOUS
 62
     6
100
AcDbLine
 10
1005.0
 20
1310.0
 30
0.0
 11
1031.0
 21
1310.0
 31
0.0
  0
CIRCLE
  5
25B
100
AcDbEntity
  8
ｶｳﾝﾀｰ/ｷｬﾋﾞﾈｯﾄ
  6
CONTINUOUS
 62
     6
100
AcDbCircle
 10
1054.0
 20
1310.0
 30
0.0
 40
3.0
  0
LINE
  5
25C
100
AcDbEntity
  8
ｶｳﾝﾀｰ/ｷｬﾋﾞﾈｯﾄ
  6
CONTINUOUS
 62
     6
100
AcDbLine
 10
1054.0
 20
1323.0
 30
0.0
 11
1054.0
 21
1297.0
 31
0.0
  0
LINE
  5
25D
100
AcDbEntity
  8
ｶｳﾝﾀｰ/ｷｬﾋﾞﾈｯﾄ
  6
CONTINUOUS
 62
     6
100
AcDbLine
 10
1067.0
 20
1310.0
 30
0.0
 11
1041.0
 21
1310.0
 31
0.0
  0
LINE
  5
25E
100
AcDbEntity
  8
ｶｳﾝﾀｰ/ｷｬﾋﾞﾈｯﾄ
  6
CONTINUOUS
 62
     2
100
AcDbLine
 10
1956.0
 20
1359.0
 30
0.0
 11
936.0
 21
1359.0
 31
0.0
  0
LINE
  5
25F
100
AcDbEntity
  8
ｶｳﾝﾀｰ/ｷｬﾋﾞﾈｯﾄ
  6
CONTINUOUS
 62
     2
100
AcDbLine
 10
936.0
 20
1359.0
 30
0.0
 11
936.0
 21
1340.0
 31
0.0
  0
LINE
  5
260
100
AcDbEntity
  8
ｶｳﾝﾀｰ/ｷｬﾋﾞﾈｯﾄ
  6
CONTINUOUS
 62
     2
100
AcDbLine
 10
936.0
 20
2383.0
 30
0.0
 11
2288.5
 21
2383.0
 31
0.0
  0
LINE
  5
261
100
AcDbEntity
  8
ｶｳﾝﾀｰ/ｷｬﾋﾞﾈｯﾄ
  6
CONTINUOUS
 62
     6
100
AcDbLine
 10
1052.0
 20
2383.0
 30
0.0
 11
1054.0
 21
2415.0
 31
0.0
  0
LINE
  5
262
100
AcDbEntity
  8
ｶｳﾝﾀｰ/ｷｬﾋﾞﾈｯﾄ
  6
CONTINUOUS
 62
     6
100
AcDbLine
 10
1056.0
 20
2383.0
 30
0.0
 11
1054.0
 21
2415.0
 31
0.0
  0
LINE
  5
263
100
AcDbEntity
  8
ｶｳﾝﾀｰ/ｷｬﾋﾞﾈｯﾄ
  6
CONTINUOUS
 62
     6
100
AcDbLine
 10
1054.0
 20
2373.0
 30
0.0
 11
1054.0
 21
2425.0
 31
0.0
  0
LINE
  5
264
100
AcDbEntity
  8
ｶｳﾝﾀｰ/ｷｬﾋﾞﾈｯﾄ
  6
CONTINUOUS
 62
     6
100
AcDbLine
 10
1016.0
 20
2383.0
 30
0.0
 11
1018.0
 21
2415.0
 31
0.0
  0
LINE
  5
265
100
AcDbEntity
  8
ｶｳﾝﾀｰ/ｷｬﾋﾞﾈｯﾄ
  6
CONTINUOUS
 62
     6
100
AcDbLine
 10
1020.0
 20
2383.0
 30
0.0
 11
1018.0
 21
2415.0
 31
0.0
  0
LINE
  5
266
100
AcDbEntity
  8
ｶｳﾝﾀｰ/ｷｬﾋﾞﾈｯﾄ
  6
CONTINUOUS
 62
     6
100
AcDbLine
 10
1018.0
 20
2373.0
 30
0.0
 11
1018.0
 21
2425.0
 31
0.0
  0
LINE
  5
267
100
AcDbEntity
  8
ｶｳﾝﾀｰ/ｷｬﾋﾞﾈｯﾄ
  6
CONTINUOUS
 62
     2
100
AcDbLine
 10
936.0
 20
2383.0
 30
0.0
 11
936.0
 21
2248.0
 31
0.0
  0
LINE
  5
268
100
AcDbEntity
  8
ｶｳﾝﾀｰ/ｷｬﾋﾞﾈｯﾄ
  6
CONTINUOUS
 62
     2
100
AcDbLine
 10
936.0
 20
2248.0
 30
0.0
 11
1933.5
 21
2248.0
 31
0.0
  0
LINE
  5
269
100
AcDbEntity
  8
ｶｳﾝﾀｰ/ｷｬﾋﾞﾈｯﾄ
  6
CONTINUOUS
 62
     2
100
AcDbLine
 10
3219.0
 20
1340.0
 30
0.0
 11
3354.0
 21
1340.0
 31
0.0
  0
LINE
  5
26A
100
AcDbEntity
  8
ｶｳﾝﾀｰ/ｷｬﾋﾞﾈｯﾄ
  6
CONTINUOUS
 62
     2
100
AcDbLine
 10
3219.0
 20
820.0
 30
0.0
 11
3204.0
 21
820.0
 31
0.0
  0
LINE
  5
26B
100
AcDbEntity
  8
ｶｳﾝﾀｰ/ｷｬﾋﾞﾈｯﾄ
  6
CONTINUOUS
 62
     2
100
AcDbLine
 10
3219.0
 20
1336.0
 30
0.0
 11
3204.0
 21
1336.0
 31
0.0
  0
LINE
  5
26C
100
AcDbEntity
  8
ｶｳﾝﾀｰ/ｷｬﾋﾞﾈｯﾄ
  6
CONTINUOUS
 62
     2
100
AcDbLine
 10
3219.0
 20
820.0
 30
0.0
 11
3219.0
 21
1336.0
 31
0.0
  0
LINE
  5
26D
100
AcDbEntity
  8
ｶｳﾝﾀｰ/ｷｬﾋﾞﾈｯﾄ
  6
CONTINUOUS
 62
     2
100
AcDbLine
 10
3204.0
 20
820.0
 30
0.0
 11
3204.0
 21
1336.0
 31
0.0
  0
LINE
  5
26E
100
AcDbEntity
  8
ｶｳﾝﾀｰ/ｷｬﾋﾞﾈｯﾄ
  6
CONTINUOUS
 62
     2
100
AcDbLine
 10
3221.0
 20
1340.0
 30
0.0
 11
3221.0
 21
830.0
 31
0.0
  0
LINE
  5
26F
100
AcDbEntity
  8
ｶｳﾝﾀｰ/ｷｬﾋﾞﾈｯﾄ
  6
CONTINUOUS
 62
     2
100
AcDbLine
 10
3221.0
 20
830.0
 30
0.0
 11
3241.0
 21
830.0
 31
0.0
  0
LINE
  5
270
100
AcDbEntity
  8
ｶｳﾝﾀｰ/ｷｬﾋﾞﾈｯﾄ
  6
CONTINUOUS
 62
     2
100
AcDbLine
 10
3226.0
 20
700.0
 30
0.0
 11
3354.0
 21
700.0
 31
0.0
  0
LINE
  5
271
100
AcDbEntity
  8
ｶｳﾝﾀｰ/ｷｬﾋﾞﾈｯﾄ
  6
CONTINUOUS
 62
     2
100
AcDbLine
 10
3226.0
 20
830.0
 30
0.0
 11
3226.0
 21
700.0
 31
0.0
  0
LINE
  5
272
100
AcDbEntity
  8
ｶｳﾝﾀｰ/ｷｬﾋﾞﾈｯﾄ
  6
CONTINUOUS
 62
     2
100
AcDbLine
 10
3241.0
 20
830.0
 30
0.0
 11
3241.0
 21
700.0
 31
0.0
  0
LINE
  5
273
100
AcDbEntity
  8
ｶｳﾝﾀｰ/ｷｬﾋﾞﾈｯﾄ
  6
CONTINUOUS
 62
     2
100
AcDbLine
 10
3178.0
 20
1302.0
 30
0.0
 11
3204.0
 21
1302.0
 31
0.0
  0
LINE
  5
274
100
AcDbEntity
  8
ｶｳﾝﾀｰ/ｷｬﾋﾞﾈｯﾄ
  6
CONTINUOUS
 62
     2
100
AcDbLine
 10
3178.0
 20
1290.0
 30
0.0
 11
3204.0
 21
1290.0
 31
0.0
  0
ARC
  5
275
100
AcDbEntity
  8
ｶｳﾝﾀｰ/ｷｬﾋﾞﾈｯﾄ
  6
CONTINUOUS
 62
     2
100
AcDbCircle
 10
3178.0
 20
1296.0
 30
0.0
 40
6.0
100
AcDbArc
 50
90.0
 51
270.0
  0
LINE
  5
276
100
AcDbEntity
  8
ｶｳﾝﾀｰ/ｷｬﾋﾞﾈｯﾄ
  6
CONTINUOUS
 62
     2
100
AcDbLine
 10
3354.0
 20
1360.0
 30
0.0
 11
3354.0
 21
700.0
 31
0.0
  0
LINE
  5
277
100
AcDbEntity
  8
ｶｳﾝﾀｰ/ｷｬﾋﾞﾈｯﾄ
  6
CONTINUOUS
 62
     2
100
AcDbLine
 10
3219.0
 20
1340.0
 30
0.0
 11
3219.0
 21
1360.0
 31
0.0
  0
LINE
  5
278
100
AcDbEntity
  8
ｶｳﾝﾀｰ/ｷｬﾋﾞﾈｯﾄ
  6
CONTINUOUS
 62
     6
100
AcDbLine
 10
3354.0
 20
1267.0
 30
0.0
 11
3386.0
 21
1265.0
 31
0.0
  0
LINE
  5
279
100
AcDbEntity
  8
ｶｳﾝﾀｰ/ｷｬﾋﾞﾈｯﾄ
  6
CONTINUOUS
 62
     6
100
AcDbLine
 10
3354.0
 20
1263.0
 30
0.0
 11
3386.0
 21
1265.0
 31
0.0
  0
LINE
  5
27A
100
AcDbEntity
  8
ｶｳﾝﾀｰ/ｷｬﾋﾞﾈｯﾄ
  6
CONTINUOUS
 62
     6
100
AcDbLine
 10
3344.0
 20
1265.0
 30
0.0
 11
3396.0
 21
1265.0
 31
0.0
  0
LINE
  5
27B
100
AcDbEntity
  8
ｶｳﾝﾀｰ/ｷｬﾋﾞﾈｯﾄ
  6
CONTINUOUS
 62
     6
100
AcDbLine
 10
3354.0
 20
1312.0
 30
0.0
 11
3386.0
 21
1310.0
 31
0.0
  0
LINE
  5
27C
100
AcDbEntity
  8
ｶｳﾝﾀｰ/ｷｬﾋﾞﾈｯﾄ
  6
CONTINUOUS
 62
     6
100
AcDbLine
 10
3354.0
 20
1308.0
 30
0.0
 11
3386.0
 21
1310.0
 31
0.0
  0
LINE
  5
27D
100
AcDbEntity
  8
ｶｳﾝﾀｰ/ｷｬﾋﾞﾈｯﾄ
  6
CONTINUOUS
 62
     6
100
AcDbLine
 10
3344.0
 20
1310.0
 30
0.0
 11
3396.0
 21
1310.0
 31
0.0
  0
LINE
  5
27E
100
AcDbEntity
  8
ｶｳﾝﾀｰ/ｷｬﾋﾞﾈｯﾄ
  6
CONTINUOUS
 62
     2
100
AcDbLine
 10
3354.0
 20
1540.0
 30
0.0
 11
3354.0
 21
1360.0
 31
0.0
  0
LINE
  5
27F
100
AcDbEntity
  8
ｶｳﾝﾀｰ/ｷｬﾋﾞﾈｯﾄ
  6
CONTINUOUS
 62
     2
100
AcDbLine
 10
3184.0
 20
1360.0
 30
0.0
 11
3354.0
 21
1360.0
 31
0.0
  0
LINE
  5
280
100
AcDbEntity
  8
ｶｳﾝﾀｰ/ｷｬﾋﾞﾈｯﾄ
  6
CONTINUOUS
 62
     2
100
AcDbLine
 10
3337.73006
 20
1540.0
 30
0.0
 11
3354.0
 21
1540.0
 31
0.0
  0
ARC
  5
281
100
AcDbEntity
  8
ｶｳﾝﾀｰ/ｷｬﾋﾞﾈｯﾄ
  6
CONTINUOUS
 62
     2
100
AcDbCircle
 10
3337.73006
 20
1536.0
 30
0.0
 40
4.0
100
AcDbArc
 50
90.0
 51
176.0
  0
ARC
  5
282
100
AcDbEntity
  8
ｶｳﾝﾀｰ/ｷｬﾋﾞﾈｯﾄ
  6
CONTINUOUS
 62
     2
100
AcDbCircle
 10
3326.074331
 20
1484.0
 30
0.0
 40
4.0
100
AcDbArc
 50
270.0
 51
356.0
  0
ARC
  5
283
100
AcDbEntity
  8
ｶｳﾝﾀｰ/ｷｬﾋﾞﾈｯﾄ
  6
CONTINUOUS
 62
     2
100
AcDbCircle
 10
6072.123102
 20
2171.63104
 30
0.0
 40
3000.0
100
AcDbArc
 50
193.42584
 51
195.696622
  0
ARC
  5
284
100
AcDbEntity
  8
ｶｳﾝﾀｰ/ｷｬﾋﾞﾈｯﾄ
  6
CONTINUOUS
 62
     2
100
AcDbCircle
 10
3158.0
 20
1476.0
 30
0.0
 40
4.0
100
AcDbArc
 50
90.0
 51
193.42584
  0
LINE
  5
285
100
AcDbEntity
  8
ｶｳﾝﾀｰ/ｷｬﾋﾞﾈｯﾄ
  6
CONTINUOUS
 62
     2
100
AcDbLine
 10
3333.739804
 20
1536.279026
 30
0.0
 11
3330.064587
 21
1483.720974
 31
0.0
  0
LINE
  5
286
100
AcDbEntity
  8
ｶｳﾝﾀｰ/ｷｬﾋﾞﾈｯﾄ
  6
CONTINUOUS
 62
     2
100
AcDbLine
 10
3158.0
 20
1480.0
 30
0.0
 11
3326.074331
 21
1480.0
 31
0.0
  0
LINE
  5
287
100
AcDbEntity
  8
ｶｳﾝﾀｰ/ｷｬﾋﾞﾈｯﾄ
  6
EXLTYPE3
 62
     6
100
AcDbLine
 10
3294.0
 20
916.0
 30
0.0
 11
3294.0
 21
660.0
 31
0.0
  0
LINE
  5
288
100
AcDbEntity
  8
ｶｳﾝﾀｰ/ｷｬﾋﾞﾈｯﾄ
  6
CONTINUOUS
 62
     6
100
AcDbLine
 10
3278.0
 20
670.0
 30
0.0
 11
3310.0
 21
670.0
 31
0.0
  0
LINE
  5
289
100
AcDbEntity
  8
ｶｳﾝﾀｰ/ｷｬﾋﾞﾈｯﾄ
  6
CONTINUOUS
 62
     6
100
AcDbLine
 10
3278.0
 20
916.0
 30
0.0
 11
3278.0
 21
670.0
 31
0.0
  0
LINE
  5
28A
100
AcDbEntity
  8
ｶｳﾝﾀｰ/ｷｬﾋﾞﾈｯﾄ
  6
CONTINUOUS
 62
     6
100
AcDbLine
 10
3310.0
 20
916.0
 30
0.0
 11
3310.0
 21
670.0
 31
0.0
  0
LINE
  5
28B
100
AcDbEntity
  8
ｶｳﾝﾀｰ/ｷｬﾋﾞﾈｯﾄ
  6
CONTINUOUS
 62
     6
100
AcDbLine
 10
3284.0
 20
693.0
 30
0.0
 11
3304.0
 21
693.0
 31
0.0
  0
LINE
  5
28C
100
AcDbEntity
  8
ｶｳﾝﾀｰ/ｷｬﾋﾞﾈｯﾄ
  6
CONTINUOUS
 62
     6
100
AcDbLine
 10
3284.0
 20
693.0
 30
0.0
 11
3284.0
 21
916.0
 31
0.0
  0
LINE
  5
28D
100
AcDbEntity
  8
ｶｳﾝﾀｰ/ｷｬﾋﾞﾈｯﾄ
  6
CONTINUOUS
 62
     6
100
AcDbLine
 10
3304.0
 20
693.0
 30
0.0
 11
3304.0
 21
916.0
 31
0.0
  0
LINE
  5
28E
100
AcDbEntity
  8
ｶｳﾝﾀｰ/ｷｬﾋﾞﾈｯﾄ
  6
CONTINUOUS
 62
     6
100
AcDbLine
 10
3384.0
 20
1116.0
 30
0.0
 11
3384.0
 21
1084.0
 31
0.0
  0
LINE
  5
28F
100
AcDbEntity
  8
ｶｳﾝﾀｰ/ｷｬﾋﾞﾈｯﾄ
  6
CONTINUOUS
 62
     6
100
AcDbLine
 10
3314.0
 20
1116.0
 30
0.0
 11
3384.0
 21
1116.0
 31
0.0
  0
LINE
  5
290
100
AcDbEntity
  8
ｶｳﾝﾀｰ/ｷｬﾋﾞﾈｯﾄ
  6
CONTINUOUS
 62
     6
100
AcDbLine
 10
3314.0
 20
1084.0
 30
0.0
 11
3384.0
 21
1084.0
 31
0.0
  0
LINE
  5
291
100
AcDbEntity
  8
ｶｳﾝﾀｰ/ｷｬﾋﾞﾈｯﾄ
  6
CONTINUOUS
 62
     6
100
AcDbLine
 10
3314.0
 20
1100.0
 30
0.0
 11
3394.0
 21
1100.0
 31
0.0
  0
LINE
  5
292
100
AcDbEntity
  8
ｶｳﾝﾀｰ/ｷｬﾋﾞﾈｯﾄ
  6
CONTINUOUS
 62
     2
100
AcDbLine
 10
3325.073517
 20
1527.030038
 30
0.0
 11
3323.469118
 21
1504.086065
 31
0.0
  0
LINE
  5
293
100
AcDbEntity
  8
ｶｳﾝﾀｰ/ｷｬﾋﾞﾈｯﾄ
  6
CONTINUOUS
 62
     2
100
AcDbLine
 10
3325.073517
 20
1527.030038
 30
0.0
 11
3333.054029
 21
1526.471987
 31
0.0
  0
LINE
  5
294
100
AcDbEntity
  8
ｶｳﾝﾀｰ/ｷｬﾋﾞﾈｯﾄ
  6
CONTINUOUS
 62
     2
100
AcDbLine
 10
3323.469118
 20
1504.086065
 30
0.0
 11
3331.44963
 21
1503.528013
 31
0.0
  0
LINE
  5
295
100
AcDbEntity
  8
ｶｳﾝﾀｰ/ｷｬﾋﾞﾈｯﾄ
  6
CONTINUOUS
 62
     6
100
AcDbLine
 10
3354.0
 20
1516.964373
 30
0.0
 11
3395.25183
 21
1515.0
 31
0.0
  0
LINE
  5
296
100
AcDbEntity
  8
ｶｳﾝﾀｰ/ｷｬﾋﾞﾈｯﾄ
  6
CONTINUOUS
 62
     6
100
AcDbLine
 10
3354.0
 20
1513.035627
 30
0.0
 11
3395.25183
 21
1515.0
 31
0.0
  0
LINE
  5
297
100
AcDbEntity
  8
ｶｳﾝﾀｰ/ｷｬﾋﾞﾈｯﾄ
  6
CONTINUOUS
 62
     6
100
AcDbLine
 10
3327.25183
 20
1515.0
 30
0.0
 11
3405.25183
 21
1515.0
 31
0.0
  0
LINE
  5
298
100
AcDbEntity
  8
ｶｳﾝﾀｰ/ｷｬﾋﾞﾈｯﾄ
  6
EXLTYPE4
 62
     6
100
AcDbLine
 10
3226.0
 20
700.0
 30
0.0
 11
3054.0
 21
700.0
 31
0.0
  0
LINE
  5
299
100
AcDbEntity
  8
ｶｳﾝﾀｰ/ｷｬﾋﾞﾈｯﾄ
  6
CONTINUOUS
 62
     6
100
AcDbLine
 10
3354.0
 20
1226.5
 30
0.0
 11
3386.0
 21
1224.5
 31
0.0
  0
LINE
  5
29A
100
AcDbEntity
  8
ｶｳﾝﾀｰ/ｷｬﾋﾞﾈｯﾄ
  6
CONTINUOUS
 62
     6
100
AcDbLine
 10
3354.0
 20
1222.5
 30
0.0
 11
3386.0
 21
1224.5
 31
0.0
  0
LINE
  5
29B
100
AcDbEntity
  8
ｶｳﾝﾀｰ/ｷｬﾋﾞﾈｯﾄ
  6
CONTINUOUS
 62
     6
100
AcDbLine
 10
3344.0
 20
1224.5
 30
0.0
 11
3396.0
 21
1224.5
 31
0.0
  0
POLYLINE
  5
29C
100
AcDbEntity
  8
ｶｳﾝﾀｰ/ｷｬﾋﾞﾈｯﾄ
  6
CONTINUOUS
 62
     3
100
AcDb2dPolyline
 66
     1
 10
0.0
 20
0.0
 30
0.0
 70
   128
  0
VERTEX
  5
29D
100
AcDbEntity
  8
ｶｳﾝﾀｰ/ｷｬﾋﾞﾈｯﾄ
  6
CONTINUOUS
 62
     3
100
AcDbVertex
100
AcDb2dVertex
 10
936.0
 20
1541.0
 30
0.0
  0
VERTEX
  5
29E
100
AcDbEntity
  8
ｶｳﾝﾀｰ/ｷｬﾋﾞﾈｯﾄ
  6
CONTINUOUS
 62
     3
100
AcDbVertex
100
AcDb2dVertex
 10
985.5
 20
1564.0
 30
0.0
  0
SEQEND
  5
29F
100
AcDbEntity
  8
ｶｳﾝﾀｰ/ｷｬﾋﾞﾈｯﾄ
  6
CONTINUOUS
 62
     3
  0
LINE
  5
2A0
100
AcDbEntity
  8
ｶｳﾝﾀｰ/ｷｬﾋﾞﾈｯﾄ
  6
CONTINUOUS
 62
     3
100
AcDbLine
 10
973.649425
 20
1566.763749
 30
0.0
 11
936.0
 21
1541.0
 31
0.0
  0
LINE
  5
2A1
100
AcDbEntity
  8
ｶｳﾝﾀｰ/ｷｬﾋﾞﾈｯﾄ
  6
CONTINUOUS
 62
     3
100
AcDbLine
 10
936.0
 20
1541.0
 30
0.0
 11
979.970132
 21
1553.16049
 31
0.0
  0
TEXT
  5
2A2
100
AcDbEntity
  8
ｶｳﾝﾀｰ/ｷｬﾋﾞﾈｯﾄ
  6
CONTINUOUS
 62
     2
100
AcDbText
 10
996.0
 20
1601.000001
 30
0.0
 40
60.0
  1
W.L.
 50
90.0
 41
0.4125
  7
EXCADSTD
 72
     5
 11
996.0
 21
1691.7434
 31
0.0
100
AcDbText
  0
LINE
  5
2A3
100
AcDbEntity
  8
ｶｳﾝﾀｰ/ｷｬﾋﾞﾈｯﾄ
  6
EXLTYPE3
 62
     6
100
AcDbLine
 10
936.0
 20
700.0
 30
0.0
 11
936.0
 21
1700.0
 31
0.0
  0
LINE
  5
2A4
100
AcDbEntity
  8
ｶｳﾝﾀｰ/ｷｬﾋﾞﾈｯﾄ
  6
EXLTYPE4
 62
     6
100
AcDbLine
 10
2491.0
 20
700.0
 30
0.0
 11
936.0
 21
700.0
 31
0.0
  0
DIMENSION
  5
2B0
100
AcDbEntity
  8
ｶｳﾝﾀｰ/ｷｬﾋﾞﾈｯﾄ
  6
CONTINUOUS
 62
     3
100
AcDbDimension
  2
*D29
 10
846.0
 20
700.0
 30
0.0
 11
810.75
 21
1029.5
 31
0.0
 70
   160
  3
STANDARD
100
AcDbAlignedDimension
 13
936.0
 23
1359.0
 33
0.0
 14
936.0
 24
700.0
 34
0.0
 50
90.0
100
AcDbRotatedDimension
1001
ACAD
1000
DSTYLE
1002
{
1070
     6
1000
_EX_NORM
1070
     7
1000
_EX_NORM
1070
    41
1040
45.0
1070
    42
1040
10.5
1070
    44
1040
15.0
1070
    73
1070
     0
1070
    74
1070
     0
1070
    75
1070
     0
1070
    76
1070
     0
1070
    77
1070
     1
1070
    78
1070
     0
1070
   140
1040
60.0
1070
   147
1040
5.25
1070
   173
1070
     1
1070
   176
1070
     3
1070
   177
1070
     3
1070
   178
1070
     2
1070
   271
1070
     0
1070
   279
1070
     2
1070
   280
1070
     0
1070
   287
1070
     5
1070
   340
1005
EC
1002
}
  0
LINE
  5
2B1
100
AcDbEntity
  8
ｶｳﾝﾀｰ/ｷｬﾋﾞﾈｯﾄ
  6
CONTINUOUS
 62
     2
100
AcDbLine
 10
1586.0
 20
700.0
 30
0.0
 11
1946.0
 21
700.0
 31
0.0
  0
LINE
  5
2B2
100
AcDbEntity
  8
ｶｳﾝﾀｰ/ｷｬﾋﾞﾈｯﾄ
  6
EXLTYPE4
 62
     6
100
AcDbLine
 10
3354.0
 20
1540.0
 30
0.0
 11
3354.0
 21
1700.0
 31
0.0
  0
CIRCLE
  5
2B3
100
AcDbEntity
  8
ｶｳﾝﾀｰ/ｷｬﾋﾞﾈｯﾄ
  6
CONTINUOUS
 62
     6
100
AcDbCircle
 10
2206.0
 20
1165.0
 30
0.0
 40
10.0
  0
LINE
  5
2B4
100
AcDbEntity
  8
ｶｳﾝﾀｰ/ｷｬﾋﾞﾈｯﾄ
  6
CONTINUOUS
 62
     6
100
AcDbLine
 10
2186.0
 20
1165.0
 30
0.0
 11
2226.0
 21
1165.0
 31
0.0
  0
LINE
  5
2B5
100
AcDbEntity
  8
ｶｳﾝﾀｰ/ｷｬﾋﾞﾈｯﾄ
  6
CONTINUOUS
 62
     6
100
AcDbLine
 10
2206.0
 20
1145.0
 30
0.0
 11
2206.0
 21
1185.0
 31
0.0
  0
LINE
  5
2B6
100
AcDbEntity
  8
ｶｳﾝﾀｰ/ｷｬﾋﾞﾈｯﾄ
  6
CONTINUOUS
 62
     6
100
AcDbLine
 10
3361.0
 20
1155.0
 30
0.0
 11
3361.0
 21
1175.0
 31
0.0
  0
LINE
  5
2B7
100
AcDbEntity
  8
ｶｳﾝﾀｰ/ｷｬﾋﾞﾈｯﾄ
  6
CONTINUOUS
 62
     6
100
AcDbLine
 10
3361.0
 20
1175.0
 30
0.0
 11
3314.0
 21
1175.0
 31
0.0
  0
LINE
  5
2B8
100
AcDbEntity
  8
ｶｳﾝﾀｰ/ｷｬﾋﾞﾈｯﾄ
  6
CONTINUOUS
 62
     6
100
AcDbLine
 10
3361.0
 20
1155.0
 30
0.0
 11
3314.0
 21
1155.0
 31
0.0
  0
LINE
  5
2B9
100
AcDbEntity
  8
ｶｳﾝﾀｰ/ｷｬﾋﾞﾈｯﾄ
  6
CONTINUOUS
 62
     6
100
AcDbLine
 10
3314.0
 20
1165.0
 30
0.0
 11
3371.0
 21
1165.0
 31
0.0
  0
LINE
  5
2BA
100
AcDbEntity
  8
ｶｳﾝﾀｰ/ｷｬﾋﾞﾈｯﾄ
  6
CONTINUOUS
 62
     2
100
AcDbLine
 10
2136.0
 20
2258.0
 30
0.0
 11
2136.0
 21
2298.5
 31
0.0
  0
LINE
  5
2BB
100
AcDbEntity
  8
ｶｳﾝﾀｰ/ｷｬﾋﾞﾈｯﾄ
  6
CONTINUOUS
 62
     2
100
AcDbLine
 10
2136.0
 20
2317.5
 30
0.0
 11
2136.0
 21
2342.631825
 31
0.0
  0
LINE
  5
2BC
100
AcDbEntity
  8
ｶｳﾝﾀｰ/ｷｬﾋﾞﾈｯﾄ
  6
EXLTYPE3
 62
     6
100
AcDbLine
 10
2223.0
 20
2277.0
 30
0.0
 11
2223.0
 21
2337.9
 31
0.0
  0
LINE
  5
2BD
100
AcDbEntity
  8
ｶｳﾝﾀｰ/ｷｬﾋﾞﾈｯﾄ
  6
CONTINUOUS
 62
     6
100
AcDbLine
 10
3261.973391
 20
1570.284796
 30
0.0
 11
3263.5
 21
1597.205676
 31
0.0
  0
LINE
  5
2BE
100
AcDbEntity
  8
ｶｳﾝﾀｰ/ｷｬﾋﾞﾈｯﾄ
  6
CONTINUOUS
 62
     6
100
AcDbLine
 10
3296.045398
 20
1569.953465
 30
0.0
 11
3294.5
 21
1597.205676
 31
0.0
  0
LINE
  5
2BF
100
AcDbEntity
  8
ｶｳﾝﾀｰ/ｷｬﾋﾞﾈｯﾄ
  6
CONTINUOUS
 62
     6
100
AcDbLine
 10
3296.022866
 20
1570.707564
 30
0.0
 11
3296.023589
 21
1570.720326
 31
0.0
  0
POLYLINE
  5
2C0
100
AcDbEntity
  8
ｶｳﾝﾀｰ/ｷｬﾋﾞﾈｯﾄ
  6
CONTINUOUS
 62
     6
100
AcDb2dPolyline
 66
     1
 10
0.0
 20
0.0
 30
0.0
 70
   128
  0
VERTEX
  5
2C1
100
AcDbEntity
  8
ｶｳﾝﾀｰ/ｷｬﾋﾞﾈｯﾄ
  6
CONTINUOUS
 62
     6
100
AcDbVertex
100
AcDb2dVertex
 10
3296.018545
 20
1570.762991
 30
0.0
  0
VERTEX
  5
2C2
100
AcDbEntity
  8
ｶｳﾝﾀｰ/ｷｬﾋﾞﾈｯﾄ
  6
CONTINUOUS
 62
     6
100
AcDbVertex
100
AcDb2dVertex
 10
3296.026432
 20
1570.824022
 30
0.0
  0
SEQEND
  5
2C3
100
AcDbEntity
  8
ｶｳﾝﾀｰ/ｷｬﾋﾞﾈｯﾄ
  6
CONTINUOUS
 62
     6
  0
POLYLINE
  5
2C4
100
AcDbEntity
  8
ｶｳﾝﾀｰ/ｷｬﾋﾞﾈｯﾄ
  6
CONTINUOUS
 62
     6
100
AcDb2dPolyline
 66
     1
 10
0.0
 20
0.0
 30
0.0
 70
   128
  0
VERTEX
  5
2C5
100
AcDbEntity
  8
ｶｳﾝﾀｰ/ｷｬﾋﾞﾈｯﾄ
  6
CONTINUOUS
 62
     6
100
AcDbVertex
100
AcDb2dVertex
 10
3296.02338
 20
1570.720338
 30
0.0
  0
VERTEX
  5
2C6
100
AcDbEntity
  8
ｶｳﾝﾀｰ/ｷｬﾋﾞﾈｯﾄ
  6
CONTINUOUS
 62
     6
100
AcDbVertex
100
AcDb2dVertex
 10
3296.025229
 20
1570.759983
 30
0.0
  0
SEQEND
  5
2C7
100
AcDbEntity
  8
ｶｳﾝﾀｰ/ｷｬﾋﾞﾈｯﾄ
  6
CONTINUOUS
 62
     6
  0
POLYLINE
  5
2C8
100
AcDbEntity
  8
ｶｳﾝﾀｰ/ｷｬﾋﾞﾈｯﾄ
  6
CONTINUOUS
 62
     6
100
AcDb2dPolyline
 66
     1
 10
0.0
 20
0.0
 30
0.0
 70
   128
  0
VERTEX
  5
2C9
100
AcDbEntity
  8
ｶｳﾝﾀｰ/ｷｬﾋﾞﾈｯﾄ
  6
CONTINUOUS
 62
     6
100
AcDbVertex
100
AcDb2dVertex
 10
3296.025229
 20
1570.759983
 30
0.0
  0
VERTEX
  5
2CA
100
AcDbEntity
  8
ｶｳﾝﾀｰ/ｷｬﾋﾞﾈｯﾄ
  6
CONTINUOUS
 62
     6
100
AcDbVertex
100
AcDb2dVertex
 10
3296.026432
 20
1570.824022
 30
0.0
  0
SEQEND
  5
2CB
100
AcDbEntity
  8
ｶｳﾝﾀｰ/ｷｬﾋﾞﾈｯﾄ
  6
CONTINUOUS
 62
     6
  0
LINE
  5
2CC
100
AcDbEntity
  8
ｶｳﾝﾀｰ/ｷｬﾋﾞﾈｯﾄ
  6
CONTINUOUS
 62
     6
100
AcDbLine
 10
3261.976456
 20
1570.719636
 30
0.0
 11
3261.977152
 21
1570.707405
 31
0.0
  0
POLYLINE
  5
2CD
100
AcDbEntity
  8
ｶｳﾝﾀｰ/ｷｬﾋﾞﾈｯﾄ
  6
CONTINUOUS
 62
     6
100
AcDb2dPolyline
 66
     1
 10
0.0
 20
0.0
 30
0.0
 70
   128
  0
VERTEX
  5
2CE
100
AcDbEntity
  8
ｶｳﾝﾀｰ/ｷｬﾋﾞﾈｯﾄ
  6
CONTINUOUS
 62
     6
100
AcDbVertex
100
AcDb2dVertex
 10
3261.976679
 20
1570.719649
 30
0.0
  0
VERTEX
  5
2CF
100
AcDbEntity
  8
ｶｳﾝﾀｰ/ｷｬﾋﾞﾈｯﾄ
  6
CONTINUOUS
 62
     6
100
AcDbVertex
100
AcDb2dVertex
 10
3262.004507
 20
1570.467916
 30
0.0
  0
SEQEND
  5
2D0
100
AcDbEntity
  8
ｶｳﾝﾀｰ/ｷｬﾋﾞﾈｯﾄ
  6
CONTINUOUS
 62
     6
  0
POLYLINE
  5
2D1
100
AcDbEntity
  8
ｶｳﾝﾀｰ/ｷｬﾋﾞﾈｯﾄ
  6
CONTINUOUS
 62
     6
100
AcDb2dPolyline
 66
     1
 10
0.0
 20
0.0
 30
0.0
 70
   128
  0
VERTEX
  5
2D2
100
AcDbEntity
  8
ｶｳﾝﾀｰ/ｷｬﾋﾞﾈｯﾄ
  6
CONTINUOUS
 62
     6
100
AcDbVertex
100
AcDb2dVertex
 10
3261.973578
 20
1570.823995
 30
0.0
  0
VERTEX
  5
2D3
100
AcDbEntity
  8
ｶｳﾝﾀｰ/ｷｬﾋﾞﾈｯﾄ
  6
CONTINUOUS
 62
     6
100
AcDbVertex
100
AcDb2dVertex
 10
3261.974804
 20
1570.759327
 30
0.0
  0
SEQEND
  5
2D4
100
AcDbEntity
  8
ｶｳﾝﾀｰ/ｷｬﾋﾞﾈｯﾄ
  6
CONTINUOUS
 62
     6
  0
POLYLINE
  5
2D5
100
AcDbEntity
  8
ｶｳﾝﾀｰ/ｷｬﾋﾞﾈｯﾄ
  6
CONTINUOUS
 62
     6
100
AcDb2dPolyline
 66
     1
 10
0.0
 20
0.0
 30
0.0
 70
   128
  0
VERTEX
  5
2D6
100
AcDbEntity
  8
ｶｳﾝﾀｰ/ｷｬﾋﾞﾈｯﾄ
  6
CONTINUOUS
 62
     6
100
AcDbVertex
100
AcDb2dVertex
 10
3261.974804
 20
1570.759327
 30
0.0
  0
VERTEX
  5
2D7
100
AcDbEntity
  8
ｶｳﾝﾀｰ/ｷｬﾋﾞﾈｯﾄ
  6
CONTINUOUS
 62
     6
100
AcDbVertex
100
AcDb2dVertex
 10
3261.976666
 20
1570.719648
 30
0.0
  0
SEQEND
  5
2D8
100
AcDbEntity
  8
ｶｳﾝﾀｰ/ｷｬﾋﾞﾈｯﾄ
  6
CONTINUOUS
 62
     6
  0
POLYLINE
  5
2D9
100
AcDbEntity
  8
ｶｳﾝﾀｰ/ｷｬﾋﾞﾈｯﾄ
  6
CONTINUOUS
 62
     6
100
AcDb2dPolyline
 66
     1
 10
0.0
 20
0.0
 30
0.0
 70
   128
  0
VERTEX
  5
2DA
100
AcDbEntity
  8
ｶｳﾝﾀｰ/ｷｬﾋﾞﾈｯﾄ
  6
CONTINUOUS
 62
     6
100
AcDbVertex
100
AcDb2dVertex
 10
3271.89682
 20
1575.57928
 30
0.0
  0
VERTEX
  5
2DB
100
AcDbEntity
  8
ｶｳﾝﾀｰ/ｷｬﾋﾞﾈｯﾄ
  6
CONTINUOUS
 62
     6
100
AcDbVertex
100
AcDb2dVertex
 10
3271.877754
 20
1575.576051
 30
0.0
  0
VERTEX
  5
2DC
100
AcDbEntity
  8
ｶｳﾝﾀｰ/ｷｬﾋﾞﾈｯﾄ
  6
CONTINUOUS
 62
     6
100
AcDbVertex
100
AcDb2dVertex
 10
3271.823445
 20
1575.566814
 30
0.0
  0
VERTEX
  5
2DD
100
AcDbEntity
  8
ｶｳﾝﾀｰ/ｷｬﾋﾞﾈｯﾄ
  6
CONTINUOUS
 62
     6
100
AcDbVertex
100
AcDb2dVertex
 10
3271.738231
 20
1575.55225
 30
0.0
  0
VERTEX
  5
2DE
100
AcDbEntity
  8
ｶｳﾝﾀｰ/ｷｬﾋﾞﾈｯﾄ
  6
CONTINUOUS
 62
     6
100
AcDbVertex
100
AcDb2dVertex
 10
3271.626444
 20
1575.533036
 30
0.0
  0
VERTEX
  5
2DF
100
AcDbEntity
  8
ｶｳﾝﾀｰ/ｷｬﾋﾞﾈｯﾄ
  6
CONTINUOUS
 62
     6
100
AcDbVertex
100
AcDb2dVertex
 10
3271.492422
 20
1575.509852
 30
0.0
  0
VERTEX
  5
2E0
100
AcDbEntity
  8
ｶｳﾝﾀｰ/ｷｬﾋﾞﾈｯﾄ
  6
CONTINUOUS
 62
     6
100
AcDbVertex
100
AcDb2dVertex
 10
3271.340498
 20
1575.483376
 30
0.0
  0
VERTEX
  5
2E1
100
AcDbEntity
  8
ｶｳﾝﾀｰ/ｷｬﾋﾞﾈｯﾄ
  6
CONTINUOUS
 62
     6
100
AcDbVertex
100
AcDb2dVertex
 10
3271.175009
 20
1575.454288
 30
0.0
  0
VERTEX
  5
2E2
100
AcDbEntity
  8
ｶｳﾝﾀｰ/ｷｬﾋﾞﾈｯﾄ
  6
CONTINUOUS
 62
     6
100
AcDbVertex
100
AcDb2dVertex
 10
3271.000289
 20
1575.423265
 30
0.0
  0
VERTEX
  5
2E3
100
AcDbEntity
  8
ｶｳﾝﾀｰ/ｷｬﾋﾞﾈｯﾄ
  6
CONTINUOUS
 62
     6
100
AcDbVertex
100
AcDb2dVertex
 10
3270.820675
 20
1575.390987
 30
0.0
  0
VERTEX
  5
2E4
100
AcDbEntity
  8
ｶｳﾝﾀｰ/ｷｬﾋﾞﾈｯﾄ
  6
CONTINUOUS
 62
     6
100
AcDbVertex
100
AcDb2dVertex
 10
3270.6405
 20
1575.358132
 30
0.0
  0
VERTEX
  5
2E5
100
AcDbEntity
  8
ｶｳﾝﾀｰ/ｷｬﾋﾞﾈｯﾄ
  6
CONTINUOUS
 62
     6
100
AcDbVertex
100
AcDb2dVertex
 10
3270.464101
 20
1575.325379
 30
0.0
  0
VERTEX
  5
2E6
100
AcDbEntity
  8
ｶｳﾝﾀｰ/ｷｬﾋﾞﾈｯﾄ
  6
CONTINUOUS
 62
     6
100
AcDbVertex
100
AcDb2dVertex
 10
3270.178512
 20
1575.270699
 30
0.0
  0
VERTEX
  5
2E7
100
AcDbEntity
  8
ｶｳﾝﾀｰ/ｷｬﾋﾞﾈｯﾄ
  6
CONTINUOUS
 62
     6
100
AcDbVertex
100
AcDb2dVertex
 10
3269.914088
 20
1575.217826
 30
0.0
  0
VERTEX
  5
2E8
100
AcDbEntity
  8
ｶｳﾝﾀｰ/ｷｬﾋﾞﾈｯﾄ
  6
CONTINUOUS
 62
     6
100
AcDbVertex
100
AcDb2dVertex
 10
3269.668096
 20
1575.166263
 30
0.0
  0
VERTEX
  5
2E9
100
AcDbEntity
  8
ｶｳﾝﾀｰ/ｷｬﾋﾞﾈｯﾄ
  6
CONTINUOUS
 62
     6
100
AcDbVertex
100
AcDb2dVertex
 10
3269.437801
 20
1575.115516
 30
0.0
  0
VERTEX
  5
2EA
100
AcDbEntity
  8
ｶｳﾝﾀｰ/ｷｬﾋﾞﾈｯﾄ
  6
CONTINUOUS
 62
     6
100
AcDbVertex
100
AcDb2dVertex
 10
3269.220469
 20
1575.06509
 30
0.0
  0
VERTEX
  5
2EB
100
AcDbEntity
  8
ｶｳﾝﾀｰ/ｷｬﾋﾞﾈｯﾄ
  6
CONTINUOUS
 62
     6
100
AcDbVertex
100
AcDb2dVertex
 10
3269.013366
 20
1575.014489
 30
0.0
  0
VERTEX
  5
2EC
100
AcDbEntity
  8
ｶｳﾝﾀｰ/ｷｬﾋﾞﾈｯﾄ
  6
CONTINUOUS
 62
     6
100
AcDbVertex
100
AcDb2dVertex
 10
3268.813757
 20
1574.963219
 30
0.0
  0
VERTEX
  5
2ED
100
AcDbEntity
  8
ｶｳﾝﾀｰ/ｷｬﾋﾞﾈｯﾄ
  6
CONTINUOUS
 62
     6
100
AcDbVertex
100
AcDb2dVertex
 10
3268.618909
 20
1574.910785
 30
0.0
  0
VERTEX
  5
2EE
100
AcDbEntity
  8
ｶｳﾝﾀｰ/ｷｬﾋﾞﾈｯﾄ
  6
CONTINUOUS
 62
     6
100
AcDbVertex
100
AcDb2dVertex
 10
3268.426087
 20
1574.856691
 30
0.0
  0
VERTEX
  5
2EF
100
AcDbEntity
  8
ｶｳﾝﾀｰ/ｷｬﾋﾞﾈｯﾄ
  6
CONTINUOUS
 62
     6
100
AcDbVertex
100
AcDb2dVertex
 10
3268.232557
 20
1574.800443
 30
0.0
  0
VERTEX
  5
2F0
100
AcDbEntity
  8
ｶｳﾝﾀｰ/ｷｬﾋﾞﾈｯﾄ
  6
CONTINUOUS
 62
     6
100
AcDbVertex
100
AcDb2dVertex
 10
3268.035586
 20
1574.741545
 30
0.0
  0
VERTEX
  5
2F1
100
AcDbEntity
  8
ｶｳﾝﾀｰ/ｷｬﾋﾞﾈｯﾄ
  6
CONTINUOUS
 62
     6
100
AcDbVertex
100
AcDb2dVertex
 10
3267.856133
 20
1574.686732
 30
0.0
  0
VERTEX
  5
2F2
100
AcDbEntity
  8
ｶｳﾝﾀｰ/ｷｬﾋﾞﾈｯﾄ
  6
CONTINUOUS
 62
     6
100
AcDbVertex
100
AcDb2dVertex
 10
3267.672476
 20
1574.629532
 30
0.0
  0
VERTEX
  5
2F3
100
AcDbEntity
  8
ｶｳﾝﾀｰ/ｷｬﾋﾞﾈｯﾄ
  6
CONTINUOUS
 62
     6
100
AcDbVertex
100
AcDb2dVertex
 10
3267.485274
 20
1574.570032
 30
0.0
  0
VERTEX
  5
2F4
100
AcDbEntity
  8
ｶｳﾝﾀｰ/ｷｬﾋﾞﾈｯﾄ
  6
CONTINUOUS
 62
     6
100
AcDbVertex
100
AcDb2dVertex
 10
3267.295187
 20
1574.50832
 30
0.0
  0
VERTEX
  5
2F5
100
AcDbEntity
  8
ｶｳﾝﾀｰ/ｷｬﾋﾞﾈｯﾄ
  6
CONTINUOUS
 62
     6
100
AcDbVertex
100
AcDb2dVertex
 10
3267.102874
 20
1574.444484
 30
0.0
  0
VERTEX
  5
2F6
100
AcDbEntity
  8
ｶｳﾝﾀｰ/ｷｬﾋﾞﾈｯﾄ
  6
CONTINUOUS
 62
     6
100
AcDbVertex
100
AcDb2dVertex
 10
3266.908996
 20
1574.378614
 30
0.0
  0
VERTEX
  5
2F7
100
AcDbEntity
  8
ｶｳﾝﾀｰ/ｷｬﾋﾞﾈｯﾄ
  6
CONTINUOUS
 62
     6
100
AcDbVertex
100
AcDb2dVertex
 10
3266.71421
 20
1574.310797
 30
0.0
  0
VERTEX
  5
2F8
100
AcDbEntity
  8
ｶｳﾝﾀｰ/ｷｬﾋﾞﾈｯﾄ
  6
CONTINUOUS
 62
     6
100
AcDbVertex
100
AcDb2dVertex
 10
3266.519178
 20
1574.241121
 30
0.0
  0
VERTEX
  5
2F9
100
AcDbEntity
  8
ｶｳﾝﾀｰ/ｷｬﾋﾞﾈｯﾄ
  6
CONTINUOUS
 62
     6
100
AcDbVertex
100
AcDb2dVertex
 10
3266.324559
 20
1574.169674
 30
0.0
  0
VERTEX
  5
2FA
100
AcDbEntity
  8
ｶｳﾝﾀｰ/ｷｬﾋﾞﾈｯﾄ
  6
CONTINUOUS
 62
     6
100
AcDbVertex
100
AcDb2dVertex
 10
3266.131012
 20
1574.096546
 30
0.0
  0
VERTEX
  5
2FB
100
AcDbEntity
  8
ｶｳﾝﾀｰ/ｷｬﾋﾞﾈｯﾄ
  6
CONTINUOUS
 62
     6
100
AcDbVertex
100
AcDb2dVertex
 10
3265.939196
 20
1574.021824
 30
0.0
  0
VERTEX
  5
2FC
100
AcDbEntity
  8
ｶｳﾝﾀｰ/ｷｬﾋﾞﾈｯﾄ
  6
CONTINUOUS
 62
     6
100
AcDbVertex
100
AcDb2dVertex
 10
3265.778244
 20
1573.957198
 30
0.0
  0
VERTEX
  5
2FD
100
AcDbEntity
  8
ｶｳﾝﾀｰ/ｷｬﾋﾞﾈｯﾄ
  6
CONTINUOUS
 62
     6
100
AcDbVertex
100
AcDb2dVertex
 10
3265.618954
 20
1573.891231
 30
0.0
  0
VERTEX
  5
2FE
100
AcDbEntity
  8
ｶｳﾝﾀｰ/ｷｬﾋﾞﾈｯﾄ
  6
CONTINUOUS
 62
     6
100
AcDbVertex
100
AcDb2dVertex
 10
3265.46127
 20
1573.823665
 30
0.0
  0
VERTEX
  5
2FF
100
AcDbEntity
  8
ｶｳﾝﾀｰ/ｷｬﾋﾞﾈｯﾄ
  6
CONTINUOUS
 62
     6
100
AcDbVertex
100
AcDb2dVertex
 10
3265.305132
 20
1573.754243
 30
0.0
  0
VERTEX
  5
300
100
AcDbEntity
  8
ｶｳﾝﾀｰ/ｷｬﾋﾞﾈｯﾄ
  6
CONTINUOUS
 62
     6
100
AcDbVertex
100
AcDb2dVertex
 10
3265.150482
 20
1573.682705
 30
0.0
  0
VERTEX
  5
301
100
AcDbEntity
  8
ｶｳﾝﾀｰ/ｷｬﾋﾞﾈｯﾄ
  6
CONTINUOUS
 62
     6
100
AcDbVertex
100
AcDb2dVertex
 10
3264.997263
 20
1573.608795
 30
0.0
  0
VERTEX
  5
302
100
AcDbEntity
  8
ｶｳﾝﾀｰ/ｷｬﾋﾞﾈｯﾄ
  6
CONTINUOUS
 62
     6
100
AcDbVertex
100
AcDb2dVertex
 10
3264.845416
 20
1573.532254
 30
0.0
  0
VERTEX
  5
303
100
AcDbEntity
  8
ｶｳﾝﾀｰ/ｷｬﾋﾞﾈｯﾄ
  6
CONTINUOUS
 62
     6
100
AcDbVertex
100
AcDb2dVertex
 10
3264.694883
 20
1573.452826
 30
0.0
  0
VERTEX
  5
304
100
AcDbEntity
  8
ｶｳﾝﾀｰ/ｷｬﾋﾞﾈｯﾄ
  6
CONTINUOUS
 62
     6
100
AcDbVertex
100
AcDb2dVertex
 10
3264.545606
 20
1573.370251
 30
0.0
  0
VERTEX
  5
305
100
AcDbEntity
  8
ｶｳﾝﾀｰ/ｷｬﾋﾞﾈｯﾄ
  6
CONTINUOUS
 62
     6
100
AcDbVertex
100
AcDb2dVertex
 10
3264.397528
 20
1573.284273
 30
0.0
  0
VERTEX
  5
306
100
AcDbEntity
  8
ｶｳﾝﾀｰ/ｷｬﾋﾞﾈｯﾄ
  6
CONTINUOUS
 62
     6
100
AcDbVertex
100
AcDb2dVertex
 10
3264.250588
 20
1573.194633
 30
0.0
  0
VERTEX
  5
307
100
AcDbEntity
  8
ｶｳﾝﾀｰ/ｷｬﾋﾞﾈｯﾄ
  6
CONTINUOUS
 62
     6
100
AcDbVertex
100
AcDb2dVertex
 10
3264.12997
 20
1573.117664
 30
0.0
  0
VERTEX
  5
308
100
AcDbEntity
  8
ｶｳﾝﾀｰ/ｷｬﾋﾞﾈｯﾄ
  6
CONTINUOUS
 62
     6
100
AcDbVertex
100
AcDb2dVertex
 10
3264.010244
 20
1573.038351
 30
0.0
  0
VERTEX
  5
309
100
AcDbEntity
  8
ｶｳﾝﾀｰ/ｷｬﾋﾞﾈｯﾄ
  6
CONTINUOUS
 62
     6
100
AcDbVertex
100
AcDb2dVertex
 10
3263.891562
 20
1572.957029
 30
0.0
  0
VERTEX
  5
30A
100
AcDbEntity
  8
ｶｳﾝﾀｰ/ｷｬﾋﾞﾈｯﾄ
  6
CONTINUOUS
 62
     6
100
AcDbVertex
100
AcDb2dVertex
 10
3263.774077
 20
1572.874032
 30
0.0
  0
VERTEX
  5
30B
100
AcDbEntity
  8
ｶｳﾝﾀｰ/ｷｬﾋﾞﾈｯﾄ
  6
CONTINUOUS
 62
     6
100
AcDbVertex
100
AcDb2dVertex
 10
3263.65794
 20
1572.789694
 30
0.0
  0
VERTEX
  5
30C
100
AcDbEntity
  8
ｶｳﾝﾀｰ/ｷｬﾋﾞﾈｯﾄ
  6
CONTINUOUS
 62
     6
100
AcDbVertex
100
AcDb2dVertex
 10
3263.543305
 20
1572.70435
 30
0.0
  0
VERTEX
  5
30D
100
AcDbEntity
  8
ｶｳﾝﾀｰ/ｷｬﾋﾞﾈｯﾄ
  6
CONTINUOUS
 62
     6
100
AcDbVertex
100
AcDb2dVertex
 10
3263.430325
 20
1572.618334
 30
0.0
  0
VERTEX
  5
30E
100
AcDbEntity
  8
ｶｳﾝﾀｰ/ｷｬﾋﾞﾈｯﾄ
  6
CONTINUOUS
 62
     6
100
AcDbVertex
100
AcDb2dVertex
 10
3263.31915
 20
1572.531982
 30
0.0
  0
VERTEX
  5
30F
100
AcDbEntity
  8
ｶｳﾝﾀｰ/ｷｬﾋﾞﾈｯﾄ
  6
CONTINUOUS
 62
     6
100
AcDbVertex
100
AcDb2dVertex
 10
3263.209935
 20
1572.445626
 30
0.0
  0
VERTEX
  5
310
100
AcDbEntity
  8
ｶｳﾝﾀｰ/ｷｬﾋﾞﾈｯﾄ
  6
CONTINUOUS
 62
     6
100
AcDbVertex
100
AcDb2dVertex
 10
3263.102831
 20
1572.359602
 30
0.0
  0
VERTEX
  5
311
100
AcDbEntity
  8
ｶｳﾝﾀｰ/ｷｬﾋﾞﾈｯﾄ
  6
CONTINUOUS
 62
     6
100
AcDbVertex
100
AcDb2dVertex
 10
3262.997992
 20
1572.274245
 30
0.0
  0
VERTEX
  5
312
100
AcDbEntity
  8
ｶｳﾝﾀｰ/ｷｬﾋﾞﾈｯﾄ
  6
CONTINUOUS
 62
     6
100
AcDbVertex
100
AcDb2dVertex
 10
3262.915753
 20
1572.206326
 30
0.0
  0
VERTEX
  5
313
100
AcDbEntity
  8
ｶｳﾝﾀｰ/ｷｬﾋﾞﾈｯﾄ
  6
CONTINUOUS
 62
     6
100
AcDbVertex
100
AcDb2dVertex
 10
3262.835303
 20
1572.137825
 30
0.0
  0
VERTEX
  5
314
100
AcDbEntity
  8
ｶｳﾝﾀｰ/ｷｬﾋﾞﾈｯﾄ
  6
CONTINUOUS
 62
     6
100
AcDbVertex
100
AcDb2dVertex
 10
3262.75688
 20
1572.067516
 30
0.0
  0
VERTEX
  5
315
100
AcDbEntity
  8
ｶｳﾝﾀｰ/ｷｬﾋﾞﾈｯﾄ
  6
CONTINUOUS
 62
     6
100
AcDbVertex
100
AcDb2dVertex
 10
3262.680721
 20
1571.994176
 30
0.0
  0
VERTEX
  5
316
100
AcDbEntity
  8
ｶｳﾝﾀｰ/ｷｬﾋﾞﾈｯﾄ
  6
CONTINUOUS
 62
     6
100
AcDbVertex
100
AcDb2dVertex
 10
3262.607064
 20
1571.916579
 30
0.0
  0
VERTEX
  5
317
100
AcDbEntity
  8
ｶｳﾝﾀｰ/ｷｬﾋﾞﾈｯﾄ
  6
CONTINUOUS
 62
     6
100
AcDbVertex
100
AcDb2dVertex
 10
3262.536147
 20
1571.833501
 30
0.0
  0
VERTEX
  5
318
100
AcDbEntity
  8
ｶｳﾝﾀｰ/ｷｬﾋﾞﾈｯﾄ
  6
CONTINUOUS
 62
     6
100
AcDbVertex
100
AcDb2dVertex
 10
3262.468208
 20
1571.743717
 30
0.0
  0
VERTEX
  5
319
100
AcDbEntity
  8
ｶｳﾝﾀｰ/ｷｬﾋﾞﾈｯﾄ
  6
CONTINUOUS
 62
     6
100
AcDbVertex
100
AcDb2dVertex
 10
3262.403483
 20
1571.646001
 30
0.0
  0
VERTEX
  5
31A
100
AcDbEntity
  8
ｶｳﾝﾀｰ/ｷｬﾋﾞﾈｯﾄ
  6
CONTINUOUS
 62
     6
100
AcDbVertex
100
AcDb2dVertex
 10
3262.342211
 20
1571.53913
 30
0.0
  0
VERTEX
  5
31B
100
AcDbEntity
  8
ｶｳﾝﾀｰ/ｷｬﾋﾞﾈｯﾄ
  6
CONTINUOUS
 62
     6
100
AcDbVertex
100
AcDb2dVertex
 10
3262.284629
 20
1571.421879
 30
0.0
  0
VERTEX
  5
31C
100
AcDbEntity
  8
ｶｳﾝﾀｰ/ｷｬﾋﾞﾈｯﾄ
  6
CONTINUOUS
 62
     6
100
AcDbVertex
100
AcDb2dVertex
 10
3262.230975
 20
1571.293023
 30
0.0
  0
VERTEX
  5
31D
100
AcDbEntity
  8
ｶｳﾝﾀｰ/ｷｬﾋﾞﾈｯﾄ
  6
CONTINUOUS
 62
     6
100
AcDbVertex
100
AcDb2dVertex
 10
3262.189338
 20
1571.176272
 30
0.0
  0
VERTEX
  5
31E
100
AcDbEntity
  8
ｶｳﾝﾀｰ/ｷｬﾋﾞﾈｯﾄ
  6
CONTINUOUS
 62
     6
100
AcDbVertex
100
AcDb2dVertex
 10
3262.150792
 20
1571.054059
 30
0.0
  0
VERTEX
  5
31F
100
AcDbEntity
  8
ｶｳﾝﾀｰ/ｷｬﾋﾞﾈｯﾄ
  6
CONTINUOUS
 62
     6
100
AcDbVertex
100
AcDb2dVertex
 10
3262.115522
 20
1570.929877
 30
0.0
  0
VERTEX
  5
320
100
AcDbEntity
  8
ｶｳﾝﾀｰ/ｷｬﾋﾞﾈｯﾄ
  6
CONTINUOUS
 62
     6
100
AcDbVertex
100
AcDb2dVertex
 10
3262.083713
 20
1570.807219
 30
0.0
  0
VERTEX
  5
321
100
AcDbEntity
  8
ｶｳﾝﾀｰ/ｷｬﾋﾞﾈｯﾄ
  6
CONTINUOUS
 62
     6
100
AcDbVertex
100
AcDb2dVertex
 10
3262.055548
 20
1570.68958
 30
0.0
  0
VERTEX
  5
322
100
AcDbEntity
  8
ｶｳﾝﾀｰ/ｷｬﾋﾞﾈｯﾄ
  6
CONTINUOUS
 62
     6
100
AcDbVertex
100
AcDb2dVertex
 10
3262.031211
 20
1570.580454
 30
0.0
  0
VERTEX
  5
323
100
AcDbEntity
  8
ｶｳﾝﾀｰ/ｷｬﾋﾞﾈｯﾄ
  6
CONTINUOUS
 62
     6
100
AcDbVertex
100
AcDb2dVertex
 10
3262.010887
 20
1570.483334
 30
0.0
  0
VERTEX
  5
324
100
AcDbEntity
  8
ｶｳﾝﾀｰ/ｷｬﾋﾞﾈｯﾄ
  6
CONTINUOUS
 62
     6
100
AcDbVertex
100
AcDb2dVertex
 10
3261.994759
 20
1570.401714
 30
0.0
  0
VERTEX
  5
325
100
AcDbEntity
  8
ｶｳﾝﾀｰ/ｷｬﾋﾞﾈｯﾄ
  6
CONTINUOUS
 62
     6
100
AcDbVertex
100
AcDb2dVertex
 10
3261.983011
 20
1570.339089
 30
0.0
  0
VERTEX
  5
326
100
AcDbEntity
  8
ｶｳﾝﾀｰ/ｷｬﾋﾞﾈｯﾄ
  6
CONTINUOUS
 62
     6
100
AcDbVertex
100
AcDb2dVertex
 10
3261.975827
 20
1570.298951
 30
0.0
  0
VERTEX
  5
327
100
AcDbEntity
  8
ｶｳﾝﾀｰ/ｷｬﾋﾞﾈｯﾄ
  6
CONTINUOUS
 62
     6
100
AcDbVertex
100
AcDb2dVertex
 10
3261.973391
 20
1570.284796
 30
0.0
  0
SEQEND
  5
328
100
AcDbEntity
  8
ｶｳﾝﾀｰ/ｷｬﾋﾞﾈｯﾄ
  6
CONTINUOUS
 62
     6
  0
POLYLINE
  5
329
100
AcDbEntity
  8
ｶｳﾝﾀｰ/ｷｬﾋﾞﾈｯﾄ
  6
CONTINUOUS
 62
     6
100
AcDb2dPolyline
 66
     1
 10
0.0
 20
0.0
 30
0.0
 70
   128
  0
VERTEX
  5
32A
100
AcDbEntity
  8
ｶｳﾝﾀｰ/ｷｬﾋﾞﾈｯﾄ
  6
CONTINUOUS
 62
     6
100
AcDbVertex
100
AcDb2dVertex
 10
3295.996839
 20
1570.618881
 30
0.0
  0
VERTEX
  5
32B
100
AcDbEntity
  8
ｶｳﾝﾀｰ/ｷｬﾋﾞﾈｯﾄ
  6
CONTINUOUS
 62
     6
100
AcDbVertex
100
AcDb2dVertex
 10
3295.994297
 20
1570.62792
 30
0.0
  0
VERTEX
  5
32C
100
AcDbEntity
  8
ｶｳﾝﾀｰ/ｷｬﾋﾞﾈｯﾄ
  6
CONTINUOUS
 62
     6
100
AcDbVertex
100
AcDb2dVertex
 10
3295.986943
 20
1570.653628
 30
0.0
  0
VERTEX
  5
32D
100
AcDbEntity
  8
ｶｳﾝﾀｰ/ｷｬﾋﾞﾈｯﾄ
  6
CONTINUOUS
 62
     6
100
AcDbVertex
100
AcDb2dVertex
 10
3295.975188
 20
1570.693888
 30
0.0
  0
VERTEX
  5
32E
100
AcDbEntity
  8
ｶｳﾝﾀｰ/ｷｬﾋﾞﾈｯﾄ
  6
CONTINUOUS
 62
     6
100
AcDbVertex
100
AcDb2dVertex
 10
3295.959442
 20
1570.746583
 30
0.0
  0
VERTEX
  5
32F
100
AcDbEntity
  8
ｶｳﾝﾀｰ/ｷｬﾋﾞﾈｯﾄ
  6
CONTINUOUS
 62
     6
100
AcDbVertex
100
AcDb2dVertex
 10
3295.940116
 20
1570.809598
 30
0.0
  0
VERTEX
  5
330
100
AcDbEntity
  8
ｶｳﾝﾀｰ/ｷｬﾋﾞﾈｯﾄ
  6
CONTINUOUS
 62
     6
100
AcDbVertex
100
AcDb2dVertex
 10
3295.91762
 20
1570.880814
 30
0.0
  0
VERTEX
  5
331
100
AcDbEntity
  8
ｶｳﾝﾀｰ/ｷｬﾋﾞﾈｯﾄ
  6
CONTINUOUS
 62
     6
100
AcDbVertex
100
AcDb2dVertex
 10
3295.892365
 20
1570.958117
 30
0.0
  0
VERTEX
  5
332
100
AcDbEntity
  8
ｶｳﾝﾀｰ/ｷｬﾋﾞﾈｯﾄ
  6
CONTINUOUS
 62
     6
100
AcDbVertex
100
AcDb2dVertex
 10
3295.86476
 20
1571.039389
 30
0.0
  0
VERTEX
  5
333
100
AcDbEntity
  8
ｶｳﾝﾀｰ/ｷｬﾋﾞﾈｯﾄ
  6
CONTINUOUS
 62
     6
100
AcDbVertex
100
AcDb2dVertex
 10
3295.835217
 20
1571.122514
 30
0.0
  0
VERTEX
  5
334
100
AcDbEntity
  8
ｶｳﾝﾀｰ/ｷｬﾋﾞﾈｯﾄ
  6
CONTINUOUS
 62
     6
100
AcDbVertex
100
AcDb2dVertex
 10
3295.804146
 20
1571.205376
 30
0.0
  0
VERTEX
  5
335
100
AcDbEntity
  8
ｶｳﾝﾀｰ/ｷｬﾋﾞﾈｯﾄ
  6
CONTINUOUS
 62
     6
100
AcDbVertex
100
AcDb2dVertex
 10
3295.771957
 20
1571.285858
 30
0.0
  0
VERTEX
  5
336
100
AcDbEntity
  8
ｶｳﾝﾀｰ/ｷｬﾋﾞﾈｯﾄ
  6
CONTINUOUS
 62
     6
100
AcDbVertex
100
AcDb2dVertex
 10
3295.713444
 20
1571.417485
 30
0.0
  0
VERTEX
  5
337
100
AcDbEntity
  8
ｶｳﾝﾀｰ/ｷｬﾋﾞﾈｯﾄ
  6
CONTINUOUS
 62
     6
100
AcDbVertex
100
AcDb2dVertex
 10
3295.652753
 20
1571.536522
 30
0.0
  0
VERTEX
  5
338
100
AcDbEntity
  8
ｶｳﾝﾀｰ/ｷｬﾋﾞﾈｯﾄ
  6
CONTINUOUS
 62
     6
100
AcDbVertex
100
AcDb2dVertex
 10
3295.589902
 20
1571.644322
 30
0.0
  0
VERTEX
  5
339
100
AcDbEntity
  8
ｶｳﾝﾀｰ/ｷｬﾋﾞﾈｯﾄ
  6
CONTINUOUS
 62
     6
100
AcDbVertex
100
AcDb2dVertex
 10
3295.524905
 20
1571.742234
 30
0.0
  0
VERTEX
  5
33A
100
AcDbEntity
  8
ｶｳﾝﾀｰ/ｷｬﾋﾞﾈｯﾄ
  6
CONTINUOUS
 62
     6
100
AcDbVertex
100
AcDb2dVertex
 10
3295.45778
 20
1571.83161
 30
0.0
  0
VERTEX
  5
33B
100
AcDbEntity
  8
ｶｳﾝﾀｰ/ｷｬﾋﾞﾈｯﾄ
  6
CONTINUOUS
 62
     6
100
AcDbVertex
100
AcDb2dVertex
 10
3295.388543
 20
1571.913801
 30
0.0
  0
VERTEX
  5
33C
100
AcDbEntity
  8
ｶｳﾝﾀｰ/ｷｬﾋﾞﾈｯﾄ
  6
CONTINUOUS
 62
     6
100
AcDbVertex
100
AcDb2dVertex
 10
3295.317208
 20
1571.990156
 30
0.0
  0
VERTEX
  5
33D
100
AcDbEntity
  8
ｶｳﾝﾀｰ/ｷｬﾋﾞﾈｯﾄ
  6
CONTINUOUS
 62
     6
100
AcDbVertex
100
AcDb2dVertex
 10
3295.243793
 20
1572.062029
 30
0.0
  0
VERTEX
  5
33E
100
AcDbEntity
  8
ｶｳﾝﾀｰ/ｷｬﾋﾞﾈｯﾄ
  6
CONTINUOUS
 62
     6
100
AcDbVertex
100
AcDb2dVertex
 10
3295.168313
 20
1572.130768
 30
0.0
  0
VERTEX
  5
33F
100
AcDbEntity
  8
ｶｳﾝﾀｰ/ｷｬﾋﾞﾈｯﾄ
  6
CONTINUOUS
 62
     6
100
AcDbVertex
100
AcDb2dVertex
 10
3295.090784
 20
1572.197725
 30
0.0
  0
VERTEX
  5
340
100
AcDbEntity
  8
ｶｳﾝﾀｰ/ｷｬﾋﾞﾈｯﾄ
  6
CONTINUOUS
 62
     6
100
AcDbVertex
100
AcDb2dVertex
 10
3295.011223
 20
1572.264252
 30
0.0
  0
VERTEX
  5
341
100
AcDbEntity
  8
ｶｳﾝﾀｰ/ｷｬﾋﾞﾈｯﾄ
  6
CONTINUOUS
 62
     6
100
AcDbVertex
100
AcDb2dVertex
 10
3294.90889
 20
1572.348426
 30
0.0
  0
VERTEX
  5
342
100
AcDbEntity
  8
ｶｳﾝﾀｰ/ｷｬﾋﾞﾈｯﾄ
  6
CONTINUOUS
 62
     6
100
AcDbVertex
100
AcDb2dVertex
 10
3294.803636
 20
1572.433655
 30
0.0
  0
VERTEX
  5
343
100
AcDbEntity
  8
ｶｳﾝﾀｰ/ｷｬﾋﾞﾈｯﾄ
  6
CONTINUOUS
 62
     6
100
AcDbVertex
100
AcDb2dVertex
 10
3294.695697
 20
1572.519557
 30
0.0
  0
VERTEX
  5
344
100
AcDbEntity
  8
ｶｳﾝﾀｰ/ｷｬﾋﾞﾈｯﾄ
  6
CONTINUOUS
 62
     6
100
AcDbVertex
100
AcDb2dVertex
 10
3294.585308
 20
1572.605748
 30
0.0
  0
VERTEX
  5
345
100
AcDbEntity
  8
ｶｳﾝﾀｰ/ｷｬﾋﾞﾈｯﾄ
  6
CONTINUOUS
 62
     6
100
AcDbVertex
100
AcDb2dVertex
 10
3294.472705
 20
1572.691843
 30
0.0
  0
VERTEX
  5
346
100
AcDbEntity
  8
ｶｳﾝﾀｰ/ｷｬﾋﾞﾈｯﾄ
  6
CONTINUOUS
 62
     6
100
AcDbVertex
100
AcDb2dVertex
 10
3294.358124
 20
1572.777459
 30
0.0
  0
VERTEX
  5
347
100
AcDbEntity
  8
ｶｳﾝﾀｰ/ｷｬﾋﾞﾈｯﾄ
  6
CONTINUOUS
 62
     6
100
AcDbVertex
100
AcDb2dVertex
 10
3294.241799
 20
1572.862212
 30
0.0
  0
VERTEX
  5
348
100
AcDbEntity
  8
ｶｳﾝﾀｰ/ｷｬﾋﾞﾈｯﾄ
  6
CONTINUOUS
 62
     6
100
AcDbVertex
100
AcDb2dVertex
 10
3294.123966
 20
1572.945718
 30
0.0
  0
VERTEX
  5
349
100
AcDbEntity
  8
ｶｳﾝﾀｰ/ｷｬﾋﾞﾈｯﾄ
  6
CONTINUOUS
 62
     6
100
AcDbVertex
100
AcDb2dVertex
 10
3294.004861
 20
1573.027595
 30
0.0
  0
VERTEX
  5
34A
100
AcDbEntity
  8
ｶｳﾝﾀｰ/ｷｬﾋﾞﾈｯﾄ
  6
CONTINUOUS
 62
     6
100
AcDbVertex
100
AcDb2dVertex
 10
3293.884718
 20
1573.107457
 30
0.0
  0
VERTEX
  5
34B
100
AcDbEntity
  8
ｶｳﾝﾀｰ/ｷｬﾋﾞﾈｯﾄ
  6
CONTINUOUS
 62
     6
100
AcDbVertex
100
AcDb2dVertex
 10
3293.763774
 20
1573.184922
 30
0.0
  0
VERTEX
  5
34C
100
AcDbEntity
  8
ｶｳﾝﾀｰ/ｷｬﾋﾞﾈｯﾄ
  6
CONTINUOUS
 62
     6
100
AcDbVertex
100
AcDb2dVertex
 10
3293.616183
 20
1573.275315
 30
0.0
  0
VERTEX
  5
34D
100
AcDbEntity
  8
ｶｳﾝﾀｰ/ｷｬﾋﾞﾈｯﾄ
  6
CONTINUOUS
 62
     6
100
AcDbVertex
100
AcDb2dVertex
 10
3293.467671
 20
1573.361889
 30
0.0
  0
VERTEX
  5
34E
100
AcDbEntity
  8
ｶｳﾝﾀｰ/ｷｬﾋﾞﾈｯﾄ
  6
CONTINUOUS
 62
     6
100
AcDbVertex
100
AcDb2dVertex
 10
3293.31815
 20
1573.44492
 30
0.0
  0
VERTEX
  5
34F
100
AcDbEntity
  8
ｶｳﾝﾀｰ/ｷｬﾋﾞﾈｯﾄ
  6
CONTINUOUS
 62
     6
100
AcDbVertex
100
AcDb2dVertex
 10
3293.167535
 20
1573.524686
 30
0.0
  0
VERTEX
  5
350
100
AcDbEntity
  8
ｶｳﾝﾀｰ/ｷｬﾋﾞﾈｯﾄ
  6
CONTINUOUS
 62
     6
100
AcDbVertex
100
AcDb2dVertex
 10
3293.015739
 20
1573.601463
 30
0.0
  0
VERTEX
  5
351
100
AcDbEntity
  8
ｶｳﾝﾀｰ/ｷｬﾋﾞﾈｯﾄ
  6
CONTINUOUS
 62
     6
100
AcDbVertex
100
AcDb2dVertex
 10
3292.862673
 20
1573.675529
 30
0.0
  0
VERTEX
  5
352
100
AcDbEntity
  8
ｶｳﾝﾀｰ/ｷｬﾋﾞﾈｯﾄ
  6
CONTINUOUS
 62
     6
100
AcDbVertex
100
AcDb2dVertex
 10
3292.708251
 20
1573.747159
 30
0.0
  0
VERTEX
  5
353
100
AcDbEntity
  8
ｶｳﾝﾀｰ/ｷｬﾋﾞﾈｯﾄ
  6
CONTINUOUS
 62
     6
100
AcDbVertex
100
AcDb2dVertex
 10
3292.552386
 20
1573.816632
 30
0.0
  0
VERTEX
  5
354
100
AcDbEntity
  8
ｶｳﾝﾀｰ/ｷｬﾋﾞﾈｯﾄ
  6
CONTINUOUS
 62
     6
100
AcDbVertex
100
AcDb2dVertex
 10
3292.394991
 20
1573.884224
 30
0.0
  0
VERTEX
  5
355
100
AcDbEntity
  8
ｶｳﾝﾀｰ/ｷｬﾋﾞﾈｯﾄ
  6
CONTINUOUS
 62
     6
100
AcDbVertex
100
AcDb2dVertex
 10
3292.235979
 20
1573.950211
 30
0.0
  0
VERTEX
  5
356
100
AcDbEntity
  8
ｶｳﾝﾀｰ/ｷｬﾋﾞﾈｯﾄ
  6
CONTINUOUS
 62
     6
100
AcDbVertex
100
AcDb2dVertex
 10
3292.075263
 20
1574.014871
 30
0.0
  0
VERTEX
  5
357
100
AcDbEntity
  8
ｶｳﾝﾀｰ/ｷｬﾋﾞﾈｯﾄ
  6
CONTINUOUS
 62
     6
100
AcDbVertex
100
AcDb2dVertex
 10
3291.88299
 20
1574.089924
 30
0.0
  0
VERTEX
  5
358
100
AcDbEntity
  8
ｶｳﾝﾀｰ/ｷｬﾋﾞﾈｯﾄ
  6
CONTINUOUS
 62
     6
100
AcDbVertex
100
AcDb2dVertex
 10
3291.688886
 20
1574.163412
 30
0.0
  0
VERTEX
  5
359
100
AcDbEntity
  8
ｶｳﾝﾀｰ/ｷｬﾋﾞﾈｯﾄ
  6
CONTINUOUS
 62
     6
100
AcDbVertex
100
AcDb2dVertex
 10
3291.493626
 20
1574.235241
 30
0.0
  0
VERTEX
  5
35A
100
AcDbEntity
  8
ｶｳﾝﾀｰ/ｷｬﾋﾞﾈｯﾄ
  6
CONTINUOUS
 62
     6
100
AcDbVertex
100
AcDb2dVertex
 10
3291.297886
 20
1574.305317
 30
0.0
  0
VERTEX
  5
35B
100
AcDbEntity
  8
ｶｳﾝﾀｰ/ｷｬﾋﾞﾈｯﾄ
  6
CONTINUOUS
 62
     6
100
AcDbVertex
100
AcDb2dVertex
 10
3291.102341
 20
1574.373545
 30
0.0
  0
VERTEX
  5
35C
100
AcDbEntity
  8
ｶｳﾝﾀｰ/ｷｬﾋﾞﾈｯﾄ
  6
CONTINUOUS
 62
     6
100
AcDbVertex
100
AcDb2dVertex
 10
3290.907665
 20
1574.43983
 30
0.0
  0
VERTEX
  5
35D
100
AcDbEntity
  8
ｶｳﾝﾀｰ/ｷｬﾋﾞﾈｯﾄ
  6
CONTINUOUS
 62
     6
100
AcDbVertex
100
AcDb2dVertex
 10
3290.714535
 20
1574.504078
 30
0.0
  0
VERTEX
  5
35E
100
AcDbEntity
  8
ｶｳﾝﾀｰ/ｷｬﾋﾞﾈｯﾄ
  6
CONTINUOUS
 62
     6
100
AcDbVertex
100
AcDb2dVertex
 10
3290.523624
 20
1574.566193
 30
0.0
  0
VERTEX
  5
35F
100
AcDbEntity
  8
ｶｳﾝﾀｰ/ｷｬﾋﾞﾈｯﾄ
  6
CONTINUOUS
 62
     6
100
AcDbVertex
100
AcDb2dVertex
 10
3290.335608
 20
1574.626082
 30
0.0
  0
VERTEX
  5
360
100
AcDbEntity
  8
ｶｳﾝﾀｰ/ｷｬﾋﾞﾈｯﾄ
  6
CONTINUOUS
 62
     6
100
AcDbVertex
100
AcDb2dVertex
 10
3290.151162
 20
1574.683649
 30
0.0
  0
VERTEX
  5
361
100
AcDbEntity
  8
ｶｳﾝﾀｰ/ｷｬﾋﾞﾈｯﾄ
  6
CONTINUOUS
 62
     6
100
AcDbVertex
100
AcDb2dVertex
 10
3289.970962
 20
1574.7388
 30
0.0
  0
VERTEX
  5
362
100
AcDbEntity
  8
ｶｳﾝﾀｰ/ｷｬﾋﾞﾈｯﾄ
  6
CONTINUOUS
 62
     6
100
AcDbVertex
100
AcDb2dVertex
 10
3289.772777
 20
1574.798168
 30
0.0
  0
VERTEX
  5
363
100
AcDbEntity
  8
ｶｳﾝﾀｰ/ｷｬﾋﾞﾈｯﾄ
  6
CONTINUOUS
 62
     6
100
AcDbVertex
100
AcDb2dVertex
 10
3289.578101
 20
1574.854837
 30
0.0
  0
VERTEX
  5
364
100
AcDbEntity
  8
ｶｳﾝﾀｰ/ｷｬﾋﾞﾈｯﾄ
  6
CONTINUOUS
 62
     6
100
AcDbVertex
100
AcDb2dVertex
 10
3289.384166
 20
1574.909309
 30
0.0
  0
VERTEX
  5
365
100
AcDbEntity
  8
ｶｳﾝﾀｰ/ｷｬﾋﾞﾈｯﾄ
  6
CONTINUOUS
 62
     6
100
AcDbVertex
100
AcDb2dVertex
 10
3289.188207
 20
1574.962088
 30
0.0
  0
VERTEX
  5
366
100
AcDbEntity
  8
ｶｳﾝﾀｰ/ｷｬﾋﾞﾈｯﾄ
  6
CONTINUOUS
 62
     6
100
AcDbVertex
100
AcDb2dVertex
 10
3288.987457
 20
1575.013678
 30
0.0
  0
VERTEX
  5
367
100
AcDbEntity
  8
ｶｳﾝﾀｰ/ｷｬﾋﾞﾈｯﾄ
  6
CONTINUOUS
 62
     6
100
AcDbVertex
100
AcDb2dVertex
 10
3288.779148
 20
1575.06458
 30
0.0
  0
VERTEX
  5
368
100
AcDbEntity
  8
ｶｳﾝﾀｰ/ｷｬﾋﾞﾈｯﾄ
  6
CONTINUOUS
 62
     6
100
AcDbVertex
100
AcDb2dVertex
 10
3288.560513
 20
1575.115299
 30
0.0
  0
VERTEX
  5
369
100
AcDbEntity
  8
ｶｳﾝﾀｰ/ｷｬﾋﾞﾈｯﾄ
  6
CONTINUOUS
 62
     6
100
AcDbVertex
100
AcDb2dVertex
 10
3288.328786
 20
1575.166337
 30
0.0
  0
VERTEX
  5
36A
100
AcDbEntity
  8
ｶｳﾝﾀｰ/ｷｬﾋﾞﾈｯﾄ
  6
CONTINUOUS
 62
     6
100
AcDbVertex
100
AcDb2dVertex
 10
3288.081201
 20
1575.218198
 30
0.0
  0
VERTEX
  5
36B
100
AcDbEntity
  8
ｶｳﾝﾀｰ/ｷｬﾋﾞﾈｯﾄ
  6
CONTINUOUS
 62
     6
100
AcDbVertex
100
AcDb2dVertex
 10
3287.81499
 20
1575.271384
 30
0.0
  0
VERTEX
  5
36C
100
AcDbEntity
  8
ｶｳﾝﾀｰ/ｷｬﾋﾞﾈｯﾄ
  6
CONTINUOUS
 62
     6
100
AcDbVertex
100
AcDb2dVertex
 10
3287.527386
 20
1575.3264
 30
0.0
  0
VERTEX
  5
36D
100
AcDbEntity
  8
ｶｳﾝﾀｰ/ｷｬﾋﾞﾈｯﾄ
  6
CONTINUOUS
 62
     6
100
AcDbVertex
100
AcDb2dVertex
 10
3287.351897
 20
1575.358958
 30
0.0
  0
VERTEX
  5
36E
100
AcDbEntity
  8
ｶｳﾝﾀｰ/ｷｬﾋﾞﾈｯﾄ
  6
CONTINUOUS
 62
     6
100
AcDbVertex
100
AcDb2dVertex
 10
3287.172708
 20
1575.391614
 30
0.0
  0
VERTEX
  5
36F
100
AcDbEntity
  8
ｶｳﾝﾀｰ/ｷｬﾋﾞﾈｯﾄ
  6
CONTINUOUS
 62
     6
100
AcDbVertex
100
AcDb2dVertex
 10
3286.99412
 20
1575.423695
 30
0.0
  0
VERTEX
  5
370
100
AcDbEntity
  8
ｶｳﾝﾀｰ/ｷｬﾋﾞﾈｯﾄ
  6
CONTINUOUS
 62
     6
100
AcDbVertex
100
AcDb2dVertex
 10
3286.820434
 20
1575.454526
 30
0.0
  0
VERTEX
  5
371
100
AcDbEntity
  8
ｶｳﾝﾀｰ/ｷｬﾋﾞﾈｯﾄ
  6
CONTINUOUS
 62
     6
100
AcDbVertex
100
AcDb2dVertex
 10
3286.655951
 20
1575.483433
 30
0.0
  0
VERTEX
  5
372
100
AcDbEntity
  8
ｶｳﾝﾀｰ/ｷｬﾋﾞﾈｯﾄ
  6
CONTINUOUS
 62
     6
100
AcDbVertex
100
AcDb2dVertex
 10
3286.504972
 20
1575.509742
 30
0.0
  0
VERTEX
  5
373
100
AcDbEntity
  8
ｶｳﾝﾀｰ/ｷｬﾋﾞﾈｯﾄ
  6
CONTINUOUS
 62
     6
100
AcDbVertex
100
AcDb2dVertex
 10
3286.371799
 20
1575.532779
 30
0.0
  0
VERTEX
  5
374
100
AcDbEntity
  8
ｶｳﾝﾀｰ/ｷｬﾋﾞﾈｯﾄ
  6
CONTINUOUS
 62
     6
100
AcDbVertex
100
AcDb2dVertex
 10
3286.260732
 20
1575.55187
 30
0.0
  0
VERTEX
  5
375
100
AcDbEntity
  8
ｶｳﾝﾀｰ/ｷｬﾋﾞﾈｯﾄ
  6
CONTINUOUS
 62
     6
100
AcDbVertex
100
AcDb2dVertex
 10
3286.176074
 20
1575.566341
 30
0.0
  0
VERTEX
  5
376
100
AcDbEntity
  8
ｶｳﾝﾀｰ/ｷｬﾋﾞﾈｯﾄ
  6
CONTINUOUS
 62
     6
100
AcDbVertex
100
AcDb2dVertex
 10
3286.122124
 20
1575.575518
 30
0.0
  0
VERTEX
  5
377
100
AcDbEntity
  8
ｶｳﾝﾀｰ/ｷｬﾋﾞﾈｯﾄ
  6
CONTINUOUS
 62
     6
100
AcDbVertex
100
AcDb2dVertex
 10
3286.103185
 20
1575.578727
 30
0.0
  0
SEQEND
  5
378
100
AcDbEntity
  8
ｶｳﾝﾀｰ/ｷｬﾋﾞﾈｯﾄ
  6
CONTINUOUS
 62
     6
  0
POLYLINE
  5
379
100
AcDbEntity
  8
ｶｳﾝﾀｰ/ｷｬﾋﾞﾈｯﾄ
  6
CONTINUOUS
 62
     6
100
AcDb2dPolyline
 66
     1
 10
0.0
 20
0.0
 30
0.0
 70
   128
  0
VERTEX
  5
37A
100
AcDbEntity
  8
ｶｳﾝﾀｰ/ｷｬﾋﾞﾈｯﾄ
  6
CONTINUOUS
 62
     6
100
AcDbVertex
100
AcDb2dVertex
 10
3262.004507
 20
1570.467916
 30
0.0
  0
VERTEX
  5
37B
100
AcDbEntity
  8
ｶｳﾝﾀｰ/ｷｬﾋﾞﾈｯﾄ
  6
CONTINUOUS
 62
     6
100
AcDbVertex
100
AcDb2dVertex
 10
3262.006189
 20
1570.459562
 30
0.0
  0
SEQEND
  5
37C
100
AcDbEntity
  8
ｶｳﾝﾀｰ/ｷｬﾋﾞﾈｯﾄ
  6
CONTINUOUS
 62
     6
  0
POLYLINE
  5
37D
100
AcDbEntity
  8
ｶｳﾝﾀｰ/ｷｬﾋﾞﾈｯﾄ
  6
CONTINUOUS
 62
     6
100
AcDb2dPolyline
 66
     1
 10
0.0
 20
0.0
 30
0.0
 70
   128
  0
VERTEX
  5
37E
100
AcDbEntity
  8
ｶｳﾝﾀｰ/ｷｬﾋﾞﾈｯﾄ
  6
CONTINUOUS
 62
     6
100
AcDbVertex
100
AcDb2dVertex
 10
3296.026599
 20
1570.823986
 30
0.0
  0
VERTEX
  5
37F
100
AcDbEntity
  8
ｶｳﾝﾀｰ/ｷｬﾋﾞﾈｯﾄ
  6
CONTINUOUS
 62
     6
100
AcDbVertex
100
AcDb2dVertex
 10
3295.996839
 20
1571.158104
 30
0.0
  0
SEQEND
  5
380
100
AcDbEntity
  8
ｶｳﾝﾀｰ/ｷｬﾋﾞﾈｯﾄ
  6
CONTINUOUS
 62
     6
  0
POLYLINE
  5
381
100
AcDbEntity
  8
ｶｳﾝﾀｰ/ｷｬﾋﾞﾈｯﾄ
  6
CONTINUOUS
 62
     6
100
AcDb2dPolyline
 66
     1
 10
0.0
 20
0.0
 30
0.0
 70
   128
  0
VERTEX
  5
382
100
AcDbEntity
  8
ｶｳﾝﾀｰ/ｷｬﾋﾞﾈｯﾄ
  6
CONTINUOUS
 62
     6
100
AcDbVertex
100
AcDb2dVertex
 10
3296.014184
 20
1570.63702
 30
0.0
  0
VERTEX
  5
383
100
AcDbEntity
  8
ｶｳﾝﾀｰ/ｷｬﾋﾞﾈｯﾄ
  6
CONTINUOUS
 62
     6
100
AcDbVertex
100
AcDb2dVertex
 10
3296.02337
 20
1570.720339
 30
0.0
  0
SEQEND
  5
384
100
AcDbEntity
  8
ｶｳﾝﾀｰ/ｷｬﾋﾞﾈｯﾄ
  6
CONTINUOUS
 62
     6
  0
POLYLINE
  5
385
100
AcDbEntity
  8
ｶｳﾝﾀｰ/ｷｬﾋﾞﾈｯﾄ
  6
CONTINUOUS
 62
     6
100
AcDb2dPolyline
 66
     1
 10
0.0
 20
0.0
 30
0.0
 70
   128
  0
VERTEX
  5
386
100
AcDbEntity
  8
ｶｳﾝﾀｰ/ｷｬﾋﾞﾈｯﾄ
  6
CONTINUOUS
 62
     6
100
AcDbVertex
100
AcDb2dVertex
 10
3286.103185
 20
1575.578727
 30
0.0
  0
VERTEX
  5
387
100
AcDbEntity
  8
ｶｳﾝﾀｰ/ｷｬﾋﾞﾈｯﾄ
  6
CONTINUOUS
 62
     6
100
AcDbVertex
100
AcDb2dVertex
 10
3286.08649
 20
1575.581173
 30
0.0
  0
VERTEX
  5
388
100
AcDbEntity
  8
ｶｳﾝﾀｰ/ｷｬﾋﾞﾈｯﾄ
  6
CONTINUOUS
 62
     6
100
AcDbVertex
100
AcDb2dVertex
 10
3286.038853
 20
1575.588128
 30
0.0
  0
VERTEX
  5
389
100
AcDbEntity
  8
ｶｳﾝﾀｰ/ｷｬﾋﾞﾈｯﾄ
  6
CONTINUOUS
 62
     6
100
AcDbVertex
100
AcDb2dVertex
 10
3285.963947
 20
1575.599015
 30
0.0
  0
VERTEX
  5
38A
100
AcDbEntity
  8
ｶｳﾝﾀｰ/ｷｬﾋﾞﾈｯﾄ
  6
CONTINUOUS
 62
     6
100
AcDbVertex
100
AcDb2dVertex
 10
3285.865447
 20
1575.613258
 30
0.0
  0
VERTEX
  5
38B
100
AcDbEntity
  8
ｶｳﾝﾀｰ/ｷｬﾋﾞﾈｯﾄ
  6
CONTINUOUS
 62
     6
100
AcDbVertex
100
AcDb2dVertex
 10
3285.747025
 20
1575.630282
 30
0.0
  0
VERTEX
  5
38C
100
AcDbEntity
  8
ｶｳﾝﾀｰ/ｷｬﾋﾞﾈｯﾄ
  6
CONTINUOUS
 62
     6
100
AcDbVertex
100
AcDb2dVertex
 10
3285.612356
 20
1575.64951
 30
0.0
  0
VERTEX
  5
38D
100
AcDbEntity
  8
ｶｳﾝﾀｰ/ｷｬﾋﾞﾈｯﾄ
  6
CONTINUOUS
 62
     6
100
AcDbVertex
100
AcDb2dVertex
 10
3285.465112
 20
1575.670367
 30
0.0
  0
VERTEX
  5
38E
100
AcDbEntity
  8
ｶｳﾝﾀｰ/ｷｬﾋﾞﾈｯﾄ
  6
CONTINUOUS
 62
     6
100
AcDbVertex
100
AcDb2dVertex
 10
3285.308967
 20
1575.692276
 30
0.0
  0
VERTEX
  5
38F
100
AcDbEntity
  8
ｶｳﾝﾀｰ/ｷｬﾋﾞﾈｯﾄ
  6
CONTINUOUS
 62
     6
100
AcDbVertex
100
AcDb2dVertex
 10
3285.147594
 20
1575.714662
 30
0.0
  0
VERTEX
  5
390
100
AcDbEntity
  8
ｶｳﾝﾀｰ/ｷｬﾋﾞﾈｯﾄ
  6
CONTINUOUS
 62
     6
100
AcDbVertex
100
AcDb2dVertex
 10
3284.984668
 20
1575.736948
 30
0.0
  0
VERTEX
  5
391
100
AcDbEntity
  8
ｶｳﾝﾀｰ/ｷｬﾋﾞﾈｯﾄ
  6
CONTINUOUS
 62
     6
100
AcDbVertex
100
AcDb2dVertex
 10
3284.82386
 20
1575.758558
 30
0.0
  0
VERTEX
  5
392
100
AcDbEntity
  8
ｶｳﾝﾀｰ/ｷｬﾋﾞﾈｯﾄ
  6
CONTINUOUS
 62
     6
100
AcDbVertex
100
AcDb2dVertex
 10
3284.483026
 20
1575.802699
 30
0.0
  0
VERTEX
  5
393
100
AcDbEntity
  8
ｶｳﾝﾀｰ/ｷｬﾋﾞﾈｯﾄ
  6
CONTINUOUS
 62
     6
100
AcDbVertex
100
AcDb2dVertex
 10
3284.167908
 20
1575.841129
 30
0.0
  0
VERTEX
  5
394
100
AcDbEntity
  8
ｶｳﾝﾀｰ/ｷｬﾋﾞﾈｯﾄ
  6
CONTINUOUS
 62
     6
100
AcDbVertex
100
AcDb2dVertex
 10
3283.875206
 20
1575.87441
 30
0.0
  0
VERTEX
  5
395
100
AcDbEntity
  8
ｶｳﾝﾀｰ/ｷｬﾋﾞﾈｯﾄ
  6
CONTINUOUS
 62
     6
100
AcDbVertex
100
AcDb2dVertex
 10
3283.601619
 20
1575.9031
 30
0.0
  0
VERTEX
  5
396
100
AcDbEntity
  8
ｶｳﾝﾀｰ/ｷｬﾋﾞﾈｯﾄ
  6
CONTINUOUS
 62
     6
100
AcDbVertex
100
AcDb2dVertex
 10
3283.343847
 20
1575.927758
 30
0.0
  0
VERTEX
  5
397
100
AcDbEntity
  8
ｶｳﾝﾀｰ/ｷｬﾋﾞﾈｯﾄ
  6
CONTINUOUS
 62
     6
100
AcDbVertex
100
AcDb2dVertex
 10
3283.09859
 20
1575.948945
 30
0.0
  0
VERTEX
  5
398
100
AcDbEntity
  8
ｶｳﾝﾀｰ/ｷｬﾋﾞﾈｯﾄ
  6
CONTINUOUS
 62
     6
100
AcDbVertex
100
AcDb2dVertex
 10
3282.862545
 20
1575.967218
 30
0.0
  0
VERTEX
  5
399
100
AcDbEntity
  8
ｶｳﾝﾀｰ/ｷｬﾋﾞﾈｯﾄ
  6
CONTINUOUS
 62
     6
100
AcDbVertex
100
AcDb2dVertex
 10
3282.632414
 20
1575.983139
 30
0.0
  0
VERTEX
  5
39A
100
AcDbEntity
  8
ｶｳﾝﾀｰ/ｷｬﾋﾞﾈｯﾄ
  6
CONTINUOUS
 62
     6
100
AcDbVertex
100
AcDb2dVertex
 10
3282.404896
 20
1575.997265
 30
0.0
  0
VERTEX
  5
39B
100
AcDbEntity
  8
ｶｳﾝﾀｰ/ｷｬﾋﾞﾈｯﾄ
  6
CONTINUOUS
 62
     6
100
AcDbVertex
100
AcDb2dVertex
 10
3282.176688
 20
1576.010157
 30
0.0
  0
VERTEX
  5
39C
100
AcDbEntity
  8
ｶｳﾝﾀｰ/ｷｬﾋﾞﾈｯﾄ
  6
CONTINUOUS
 62
     6
100
AcDbVertex
100
AcDb2dVertex
 10
3281.944492
 20
1576.022373
 30
0.0
  0
VERTEX
  5
39D
100
AcDbEntity
  8
ｶｳﾝﾀｰ/ｷｬﾋﾞﾈｯﾄ
  6
CONTINUOUS
 62
     6
100
AcDbVertex
100
AcDb2dVertex
 10
3281.699304
 20
1576.034663
 30
0.0
  0
VERTEX
  5
39E
100
AcDbEntity
  8
ｶｳﾝﾀｰ/ｷｬﾋﾞﾈｯﾄ
  6
CONTINUOUS
 62
     6
100
AcDbVertex
100
AcDb2dVertex
 10
3281.447136
 20
1576.046647
 30
0.0
  0
VERTEX
  5
39F
100
AcDbEntity
  8
ｶｳﾝﾀｰ/ｷｬﾋﾞﾈｯﾄ
  6
CONTINUOUS
 62
     6
100
AcDbVertex
100
AcDb2dVertex
 10
3281.188684
 20
1576.05814
 30
0.0
  0
VERTEX
  5
3A0
100
AcDbEntity
  8
ｶｳﾝﾀｰ/ｷｬﾋﾞﾈｯﾄ
  6
CONTINUOUS
 62
     6
100
AcDbVertex
100
AcDb2dVertex
 10
3280.924646
 20
1576.068958
 30
0.0
  0
VERTEX
  5
3A1
100
AcDbEntity
  8
ｶｳﾝﾀｰ/ｷｬﾋﾞﾈｯﾄ
  6
CONTINUOUS
 62
     6
100
AcDbVertex
100
AcDb2dVertex
 10
3280.655718
 20
1576.078917
 30
0.0
  0
VERTEX
  5
3A2
100
AcDbEntity
  8
ｶｳﾝﾀｰ/ｷｬﾋﾞﾈｯﾄ
  6
CONTINUOUS
 62
     6
100
AcDbVertex
100
AcDb2dVertex
 10
3280.382596
 20
1576.087831
 30
0.0
  0
VERTEX
  5
3A3
100
AcDbEntity
  8
ｶｳﾝﾀｰ/ｷｬﾋﾞﾈｯﾄ
  6
CONTINUOUS
 62
     6
100
AcDbVertex
100
AcDb2dVertex
 10
3280.105979
 20
1576.095518
 30
0.0
  0
VERTEX
  5
3A4
100
AcDbEntity
  8
ｶｳﾝﾀｰ/ｷｬﾋﾞﾈｯﾄ
  6
CONTINUOUS
 62
     6
100
AcDbVertex
100
AcDb2dVertex
 10
3279.826562
 20
1576.101792
 30
0.0
  0
VERTEX
  5
3A5
100
AcDbEntity
  8
ｶｳﾝﾀｰ/ｷｬﾋﾞﾈｯﾄ
  6
CONTINUOUS
 62
     6
100
AcDbVertex
100
AcDb2dVertex
 10
3279.545043
 20
1576.106469
 30
0.0
  0
VERTEX
  5
3A6
100
AcDbEntity
  8
ｶｳﾝﾀｰ/ｷｬﾋﾞﾈｯﾄ
  6
CONTINUOUS
 62
     6
100
AcDbVertex
100
AcDb2dVertex
 10
3279.262119
 20
1576.109365
 30
0.0
  0
VERTEX
  5
3A7
100
AcDbEntity
  8
ｶｳﾝﾀｰ/ｷｬﾋﾞﾈｯﾄ
  6
CONTINUOUS
 62
     6
100
AcDbVertex
100
AcDb2dVertex
 10
3278.978485
 20
1576.110296
 30
0.0
  0
VERTEX
  5
3A8
100
AcDbEntity
  8
ｶｳﾝﾀｰ/ｷｬﾋﾞﾈｯﾄ
  6
CONTINUOUS
 62
     6
100
AcDbVertex
100
AcDb2dVertex
 10
3278.695268
 20
1576.109141
 30
0.0
  0
VERTEX
  5
3A9
100
AcDbEntity
  8
ｶｳﾝﾀｰ/ｷｬﾋﾞﾈｯﾄ
  6
CONTINUOUS
 62
     6
100
AcDbVertex
100
AcDb2dVertex
 10
3278.412741
 20
1576.106027
 30
0.0
  0
VERTEX
  5
3AA
100
AcDbEntity
  8
ｶｳﾝﾀｰ/ｷｬﾋﾞﾈｯﾄ
  6
CONTINUOUS
 62
     6
100
AcDbVertex
100
AcDb2dVertex
 10
3278.131608
 20
1576.101139
 30
0.0
  0
VERTEX
  5
3AB
100
AcDbEntity
  8
ｶｳﾝﾀｰ/ｷｬﾋﾞﾈｯﾄ
  6
CONTINUOUS
 62
     6
100
AcDbVertex
100
AcDb2dVertex
 10
3277.85257
 20
1576.094661
 30
0.0
  0
VERTEX
  5
3AC
100
AcDbEntity
  8
ｶｳﾝﾀｰ/ｷｬﾋﾞﾈｯﾄ
  6
CONTINUOUS
 62
     6
100
AcDbVertex
100
AcDb2dVertex
 10
3277.576331
 20
1576.086777
 30
0.0
  0
VERTEX
  5
3AD
100
AcDbEntity
  8
ｶｳﾝﾀｰ/ｷｬﾋﾞﾈｯﾄ
  6
CONTINUOUS
 62
     6
100
AcDbVertex
100
AcDb2dVertex
 10
3277.303593
 20
1576.077671
 30
0.0
  0
VERTEX
  5
3AE
100
AcDbEntity
  8
ｶｳﾝﾀｰ/ｷｬﾋﾞﾈｯﾄ
  6
CONTINUOUS
 62
     6
100
AcDbVertex
100
AcDb2dVertex
 10
3277.035059
 20
1576.067528
 30
0.0
  0
VERTEX
  5
3AF
100
AcDbEntity
  8
ｶｳﾝﾀｰ/ｷｬﾋﾞﾈｯﾄ
  6
CONTINUOUS
 62
     6
100
AcDbVertex
100
AcDb2dVertex
 10
3276.77143
 20
1576.056533
 30
0.0
  0
VERTEX
  5
3B0
100
AcDbEntity
  8
ｶｳﾝﾀｰ/ｷｬﾋﾞﾈｯﾄ
  6
CONTINUOUS
 62
     6
100
AcDbVertex
100
AcDb2dVertex
 10
3276.513411
 20
1576.044869
 30
0.0
  0
VERTEX
  5
3B1
100
AcDbEntity
  8
ｶｳﾝﾀｰ/ｷｬﾋﾞﾈｯﾄ
  6
CONTINUOUS
 62
     6
100
AcDbVertex
100
AcDb2dVertex
 10
3276.261703
 20
1576.032722
 30
0.0
  0
VERTEX
  5
3B2
100
AcDbEntity
  8
ｶｳﾝﾀｰ/ｷｬﾋﾞﾈｯﾄ
  6
CONTINUOUS
 62
     6
100
AcDbVertex
100
AcDb2dVertex
 10
3276.017009
 20
1576.020275
 30
0.0
  0
VERTEX
  5
3B3
100
AcDbEntity
  8
ｶｳﾝﾀｰ/ｷｬﾋﾞﾈｯﾄ
  6
CONTINUOUS
 62
     6
100
AcDbVertex
100
AcDb2dVertex
 10
3275.785989
 20
1576.007948
 30
0.0
  0
VERTEX
  5
3B4
100
AcDbEntity
  8
ｶｳﾝﾀｰ/ｷｬﾋﾞﾈｯﾄ
  6
CONTINUOUS
 62
     6
100
AcDbVertex
100
AcDb2dVertex
 10
3275.558955
 20
1575.994955
 30
0.0
  0
VERTEX
  5
3B5
100
AcDbEntity
  8
ｶｳﾝﾀｰ/ｷｬﾋﾞﾈｯﾄ
  6
CONTINUOUS
 62
     6
100
AcDbVertex
100
AcDb2dVertex
 10
3275.332604
 20
1575.980735
 30
0.0
  0
VERTEX
  5
3B6
100
AcDbEntity
  8
ｶｳﾝﾀｰ/ｷｬﾋﾞﾈｯﾄ
  6
CONTINUOUS
 62
     6
100
AcDbVertex
100
AcDb2dVertex
 10
3275.103639
 20
1575.96473
 30
0.0
  0
VERTEX
  5
3B7
100
AcDbEntity
  8
ｶｳﾝﾀｰ/ｷｬﾋﾞﾈｯﾄ
  6
CONTINUOUS
 62
     6
100
AcDbVertex
100
AcDb2dVertex
 10
3274.868758
 20
1575.946383
 30
0.0
  0
VERTEX
  5
3B8
100
AcDbEntity
  8
ｶｳﾝﾀｰ/ｷｬﾋﾞﾈｯﾄ
  6
CONTINUOUS
 62
     6
100
AcDbVertex
100
AcDb2dVertex
 10
3274.624662
 20
1575.925133
 30
0.0
  0
VERTEX
  5
3B9
100
AcDbEntity
  8
ｶｳﾝﾀｰ/ｷｬﾋﾞﾈｯﾄ
  6
CONTINUOUS
 62
     6
100
AcDbVertex
100
AcDb2dVertex
 10
3274.368052
 20
1575.900423
 30
0.0
  0
VERTEX
  5
3BA
100
AcDbEntity
  8
ｶｳﾝﾀｰ/ｷｬﾋﾞﾈｯﾄ
  6
CONTINUOUS
 62
     6
100
AcDbVertex
100
AcDb2dVertex
 10
3274.095626
 20
1575.871694
 30
0.0
  0
VERTEX
  5
3BB
100
AcDbEntity
  8
ｶｳﾝﾀｰ/ｷｬﾋﾞﾈｯﾄ
  6
CONTINUOUS
 62
     6
100
AcDbVertex
100
AcDb2dVertex
 10
3273.804085
 20
1575.838387
 30
0.0
  0
VERTEX
  5
3BC
100
AcDbEntity
  8
ｶｳﾝﾀｰ/ｷｬﾋﾞﾈｯﾄ
  6
CONTINUOUS
 62
     6
100
AcDbVertex
100
AcDb2dVertex
 10
3273.490129
 20
1575.799944
 30
0.0
  0
VERTEX
  5
3BD
100
AcDbEntity
  8
ｶｳﾝﾀｰ/ｷｬﾋﾞﾈｯﾄ
  6
CONTINUOUS
 62
     6
100
AcDbVertex
100
AcDb2dVertex
 10
3273.150458
 20
1575.755805
 30
0.0
  0
VERTEX
  5
3BE
100
AcDbEntity
  8
ｶｳﾝﾀｰ/ｷｬﾋﾞﾈｯﾄ
  6
CONTINUOUS
 62
     6
100
AcDbVertex
100
AcDb2dVertex
 10
3272.992732
 20
1575.734549
 30
0.0
  0
VERTEX
  5
3BF
100
AcDbEntity
  8
ｶｳﾝﾀｰ/ｷｬﾋﾞﾈｯﾄ
  6
CONTINUOUS
 62
     6
100
AcDbVertex
100
AcDb2dVertex
 10
3272.832985
 20
1575.712646
 30
0.0
  0
VERTEX
  5
3C0
100
AcDbEntity
  8
ｶｳﾝﾀｰ/ｷｬﾋﾞﾈｯﾄ
  6
CONTINUOUS
 62
     6
100
AcDbVertex
100
AcDb2dVertex
 10
3272.674808
 20
1575.690659
 30
0.0
  0
VERTEX
  5
3C1
100
AcDbEntity
  8
ｶｳﾝﾀｰ/ｷｬﾋﾞﾈｯﾄ
  6
CONTINUOUS
 62
     6
100
AcDbVertex
100
AcDb2dVertex
 10
3272.521793
 20
1575.669151
 30
0.0
  0
VERTEX
  5
3C2
100
AcDbEntity
  8
ｶｳﾝﾀｰ/ｷｬﾋﾞﾈｯﾄ
  6
CONTINUOUS
 62
     6
100
AcDbVertex
100
AcDb2dVertex
 10
3272.377529
 20
1575.648684
 30
0.0
  0
VERTEX
  5
3C3
100
AcDbEntity
  8
ｶｳﾝﾀｰ/ｷｬﾋﾞﾈｯﾄ
  6
CONTINUOUS
 62
     6
100
AcDbVertex
100
AcDb2dVertex
 10
3272.245607
 20
1575.629823
 30
0.0
  0
VERTEX
  5
3C4
100
AcDbEntity
  8
ｶｳﾝﾀｰ/ｷｬﾋﾞﾈｯﾄ
  6
CONTINUOUS
 62
     6
100
AcDbVertex
100
AcDb2dVertex
 10
3272.129619
 20
1575.613128
 30
0.0
  0
VERTEX
  5
3C5
100
AcDbEntity
  8
ｶｳﾝﾀｰ/ｷｬﾋﾞﾈｯﾄ
  6
CONTINUOUS
 62
     6
100
AcDbVertex
100
AcDb2dVertex
 10
3272.033156
 20
1575.599164
 30
0.0
  0
VERTEX
  5
3C6
100
AcDbEntity
  8
ｶｳﾝﾀｰ/ｷｬﾋﾞﾈｯﾄ
  6
CONTINUOUS
 62
     6
100
AcDbVertex
100
AcDb2dVertex
 10
3271.959807
 20
1575.588493
 30
0.0
  0
VERTEX
  5
3C7
100
AcDbEntity
  8
ｶｳﾝﾀｰ/ｷｬﾋﾞﾈｯﾄ
  6
CONTINUOUS
 62
     6
100
AcDbVertex
100
AcDb2dVertex
 10
3271.913165
 20
1575.581677
 30
0.0
  0
VERTEX
  5
3C8
100
AcDbEntity
  8
ｶｳﾝﾀｰ/ｷｬﾋﾞﾈｯﾄ
  6
CONTINUOUS
 62
     6
100
AcDbVertex
100
AcDb2dVertex
 10
3271.89682
 20
1575.57928
 30
0.0
  0
SEQEND
  5
3C9
100
AcDbEntity
  8
ｶｳﾝﾀｰ/ｷｬﾋﾞﾈｯﾄ
  6
CONTINUOUS
 62
     6
  0
ELLIPSE
  5
3CA
100
AcDbEntity
  8
ｶｳﾝﾀｰ/ｷｬﾋﾞﾈｯﾄ
  6
CONTINUOUS
 62
     6
100
AcDbEllipse
 10
3279.0
 20
1597.205676
 30
0.0
 11
15.500000000000009
 21
0.0
 31
0.0
210
0.0
220
0.0
230
1.0
 40
0.339345
 41
0.0
 42
3.1415926535897931
  0
LINE
  5
3CB
100
AcDbEntity
  8
ｶｳﾝﾀｰ/ｷｬﾋﾞﾈｯﾄ
  6
CONTINUOUS
 62
     6
100
AcDbLine
 10
3262.004748
 20
1570.282983
 30
0.0
 11
3256.785719
 21
1480.0
 31
0.0
  0
LINE
  5
3CC
100
AcDbEntity
  8
ｶｳﾝﾀｰ/ｷｬﾋﾞﾈｯﾄ
  6
CONTINUOUS
 62
     6
100
AcDbLine
 10
3301.214281
 20
1480.0
 30
0.0
 11
3296.014404
 21
1569.951673
 31
0.0
  0
LINE
  5
3CD
100
AcDbEntity
  8
ｶｳﾝﾀｰ/ｷｬﾋﾞﾈｯﾄ
  6
CONTINUOUS
 62
     6
100
AcDbLine
 10
2133.179569
 20
1541.697717
 30
0.0
 11
2135.494682
 21
1535.336996
 31
0.0
  0
ARC
  5
3CE
100
AcDbEntity
  8
ｶｳﾝﾀｰ/ｷｬﾋﾞﾈｯﾄ
  6
CONTINUOUS
 62
     6
100
AcDbCircle
 10
2136.434375
 20
1535.679016
 30
0.0
 40
1.0
100
AcDbArc
 50
200.0
 51
250.0
  0
ARC
  5
3CF
100
AcDbEntity
  8
ｶｳﾝﾀｰ/ｷｬﾋﾞﾈｯﾄ
  6
CONTINUOUS
 62
     6
100
AcDbCircle
 10
2166.066249
 20
1524.893834
 30
0.0
 40
1.0
100
AcDbArc
 50
250.0
 51
289.13144
  0
POLYLINE
  5
3D0
100
AcDbEntity
  8
ｶｳﾝﾀｰ/ｷｬﾋﾞﾈｯﾄ
  6
CONTINUOUS
 62
     6
100
AcDb2dPolyline
 66
     1
 10
0.0
 20
0.0
 30
0.0
 70
   128
  0
VERTEX
  5
3D1
100
AcDbEntity
  8
ｶｳﾝﾀｰ/ｷｬﾋﾞﾈｯﾄ
  6
CONTINUOUS
 62
     6
100
AcDbVertex
100
AcDb2dVertex
 10
2184.685146
 20
1525.937201
 30
0.0
  0
VERTEX
  5
3D2
100
AcDbEntity
  8
ｶｳﾝﾀｰ/ｷｬﾋﾞﾈｯﾄ
  6
CONTINUOUS
 62
     6
100
AcDbVertex
100
AcDb2dVertex
 10
2184.681928
 20
1525.945815
 30
0.0
  0
VERTEX
  5
3D3
100
AcDbEntity
  8
ｶｳﾝﾀｰ/ｷｬﾋﾞﾈｯﾄ
  6
CONTINUOUS
 62
     6
100
AcDbVertex
100
AcDb2dVertex
 10
2184.672701
 20
1525.970302
 30
0.0
  0
VERTEX
  5
3D4
100
AcDbEntity
  8
ｶｳﾝﾀｰ/ｷｬﾋﾞﾈｯﾄ
  6
CONTINUOUS
 62
     6
100
AcDbVertex
100
AcDb2dVertex
 10
2184.658105
 20
1526.008629
 30
0.0
  0
VERTEX
  5
3D5
100
AcDbEntity
  8
ｶｳﾝﾀｰ/ｷｬﾋﾞﾈｯﾄ
  6
CONTINUOUS
 62
     6
100
AcDbVertex
100
AcDb2dVertex
 10
2184.638783
 20
1526.058764
 30
0.0
  0
VERTEX
  5
3D6
100
AcDbEntity
  8
ｶｳﾝﾀｰ/ｷｬﾋﾞﾈｯﾄ
  6
CONTINUOUS
 62
     6
100
AcDbVertex
100
AcDb2dVertex
 10
2184.615374
 20
1526.118674
 30
0.0
  0
VERTEX
  5
3D7
100
AcDbEntity
  8
ｶｳﾝﾀｰ/ｷｬﾋﾞﾈｯﾄ
  6
CONTINUOUS
 62
     6
100
AcDbVertex
100
AcDb2dVertex
 10
2184.588519
 20
1526.186326
 30
0.0
  0
VERTEX
  5
3D8
100
AcDbEntity
  8
ｶｳﾝﾀｰ/ｷｬﾋﾞﾈｯﾄ
  6
CONTINUOUS
 62
     6
100
AcDbVertex
100
AcDb2dVertex
 10
2184.558859
 20
1526.259688
 30
0.0
  0
VERTEX
  5
3D9
100
AcDbEntity
  8
ｶｳﾝﾀｰ/ｷｬﾋﾞﾈｯﾄ
  6
CONTINUOUS
 62
     6
100
AcDbVertex
100
AcDb2dVertex
 10
2184.527036
 20
1526.336727
 30
0.0
  0
VERTEX
  5
3DA
100
AcDbEntity
  8
ｶｳﾝﾀｰ/ｷｬﾋﾞﾈｯﾄ
  6
CONTINUOUS
 62
     6
100
AcDbVertex
100
AcDb2dVertex
 10
2184.493688
 20
1526.41541
 30
0.0
  0
VERTEX
  5
3DB
100
AcDbEntity
  8
ｶｳﾝﾀｰ/ｷｬﾋﾞﾈｯﾄ
  6
CONTINUOUS
 62
     6
100
AcDbVertex
100
AcDb2dVertex
 10
2184.459458
 20
1526.493705
 30
0.0
  0
VERTEX
  5
3DC
100
AcDbEntity
  8
ｶｳﾝﾀｰ/ｷｬﾋﾞﾈｯﾄ
  6
CONTINUOUS
 62
     6
100
AcDbVertex
100
AcDb2dVertex
 10
2184.424987
 20
1526.569579
 30
0.0
  0
VERTEX
  5
3DD
100
AcDbEntity
  8
ｶｳﾝﾀｰ/ｷｬﾋﾞﾈｯﾄ
  6
CONTINUOUS
 62
     6
100
AcDbVertex
100
AcDb2dVertex
 10
2184.375177
 20
1526.672997
 30
0.0
  0
VERTEX
  5
3DE
100
AcDbEntity
  8
ｶｳﾝﾀｰ/ｷｬﾋﾞﾈｯﾄ
  6
CONTINUOUS
 62
     6
100
AcDbVertex
100
AcDb2dVertex
 10
2184.325929
 20
1526.767868
 30
0.0
  0
VERTEX
  5
3DF
100
AcDbEntity
  8
ｶｳﾝﾀｰ/ｷｬﾋﾞﾈｯﾄ
  6
CONTINUOUS
 62
     6
100
AcDbVertex
100
AcDb2dVertex
 10
2184.276956
 20
1526.855136
 30
0.0
  0
VERTEX
  5
3E0
100
AcDbEntity
  8
ｶｳﾝﾀｰ/ｷｬﾋﾞﾈｯﾄ
  6
CONTINUOUS
 62
     6
100
AcDbVertex
100
AcDb2dVertex
 10
2184.227968
 20
1526.935745
 30
0.0
  0
VERTEX
  5
3E1
100
AcDbEntity
  8
ｶｳﾝﾀｰ/ｷｬﾋﾞﾈｯﾄ
  6
CONTINUOUS
 62
     6
100
AcDbVertex
100
AcDb2dVertex
 10
2184.178679
 20
1527.010639
 30
0.0
  0
VERTEX
  5
3E2
100
AcDbEntity
  8
ｶｳﾝﾀｰ/ｷｬﾋﾞﾈｯﾄ
  6
CONTINUOUS
 62
     6
100
AcDbVertex
100
AcDb2dVertex
 10
2184.128799
 20
1527.080762
 30
0.0
  0
VERTEX
  5
3E3
100
AcDbEntity
  8
ｶｳﾝﾀｰ/ｷｬﾋﾞﾈｯﾄ
  6
CONTINUOUS
 62
     6
100
AcDbVertex
100
AcDb2dVertex
 10
2184.078041
 20
1527.147058
 30
0.0
  0
VERTEX
  5
3E4
100
AcDbEntity
  8
ｶｳﾝﾀｰ/ｷｬﾋﾞﾈｯﾄ
  6
CONTINUOUS
 62
     6
100
AcDbVertex
100
AcDb2dVertex
 10
2184.026116
 20
1527.21047
 30
0.0
  0
VERTEX
  5
3E5
100
AcDbEntity
  8
ｶｳﾝﾀｰ/ｷｬﾋﾞﾈｯﾄ
  6
CONTINUOUS
 62
     6
100
AcDbVertex
100
AcDb2dVertex
 10
2183.972737
 20
1527.271943
 30
0.0
  0
VERTEX
  5
3E6
100
AcDbEntity
  8
ｶｳﾝﾀｰ/ｷｬﾋﾞﾈｯﾄ
  6
CONTINUOUS
 62
     6
100
AcDbVertex
100
AcDb2dVertex
 10
2183.917616
 20
1527.33242
 30
0.0
  0
VERTEX
  5
3E7
100
AcDbEntity
  8
ｶｳﾝﾀｰ/ｷｬﾋﾞﾈｯﾄ
  6
CONTINUOUS
 62
     6
100
AcDbVertex
100
AcDb2dVertex
 10
2183.860464
 20
1527.392846
 30
0.0
  0
VERTEX
  5
3E8
100
AcDbEntity
  8
ｶｳﾝﾀｰ/ｷｬﾋﾞﾈｯﾄ
  6
CONTINUOUS
 62
     6
100
AcDbVertex
100
AcDb2dVertex
 10
2183.801063
 20
1527.453958
 30
0.0
  0
VERTEX
  5
3E9
100
AcDbEntity
  8
ｶｳﾝﾀｰ/ｷｬﾋﾞﾈｯﾄ
  6
CONTINUOUS
 62
     6
100
AcDbVertex
100
AcDb2dVertex
 10
2183.739482
 20
1527.515675
 30
0.0
  0
VERTEX
  5
3EA
100
AcDbEntity
  8
ｶｳﾝﾀｰ/ｷｬﾋﾞﾈｯﾄ
  6
CONTINUOUS
 62
     6
100
AcDbVertex
100
AcDb2dVertex
 10
2183.675855
 20
1527.577707
 30
0.0
  0
VERTEX
  5
3EB
100
AcDbEntity
  8
ｶｳﾝﾀｰ/ｷｬﾋﾞﾈｯﾄ
  6
CONTINUOUS
 62
     6
100
AcDbVertex
100
AcDb2dVertex
 10
2183.610321
 20
1527.639766
 30
0.0
  0
VERTEX
  5
3EC
100
AcDbEntity
  8
ｶｳﾝﾀｰ/ｷｬﾋﾞﾈｯﾄ
  6
CONTINUOUS
 62
     6
100
AcDbVertex
100
AcDb2dVertex
 10
2183.543016
 20
1527.701563
 30
0.0
  0
VERTEX
  5
3ED
100
AcDbEntity
  8
ｶｳﾝﾀｰ/ｷｬﾋﾞﾈｯﾄ
  6
CONTINUOUS
 62
     6
100
AcDbVertex
100
AcDb2dVertex
 10
2183.474078
 20
1527.76281
 30
0.0
  0
VERTEX
  5
3EE
100
AcDbEntity
  8
ｶｳﾝﾀｰ/ｷｬﾋﾞﾈｯﾄ
  6
CONTINUOUS
 62
     6
100
AcDbVertex
100
AcDb2dVertex
 10
2183.403642
 20
1527.823219
 30
0.0
  0
VERTEX
  5
3EF
100
AcDbEntity
  8
ｶｳﾝﾀｰ/ｷｬﾋﾞﾈｯﾄ
  6
CONTINUOUS
 62
     6
100
AcDbVertex
100
AcDb2dVertex
 10
2183.331847
 20
1527.8825
 30
0.0
  0
VERTEX
  5
3F0
100
AcDbEntity
  8
ｶｳﾝﾀｰ/ｷｬﾋﾞﾈｯﾄ
  6
CONTINUOUS
 62
     6
100
AcDbVertex
100
AcDb2dVertex
 10
2183.25883
 20
1527.940366
 30
0.0
  0
VERTEX
  5
3F1
100
AcDbEntity
  8
ｶｳﾝﾀｰ/ｷｬﾋﾞﾈｯﾄ
  6
CONTINUOUS
 62
     6
100
AcDbVertex
100
AcDb2dVertex
 10
2183.184727
 20
1527.996527
 30
0.0
  0
VERTEX
  5
3F2
100
AcDbEntity
  8
ｶｳﾝﾀｰ/ｷｬﾋﾞﾈｯﾄ
  6
CONTINUOUS
 62
     6
100
AcDbVertex
100
AcDb2dVertex
 10
2183.109675
 20
1528.050696
 30
0.0
  0
VERTEX
  5
3F3
100
AcDbEntity
  8
ｶｳﾝﾀｰ/ｷｬﾋﾞﾈｯﾄ
  6
CONTINUOUS
 62
     6
100
AcDbVertex
100
AcDb2dVertex
 10
2183.033781
 20
1528.102636
 30
0.0
  0
VERTEX
  5
3F4
100
AcDbEntity
  8
ｶｳﾝﾀｰ/ｷｬﾋﾞﾈｯﾄ
  6
CONTINUOUS
 62
     6
100
AcDbVertex
100
AcDb2dVertex
 10
2182.957026
 20
1528.152321
 30
0.0
  0
VERTEX
  5
3F5
100
AcDbEntity
  8
ｶｳﾝﾀｰ/ｷｬﾋﾞﾈｯﾄ
  6
CONTINUOUS
 62
     6
100
AcDbVertex
100
AcDb2dVertex
 10
2182.879362
 20
1528.199775
 30
0.0
  0
VERTEX
  5
3F6
100
AcDbEntity
  8
ｶｳﾝﾀｰ/ｷｬﾋﾞﾈｯﾄ
  6
CONTINUOUS
 62
     6
100
AcDbVertex
100
AcDb2dVertex
 10
2182.800738
 20
1528.245024
 30
0.0
  0
VERTEX
  5
3F7
100
AcDbEntity
  8
ｶｳﾝﾀｰ/ｷｬﾋﾞﾈｯﾄ
  6
CONTINUOUS
 62
     6
100
AcDbVertex
100
AcDb2dVertex
 10
2182.721106
 20
1528.288093
 30
0.0
  0
VERTEX
  5
3F8
100
AcDbEntity
  8
ｶｳﾝﾀｰ/ｷｬﾋﾞﾈｯﾄ
  6
CONTINUOUS
 62
     6
100
AcDbVertex
100
AcDb2dVertex
 10
2182.640416
 20
1528.329008
 30
0.0
  0
VERTEX
  5
3F9
100
AcDbEntity
  8
ｶｳﾝﾀｰ/ｷｬﾋﾞﾈｯﾄ
  6
CONTINUOUS
 62
     6
100
AcDbVertex
100
AcDb2dVertex
 10
2182.558619
 20
1528.367795
 30
0.0
  0
VERTEX
  5
3FA
100
AcDbEntity
  8
ｶｳﾝﾀｰ/ｷｬﾋﾞﾈｯﾄ
  6
CONTINUOUS
 62
     6
100
AcDbVertex
100
AcDb2dVertex
 10
2182.475666
 20
1528.404478
 30
0.0
  0
VERTEX
  5
3FB
100
AcDbEntity
  8
ｶｳﾝﾀｰ/ｷｬﾋﾞﾈｯﾄ
  6
CONTINUOUS
 62
     6
100
AcDbVertex
100
AcDb2dVertex
 10
2182.391509
 20
1528.439083
 30
0.0
  0
VERTEX
  5
3FC
100
AcDbEntity
  8
ｶｳﾝﾀｰ/ｷｬﾋﾞﾈｯﾄ
  6
CONTINUOUS
 62
     6
100
AcDbVertex
100
AcDb2dVertex
 10
2182.306096
 20
1528.471636
 30
0.0
  0
VERTEX
  5
3FD
100
AcDbEntity
  8
ｶｳﾝﾀｰ/ｷｬﾋﾞﾈｯﾄ
  6
CONTINUOUS
 62
     6
100
AcDbVertex
100
AcDb2dVertex
 10
2182.21938
 20
1528.502161
 30
0.0
  0
VERTEX
  5
3FE
100
AcDbEntity
  8
ｶｳﾝﾀｰ/ｷｬﾋﾞﾈｯﾄ
  6
CONTINUOUS
 62
     6
100
AcDbVertex
100
AcDb2dVertex
 10
2182.131372
 20
1528.530691
 30
0.0
  0
VERTEX
  5
3FF
100
AcDbEntity
  8
ｶｳﾝﾀｰ/ｷｬﾋﾞﾈｯﾄ
  6
CONTINUOUS
 62
     6
100
AcDbVertex
100
AcDb2dVertex
 10
2182.04232
 20
1528.557279
 30
0.0
  0
VERTEX
  5
400
100
AcDbEntity
  8
ｶｳﾝﾀｰ/ｷｬﾋﾞﾈｯﾄ
  6
CONTINUOUS
 62
     6
100
AcDbVertex
100
AcDb2dVertex
 10
2181.952535
 20
1528.581985
 30
0.0
  0
VERTEX
  5
401
100
AcDbEntity
  8
ｶｳﾝﾀｰ/ｷｬﾋﾞﾈｯﾄ
  6
CONTINUOUS
 62
     6
100
AcDbVertex
100
AcDb2dVertex
 10
2181.862326
 20
1528.60487
 30
0.0
  0
VERTEX
  5
402
100
AcDbEntity
  8
ｶｳﾝﾀｰ/ｷｬﾋﾞﾈｯﾄ
  6
CONTINUOUS
 62
     6
100
AcDbVertex
100
AcDb2dVertex
 10
2181.772004
 20
1528.625994
 30
0.0
  0
VERTEX
  5
403
100
AcDbEntity
  8
ｶｳﾝﾀｰ/ｷｬﾋﾞﾈｯﾄ
  6
CONTINUOUS
 62
     6
100
AcDbVertex
100
AcDb2dVertex
 10
2181.681878
 20
1528.645417
 30
0.0
  0
VERTEX
  5
404
100
AcDbEntity
  8
ｶｳﾝﾀｰ/ｷｬﾋﾞﾈｯﾄ
  6
CONTINUOUS
 62
     6
100
AcDbVertex
100
AcDb2dVertex
 10
2181.592257
 20
1528.663199
 30
0.0
  0
VERTEX
  5
405
100
AcDbEntity
  8
ｶｳﾝﾀｰ/ｷｬﾋﾞﾈｯﾄ
  6
CONTINUOUS
 62
     6
100
AcDbVertex
100
AcDb2dVertex
 10
2181.503451
 20
1528.679401
 30
0.0
  0
VERTEX
  5
406
100
AcDbEntity
  8
ｶｳﾝﾀｰ/ｷｬﾋﾞﾈｯﾄ
  6
CONTINUOUS
 62
     6
100
AcDbVertex
100
AcDb2dVertex
 10
2181.415771
 20
1528.694083
 30
0.0
  0
VERTEX
  5
407
100
AcDbEntity
  8
ｶｳﾝﾀｰ/ｷｬﾋﾞﾈｯﾄ
  6
CONTINUOUS
 62
     6
100
AcDbVertex
100
AcDb2dVertex
 10
2181.329526
 20
1528.707304
 30
0.0
  0
VERTEX
  5
408
100
AcDbEntity
  8
ｶｳﾝﾀｰ/ｷｬﾋﾞﾈｯﾄ
  6
CONTINUOUS
 62
     6
100
AcDbVertex
100
AcDb2dVertex
 10
2181.245025
 20
1528.719125
 30
0.0
  0
VERTEX
  5
409
100
AcDbEntity
  8
ｶｳﾝﾀｰ/ｷｬﾋﾞﾈｯﾄ
  6
CONTINUOUS
 62
     6
100
AcDbVertex
100
AcDb2dVertex
 10
2181.162375
 20
1528.729542
 30
0.0
  0
VERTEX
  5
40A
100
AcDbEntity
  8
ｶｳﾝﾀｰ/ｷｬﾋﾞﾈｯﾄ
  6
CONTINUOUS
 62
     6
100
AcDbVertex
100
AcDb2dVertex
 10
2181.080863
 20
1528.738292
 30
0.0
  0
VERTEX
  5
40B
100
AcDbEntity
  8
ｶｳﾝﾀｰ/ｷｬﾋﾞﾈｯﾄ
  6
CONTINUOUS
 62
     6
100
AcDbVertex
100
AcDb2dVertex
 10
2180.999573
 20
1528.745048
 30
0.0
  0
VERTEX
  5
40C
100
AcDbEntity
  8
ｶｳﾝﾀｰ/ｷｬﾋﾞﾈｯﾄ
  6
CONTINUOUS
 62
     6
100
AcDbVertex
100
AcDb2dVertex
 10
2180.917588
 20
1528.749483
 30
0.0
  0
VERTEX
  5
40D
100
AcDbEntity
  8
ｶｳﾝﾀｰ/ｷｬﾋﾞﾈｯﾄ
  6
CONTINUOUS
 62
     6
100
AcDbVertex
100
AcDb2dVertex
 10
2180.833993
 20
1528.751271
 30
0.0
  0
VERTEX
  5
40E
100
AcDbEntity
  8
ｶｳﾝﾀｰ/ｷｬﾋﾞﾈｯﾄ
  6
CONTINUOUS
 62
     6
100
AcDbVertex
100
AcDb2dVertex
 10
2180.747872
 20
1528.750083
 30
0.0
  0
VERTEX
  5
40F
100
AcDbEntity
  8
ｶｳﾝﾀｰ/ｷｬﾋﾞﾈｯﾄ
  6
CONTINUOUS
 62
     6
100
AcDbVertex
100
AcDb2dVertex
 10
2180.658307
 20
1528.745594
 30
0.0
  0
VERTEX
  5
410
100
AcDbEntity
  8
ｶｳﾝﾀｰ/ｷｬﾋﾞﾈｯﾄ
  6
CONTINUOUS
 62
     6
100
AcDbVertex
100
AcDb2dVertex
 10
2180.564383
 20
1528.737475
 30
0.0
  0
VERTEX
  5
411
100
AcDbEntity
  8
ｶｳﾝﾀｰ/ｷｬﾋﾞﾈｯﾄ
  6
CONTINUOUS
 62
     6
100
AcDbVertex
100
AcDb2dVertex
 10
2180.465183
 20
1528.725401
 30
0.0
  0
VERTEX
  5
412
100
AcDbEntity
  8
ｶｳﾝﾀｰ/ｷｬﾋﾞﾈｯﾄ
  6
CONTINUOUS
 62
     6
100
AcDbVertex
100
AcDb2dVertex
 10
2180.359792
 20
1528.709043
 30
0.0
  0
VERTEX
  5
413
100
AcDbEntity
  8
ｶｳﾝﾀｰ/ｷｬﾋﾞﾈｯﾄ
  6
CONTINUOUS
 62
     6
100
AcDbVertex
100
AcDb2dVertex
 10
2180.247292
 20
1528.688076
 30
0.0
  0
VERTEX
  5
414
100
AcDbEntity
  8
ｶｳﾝﾀｰ/ｷｬﾋﾞﾈｯﾄ
  6
CONTINUOUS
 62
     6
100
AcDbVertex
100
AcDb2dVertex
 10
2180.16287
 20
1528.670322
 30
0.0
  0
VERTEX
  5
415
100
AcDbEntity
  8
ｶｳﾝﾀｰ/ｷｬﾋﾞﾈｯﾄ
  6
CONTINUOUS
 62
     6
100
AcDbVertex
100
AcDb2dVertex
 10
2180.076496
 20
1528.650801
 30
0.0
  0
VERTEX
  5
416
100
AcDbEntity
  8
ｶｳﾝﾀｰ/ｷｬﾋﾞﾈｯﾄ
  6
CONTINUOUS
 62
     6
100
AcDbVertex
100
AcDb2dVertex
 10
2179.990274
 20
1528.63024
 30
0.0
  0
VERTEX
  5
417
100
AcDbEntity
  8
ｶｳﾝﾀｰ/ｷｬﾋﾞﾈｯﾄ
  6
CONTINUOUS
 62
     6
100
AcDbVertex
100
AcDb2dVertex
 10
2179.906312
 20
1528.609369
 30
0.0
  0
VERTEX
  5
418
100
AcDbEntity
  8
ｶｳﾝﾀｰ/ｷｬﾋﾞﾈｯﾄ
  6
CONTINUOUS
 62
     6
100
AcDbVertex
100
AcDb2dVertex
 10
2179.826713
 20
1528.588917
 30
0.0
  0
VERTEX
  5
419
100
AcDbEntity
  8
ｶｳﾝﾀｰ/ｷｬﾋﾞﾈｯﾄ
  6
CONTINUOUS
 62
     6
100
AcDbVertex
100
AcDb2dVertex
 10
2179.753584
 20
1528.569611
 30
0.0
  0
VERTEX
  5
41A
100
AcDbEntity
  8
ｶｳﾝﾀｰ/ｷｬﾋﾞﾈｯﾄ
  6
CONTINUOUS
 62
     6
100
AcDbVertex
100
AcDb2dVertex
 10
2179.68903
 20
1528.552182
 30
0.0
  0
VERTEX
  5
41B
100
AcDbEntity
  8
ｶｳﾝﾀｰ/ｷｬﾋﾞﾈｯﾄ
  6
CONTINUOUS
 62
     6
100
AcDbVertex
100
AcDb2dVertex
 10
2179.635156
 20
1528.537357
 30
0.0
  0
VERTEX
  5
41C
100
AcDbEntity
  8
ｶｳﾝﾀｰ/ｷｬﾋﾞﾈｯﾄ
  6
CONTINUOUS
 62
     6
100
AcDbVertex
100
AcDb2dVertex
 10
2179.594068
 20
1528.525866
 30
0.0
  0
VERTEX
  5
41D
100
AcDbEntity
  8
ｶｳﾝﾀｰ/ｷｬﾋﾞﾈｯﾄ
  6
CONTINUOUS
 62
     6
100
AcDbVertex
100
AcDb2dVertex
 10
2179.567871
 20
1528.518437
 30
0.0
  0
VERTEX
  5
41E
100
AcDbEntity
  8
ｶｳﾝﾀｰ/ｷｬﾋﾞﾈｯﾄ
  6
CONTINUOUS
 62
     6
100
AcDbVertex
100
AcDb2dVertex
 10
2179.558671
 20
1528.515798
 30
0.0
  0
SEQEND
  5
41F
100
AcDbEntity
  8
ｶｳﾝﾀｰ/ｷｬﾋﾞﾈｯﾄ
  6
CONTINUOUS
 62
     6
  0
LINE
  5
420
100
AcDbEntity
  8
ｶｳﾝﾀｰ/ｷｬﾋﾞﾈｯﾄ
  6
CONTINUOUS
 62
     6
100
AcDbLine
 10
2166.393985
 20
1523.949065
 30
0.0
 11
2179.558659
 21
1528.515833
 31
0.0
  0
LINE
  5
421
100
AcDbEntity
  8
ｶｳﾝﾀｰ/ｷｬﾋﾞﾈｯﾄ
  6
CONTINUOUS
 62
     6
100
AcDbLine
 10
2133.762889
 20
1542.974543
 30
0.0
 11
2170.923441
 21
1557.141418
 31
0.0
  0
ARC
  5
422
100
AcDbEntity
  8
ｶｳﾝﾀｰ/ｷｬﾋﾞﾈｯﾄ
  6
CONTINUOUS
 62
     6
100
AcDbCircle
 10
2134.119114
 20
1542.040143
 30
0.0
 40
1.0
100
AcDbArc
 50
110.86856
 51
200.0
  0
POLYLINE
  5
423
100
AcDbEntity
  8
ｶｳﾝﾀｰ/ｷｬﾋﾞﾈｯﾄ
  6
CONTINUOUS
 62
     6
100
AcDb2dPolyline
 66
     1
 10
0.0
 20
0.0
 30
0.0
 70
   128
  0
VERTEX
  5
424
100
AcDbEntity
  8
ｶｳﾝﾀｰ/ｷｬﾋﾞﾈｯﾄ
  6
CONTINUOUS
 62
     6
100
AcDbVertex
100
AcDb2dVertex
 10
2170.923425
 20
1557.141458
 30
0.0
  0
VERTEX
  5
425
100
AcDbEntity
  8
ｶｳﾝﾀｰ/ｷｬﾋﾞﾈｯﾄ
  6
CONTINUOUS
 62
     6
100
AcDbVertex
100
AcDb2dVertex
 10
2170.933491
 20
1557.146026
 30
0.0
  0
VERTEX
  5
426
100
AcDbEntity
  8
ｶｳﾝﾀｰ/ｷｬﾋﾞﾈｯﾄ
  6
CONTINUOUS
 62
     6
100
AcDbVertex
100
AcDb2dVertex
 10
2170.962074
 20
1557.15912
 30
0.0
  0
VERTEX
  5
427
100
AcDbEntity
  8
ｶｳﾝﾀｰ/ｷｬﾋﾞﾈｯﾄ
  6
CONTINUOUS
 62
     6
100
AcDbVertex
100
AcDb2dVertex
 10
2171.006755
 20
1557.17982
 30
0.0
  0
VERTEX
  5
428
100
AcDbEntity
  8
ｶｳﾝﾀｰ/ｷｬﾋﾞﾈｯﾄ
  6
CONTINUOUS
 62
     6
100
AcDbVertex
100
AcDb2dVertex
 10
2171.065114
 20
1557.207206
 30
0.0
  0
VERTEX
  5
429
100
AcDbEntity
  8
ｶｳﾝﾀｰ/ｷｬﾋﾞﾈｯﾄ
  6
CONTINUOUS
 62
     6
100
AcDbVertex
100
AcDb2dVertex
 10
2171.134729
 20
1557.240361
 30
0.0
  0
VERTEX
  5
42A
100
AcDbEntity
  8
ｶｳﾝﾀｰ/ｷｬﾋﾞﾈｯﾄ
  6
CONTINUOUS
 62
     6
100
AcDbVertex
100
AcDb2dVertex
 10
2171.213182
 20
1557.278364
 30
0.0
  0
VERTEX
  5
42B
100
AcDbEntity
  8
ｶｳﾝﾀｰ/ｷｬﾋﾞﾈｯﾄ
  6
CONTINUOUS
 62
     6
100
AcDbVertex
100
AcDb2dVertex
 10
2171.29805
 20
1557.320297
 30
0.0
  0
VERTEX
  5
42C
100
AcDbEntity
  8
ｶｳﾝﾀｰ/ｷｬﾋﾞﾈｯﾄ
  6
CONTINUOUS
 62
     6
100
AcDbVertex
100
AcDb2dVertex
 10
2171.386916
 20
1557.365241
 30
0.0
  0
VERTEX
  5
42D
100
AcDbEntity
  8
ｶｳﾝﾀｰ/ｷｬﾋﾞﾈｯﾄ
  6
CONTINUOUS
 62
     6
100
AcDbVertex
100
AcDb2dVertex
 10
2171.477357
 20
1557.412276
 30
0.0
  0
VERTEX
  5
42E
100
AcDbEntity
  8
ｶｳﾝﾀｰ/ｷｬﾋﾞﾈｯﾄ
  6
CONTINUOUS
 62
     6
100
AcDbVertex
100
AcDb2dVertex
 10
2171.566955
 20
1557.460484
 30
0.0
  0
VERTEX
  5
42F
100
AcDbEntity
  8
ｶｳﾝﾀｰ/ｷｬﾋﾞﾈｯﾄ
  6
CONTINUOUS
 62
     6
100
AcDbVertex
100
AcDb2dVertex
 10
2171.653288
 20
1557.508946
 30
0.0
  0
VERTEX
  5
430
100
AcDbEntity
  8
ｶｳﾝﾀｰ/ｷｬﾋﾞﾈｯﾄ
  6
CONTINUOUS
 62
     6
100
AcDbVertex
100
AcDb2dVertex
 10
2171.76171
 20
1557.573688
 30
0.0
  0
VERTEX
  5
431
100
AcDbEntity
  8
ｶｳﾝﾀｰ/ｷｬﾋﾞﾈｯﾄ
  6
CONTINUOUS
 62
     6
100
AcDbVertex
100
AcDb2dVertex
 10
2171.860732
 20
1557.637544
 30
0.0
  0
VERTEX
  5
432
100
AcDbEntity
  8
ｶｳﾝﾀｰ/ｷｬﾋﾞﾈｯﾄ
  6
CONTINUOUS
 62
     6
100
AcDbVertex
100
AcDb2dVertex
 10
2171.951348
 20
1557.700846
 30
0.0
  0
VERTEX
  5
433
100
AcDbEntity
  8
ｶｳﾝﾀｰ/ｷｬﾋﾞﾈｯﾄ
  6
CONTINUOUS
 62
     6
100
AcDbVertex
100
AcDb2dVertex
 10
2172.034555
 20
1557.763927
 30
0.0
  0
VERTEX
  5
434
100
AcDbEntity
  8
ｶｳﾝﾀｰ/ｷｬﾋﾞﾈｯﾄ
  6
CONTINUOUS
 62
     6
100
AcDbVertex
100
AcDb2dVertex
 10
2172.111349
 20
1557.827117
 30
0.0
  0
VERTEX
  5
435
100
AcDbEntity
  8
ｶｳﾝﾀｰ/ｷｬﾋﾞﾈｯﾄ
  6
CONTINUOUS
 62
     6
100
AcDbVertex
100
AcDb2dVertex
 10
2172.182725
 20
1557.890749
 30
0.0
  0
VERTEX
  5
436
100
AcDbEntity
  8
ｶｳﾝﾀｰ/ｷｬﾋﾞﾈｯﾄ
  6
CONTINUOUS
 62
     6
100
AcDbVertex
100
AcDb2dVertex
 10
2172.249678
 20
1557.955154
 30
0.0
  0
VERTEX
  5
437
100
AcDbEntity
  8
ｶｳﾝﾀｰ/ｷｬﾋﾞﾈｯﾄ
  6
CONTINUOUS
 62
     6
100
AcDbVertex
100
AcDb2dVertex
 10
2172.313204
 20
1558.020664
 30
0.0
  0
VERTEX
  5
438
100
AcDbEntity
  8
ｶｳﾝﾀｰ/ｷｬﾋﾞﾈｯﾄ
  6
CONTINUOUS
 62
     6
100
AcDbVertex
100
AcDb2dVertex
 10
2172.3743
 20
1558.08761
 30
0.0
  0
VERTEX
  5
439
100
AcDbEntity
  8
ｶｳﾝﾀｰ/ｷｬﾋﾞﾈｯﾄ
  6
CONTINUOUS
 62
     6
100
AcDbVertex
100
AcDb2dVertex
 10
2172.43396
 20
1558.156324
 30
0.0
  0
VERTEX
  5
43A
100
AcDbEntity
  8
ｶｳﾝﾀｰ/ｷｬﾋﾞﾈｯﾄ
  6
CONTINUOUS
 62
     6
100
AcDbVertex
100
AcDb2dVertex
 10
2172.49318
 20
1558.227137
 30
0.0
  0
VERTEX
  5
43B
100
AcDbEntity
  8
ｶｳﾝﾀｰ/ｷｬﾋﾞﾈｯﾄ
  6
CONTINUOUS
 62
     6
100
AcDbVertex
100
AcDb2dVertex
 10
2172.552734
 20
1558.300314
 30
0.0
  0
VERTEX
  5
43C
100
AcDbEntity
  8
ｶｳﾝﾀｰ/ｷｬﾋﾞﾈｯﾄ
  6
CONTINUOUS
 62
     6
100
AcDbVertex
100
AcDb2dVertex
 10
2172.612507
 20
1558.375839
 30
0.0
  0
VERTEX
  5
43D
100
AcDbEntity
  8
ｶｳﾝﾀｰ/ｷｬﾋﾞﾈｯﾄ
  6
CONTINUOUS
 62
     6
100
AcDbVertex
100
AcDb2dVertex
 10
2172.672159
 20
1558.453632
 30
0.0
  0
VERTEX
  5
43E
100
AcDbEntity
  8
ｶｳﾝﾀｰ/ｷｬﾋﾞﾈｯﾄ
  6
CONTINUOUS
 62
     6
100
AcDbVertex
100
AcDb2dVertex
 10
2172.731353
 20
1558.53361
 30
0.0
  0
VERTEX
  5
43F
100
AcDbEntity
  8
ｶｳﾝﾀｰ/ｷｬﾋﾞﾈｯﾄ
  6
CONTINUOUS
 62
     6
100
AcDbVertex
100
AcDb2dVertex
 10
2172.789752
 20
1558.615691
 30
0.0
  0
VERTEX
  5
440
100
AcDbEntity
  8
ｶｳﾝﾀｰ/ｷｬﾋﾞﾈｯﾄ
  6
CONTINUOUS
 62
     6
100
AcDbVertex
100
AcDb2dVertex
 10
2172.847017
 20
1558.699793
 30
0.0
  0
VERTEX
  5
441
100
AcDbEntity
  8
ｶｳﾝﾀｰ/ｷｬﾋﾞﾈｯﾄ
  6
CONTINUOUS
 62
     6
100
AcDbVertex
100
AcDb2dVertex
 10
2172.90281
 20
1558.785833
 30
0.0
  0
VERTEX
  5
442
100
AcDbEntity
  8
ｶｳﾝﾀｰ/ｷｬﾋﾞﾈｯﾄ
  6
CONTINUOUS
 62
     6
100
AcDbVertex
100
AcDb2dVertex
 10
2172.956793
 20
1558.87373
 30
0.0
  0
VERTEX
  5
443
100
AcDbEntity
  8
ｶｳﾝﾀｰ/ｷｬﾋﾞﾈｯﾄ
  6
CONTINUOUS
 62
     6
100
AcDbVertex
100
AcDb2dVertex
 10
2173.008628
 20
1558.963401
 30
0.0
  0
VERTEX
  5
444
100
AcDbEntity
  8
ｶｳﾝﾀｰ/ｷｬﾋﾞﾈｯﾄ
  6
CONTINUOUS
 62
     6
100
AcDbVertex
100
AcDb2dVertex
 10
2173.057978
 20
1559.054765
 30
0.0
  0
VERTEX
  5
445
100
AcDbEntity
  8
ｶｳﾝﾀｰ/ｷｬﾋﾞﾈｯﾄ
  6
CONTINUOUS
 62
     6
100
AcDbVertex
100
AcDb2dVertex
 10
2173.104505
 20
1559.147739
 30
0.0
  0
VERTEX
  5
446
100
AcDbEntity
  8
ｶｳﾝﾀｰ/ｷｬﾋﾞﾈｯﾄ
  6
CONTINUOUS
 62
     6
100
AcDbVertex
100
AcDb2dVertex
 10
2173.14795
 20
1559.242202
 30
0.0
  0
VERTEX
  5
447
100
AcDbEntity
  8
ｶｳﾝﾀｰ/ｷｬﾋﾞﾈｯﾄ
  6
CONTINUOUS
 62
     6
100
AcDbVertex
100
AcDb2dVertex
 10
2173.18838
 20
1559.337873
 30
0.0
  0
VERTEX
  5
448
100
AcDbEntity
  8
ｶｳﾝﾀｰ/ｷｬﾋﾞﾈｯﾄ
  6
CONTINUOUS
 62
     6
100
AcDbVertex
100
AcDb2dVertex
 10
2173.22594
 20
1559.434432
 30
0.0
  0
VERTEX
  5
449
100
AcDbEntity
  8
ｶｳﾝﾀｰ/ｷｬﾋﾞﾈｯﾄ
  6
CONTINUOUS
 62
     6
100
AcDbVertex
100
AcDb2dVertex
 10
2173.260776
 20
1559.531559
 30
0.0
  0
VERTEX
  5
44A
100
AcDbEntity
  8
ｶｳﾝﾀｰ/ｷｬﾋﾞﾈｯﾄ
  6
CONTINUOUS
 62
     6
100
AcDbVertex
100
AcDb2dVertex
 10
2173.293033
 20
1559.628935
 30
0.0
  0
VERTEX
  5
44B
100
AcDbEntity
  8
ｶｳﾝﾀｰ/ｷｬﾋﾞﾈｯﾄ
  6
CONTINUOUS
 62
     6
100
AcDbVertex
100
AcDb2dVertex
 10
2173.322858
 20
1559.726239
 30
0.0
  0
VERTEX
  5
44C
100
AcDbEntity
  8
ｶｳﾝﾀｰ/ｷｬﾋﾞﾈｯﾄ
  6
CONTINUOUS
 62
     6
100
AcDbVertex
100
AcDb2dVertex
 10
2173.350397
 20
1559.823151
 30
0.0
  0
VERTEX
  5
44D
100
AcDbEntity
  8
ｶｳﾝﾀｰ/ｷｬﾋﾞﾈｯﾄ
  6
CONTINUOUS
 62
     6
100
AcDbVertex
100
AcDb2dVertex
 10
2173.375794
 20
1559.919352
 30
0.0
  0
VERTEX
  5
44E
100
AcDbEntity
  8
ｶｳﾝﾀｰ/ｷｬﾋﾞﾈｯﾄ
  6
CONTINUOUS
 62
     6
100
AcDbVertex
100
AcDb2dVertex
 10
2173.399196
 20
1560.014521
 30
0.0
  0
VERTEX
  5
44F
100
AcDbEntity
  8
ｶｳﾝﾀｰ/ｷｬﾋﾞﾈｯﾄ
  6
CONTINUOUS
 62
     6
100
AcDbVertex
100
AcDb2dVertex
 10
2173.420749
 20
1560.108338
 30
0.0
  0
VERTEX
  5
450
100
AcDbEntity
  8
ｶｳﾝﾀｰ/ｷｬﾋﾞﾈｯﾄ
  6
CONTINUOUS
 62
     6
100
AcDbVertex
100
AcDb2dVertex
 10
2173.440599
 20
1560.200484
 30
0.0
  0
VERTEX
  5
451
100
AcDbEntity
  8
ｶｳﾝﾀｰ/ｷｬﾋﾞﾈｯﾄ
  6
CONTINUOUS
 62
     6
100
AcDbVertex
100
AcDb2dVertex
 10
2173.458807
 20
1560.290859
 30
0.0
  0
VERTEX
  5
452
100
AcDbEntity
  8
ｶｳﾝﾀｰ/ｷｬﾋﾞﾈｯﾄ
  6
CONTINUOUS
 62
     6
100
AcDbVertex
100
AcDb2dVertex
 10
2173.475096
 20
1560.380242
 30
0.0
  0
VERTEX
  5
453
100
AcDbEntity
  8
ｶｳﾝﾀｰ/ｷｬﾋﾞﾈｯﾄ
  6
CONTINUOUS
 62
     6
100
AcDbVertex
100
AcDb2dVertex
 10
2173.489105
 20
1560.469633
 30
0.0
  0
VERTEX
  5
454
100
AcDbEntity
  8
ｶｳﾝﾀｰ/ｷｬﾋﾞﾈｯﾄ
  6
CONTINUOUS
 62
     6
100
AcDbVertex
100
AcDb2dVertex
 10
2173.500474
 20
1560.560032
 30
0.0
  0
VERTEX
  5
455
100
AcDbEntity
  8
ｶｳﾝﾀｰ/ｷｬﾋﾞﾈｯﾄ
  6
CONTINUOUS
 62
     6
100
AcDbVertex
100
AcDb2dVertex
 10
2173.508842
 20
1560.652438
 30
0.0
  0
VERTEX
  5
456
100
AcDbEntity
  8
ｶｳﾝﾀｰ/ｷｬﾋﾞﾈｯﾄ
  6
CONTINUOUS
 62
     6
100
AcDbVertex
100
AcDb2dVertex
 10
2173.513847
 20
1560.747852
 30
0.0
  0
VERTEX
  5
457
100
AcDbEntity
  8
ｶｳﾝﾀｰ/ｷｬﾋﾞﾈｯﾄ
  6
CONTINUOUS
 62
     6
100
AcDbVertex
100
AcDb2dVertex
 10
2173.51513
 20
1560.847272
 30
0.0
  0
VERTEX
  5
458
100
AcDbEntity
  8
ｶｳﾝﾀｰ/ｷｬﾋﾞﾈｯﾄ
  6
CONTINUOUS
 62
     6
100
AcDbVertex
100
AcDb2dVertex
 10
2173.512328
 20
1560.9517
 30
0.0
  0
VERTEX
  5
459
100
AcDbEntity
  8
ｶｳﾝﾀｰ/ｷｬﾋﾞﾈｯﾄ
  6
CONTINUOUS
 62
     6
100
AcDbVertex
100
AcDb2dVertex
 10
2173.505081
 20
1561.062134
 30
0.0
  0
VERTEX
  5
45A
100
AcDbEntity
  8
ｶｳﾝﾀｰ/ｷｬﾋﾞﾈｯﾄ
  6
CONTINUOUS
 62
     6
100
AcDbVertex
100
AcDb2dVertex
 10
2173.493028
 20
1561.179574
 30
0.0
  0
VERTEX
  5
45B
100
AcDbEntity
  8
ｶｳﾝﾀｰ/ｷｬﾋﾞﾈｯﾄ
  6
CONTINUOUS
 62
     6
100
AcDbVertex
100
AcDb2dVertex
 10
2173.475809
 20
1561.30502
 30
0.0
  0
VERTEX
  5
45C
100
AcDbEntity
  8
ｶｳﾝﾀｰ/ｷｬﾋﾞﾈｯﾄ
  6
CONTINUOUS
 62
     6
100
AcDbVertex
100
AcDb2dVertex
 10
2173.460254
 20
1561.399844
 30
0.0
  0
VERTEX
  5
45D
100
AcDbEntity
  8
ｶｳﾝﾀｰ/ｷｬﾋﾞﾈｯﾄ
  6
CONTINUOUS
 62
     6
100
AcDbVertex
100
AcDb2dVertex
 10
2173.442617
 20
1561.49691
 30
0.0
  0
VERTEX
  5
45E
100
AcDbEntity
  8
ｶｳﾝﾀｰ/ｷｬﾋﾞﾈｯﾄ
  6
CONTINUOUS
 62
     6
100
AcDbVertex
100
AcDb2dVertex
 10
2173.423649
 20
1561.593841
 30
0.0
  0
VERTEX
  5
45F
100
AcDbEntity
  8
ｶｳﾝﾀｰ/ｷｬﾋﾞﾈｯﾄ
  6
CONTINUOUS
 62
     6
100
AcDbVertex
100
AcDb2dVertex
 10
2173.4041
 20
1561.688263
 30
0.0
  0
VERTEX
  5
460
100
AcDbEntity
  8
ｶｳﾝﾀｰ/ｷｬﾋﾞﾈｯﾄ
  6
CONTINUOUS
 62
     6
100
AcDbVertex
100
AcDb2dVertex
 10
2173.384722
 20
1561.7778
 30
0.0
  0
VERTEX
  5
461
100
AcDbEntity
  8
ｶｳﾝﾀｰ/ｷｬﾋﾞﾈｯﾄ
  6
CONTINUOUS
 62
     6
100
AcDbVertex
100
AcDb2dVertex
 10
2173.366264
 20
1561.860079
 30
0.0
  0
VERTEX
  5
462
100
AcDbEntity
  8
ｶｳﾝﾀｰ/ｷｬﾋﾞﾈｯﾄ
  6
CONTINUOUS
 62
     6
100
AcDbVertex
100
AcDb2dVertex
 10
2173.349479
 20
1561.932724
 30
0.0
  0
VERTEX
  5
463
100
AcDbEntity
  8
ｶｳﾝﾀｰ/ｷｬﾋﾞﾈｯﾄ
  6
CONTINUOUS
 62
     6
100
AcDbVertex
100
AcDb2dVertex
 10
2173.335117
 20
1561.993359
 30
0.0
  0
VERTEX
  5
464
100
AcDbEntity
  8
ｶｳﾝﾀｰ/ｷｬﾋﾞﾈｯﾄ
  6
CONTINUOUS
 62
     6
100
AcDbVertex
100
AcDb2dVertex
 10
2173.323928
 20
1562.039611
 30
0.0
  0
VERTEX
  5
465
100
AcDbEntity
  8
ｶｳﾝﾀｰ/ｷｬﾋﾞﾈｯﾄ
  6
CONTINUOUS
 62
     6
100
AcDbVertex
100
AcDb2dVertex
 10
2173.316665
 20
1562.069103
 30
0.0
  0
VERTEX
  5
466
100
AcDbEntity
  8
ｶｳﾝﾀｰ/ｷｬﾋﾞﾈｯﾄ
  6
CONTINUOUS
 62
     6
100
AcDbVertex
100
AcDb2dVertex
 10
2173.314077
 20
1562.079462
 30
0.0
  0
SEQEND
  5
467
100
AcDbEntity
  8
ｶｳﾝﾀｰ/ｷｬﾋﾞﾈｯﾄ
  6
CONTINUOUS
 62
     6
  0
ARC
  5
468
100
AcDbEntity
  8
ｶｳﾝﾀｰ/ｷｬﾋﾞﾈｯﾄ
  6
CONTINUOUS
 62
     6
100
AcDbCircle
 10
2172.94402
 20
1564.929221
 30
0.0
 40
0.5
100
AcDbArc
 50
197.611815
 51
290.0
  0
LINE
  5
469
100
AcDbEntity
  8
ｶｳﾝﾀｰ/ｷｬﾋﾞﾈｯﾄ
  6
CONTINUOUS
 62
     6
100
AcDbLine
 10
2172.945583
 20
1563.250643
 30
0.0
 11
2173.314146
 21
1562.079186
 31
0.0
  0
ARC
  5
46A
100
AcDbEntity
  8
ｶｳﾝﾀｰ/ｷｬﾋﾞﾈｯﾄ
  6
CONTINUOUS
 62
     6
100
AcDbCircle
 10
2173.422534
 20
1563.400701
 30
0.0
 40
0.5
100
AcDbArc
 50
110.0
 51
197.464599
  0
LINE
  5
46B
100
AcDbEntity
  8
ｶｳﾝﾀｰ/ｷｬﾋﾞﾈｯﾄ
  6
CONTINUOUS
 62
     6
100
AcDbLine
 10
2150.452492
 20
1587.07204
 30
0.0
 11
2192.579981
 21
1602.405192
 31
0.0
  0
ARC
  5
46C
100
AcDbEntity
  8
ｶｳﾝﾀｰ/ｷｬﾋﾞﾈｯﾄ
  6
CONTINUOUS
 62
     6
100
AcDbCircle
 10
2203.874635
 20
1576.187044
 30
0.0
 40
0.5
100
AcDbArc
 50
290.0
 51
20.0
  0
LINE
  5
46D
100
AcDbEntity
  8
ｶｳﾝﾀｰ/ｷｬﾋﾞﾈｯﾄ
  6
CONTINUOUS
 62
     6
100
AcDbLine
 10
2204.336956
 20
1576.377463
 30
0.0
 11
2204.344481
 21
1576.358054
 31
0.0
  0
ARC
  5
46E
100
AcDbEntity
  8
ｶｳﾝﾀｰ/ｷｬﾋﾞﾈｯﾄ
  6
CONTINUOUS
 62
     6
100
AcDbCircle
 10
2204.524303
 20
1574.720819
 30
0.0
 40
0.5
100
AcDbArc
 50
22.179156
 51
110.0
  0
ARC
  5
46F
100
AcDbEntity
  8
ｶｳﾝﾀｰ/ｷｬﾋﾞﾈｯﾄ
  6
CONTINUOUS
 62
     6
100
AcDbCircle
 10
2192.922096
 20
1601.465534
 30
0.0
 40
1.0
100
AcDbArc
 50
22.385956
 51
110.0
  0
ARC
  5
470
100
AcDbEntity
  8
ｶｳﾝﾀｰ/ｷｬﾋﾞﾈｯﾄ
  6
CONTINUOUS
 62
     6
100
AcDbCircle
 10
2191.493961
 20
1587.865486
 30
0.0
 40
9.0
100
AcDbArc
 50
348.636955
 51
22.385944
  0
ARC
  5
471
100
AcDbEntity
  8
ｶｳﾝﾀｰ/ｷｬﾋﾞﾈｯﾄ
  6
CONTINUOUS
 62
     6
100
AcDbCircle
 10
2154.248929
 20
1576.641457
 30
0.0
 40
0.5
100
AcDbArc
 50
200.0
 51
290.0
  0
ARC
  5
472
100
AcDbEntity
  8
ｶｳﾝﾀｰ/ｷｬﾋﾞﾈｯﾄ
  6
CONTINUOUS
 62
     6
100
AcDbCircle
 10
2164.486387
 20
1575.046698
 30
0.0
 40
4.5
100
AcDbArc
 50
17.611815
 51
110.0
  0
LINE
  5
473
100
AcDbEntity
  8
ｶｳﾝﾀｰ/ｷｬﾋﾞﾈｯﾄ
  6
CONTINUOUS
 62
     6
100
AcDbLine
 10
2154.419939
 20
1576.171611
 30
0.0
 11
2162.947296
 21
1579.275315
 31
0.0
  0
ARC
  5
474
100
AcDbEntity
  8
ｶｳﾝﾀｰ/ｷｬﾋﾞﾈｯﾄ
  6
CONTINUOUS
 62
     6
100
AcDbCircle
 10
2150.623516
 20
1586.602199
 30
0.0
 40
0.5
100
AcDbArc
 50
110.0
 51
200.0
  0
ARC
  5
475
100
AcDbEntity
  8
ｶｳﾝﾀｰ/ｷｬﾋﾞﾈｯﾄ
  6
CONTINUOUS
 62
     6
100
AcDbCircle
 10
2191.493961
 20
1587.865486
 30
0.0
 40
9.0
100
AcDbArc
 50
22.385944
 51
56.134933
  0
LINE
  5
476
100
AcDbEntity
  8
ｶｳﾝﾀｰ/ｷｬﾋﾞﾈｯﾄ
  6
EXLTYPE1
 62
     6
100
AcDbLine
 10
2173.281561
 20
1563.881483
 30
0.0
 11
2173.280779
 21
1563.881199
 31
0.0
  0
LINE
  5
477
100
AcDbEntity
  8
ｶｳﾝﾀｰ/ｷｬﾋﾞﾈｯﾄ
  6
EXLTYPE1
 62
     6
100
AcDbLine
 10
2204.089568
 20
1575.839606
 30
0.0
 11
2204.090162
 21
1575.839823
 31
0.0
  0
LINE
  5
478
100
AcDbEntity
  8
ｶｳﾝﾀｰ/ｷｬﾋﾞﾈｯﾄ
  6
CONTINUOUS
 62
     6
100
AcDbLine
 10
2204.045645
 20
1575.717197
 30
0.0
 11
2188.599955
 21
1570.095426
 31
0.0
  0
LINE
  5
479
100
AcDbEntity
  8
ｶｳﾝﾀｰ/ｷｬﾋﾞﾈｯﾄ
  6
CONTINUOUS
 62
     6
100
AcDbLine
 10
2188.599955
 20
1570.095426
 30
0.0
 11
2173.11503
 21
1564.459374
 31
0.0
  0
LINE
  5
47A
100
AcDbEntity
  8
ｶｳﾝﾀｰ/ｷｬﾋﾞﾈｯﾄ
  6
CONTINUOUS
 62
     6
100
AcDbLine
 10
2165.724229
 20
1523.954141
 30
0.0
 11
2150.113821
 21
1529.635865
 31
0.0
  0
LINE
  5
47B
100
AcDbEntity
  8
ｶｳﾝﾀｰ/ｷｬﾋﾞﾈｯﾄ
  6
CONTINUOUS
 62
     6
100
AcDbLine
 10
2150.113821
 20
1529.635865
 30
0.0
 11
2136.092266
 21
1534.739293
 31
0.0
  0
LINE
  5
47C
100
AcDbEntity
  8
ｶｳﾝﾀｰ/ｷｬﾋﾞﾈｯﾄ
  6
CONTINUOUS
 62
     6
100
AcDbLine
 10
2193.846736
 20
1601.846375
 30
0.0
 11
2198.436692
 21
1590.70255
 31
0.0
  0
LINE
  5
47D
100
AcDbEntity
  8
ｶｳﾝﾀｰ/ｷｬﾋﾞﾈｯﾄ
  6
CONTINUOUS
 62
     6
100
AcDbLine
 10
2198.436692
 20
1590.70255
 30
0.0
 11
2204.336956
 21
1576.377463
 31
0.0
  0
LINE
  5
47E
100
AcDbEntity
  8
ｶｳﾝﾀｰ/ｷｬﾋﾞﾈｯﾄ
  6
CONTINUOUS
 62
     6
100
AcDbLine
 10
2168.775464
 20
1576.408247
 30
0.0
 11
2172.467456
 21
1564.777937
 31
0.0
  0
LINE
  5
47F
100
AcDbEntity
  8
ｶｳﾝﾀｰ/ｷｬﾋﾞﾈｯﾄ
  6
CONTINUOUS
 62
     6
100
AcDbLine
 10
2150.153669
 20
1586.431189
 30
0.0
 11
2153.779083
 21
1576.470447
 31
0.0
  0
LINE
  5
480
100
AcDbEntity
  8
ｶｳﾝﾀｰ/ｷｬﾋﾞﾈｯﾄ
  6
CONTINUOUS
 62
     6
100
AcDbLine
 10
2139.977354
 20
1530.563696
 30
0.0
 11
2140.015159
 21
1530.549936
 31
0.0
  0
LINE
  5
481
100
AcDbEntity
  8
ｶｳﾝﾀｰ/ｷｬﾋﾞﾈｯﾄ
  6
CONTINUOUS
 62
     6
100
AcDbLine
 10
2138.83751
 20
1533.740107
 30
0.0
 11
2137.195813
 21
1529.229582
 31
0.0
  0
LINE
  5
482
100
AcDbEntity
  8
ｶｳﾝﾀｰ/ｷｬﾋﾞﾈｯﾄ
  6
CONTINUOUS
 62
     6
100
AcDbLine
 10
2137.195813
 20
1529.229582
 30
0.0
 11
2159.748436
 21
1521.021099
 31
0.0
  0
LINE
  5
483
100
AcDbEntity
  8
ｶｳﾝﾀｰ/ｷｬﾋﾞﾈｯﾄ
  6
CONTINUOUS
 62
     6
100
AcDbLine
 10
2161.390133
 20
1525.531623
 30
0.0
 11
2159.748436
 21
1521.021099
 31
0.0
  0
LINE
  5
484
100
AcDbEntity
  8
ｶｳﾝﾀｰ/ｷｬﾋﾞﾈｯﾄ
  6
CONTINUOUS
 62
     6
100
AcDbLine
 10
2184.685003
 20
1525.937585
 30
0.0
 11
2199.137869
 21
1480.0
 31
0.0
  0
LINE
  5
485
100
AcDbEntity
  8
ｶｳﾝﾀｰ/ｷｬﾋﾞﾈｯﾄ
  6
CONTINUOUS
 62
     6
100
AcDbLine
 10
2243.678913
 20
1480.0
 30
0.0
 11
2204.987307
 21
1574.909571
 31
0.0
  0
LINE
  5
486
100
AcDbEntity
  8
ｶｳﾝﾀｰ/ｷｬﾋﾞﾈｯﾄ
  6
CONTINUOUS
 62
     2
100
AcDbLine
 10
2219.218826
 20
1540.0
 30
0.0
 11
2280.592719
 21
1540.0
 31
0.0
  0
LINE
  5
487
100
AcDbEntity
  8
ｶｳﾝﾀｰ/ｷｬﾋﾞﾈｯﾄ
  6
CONTINUOUS
 62
     2
100
AcDbLine
 10
1940.9
 20
1540.0
 30
0.0
 11
2133.797488
 21
1540.0
 31
0.0
  0
LINE
  5
488
100
AcDbEntity
  8
ｶｳﾝﾀｰ/ｷｬﾋﾞﾈｯﾄ
  6
CONTINUOUS
 62
     6
100
AcDbLine
 10
2219.55242
 20
2285.808292
 30
0.0
 11
2186.516703
 21
2291.188491
 31
0.0
  0
ARC
  5
489
100
AcDbEntity
  8
ｶｳﾝﾀｰ/ｷｬﾋﾞﾈｯﾄ
  6
CONTINUOUS
 62
     6
100
AcDbCircle
 10
2163.71315
 20
2314.6
 30
0.0
 40
1.419022
100
AcDbArc
 50
219.906099
 51
336.434739
  0
ARC
  5
48A
100
AcDbEntity
  8
ｶｳﾝﾀｰ/ｷｬﾋﾞﾈｯﾄ
  6
CONTINUOUS
 62
     6
100
AcDbCircle
 10
2163.71315
 20
2301.4
 30
0.0
 40
1.419022
100
AcDbArc
 50
23.565261
 51
140.093901
  0
ELLIPSE
  5
48B
100
AcDbEntity
  8
ｶｳﾝﾀｰ/ｷｬﾋﾞﾈｯﾄ
  6
CONTINUOUS
 62
     6
100
AcDbEllipse
 10
2178.844955
 20
2308.0
 30
0.0
 11
0.0000000000000009
 21
15.500000000000009
 31
0.0
210
0.0
220
0.0
230
1.0
 40
0.967858
 41
1.9702661805466022
 42
1.1713264730432327
  0
ELLIPSE
  5
48C
100
AcDbEntity
  8
ｶｳﾝﾀｰ/ｷｬﾋﾞﾈｯﾄ
  6
CONTINUOUS
 62
     6
100
AcDbEllipse
 10
2156.983558
 20
2308.0
 30
0.0
 11
0.0000000000000006
 21
10.0
 31
0.0
210
0.0
220
0.0
230
1.0
 40
0.685959
 41
5.3176360755095917
 42
4.1071418852597521
  0
LINE
  5
48D
100
AcDbEntity
  8
ｶｳﾝﾀｰ/ｷｬﾋﾞﾈｯﾄ
  6
CONTINUOUS
 62
     6
100
AcDbLine
 10
2156.983558
 20
2318.0
 30
0.0
 11
2167.38288
 21
2318.0
 31
0.0
  0
LINE
  5
48E
100
AcDbEntity
  8
ｶｳﾝﾀｰ/ｷｬﾋﾞﾈｯﾄ
  6
CONTINUOUS
 62
     6
100
AcDbLine
 10
2156.983558
 20
2298.0
 30
0.0
 11
2167.38288
 21
2298.0
 31
0.0
  0
LINE
  5
48F
100
AcDbEntity
  8
ｶｳﾝﾀｰ/ｷｬﾋﾞﾈｯﾄ
  6
CONTINUOUS
 62
     6
100
AcDbLine
 10
2186.683995
 20
2324.838962
 30
0.0
 11
2176.688745
 21
2323.339062
 31
0.0
  0
ELLIPSE
  5
490
100
AcDbEntity
  8
ｶｳﾝﾀｰ/ｷｬﾋﾞﾈｯﾄ
  6
CONTINUOUS
 62
     6
100
AcDbEllipse
 10
2188.798027
 20
2308.0
 30
0.0
 11
-0.0000000000000103
 21
16.996839464599816
 31
0.0
210
0.0
220
0.0
230
1.0
 40
0.914669
 41
3.0061989202155814
 42
0.1364040368357887
  0
LINE
  5
491
100
AcDbEntity
  8
ｶｳﾝﾀｰ/ｷｬﾋﾞﾈｯﾄ
  6
CONTINUOUS
 62
     6
100
AcDbLine
 10
2219.55242
 20
2330.191708
 30
0.0
 11
2186.516703
 21
2324.811509
 31
0.0
  0
ELLIPSE
  5
492
100
AcDbEntity
  8
ｶｳﾝﾀｰ/ｷｬﾋﾞﾈｯﾄ
  6
CONTINUOUS
 62
     6
100
AcDbEllipse
 10
2223.0
 20
2308.0
 30
0.0
 11
-0.0000000000000136
 21
22.47069124129985
 31
0.0
210
0.0
220
0.0
230
1.0
 40
0.976685
 41
2.9844131635980702
 42
0.1577414859812738
  0
LINE
  5
493
100
AcDbEntity
  8
ｶｳﾝﾀｰ/ｷｬﾋﾞﾈｯﾄ
  6
CONTINUOUS
 62
     6
100
AcDbLine
 10
2186.683995
 20
2291.161038
 30
0.0
 11
2176.688745
 21
2292.660938
 31
0.0
  0
LINE
  5
494
100
AcDbEntity
  8
ｶｳﾝﾀｰ/ｷｬﾋﾞﾈｯﾄ
  6
CONTINUOUS
 62
     6
100
AcDbLine
 10
2186.454087
 20
2291.195538
 30
0.0
 11
2186.515915
 21
2291.184195
 31
0.0
  0
LINE
  5
495
100
AcDbEntity
  8
ｶｳﾝﾀｰ/ｷｬﾋﾞﾈｯﾄ
  6
CONTINUOUS
 62
     6
100
AcDbLine
 10
2141.674718
 20
2294.0
 30
0.0
 11
2172.406696
 21
2294.0
 31
0.0
  0
ELLIPSE
  5
496
100
AcDbEntity
  8
ｶｳﾝﾀｰ/ｷｬﾋﾞﾈｯﾄ
  6
CONTINUOUS
 62
     6
100
AcDbEllipse
 10
2141.674718
 20
2308.0
 30
0.0
 11
-0.2234164830233683
 21
13.998217182395523
 31
0.0
210
0.0
220
0.0
230
1.0
 40
0.585714
 41
6.255955351618355
 42
3.1143626982380859
  0
LINE
  5
497
100
AcDbEntity
  8
ｶｳﾝﾀｰ/ｷｬﾋﾞﾈｯﾄ
  6
CONTINUOUS
 62
     6
100
AcDbLine
 10
2141.674718
 20
2322.0
 30
0.0
 11
2172.406696
 21
2322.0
 31
0.0
  0
LINE
  5
498
100
AcDbEntity
  8
ｶｳﾝﾀｰ/ｷｬﾋﾞﾈｯﾄ
  6
CONTINUOUS
 62
     2
100
AcDbLine
 10
2182.0
 20
2324.136076
 30
0.0
 11
2182.0
 21
2348.804391
 31
0.0
  0
LINE
  5
499
100
AcDbEntity
  8
ｶｳﾝﾀｰ/ｷｬﾋﾞﾈｯﾄ
  6
CONTINUOUS
 62
     2
100
AcDbLine
 10
2182.0
 20
2206.467255
 30
0.0
 11
2182.0
 21
2291.924081
 31
0.0
  0
DIMENSION
  5
4A4
100
AcDbEntity
  8
寸法
  6
CONTINUOUS
 62
     3
100
AcDbDimension
  2
*D30
 10
3654.0
 20
700.0
 30
0.0
 11
3618.75
 21
962.25
 31
0.0
 70
   160
  1
525（キャビネット壁固定）
  3
STANDARD
100
AcDbAlignedDimension
 13
3396.0
 23
1224.5
 33
0.0
 14
3654.0
 24
700.0
 34
0.0
 50
90.0
100
AcDbRotatedDimension
1001
ACAD
1000
DSTYLE
1002
{
1070
     6
1000
_EX_NORM
1070
     7
1000
_EX_NORM
1070
    41
1040
45.0
1070
    42
1040
10.5
1070
    44
1040
15.0
1070
    73
1070
     0
1070
    74
1070
     0
1070
    75
1070
     0
1070
    76
1070
     1
1070
    77
1070
     1
1070
    78
1070
     0
1070
   140
1040
60.0
1070
   147
1040
5.25
1070
   173
1070
     1
1070
   176
1070
     3
1070
   177
1070
     3
1070
   178
1070
     2
1070
   271
1070
     0
1070
   279
1070
     2
1070
   280
1070
     0
1070
   287
1070
     5
1070
   340
1005
F9
1002
}
  0
LEADER
  5
4A5
100
AcDbEntity
  8
寸法
  6
CONTINUOUS
 62
     3
100
AcDbLeader
  3
STANDARD
 73
     3
 74
     1
 75
     0
 40
0.0
 76
     3
 10
3384.0
 20
1116.0
 30
0.0
 10
3435.0
 20
1346.0
 30
0.0
 10
3563.0
 20
1346.0
 30
0.0
 77
     3
1001
ACAD
1000
DSTYLE
1002
{
1070
    41
1040
45.0
1070
     5
1000
_EX_NORM
1070
     6
1000
_EX_NORM
1070
     7
1000
_EX_NORM
1070
   341
1005
28
1002
}
  0
DIMENSION
  5
4B1
100
AcDbEntity
  8
寸法
  6
CONTINUOUS
 62
     3
100
AcDbDimension
  2
*D31
 10
851.0
 20
2248.0
 30
0.0
 11
815.75
 21
2315.5
 31
0.0
 70
   160
  3
STANDARD
100
AcDbAlignedDimension
 13
936.0
 23
2383.0
 33
0.0
 14
936.0
 24
2248.0
 34
0.0
 50
90.0
100
AcDbRotatedDimension
1001
ACAD
1000
DSTYLE
1002
{
1070
     6
1000
_EX_NORM
1070
     7
1000
_EX_NORM
1070
    41
1040
45.0
1070
    42
1040
10.5
1070
    44
1040
15.0
1070
    73
1070
     0
1070
    74
1070
     0
1070
    75
1070
     0
1070
    76
1070
     0
1070
    77
1070
     1
1070
    78
1070
     0
1070
   140
1040
60.0
1070
   147
1040
5.25
1070
   173
1070
     1
1070
   176
1070
     3
1070
   177
1070
     3
1070
   178
1070
     2
1070
   271
1070
     0
1070
   279
1070
     2
1070
   280
1070
     0
1070
   287
1070
     5
1070
   340
1005
EC
1002
}
  0
DIMENSION
  5
4BD
100
AcDbEntity
  8
寸法
  6
CONTINUOUS
 62
     3
100
AcDbDimension
  2
*D32
 10
2288.5
 20
2098.0
 30
0.0
 11
1612.25
 21
2133.25
 31
0.0
 70
   160
  1
1350
  3
STANDARD
100
AcDbAlignedDimension
 13
936.0
 23
2248.0
 33
0.0
 14
2288.5
 24
2211.117584
 34
0.0
100
AcDbRotatedDimension
1001
ACAD
1000
DSTYLE
1002
{
1070
     6
1000
_EX_NORM
1070
     7
1000
_EX_NORM
1070
    41
1040
45.0
1070
    42
1040
10.5
1070
    44
1040
15.0
1070
    73
1070
     0
1070
    74
1070
     0
1070
    75
1070
     0
1070
    76
1070
     0
1070
    77
1070
     1
1070
    78
1070
     0
1070
   140
1040
60.0
1070
   147
1040
5.25
1070
   173
1070
     1
1070
   176
1070
     3
1070
   177
1070
     3
1070
   178
1070
     2
1070
   271
1070
     0
1070
   279
1070
     2
1070
   280
1070
     0
1070
   287
1070
     5
1070
   340
1005
EC
1002
}
  0
LEADER
  5
4BE
100
AcDbEntity
  8
寸法
  6
CONTINUOUS
 62
     3
100
AcDbLeader
  3
STANDARD
 73
     3
 74
     1
 75
     0
 40
0.0
 76
     3
 10
3361.0
 20
1175.0
 30
0.0
 10
3424.0
 20
1435.0
 30
0.0
 10
3575.0
 20
1435.0
 30
0.0
 77
     3
1001
ACAD
1000
DSTYLE
1002
{
1070
    41
1040
45.0
1070
     5
1000
_EX_NORM
1070
     6
1000
_EX_NORM
1070
     7
1000
_EX_NORM
1070
   341
1005
28
1002
}
  0
DIMENSION
  5
4CB
100
AcDbEntity
  8
寸法
  6
CONTINUOUS
 62
     3
100
AcDbDimension
  2
*D33
 10
3564.0
 20
700.0
 30
0.0
 11
3528.75
 21
932.5
 31
0.0
 70
   160
  1
465±10（壁給水）
  3
STANDARD
100
AcDbAlignedDimension
 13
3371.0
 23
1165.0
 33
0.0
 14
3474.0
 24
700.0
 34
0.0
 50
90.0
100
AcDbRotatedDimension
1001
ACAD
1000
DSTYLE
1002
{
1070
     6
1000
_EX_NORM
1070
     7
1000
_EX_NORM
1070
    41
1040
45.0
1070
    42
1040
7.5
1070
    44
1040
15.0
1070
    73
1070
     0
1070
    74
1070
     0
1070
    75
1070
     0
1070
    76
1070
     0
1070
    77
1070
     1
1070
    78
1070
     8
1070
   140
1040
60.0
1070
   147
1040
5.25
1070
   173
1070
     1
1070
   176
1070
     3
1070
   177
1070
     3
1070
   178
1070
     2
1070
   271
1070
     2
1070
   279
1070
     2
1070
   280
1070
     0
1070
   287
1070
     5
1070
   340
1005
4CA
1002
}
  0
ENDSEC
  0
SECTION
  2
OBJECTS
  0
DICTIONARY
  5
19
100
AcDbDictionary
  3
ACAD_GROUP
350
1A
  3
ACAD_MLINESTYLE
350
1B
  0
DICTIONARY
  5
1A
102
{ACAD_REACTORS
330
19
102
}
100
AcDbDictionary
  0
DICTIONARY
  5
1B
102
{ACAD_REACTORS
330
19
102
}
100
AcDbDictionary
  3
STANDARD
350
1C
  0
MLINESTYLE
  5
1C
102
{ACAD_REACTORS
330
1B
102
}
100
AcDbMlineStyle
  2
Standard
 70
     0
  3

 62
     0
 51
90.0
 52
90.0
 71
     2
 49
0.5
 62
   256
  6
ByLayer
 49
-0.5
 62
   256
  6
ByLayer
  0
ENDSEC
  0
EOF
