  0
SECTION
  2
HEADER
  9
$ACADVER
  1
AC1014
  9
$ACADMAINTVER
 70
     0
  9
$DWGCODEPAGE
  3
ANSI_932
  9
$INSBASE
 10
0.0
 20
0.0
 30
0.0
  9
$EXTMIN
 10
0.4
 20
13.5
 30
0.0
  9
$EXTMAX
 10
304.38
 20
288.5
 30
0.0
  9
$LIMMIN
 10
0.0
 20
0.0
  9
$LIMMAX
 10
210.0
 20
297.0
  9
$ORTHOMODE
 70
     0
  9
$REGENMODE
 70
     1
  9
$FILLMODE
 70
     1
  9
$QTEXTMODE
 70
     0
  9
$MIRRTEXT
 70
     1
  9
$DRAGMODE
 70
     2
  9
$LTSCALE
 40
1.0
  9
$OSMODE
 70
     0
  9
$ATTMODE
 70
     1
  9
$TEXTSIZE
 40
0.2
  9
$TRACEWID
 40
0.05
  9
$TEXTSTYLE
  7
STANDARD
  9
$CLAYER
  8
図
  9
$CELTYPE
  6
CONTINUOUS
  9
$CECOLOR
 62
   256
  9
$CELTSCALE
 40
1.0
  9
$DELOBJ
 70
     1
  9
$DISPSILH
 70
     0
  9
$DIMSCALE
 40
1.0
  9
$DIMASZ
 40
0.18
  9
$DIMEXO
 40
0.0625
  9
$DIMDLI
 40
0.38
  9
$DIMRND
 40
0.0
  9
$DIMDLE
 40
0.0
  9
$DIMEXE
 40
0.18
  9
$DIMTP
 40
0.0
  9
$DIMTM
 40
0.0
  9
$DIMTXT
 40
0.18
  9
$DIMCEN
 40
0.09
  9
$DIMTSZ
 40
0.0
  9
$DIMTOL
 70
     0
  9
$DIMLIM
 70
     0
  9
$DIMTIH
 70
     1
  9
$DIMTOH
 70
     1
  9
$DIMSE1
 70
     0
  9
$DIMSE2
 70
     0
  9
$DIMTAD
 70
     0
  9
$DIMZIN
 70
     0
  9
$DIMBLK
  1

  9
$DIMASO
 70
     1
  9
$DIMSHO
 70
     1
  9
$DIMPOST
  1

  9
$DIMAPOST
  1

  9
$DIMALT
 70
     0
  9
$DIMALTD
 70
     2
  9
$DIMALTF
 40
25.4
  9
$DIMLFAC
 40
1.0
  9
$DIMTOFL
 70
     0
  9
$DIMTVP
 40
0.0
  9
$DIMTIX
 70
     0
  9
$DIMSOXD
 70
     0
  9
$DIMSAH
 70
     0
  9
$DIMBLK1
  1

  9
$DIMBLK2
  1

  9
$DIMSTYLE
  2
STANDARD
  9
$DIMCLRD
 70
     0
  9
$DIMCLRE
 70
     0
  9
$DIMCLRT
 70
     0
  9
$DIMTFAC
 40
1.0
  9
$DIMGAP
 40
0.09
  9
$DIMJUST
 70
     0
  9
$DIMSD1
 70
     0
  9
$DIMSD2
 70
     0
  9
$DIMTOLJ
 70
     1
  9
$DIMTZIN
 70
     0
  9
$DIMALTZ
 70
     0
  9
$DIMALTTZ
 70
     0
  9
$DIMFIT
 70
     3
  9
$DIMUPT
 70
     0
  9
$DIMUNIT
 70
     2
  9
$DIMDEC
 70
     4
  9
$DIMTDEC
 70
     4
  9
$DIMALTU
 70
     2
  9
$DIMALTTD
 70
     2
  9
$DIMTXSTY
  7
STANDARD
  9
$DIMAUNIT
 70
     0
  9
$LUNITS
 70
     2
  9
$LUPREC
 70
     4
  9
$SKETCHINC
 40
0.1
  9
$FILLETRAD
 40
0.0
  9
$AUNITS
 70
     0
  9
$AUPREC
 70
     0
  9
$MENU
  1
acad
  9
$ELEVATION
 40
0.0
  9
$PELEVATION
 40
0.0
  9
$THICKNESS
 40
0.0
  9
$LIMCHECK
 70
     0
  9
$BLIPMODE
 70
     1
  9
$CHAMFERA
 40
0.0
  9
$CHAMFERB
 40
0.0
  9
$CHAMFERC
 40
0.0
  9
$CHAMFERD
 40
0.0
  9
$SKPOLY
 70
     0
  9
$TDCREATE
 40
2455196.015467349
  9
$TDUPDATE
 40
2455196.015467349
  9
$TDINDWG
 40
0.0000000000
  9
$TDUSRTIMER
 40
0.0000000000
  9
$USRTIMER
 70
     1
  9
$ANGBASE
 50
0.0
  9
$ANGDIR
 70
     0
  9
$PDMODE
 70
     0
  9
$PDSIZE
 40
0.0
  9
$PLINEWID
 40
0.0
  9
$COORDS
 70
     1
  9
$SPLFRAME
 70
     0
  9
$SPLINETYPE
 70
     6
  9
$SPLINESEGS
 70
     8
  9
$ATTDIA
 70
     0
  9
$ATTREQ
 70
     1
  9
$HANDLING
 70
     1
  9
$HANDSEED
  5
9D3
  9
$SURFTAB1
 70
     6
  9
$SURFTAB2
 70
     6
  9
$SURFTYPE
 70
     6
  9
$SURFU
 70
     6
  9
$SURFV
 70
     6
  9
$UCSNAME
  2

  9
$UCSORG
 10
0.0
 20
0.0
 30
0.0
  9
$UCSXDIR
 10
1.0
 20
0.0
 30
0.0
  9
$UCSYDIR
 10
0.0
 20
1.0
 30
0.0
  9
$PUCSNAME
  2

  9
$PUCSORG
 10
0.0
 20
0.0
 30
0.0
  9
$PUCSXDIR
 10
1.0
 20
0.0
 30
0.0
  9
$PUCSYDIR
 10
0.0
 20
1.0
 30
0.0
  9
$USERI1
 70
     0
  9
$USERI2
 70
     0
  9
$USERI3
 70
     0
  9
$USERI4
 70
     0
  9
$USERI5
 70
     0
  9
$USERR1
 40
0.0
  9
$USERR2
 40
0.0
  9
$USERR3
 40
0.0
  9
$USERR4
 40
0.0
  9
$USERR5
 40
0.0
  9
$WORLDVIEW
 70
     1
  9
$SHADEDGE
 70
     3
  9
$SHADEDIF
 70
    70
  9
$TILEMODE
 70
     1
  9
$MAXACTVP
 70
    16
  9
$PINSBASE
 10
0.0
 20
0.0
 30
0.0
  9
$PLIMCHECK
 70
     0
  9
$PEXTMIN
 10
1.000000E+20
 20
1.000000E+20
 30
1.000000E+20
  9
$PEXTMAX
 10
-1.000000E+20
 20
-1.000000E+20
 30
-1.000000E+20
  9
$PLIMMIN
 10
0.0
 20
0.0
  9
$PLIMMAX
 10
12.0
 20
9.0
  9
$UNITMODE
 70
     0
  9
$VISRETAIN
 70
     0
  9
$PLINEGEN
 70
     1
  9
$PSLTSCALE
 70
     0
  9
$TREEDEPTH
 70
  3020
  9
$PICKSTYLE
 70
     1
  9
$CMLSTYLE
  2
Standard
  9
$CMLJUST
 70
     0
  9
$CMLSCALE
 40
1.0
  9
$PROXYGRAPHICS
 70
     0
  9
$MEASUREMENT
 70
     0
  0
ENDSEC
  0
SECTION
  2
CLASSES
  0
CLASS
  1
LWPOLYLINE
  2
AcDbPolyline
  3
"AutoCAD"
 90
        0
280
     0
281
     1
  0
CLASS
  1
IMAGE
  2
AcDbRasterImage
  3
ISM
 90
      127
280
     0
281
     1
  0
CLASS
  1
OLE2FRAME
  2
AcDbOle2Frame
  3
""
 90
        0
280
     0
281
     1
  0
CLASS
  1
HATCH
  2
AcDbHatch
  3
"ACAD_SEDONA"
 90
        0
280
     0
281
     1
  0
CLASS
  1
DICTIONARYVAR
  2
AcDbDictionaryVar
  3
"AutoCAD"
 90
        0
280
     0
281
     0
  0
CLASS
  1
RASTERVARIABLES
  2
AcDbRasterVariables
  3
ISM
 90
        0
280
     0
281
     0
  0
CLASS
  1
IMAGEDEF
  2
AcDbRasterImageDef
  3
ISM
 90
        0
280
     0
281
     0
  0
CLASS
  1
IMAGEDEF_REACTOR
  2
AcDbRasterImageDefReactor
  3
ISM
 90
        1
280
     0
281
     0
  0
CLASS
  1
IDBUFFER
  2
AcDbIdBuffer
  3
"Acad"
 90
        0
280
     0
281
     0
  0
CLASS
  1
SPATIAL_FILTER
  2
AcDbSpatialFilter
  3
"Acad"
 90
        0
280
     0
281
     0
  0
CLASS
  1
XRECORD
  2
AcDbXrecord
  3
"<Built In>"
 90
        0
280
     0
281
     0
  0
CLASS
  1
SORTENTSTABLE
  2
AcDbSortentsTable
  3
"AutoCAD"
 90
        0
280
     0
281
     0
  0
CLASS
  1
LAYER_INDEX
  2
AcDbLayerIndex
  3
"Acad"
 90
        0
280
     0
281
     0
  0
CLASS
  1
SPATIAL_INDEX
  2
AcDbSpatialIndex
  3
"Acad"
 90
        0
280
     0
281
     0
  0
CLASS
  1
OBJECT_PTR
  2
CAseDLPNTableRecord
  3
"ASE-LPNTableRecord"
 90
        1
280
     0
281
     0
  0
CLASS
  1
LAYOUT
  2
AcDbLayout
  3
"AutoCAD 2000"
 90
        1
280
     0
281
     0
  0
CLASS
  1
PLOTSETTINGS
  2
AcDbPlotSettings
  3
"AutoCAD 2000"
 90
        1
280
     0
281
     0
  0
CLASS
  1
ACDBDICTIONARYWDFLT
  2
AcDbDictionaryWithDefault
  3
"AutoCAD 2000"
 90
        1
280
     0
281
     0
  0
CLASS
  1
ACDBPLACEHOLDER
  2
AcDbPlaceHolder
  3
"AutoCAD 2000"
 90
        1
280
     0
281
     0
  0
CLASS
  1
VBA_PROJECT
  2
AcDbVbaProject
  3
"acadvba"
 90
        1
280
     0
281
     0
  0
CLASS
  1
WIPEOUT
  2
AcDbWipeout
  3
WipeOut|AutoCAD Express Tool|expresstools@autodesk.com
 90
      127
280
     0
281
     1
  0
CLASS
  1
WIPEOUTVARIABLES
  2
AcDbWipeoutVariables
  3
WipeOut|AutoCAD Express Tool|expresstools@autodesk.com
 90
        0
280
     0
281
     0
  0
CLASS
  1
RTEXT
  2
RText
  3
RText|AutoCAD Express Tool|expresstools@autodesk.com
 90
        0
280
     0
281
     1
  0
CLASS
  1
ARCALIGNEDTEXT
  2
AcDbArcAlignedText
  3
ATEXT|AutoCAD Express Tool|expresstools@autodesk.com
 90
        0
280
     0
281
     1
  0
ENDSEC
  0
SECTION
  2
TABLES
  0
TABLE
  2
VPORT
  5
7
100
AcDbSymbolTable
 70
     1
  0
VPORT
  5
15
100
AcDbSymbolTableRecord
100
AcDbViewportTableRecord
  2
*ACTIVE
 70
     0
 10
0.0
 20
0.0
 11
1.0
 21
1.0
 12
1523.9
 22
1510.0
 13
0.0
 23
0.0
 14
1.0
 24
1.0
 15
0.0
 25
0.0
 16
0.0
 26
0.0
 36
1.0
 17
0.0
 27
0.0
 37
0.0
 40
2750.0
 41
1.722533
 42
50.0
 43
0.0
 44
0.0
 50
0.0
 51
0.0
 71
     0
 72
   100
 73
     1
 74
     1
 75
     0
 76
     0
 77
     0
 78
     0
  0
ENDTAB
  0
TABLE
  2
LTYPE
  5
4
100
AcDbSymbolTable
 70
     9
  0
LTYPE
  5
11
100
AcDbSymbolTableRecord
100
AcDbLinetypeTableRecord
  2
BYBLOCK
 70
    64
  3

 72
    65
 73
     0
 40
0.0
  0
LTYPE
  5
12
100
AcDbSymbolTableRecord
100
AcDbLinetypeTableRecord
  2
BYLAYER
 70
    64
  3

 72
    65
 73
     0
 40
0.0
  0
LTYPE
  5
13
100
AcDbSymbolTableRecord
100
AcDbLinetypeTableRecord
  2
CONTINUOUS
 70
    64
  3
実線
 72
    65
 73
     0
 40
0.0
  0
LTYPE
  5
1D
100
AcDbSymbolTableRecord
100
AcDbLinetypeTableRecord
  2
EXLTYPE1
 70
    64
  3
破線
 72
    65
 73
     2
 40
3.0
 49
2.0
 74
     0
 49
-1.0
 74
     0
  0
LTYPE
  5
1E
100
AcDbSymbolTableRecord
100
AcDbLinetypeTableRecord
  2
EXLTYPE2
 70
    64
  3
点線
 72
    65
 73
     2
 40
2.0
 49
1.0
 74
     0
 49
-1.0
 74
     0
  0
LTYPE
  5
1F
100
AcDbSymbolTableRecord
100
AcDbLinetypeTableRecord
  2
EXLTYPE3
 70
    64
  3
一点鎖線
 72
    65
 73
     4
 40
10.0
 49
7.0
 74
     0
 49
-1.0
 74
     0
 49
1.0
 74
     0
 49
-1.0
 74
     0
  0
LTYPE
  5
20
100
AcDbSymbolTableRecord
100
AcDbLinetypeTableRecord
  2
EXLTYPE4
 70
    64
  3
二点鎖線
 72
    65
 73
     6
 40
12.0
 49
7.0
 74
     0
 49
-1.0
 74
     0
 49
1.0
 74
     0
 49
-1.0
 74
     0
 49
1.0
 74
     0
 49
-1.0
 74
     0
  0
LTYPE
  5
21
100
AcDbSymbolTableRecord
100
AcDbLinetypeTableRecord
  2
EXLTYPE5
 70
    64
  3
三点鎖線
 72
    65
 73
     8
 40
37.0
 49
30.0
 74
     0
 49
-1.0
 74
     0
 49
1.0
 74
     0
 49
-1.0
 74
     0
 49
1.0
 74
     0
 49
-1.0
 74
     0
 49
1.0
 74
     0
 49
-1.0
 74
     0
  0
LTYPE
  5
22
100
AcDbSymbolTableRecord
100
AcDbLinetypeTableRecord
  2
EXLTYPE6
 70
    64
  3
四点鎖線
 72
    65
 73
    10
 40
39.0
 49
30.0
 74
     0
 49
-1.0
 74
     0
 49
1.0
 74
     0
 49
-1.0
 74
     0
 49
1.0
 74
     0
 49
-1.0
 74
     0
 49
1.0
 74
     0
 49
-1.0
 74
     0
 49
1.0
 74
     0
 49
-1.0
 74
     0
  0
ENDTAB
  0
TABLE
  2
LAYER
  5
2
100
AcDbSymbolTable
 70
     4
  0
LAYER
  5
14
100
AcDbSymbolTableRecord
100
AcDbLayerTableRecord
  2
0
 70
     0
 62
     7
  6
CONTINUOUS
  0
LAYER
  5
25
100
AcDbSymbolTableRecord
100
AcDbLayerTableRecord
  2
枠・表
 70
    64
 62
     7
  6
CONTINUOUS
  0
LAYER
  5
26
100
AcDbSymbolTableRecord
100
AcDbLayerTableRecord
  2
図
 70
    64
 62
     7
  6
CONTINUOUS
  0
LAYER
  5
27
100
AcDbSymbolTableRecord
100
AcDbLayerTableRecord
  2
寸法
 70
    64
 62
     7
  6
CONTINUOUS
  0
ENDTAB
  0
TABLE
  2
STYLE
  5
3
100
AcDbSymbolTable
 70
     6
  0
STYLE
  5
17
100
AcDbSymbolTableRecord
100
AcDbTextStyleTableRecord
  2
STANDARD
 70
     0
 40
0.0
 41
1.0
 50
0.0
 71
     0
 42
0.0
  3
monotxt
  4
extfont
  0
STYLE
  5
23
100
AcDbSymbolTableRecord
100
AcDbTextStyleTableRecord
  2
EXCADSTD
 70
    64
 40
0.0
 41
1.0
 50
0.0
 71
     0
 42
0.2
  3
monotxt
  4
extfont
  0
STYLE
  5
24
100
AcDbSymbolTableRecord
100
AcDbTextStyleTableRecord
  2
EXCADVERT
 70
    68
 40
0.0
 41
1.0
 50
0.0
 71
     0
 42
0.286885
  3
monotxt
  4
extfont
  0
STYLE
  5
B5
100
AcDbSymbolTableRecord
100
AcDbTextStyleTableRecord
  2
EXCADDIM1
 70
    64
 40
0.0
 41
0.95
 50
0.0
 71
     0
 42
0.2
  3
monotxt
  4
extfont
  0
STYLE
  5
C0
100
AcDbSymbolTableRecord
100
AcDbTextStyleTableRecord
  2
EXCADTTF1
 70
    64
 40
0.0
 41
1.0
 50
0.0
 71
     0
 42
0.2
  3
MS Gothic.ttf
  4

1001
ACAD
1000
MS Gothic
1071
    32817
  0
STYLE
  5
14F
100
AcDbSymbolTableRecord
100
AcDbTextStyleTableRecord
  2
EXCADDIM2
 70
    64
 40
0.0
 41
0.84
 50
0.0
 71
     0
 42
0.2
  3
monotxt
  4
extfont
  0
ENDTAB
  0
TABLE
  2
VIEW
  5
5
100
AcDbSymbolTable
 70
     0
  0
ENDTAB
  0
TABLE
  2
UCS
  5
6
100
AcDbSymbolTable
 70
     0
  0
ENDTAB
  0
TABLE
  2
APPID
  5
8
100
AcDbSymbolTable
 70
     1
  0
APPID
  5
16
100
AcDbSymbolTableRecord
100
AcDbRegAppTableRecord
  2
ACAD
 70
     0
  0
ENDTAB
  0
TABLE
  2
DIMSTYLE
  5
9
100
AcDbSymbolTable
 70
     1
  0
DIMSTYLE
105
18
100
AcDbSymbolTableRecord
100
AcDbDimStyleTableRecord
  2
STANDARD
 70
     0
  3

  4

  5

  6

  7

 40
1.0
 41
0.18
 42
0.0625
 43
0.38
 44
0.18
 45
0.0
 46
0.0
 47
0.0
 48
0.0
 71
     0
 72
     0
 73
     1
 74
     1
 75
     0
 76
     0
 77
     0
 78
     0
140
0.18
141
0.09
142
0.0
143
25.4
144
1.0
145
0.0
146
1.0
147
0.09
170
     0
171
     2
172
     1
173
     0
174
     0
175
     0
176
     0
177
     0
178
     0
270
     2
271
     4
272
     4
273
     2
274
     2
275
     0
280
     0
281
     0
282
     0
283
     1
284
     0
285
     0
286
     0
287
     0
288
     0
340
17
  0
ENDTAB
  0
TABLE
  2
BLOCK_RECORD
  5
1
100
AcDbSymbolTable
 70
    32
  0
BLOCK_RECORD
  5
A
100
AcDbSymbolTableRecord
100
AcDbBlockTableRecord
  2
*MODEL_SPACE
  0
BLOCK_RECORD
  5
B
100
AcDbSymbolTableRecord
100
AcDbBlockTableRecord
  2
*PAPER_SPACE
  0
BLOCK_RECORD
  5
28
100
AcDbSymbolTableRecord
100
AcDbBlockTableRecord
  2
_EX_NORM
  0
BLOCK_RECORD
  5
29
100
AcDbSymbolTableRecord
100
AcDbBlockTableRecord
  2
_EX_BNORM
  0
BLOCK_RECORD
  5
2A
100
AcDbSymbolTableRecord
100
AcDbBlockTableRecord
  2
_EX_BCIR
  0
BLOCK_RECORD
  5
2B
100
AcDbSymbolTableRecord
100
AcDbBlockTableRecord
  2
_EX_RCIVIL
  0
BLOCK_RECORD
  5
2C
100
AcDbSymbolTableRecord
100
AcDbBlockTableRecord
  2
_EX_SLANT
  0
BLOCK_RECORD
  5
2D
100
AcDbSymbolTableRecord
100
AcDbBlockTableRecord
  2
_EX_NONE
  0
BLOCK_RECORD
  5
2E
100
AcDbSymbolTableRecord
100
AcDbBlockTableRecord
  2
_EX_CIVIL
  0
BLOCK_RECORD
  5
2F
100
AcDbSymbolTableRecord
100
AcDbBlockTableRecord
  2
_EX_WCIR
  0
BLOCK_RECORD
  5
30
100
AcDbSymbolTableRecord
100
AcDbBlockTableRecord
  2
_EX_WCIR2
  0
BLOCK_RECORD
  5
31
100
AcDbSymbolTableRecord
100
AcDbBlockTableRecord
  2
_EX_WNORM
  0
BLOCK_RECORD
  5
32
100
AcDbSymbolTableRecord
100
AcDbBlockTableRecord
  2
_EX_NNORM
  0
BLOCK_RECORD
  5
33
100
AcDbSymbolTableRecord
100
AcDbBlockTableRecord
  2
_EX_BBOX
  0
BLOCK_RECORD
  5
34
100
AcDbSymbolTableRecord
100
AcDbBlockTableRecord
  2
_EX_WBOX
  0
BLOCK_RECORD
  5
35
100
AcDbSymbolTableRecord
100
AcDbBlockTableRecord
  2
_EX_INTEGRAL
  0
BLOCK_RECORD
  5
AA
100
AcDbSymbolTableRecord
100
AcDbBlockTableRecord
  2
*D14
  0
BLOCK_RECORD
  5
125
100
AcDbSymbolTableRecord
100
AcDbBlockTableRecord
  2
*D15
  0
BLOCK_RECORD
  5
130
100
AcDbSymbolTableRecord
100
AcDbBlockTableRecord
  2
*D16
  0
BLOCK_RECORD
  5
13A
100
AcDbSymbolTableRecord
100
AcDbBlockTableRecord
  2
*D17
  0
BLOCK_RECORD
  5
144
100
AcDbSymbolTableRecord
100
AcDbBlockTableRecord
  2
*D18
  0
BLOCK_RECORD
  5
151
100
AcDbSymbolTableRecord
100
AcDbBlockTableRecord
  2
*D19
  0
BLOCK_RECORD
  5
15D
100
AcDbSymbolTableRecord
100
AcDbBlockTableRecord
  2
*D20
  0
BLOCK_RECORD
  5
16F
100
AcDbSymbolTableRecord
100
AcDbBlockTableRecord
  2
*D21
  0
BLOCK_RECORD
  5
181
100
AcDbSymbolTableRecord
100
AcDbBlockTableRecord
  2
*D22
  0
BLOCK_RECORD
  5
18A
100
AcDbSymbolTableRecord
100
AcDbBlockTableRecord
  2
*D23
  0
BLOCK_RECORD
  5
1B2
100
AcDbSymbolTableRecord
100
AcDbBlockTableRecord
  2
*D24
  0
BLOCK_RECORD
  5
980
100
AcDbSymbolTableRecord
100
AcDbBlockTableRecord
  2
*D25
  0
BLOCK_RECORD
  5
98C
100
AcDbSymbolTableRecord
100
AcDbBlockTableRecord
  2
*D26
  0
BLOCK_RECORD
  5
998
100
AcDbSymbolTableRecord
100
AcDbBlockTableRecord
  2
*D27
  0
BLOCK_RECORD
  5
9A3
100
AcDbSymbolTableRecord
100
AcDbBlockTableRecord
  2
*D28
  0
BLOCK_RECORD
  5
9AE
100
AcDbSymbolTableRecord
100
AcDbBlockTableRecord
  2
*D29
  0
BLOCK_RECORD
  5
9BB
100
AcDbSymbolTableRecord
100
AcDbBlockTableRecord
  2
*D30
  0
BLOCK_RECORD
  5
9C7
100
AcDbSymbolTableRecord
100
AcDbBlockTableRecord
  2
*D31
  0
ENDTAB
  0
ENDSEC
  0
SECTION
  2
BLOCKS
  0
BLOCK
  5
D
100
AcDbEntity
  8
0
100
AcDbBlockBegin
  2
*MODEL_SPACE
 70
     0
 10
0.0
 20
0.0
 30
0.0
  3
*MODEL_SPACE
  1

  0
ENDBLK
  5
E
100
AcDbEntity
  8
0
100
AcDbBlockEnd
  0
BLOCK
  5
F
100
AcDbEntity
 67
     1
  8
0
100
AcDbBlockBegin
  2
*PAPER_SPACE
 70
     0
 10
0.0
 20
0.0
 30
0.0
  3
*PAPER_SPACE
  1

  0
ENDBLK
  5
10
100
AcDbEntity
 67
     1
  8
0
100
AcDbBlockEnd
  0
BLOCK
  5
36
100
AcDbEntity
  8
0
100
AcDbBlockBegin
  2
_EX_NORM
 70
     0
 10
0.0
 20
0.0
 30
0.0
  3
_EX_NORM
  1

  0
LINE
  5
37
100
AcDbEntity
  8
0
  6
CONTINUOUS
 62
     0
100
AcDbLine
 10
0.0
 20
0.0
 30
0.0
 11
-1.0
 21
0.0
 31
0.0
  0
LINE
  5
38
100
AcDbEntity
  8
0
  6
CONTINUOUS
 62
     0
100
AcDbLine
 10
0.0
 20
0.0
 30
0.0
 11
-1.0
 21
0.166667
 31
0.0
  0
LINE
  5
39
100
AcDbEntity
  8
0
  6
CONTINUOUS
 62
     0
100
AcDbLine
 10
0.0
 20
0.0
 30
0.0
 11
-1.0
 21
-0.166667
 31
0.0
  0
ENDBLK
  5
3A
100
AcDbEntity
  8
0
100
AcDbBlockEnd
  0
BLOCK
  5
3B
100
AcDbEntity
  8
0
100
AcDbBlockBegin
  2
_EX_BNORM
 70
     0
 10
0.0
 20
0.0
 30
0.0
  3
_EX_BNORM
  1

  0
LINE
  5
3C
100
AcDbEntity
  8
0
  6
CONTINUOUS
 62
     0
100
AcDbLine
 10
0.0
 20
0.0
 30
0.0
 11
-1.0
 21
0.0
 31
0.0
  0
LINE
  5
3D
100
AcDbEntity
  8
0
  6
CONTINUOUS
 62
     0
100
AcDbLine
 10
0.0
 20
0.0
 30
0.0
 11
-1.0
 21
0.166667
 31
0.0
  0
LINE
  5
3E
100
AcDbEntity
  8
0
  6
CONTINUOUS
 62
     0
100
AcDbLine
 10
0.0
 20
0.0
 30
0.0
 11
-1.0
 21
-0.166667
 31
0.0
  0
LINE
  5
3F
100
AcDbEntity
  8
0
  6
CONTINUOUS
 62
     0
100
AcDbLine
 10
0.0
 20
0.0
 30
0.0
 11
-1.0
 21
0.083333
 31
0.0
  0
LINE
  5
40
100
AcDbEntity
  8
0
  6
CONTINUOUS
 62
     0
100
AcDbLine
 10
0.0
 20
0.0
 30
0.0
 11
-1.0
 21
-0.083333
 31
0.0
  0
LINE
  5
41
100
AcDbEntity
  8
0
  6
CONTINUOUS
 62
     0
100
AcDbLine
 10
-1.0
 20
0.166667
 30
0.0
 11
-1.0
 21
-0.166667
 31
0.0
  0
ENDBLK
  5
42
100
AcDbEntity
  8
0
100
AcDbBlockEnd
  0
BLOCK
  5
43
100
AcDbEntity
  8
0
100
AcDbBlockBegin
  2
_EX_BCIR
 70
     0
 10
0.0
 20
0.0
 30
0.0
  3
_EX_BCIR
  1

  0
LINE
  5
44
100
AcDbEntity
  8
0
  6
CONTINUOUS
 62
     0
100
AcDbLine
 10
0.0
 20
0.0
 30
0.0
 11
-1.0
 21
0.0
 31
0.0
  0
CIRCLE
  5
45
100
AcDbEntity
  8
0
  6
CONTINUOUS
 62
     0
100
AcDbCircle
 10
0.0
 20
0.0
 30
0.0
 40
0.5
  0
CIRCLE
  5
46
100
AcDbEntity
  8
0
  6
CONTINUOUS
 62
     0
100
AcDbCircle
 10
0.0
 20
0.0
 30
0.0
 40
0.25
  0
ENDBLK
  5
47
100
AcDbEntity
  8
0
100
AcDbBlockEnd
  0
BLOCK
  5
48
100
AcDbEntity
  8
0
100
AcDbBlockBegin
  2
_EX_RCIVIL
 70
     0
 10
0.0
 20
0.0
 30
0.0
  3
_EX_RCIVIL
  1

  0
LINE
  5
49
100
AcDbEntity
  8
0
  6
CONTINUOUS
 62
     0
100
AcDbLine
 10
0.0
 20
0.0
 30
0.0
 11
-1.0
 21
0.0
 31
0.0
  0
LINE
  5
4A
100
AcDbEntity
  8
0
  6
CONTINUOUS
 62
     0
100
AcDbLine
 10
-1.0
 20
-0.25
 30
0.0
 11
0.0
 21
-0.25
 31
0.0
  0
LINE
  5
4B
100
AcDbEntity
  8
0
  6
CONTINUOUS
 62
     0
100
AcDbLine
 10
-1.0
 20
-0.125
 30
0.0
 11
0.0
 21
-0.125
 31
0.0
  0
ENDBLK
  5
4C
100
AcDbEntity
  8
0
100
AcDbBlockEnd
  0
BLOCK
  5
4D
100
AcDbEntity
  8
0
100
AcDbBlockBegin
  2
_EX_SLANT
 70
     0
 10
0.0
 20
0.0
 30
0.0
  3
_EX_SLANT
  1

  0
LINE
  5
4E
100
AcDbEntity
  8
0
  6
CONTINUOUS
 62
     0
100
AcDbLine
 10
0.0
 20
0.0
 30
0.0
 11
-1.0
 21
0.0
 31
0.0
  0
LINE
  5
4F
100
AcDbEntity
  8
0
  6
CONTINUOUS
 62
     0
100
AcDbLine
 10
0.707107
 20
0.707107
 30
0.0
 11
-0.707107
 21
-0.707107
 31
0.0
  0
ENDBLK
  5
50
100
AcDbEntity
  8
0
100
AcDbBlockEnd
  0
BLOCK
  5
51
100
AcDbEntity
  8
0
100
AcDbBlockBegin
  2
_EX_NONE
 70
     0
 10
0.0
 20
0.0
 30
0.0
  3
_EX_NONE
  1

  0
LINE
  5
52
100
AcDbEntity
  8
0
  6
CONTINUOUS
 62
     0
100
AcDbLine
 10
0.0
 20
0.0
 30
0.0
 11
-1.0
 21
0.0
 31
0.0
  0
ENDBLK
  5
53
100
AcDbEntity
  8
0
100
AcDbBlockEnd
  0
BLOCK
  5
54
100
AcDbEntity
  8
0
100
AcDbBlockBegin
  2
_EX_CIVIL
 70
     0
 10
0.0
 20
0.0
 30
0.0
  3
_EX_CIVIL
  1

  0
LINE
  5
55
100
AcDbEntity
  8
0
  6
CONTINUOUS
 62
     0
100
AcDbLine
 10
0.0
 20
0.0
 30
0.0
 11
-1.0
 21
0.0
 31
0.0
  0
LINE
  5
56
100
AcDbEntity
  8
0
  6
CONTINUOUS
 62
     0
100
AcDbLine
 10
-1.0
 20
0.25
 30
0.0
 11
0.0
 21
0.25
 31
0.0
  0
LINE
  5
57
100
AcDbEntity
  8
0
  6
CONTINUOUS
 62
     0
100
AcDbLine
 10
-1.0
 20
0.125
 30
0.0
 11
0.0
 21
0.125
 31
0.0
  0
ENDBLK
  5
58
100
AcDbEntity
  8
0
100
AcDbBlockEnd
  0
BLOCK
  5
59
100
AcDbEntity
  8
0
100
AcDbBlockBegin
  2
_EX_WCIR
 70
     0
 10
0.0
 20
0.0
 30
0.0
  3
_EX_WCIR
  1

  0
LINE
  5
5A
100
AcDbEntity
  8
0
  6
CONTINUOUS
 62
     0
100
AcDbLine
 10
0.0
 20
0.0
 30
0.0
 11
-1.0
 21
0.0
 31
0.0
  0
CIRCLE
  5
5B
100
AcDbEntity
  8
0
  6
CONTINUOUS
 62
     0
100
AcDbCircle
 10
0.0
 20
0.0
 30
0.0
 40
0.5
  0
ENDBLK
  5
5C
100
AcDbEntity
  8
0
100
AcDbBlockEnd
  0
BLOCK
  5
5D
100
AcDbEntity
  8
0
100
AcDbBlockBegin
  2
_EX_WCIR2
 70
     0
 10
0.0
 20
0.0
 30
0.0
  3
_EX_WCIR2
  1

  0
LINE
  5
5E
100
AcDbEntity
  8
0
  6
CONTINUOUS
 62
     0
100
AcDbLine
 10
-0.5
 20
0.0
 30
0.0
 11
-1.0
 21
0.0
 31
0.0
  0
CIRCLE
  5
5F
100
AcDbEntity
  8
0
  6
CONTINUOUS
 62
     0
100
AcDbCircle
 10
0.0
 20
0.0
 30
0.0
 40
0.5
  0
ENDBLK
  5
60
100
AcDbEntity
  8
0
100
AcDbBlockEnd
  0
BLOCK
  5
61
100
AcDbEntity
  8
0
100
AcDbBlockBegin
  2
_EX_WNORM
 70
     0
 10
0.0
 20
0.0
 30
0.0
  3
_EX_WNORM
  1

  0
LINE
  5
62
100
AcDbEntity
  8
0
  6
CONTINUOUS
 62
     0
100
AcDbLine
 10
-1.0
 20
0.0
 30
0.0
 11
-1.0
 21
0.0
 31
0.0
  0
LINE
  5
63
100
AcDbEntity
  8
0
  6
CONTINUOUS
 62
     0
100
AcDbLine
 10
0.0
 20
0.0
 30
0.0
 11
-1.0
 21
0.166667
 31
0.0
  0
LINE
  5
64
100
AcDbEntity
  8
0
  6
CONTINUOUS
 62
     0
100
AcDbLine
 10
0.0
 20
0.0
 30
0.0
 11
-1.0
 21
-0.166667
 31
0.0
  0
LINE
  5
65
100
AcDbEntity
  8
0
  6
CONTINUOUS
 62
     0
100
AcDbLine
 10
-1.0
 20
0.166667
 30
0.0
 11
-1.0
 21
-0.166667
 31
0.0
  0
ENDBLK
  5
66
100
AcDbEntity
  8
0
100
AcDbBlockEnd
  0
BLOCK
  5
67
100
AcDbEntity
  8
0
100
AcDbBlockBegin
  2
_EX_NNORM
 70
     0
 10
0.0
 20
0.0
 30
0.0
  3
_EX_NNORM
  1

  0
LINE
  5
68
100
AcDbEntity
  8
0
  6
CONTINUOUS
 62
     0
100
AcDbLine
 10
0.0
 20
0.0
 30
0.0
 11
-1.0
 21
0.0
 31
0.0
  0
LINE
  5
69
100
AcDbEntity
  8
0
  6
CONTINUOUS
 62
     0
100
AcDbLine
 10
0.0
 20
0.0
 30
0.0
 11
-1.0
 21
0.166667
 31
0.0
  0
LINE
  5
6A
100
AcDbEntity
  8
0
  6
CONTINUOUS
 62
     0
100
AcDbLine
 10
0.0
 20
0.0
 30
0.0
 11
-1.0
 21
-0.166667
 31
0.0
  0
LINE
  5
6B
100
AcDbEntity
  8
0
  6
CONTINUOUS
 62
     0
100
AcDbLine
 10
-1.0
 20
0.166667
 30
0.0
 11
-1.0
 21
-0.166667
 31
0.0
  0
ENDBLK
  5
6C
100
AcDbEntity
  8
0
100
AcDbBlockEnd
  0
BLOCK
  5
6D
100
AcDbEntity
  8
0
100
AcDbBlockBegin
  2
_EX_BBOX
 70
     0
 10
0.0
 20
0.0
 30
0.0
  3
_EX_BBOX
  1

  0
LINE
  5
6E
100
AcDbEntity
  8
0
  6
CONTINUOUS
 62
     0
100
AcDbLine
 10
0.0
 20
0.0
 30
0.0
 11
-1.0
 21
0.0
 31
0.0
  0
LINE
  5
6F
100
AcDbEntity
  8
0
  6
CONTINUOUS
 62
     0
100
AcDbLine
 10
-0.5
 20
0.5
 30
0.0
 11
0.5
 21
0.5
 31
0.0
  0
LINE
  5
70
100
AcDbEntity
  8
0
  6
CONTINUOUS
 62
     0
100
AcDbLine
 10
0.5
 20
0.5
 30
0.0
 11
0.5
 21
-0.5
 31
0.0
  0
LINE
  5
71
100
AcDbEntity
  8
0
  6
CONTINUOUS
 62
     0
100
AcDbLine
 10
0.5
 20
-0.5
 30
0.0
 11
-0.5
 21
-0.5
 31
0.0
  0
LINE
  5
72
100
AcDbEntity
  8
0
  6
CONTINUOUS
 62
     0
100
AcDbLine
 10
-0.5
 20
-0.5
 30
0.0
 11
-0.5
 21
0.5
 31
0.0
  0
LINE
  5
73
100
AcDbEntity
  8
0
  6
CONTINUOUS
 62
     0
100
AcDbLine
 10
-0.25
 20
0.25
 30
0.0
 11
0.25
 21
0.25
 31
0.0
  0
LINE
  5
74
100
AcDbEntity
  8
0
  6
CONTINUOUS
 62
     0
100
AcDbLine
 10
0.25
 20
0.25
 30
0.0
 11
0.25
 21
-0.25
 31
0.0
  0
LINE
  5
75
100
AcDbEntity
  8
0
  6
CONTINUOUS
 62
     0
100
AcDbLine
 10
0.25
 20
-0.25
 30
0.0
 11
-0.25
 21
-0.25
 31
0.0
  0
LINE
  5
76
100
AcDbEntity
  8
0
  6
CONTINUOUS
 62
     0
100
AcDbLine
 10
-0.25
 20
-0.25
 30
0.0
 11
-0.25
 21
0.25
 31
0.0
  0
ENDBLK
  5
77
100
AcDbEntity
  8
0
100
AcDbBlockEnd
  0
BLOCK
  5
78
100
AcDbEntity
  8
0
100
AcDbBlockBegin
  2
_EX_WBOX
 70
     0
 10
0.0
 20
0.0
 30
0.0
  3
_EX_WBOX
  1

  0
LINE
  5
79
100
AcDbEntity
  8
0
  6
CONTINUOUS
 62
     0
100
AcDbLine
 10
-0.5
 20
0.0
 30
0.0
 11
-1.0
 21
0.0
 31
0.0
  0
LINE
  5
7A
100
AcDbEntity
  8
0
  6
CONTINUOUS
 62
     0
100
AcDbLine
 10
-0.5
 20
0.5
 30
0.0
 11
0.5
 21
0.5
 31
0.0
  0
LINE
  5
7B
100
AcDbEntity
  8
0
  6
CONTINUOUS
 62
     0
100
AcDbLine
 10
0.5
 20
0.5
 30
0.0
 11
0.5
 21
-0.5
 31
0.0
  0
LINE
  5
7C
100
AcDbEntity
  8
0
  6
CONTINUOUS
 62
     0
100
AcDbLine
 10
0.5
 20
-0.5
 30
0.0
 11
-0.5
 21
-0.5
 31
0.0
  0
LINE
  5
7D
100
AcDbEntity
  8
0
  6
CONTINUOUS
 62
     0
100
AcDbLine
 10
-0.5
 20
-0.5
 30
0.0
 11
-0.5
 21
0.5
 31
0.0
  0
ENDBLK
  5
7E
100
AcDbEntity
  8
0
100
AcDbBlockEnd
  0
BLOCK
  5
7F
100
AcDbEntity
  8
0
100
AcDbBlockBegin
  2
_EX_INTEGRAL
 70
     0
 10
0.0
 20
0.0
 30
0.0
  3
_EX_INTEGRAL
  1

  0
LINE
  5
80
100
AcDbEntity
  8
0
  6
CONTINUOUS
 62
     0
100
AcDbLine
 10
0.0
 20
0.0
 30
0.0
 11
-1.0
 21
0.0
 31
0.0
  0
ARC
  5
81
100
AcDbEntity
  8
0
  6
CONTINUOUS
 62
     0
100
AcDbCircle
 10
0.542115
 20
0.164992
 30
0.0
 40
0.56667
100
AcDbArc
 50
73.07249
 51
196.927513
  0
ARC
  5
82
100
AcDbEntity
  8
0
  6
CONTINUOUS
 62
     0
100
AcDbCircle
 10
-0.542115
 20
-0.164992
 30
0.0
 40
0.56667
100
AcDbArc
 50
253.072487
 51
16.927513
  0
ENDBLK
  5
83
100
AcDbEntity
  8
0
100
AcDbBlockEnd
  0
BLOCK
  5
AB
100
AcDbEntity
  8
0
100
AcDbBlockBegin
  2
*D14
 70
    65
 10
0.0
 20
0.0
 30
0.0
  3
*D14
  1

  0
LINE
  5
AC
100
AcDbEntity
  8
枠・表
  6
CONTINUOUS
 62
     3
100
AcDbLine
 10
1666.99999
 20
883.0
 30
0.0
 11
1666.99999
 21
784.0
 31
0.0
  0
TEXT
  5
AD
100
AcDbEntity
  8
枠・表
  6
CONTINUOUS
 62
     2
100
AcDbText
 10
1590.900834
 20
797.5
 30
0.0
 40
40.0
  1
85
 41
0.945
  7
EXCADSTD
 72
     1
 11
1624.500834
 21
797.5
 31
0.0
100
AcDbText
  0
LINE
  5
AE
100
AcDbEntity
  8
枠・表
  6
CONTINUOUS
 62
     3
100
AcDbLine
 10
1666.99999
 20
794.0
 30
0.0
 11
1582.001678
 21
794.0
 31
0.0
  0
LINE
  5
AF
100
AcDbEntity
  8
枠・表
  6
CONTINUOUS
 62
     3
100
AcDbLine
 10
1636.99999
 20
789.0
 30
0.0
 11
1666.99999
 21
794.0
 31
0.0
  0
LINE
  5
B0
100
AcDbEntity
  8
枠・表
  6
CONTINUOUS
 62
     3
100
AcDbLine
 10
1666.99999
 20
794.0
 30
0.0
 11
1636.99999
 21
799.0
 31
0.0
  0
LINE
  5
B1
100
AcDbEntity
  8
枠・表
  6
CONTINUOUS
 62
     3
100
AcDbLine
 10
1612.001678
 20
799.0
 30
0.0
 11
1582.001678
 21
794.0
 31
0.0
  0
LINE
  5
B2
100
AcDbEntity
  8
枠・表
  6
CONTINUOUS
 62
     3
100
AcDbLine
 10
1582.001678
 20
794.0
 30
0.0
 11
1612.001678
 21
789.0
 31
0.0
  0
LINE
  5
B3
100
AcDbEntity
  8
枠・表
  6
CONTINUOUS
 62
     3
100
AcDbLine
 10
1582.001678
 20
923.0
 30
0.0
 11
1582.001678
 21
784.0
 31
0.0
  0
ENDBLK
  5
B4
100
AcDbEntity
  8
0
100
AcDbBlockEnd
  0
BLOCK
  5
126
100
AcDbEntity
  8
0
100
AcDbBlockBegin
  2
*D15
 70
    65
 10
0.0
 20
0.0
 30
0.0
  3
*D15
  1

  0
LINE
  5
127
100
AcDbEntity
  8
図
  6
CONTINUOUS
 62
     3
100
AcDbLine
 10
824.005492
 20
1308.0
 30
0.0
 11
1095.0
 21
1308.0
 31
0.0
  0
LINE
  5
128
100
AcDbEntity
  8
図
  6
CONTINUOUS
 62
     3
100
AcDbLine
 10
1085.0
 20
1308.0
 30
0.0
 11
1085.0
 21
508.0
 31
0.0
  0
LINE
  5
129
100
AcDbEntity
  8
図
  6
CONTINUOUS
 62
     3
100
AcDbLine
 10
1090.0
 20
1278.0
 30
0.0
 11
1085.0
 21
1308.0
 31
0.0
  0
LINE
  5
12A
100
AcDbEntity
  8
図
  6
CONTINUOUS
 62
     3
100
AcDbLine
 10
1085.0
 20
1308.0
 30
0.0
 11
1080.0
 21
1278.0
 31
0.0
  0
LINE
  5
12B
100
AcDbEntity
  8
図
  6
CONTINUOUS
 62
     3
100
AcDbLine
 10
1080.0
 20
538.0
 30
0.0
 11
1085.0
 21
508.0
 31
0.0
  0
LINE
  5
12C
100
AcDbEntity
  8
図
  6
CONTINUOUS
 62
     3
100
AcDbLine
 10
1085.0
 20
508.0
 30
0.0
 11
1090.0
 21
538.0
 31
0.0
  0
TEXT
  5
12D
100
AcDbEntity
  8
図
  6
CONTINUOUS
 62
     2
100
AcDbText
 10
1081.5
 20
859.7
 30
0.0
 40
40.0
  1
800
 50
90.0
 41
0.945
  7
EXCADSTD
 72
     1
 11
1081.5
 21
908.0
 31
0.0
100
AcDbText
  0
ENDBLK
  5
12E
100
AcDbEntity
  8
0
100
AcDbBlockEnd
  0
BLOCK
  5
131
100
AcDbEntity
  8
0
100
AcDbBlockBegin
  2
*D16
 70
    65
 10
0.0
 20
0.0
 30
0.0
  3
*D16
  1

  0
TEXT
  5
132
100
AcDbEntity
  8
図
  6
CONTINUOUS
 62
     2
100
AcDbText
 10
1025.5
 20
1189.7
 30
0.0
 40
40.0
  1
140
 50
90.0
 41
0.945
  7
EXCADSTD
 72
     1
 11
1025.5
 21
1238.0
 31
0.0
100
AcDbText
  0
LINE
  5
133
100
AcDbEntity
  8
図
  6
CONTINUOUS
 62
     3
100
AcDbLine
 10
1029.0
 20
1168.0
 30
0.0
 11
1029.0
 21
1308.0
 31
0.0
  0
LINE
  5
134
100
AcDbEntity
  8
図
  6
CONTINUOUS
 62
     3
100
AcDbLine
 10
1024.0
 20
1198.0
 30
0.0
 11
1029.0
 21
1168.0
 31
0.0
  0
LINE
  5
135
100
AcDbEntity
  8
図
  6
CONTINUOUS
 62
     3
100
AcDbLine
 10
1029.0
 20
1168.0
 30
0.0
 11
1034.0
 21
1198.0
 31
0.0
  0
LINE
  5
136
100
AcDbEntity
  8
図
  6
CONTINUOUS
 62
     3
100
AcDbLine
 10
1034.0
 20
1278.0
 30
0.0
 11
1029.0
 21
1308.0
 31
0.0
  0
LINE
  5
137
100
AcDbEntity
  8
図
  6
CONTINUOUS
 62
     3
100
AcDbLine
 10
1029.0
 20
1308.0
 30
0.0
 11
1024.0
 21
1278.0
 31
0.0
  0
ENDBLK
  5
138
100
AcDbEntity
  8
0
100
AcDbBlockEnd
  0
BLOCK
  5
13B
100
AcDbEntity
  8
0
100
AcDbBlockBegin
  2
*D17
 70
    65
 10
0.0
 20
0.0
 30
0.0
  3
*D17
  1

  0
TEXT
  5
13C
100
AcDbEntity
  8
図
  6
CONTINUOUS
 62
     2
100
AcDbText
 10
1025.5
 20
789.7
 30
0.0
 40
40.0
  1
660
 50
90.0
 41
0.945
  7
EXCADSTD
 72
     1
 11
1025.5
 21
838.0
 31
0.0
100
AcDbText
  0
LINE
  5
13D
100
AcDbEntity
  8
図
  6
CONTINUOUS
 62
     3
100
AcDbLine
 10
1029.0
 20
1168.0
 30
0.0
 11
1029.0
 21
508.0
 31
0.0
  0
LINE
  5
13E
100
AcDbEntity
  8
図
  6
CONTINUOUS
 62
     3
100
AcDbLine
 10
1034.0
 20
1138.0
 30
0.0
 11
1029.0
 21
1168.0
 31
0.0
  0
LINE
  5
13F
100
AcDbEntity
  8
図
  6
CONTINUOUS
 62
     3
100
AcDbLine
 10
1029.0
 20
1168.0
 30
0.0
 11
1024.0
 21
1138.0
 31
0.0
  0
LINE
  5
140
100
AcDbEntity
  8
図
  6
CONTINUOUS
 62
     3
100
AcDbLine
 10
1024.0
 20
538.0
 30
0.0
 11
1029.0
 21
508.0
 31
0.0
  0
LINE
  5
141
100
AcDbEntity
  8
図
  6
CONTINUOUS
 62
     3
100
AcDbLine
 10
1029.0
 20
508.0
 30
0.0
 11
1034.0
 21
538.0
 31
0.0
  0
ENDBLK
  5
142
100
AcDbEntity
  8
0
100
AcDbBlockEnd
  0
BLOCK
  5
145
100
AcDbEntity
  8
0
100
AcDbBlockBegin
  2
*D18
 70
    65
 10
0.0
 20
0.0
 30
0.0
  3
*D18
  1

  0
LINE
  5
146
100
AcDbEntity
  8
図
  6
CONTINUOUS
 62
     3
100
AcDbLine
 10
297.00293
 20
2237.5
 30
0.0
 11
297.00293
 21
2480.0
 31
0.0
  0
LINE
  5
147
100
AcDbEntity
  8
図
  6
CONTINUOUS
 62
     3
100
AcDbLine
 10
773.00293
 20
2237.5
 30
0.0
 11
773.00293
 21
2480.0
 31
0.0
  0
TEXT
  5
148
100
AcDbEntity
  8
図
  6
CONTINUOUS
 62
     2
100
AcDbText
 10
488.32293
 20
2473.5
 30
0.0
 40
40.0
  1
476
 41
0.84
  7
EXCADSTD
 72
     1
 11
532.00293
 21
2473.5
 31
0.0
100
AcDbText
  0
LINE
  5
149
100
AcDbEntity
  8
図
  6
CONTINUOUS
 62
     3
100
AcDbLine
 10
297.00293
 20
2470.0
 30
0.0
 11
773.00293
 21
2470.0
 31
0.0
  0
LINE
  5
14A
100
AcDbEntity
  8
図
  6
CONTINUOUS
 62
     3
100
AcDbLine
 10
327.00293
 20
2475.0
 30
0.0
 11
297.00293
 21
2470.0
 31
0.0
  0
LINE
  5
14B
100
AcDbEntity
  8
図
  6
CONTINUOUS
 62
     3
100
AcDbLine
 10
297.00293
 20
2470.0
 30
0.0
 11
327.00293
 21
2465.0
 31
0.0
  0
LINE
  5
14C
100
AcDbEntity
  8
図
  6
CONTINUOUS
 62
     3
100
AcDbLine
 10
743.00293
 20
2465.0
 30
0.0
 11
773.00293
 21
2470.0
 31
0.0
  0
LINE
  5
14D
100
AcDbEntity
  8
図
  6
CONTINUOUS
 62
     3
100
AcDbLine
 10
773.00293
 20
2470.0
 30
0.0
 11
743.00293
 21
2475.0
 31
0.0
  0
ENDBLK
  5
14E
100
AcDbEntity
  8
0
100
AcDbBlockEnd
  0
BLOCK
  5
152
100
AcDbEntity
  8
0
100
AcDbBlockBegin
  2
*D19
 70
    65
 10
0.0
 20
0.0
 30
0.0
  3
*D19
  1

  0
LINE
  5
153
100
AcDbEntity
  8
図
  6
CONTINUOUS
 62
     3
100
AcDbLine
 10
435.00293
 20
2315.0
 30
0.0
 11
435.00293
 21
2417.0
 31
0.0
  0
LINE
  5
154
100
AcDbEntity
  8
図
  6
CONTINUOUS
 62
     3
100
AcDbLine
 10
635.00293
 20
2315.0
 30
0.0
 11
635.00293
 21
2417.0
 31
0.0
  0
TEXT
  5
155
100
AcDbEntity
  8
図
  6
CONTINUOUS
 62
     2
100
AcDbText
 10
488.32293
 20
2410.5
 30
0.0
 40
40.0
  1
200
 41
0.84
  7
EXCADSTD
 72
     1
 11
532.00293
 21
2410.5
 31
0.0
100
AcDbText
  0
LINE
  5
156
100
AcDbEntity
  8
図
  6
CONTINUOUS
 62
     3
100
AcDbLine
 10
435.00293
 20
2407.0
 30
0.0
 11
635.00293
 21
2407.0
 31
0.0
  0
LINE
  5
157
100
AcDbEntity
  8
図
  6
CONTINUOUS
 62
     3
100
AcDbLine
 10
465.00293
 20
2412.0
 30
0.0
 11
435.00293
 21
2407.0
 31
0.0
  0
LINE
  5
158
100
AcDbEntity
  8
図
  6
CONTINUOUS
 62
     3
100
AcDbLine
 10
435.00293
 20
2407.0
 30
0.0
 11
465.00293
 21
2402.0
 31
0.0
  0
LINE
  5
159
100
AcDbEntity
  8
図
  6
CONTINUOUS
 62
     3
100
AcDbLine
 10
605.00293
 20
2402.0
 30
0.0
 11
635.00293
 21
2407.0
 31
0.0
  0
LINE
  5
15A
100
AcDbEntity
  8
図
  6
CONTINUOUS
 62
     3
100
AcDbLine
 10
635.00293
 20
2407.0
 30
0.0
 11
605.00293
 21
2412.0
 31
0.0
  0
ENDBLK
  5
15B
100
AcDbEntity
  8
0
100
AcDbBlockEnd
  0
BLOCK
  5
15E
100
AcDbEntity
  8
0
100
AcDbBlockBegin
  2
*D20
 70
    65
 10
0.0
 20
0.0
 30
0.0
  3
*D20
  1

  0
LINE
  5
15F
100
AcDbEntity
  8
図
  6
CONTINUOUS
 62
     3
100
AcDbLine
 10
642.00293
 20
2308.0
 30
0.0
 11
732.00293
 21
2308.0
 31
0.0
  0
LINE
  5
160
100
AcDbEntity
  8
図
  6
CONTINUOUS
 62
     3
100
AcDbLine
 10
642.00293
 20
2008.0
 30
0.0
 11
732.00293
 21
2008.0
 31
0.0
  0
TEXT
  5
161
100
AcDbEntity
  8
図
  6
CONTINUOUS
 62
     2
100
AcDbText
 10
718.50293
 20
2106.32
 30
0.0
 40
40.0
  1
300
 50
90.0
 41
0.84
  7
EXCADSTD
 72
     1
 11
718.50293
 21
2150.0
 31
0.0
100
AcDbText
  0
LINE
  5
162
100
AcDbEntity
  8
図
  6
CONTINUOUS
 62
     3
100
AcDbLine
 10
722.00293
 20
2308.0
 30
0.0
 11
722.00293
 21
2008.0
 31
0.0
  0
LINE
  5
163
100
AcDbEntity
  8
図
  6
CONTINUOUS
 62
     3
100
AcDbLine
 10
727.00293
 20
2278.0
 30
0.0
 11
722.00293
 21
2308.0
 31
0.0
  0
LINE
  5
164
100
AcDbEntity
  8
図
  6
CONTINUOUS
 62
     3
100
AcDbLine
 10
722.00293
 20
2308.0
 30
0.0
 11
717.00293
 21
2278.0
 31
0.0
  0
LINE
  5
165
100
AcDbEntity
  8
図
  6
CONTINUOUS
 62
     3
100
AcDbLine
 10
717.00293
 20
2038.0
 30
0.0
 11
722.00293
 21
2008.0
 31
0.0
  0
LINE
  5
166
100
AcDbEntity
  8
図
  6
CONTINUOUS
 62
     3
100
AcDbLine
 10
722.00293
 20
2008.0
 30
0.0
 11
727.00293
 21
2038.0
 31
0.0
  0
ENDBLK
  5
167
100
AcDbEntity
  8
0
100
AcDbBlockEnd
  0
BLOCK
  5
170
100
AcDbEntity
  8
0
100
AcDbBlockBegin
  2
*D21
 70
    65
 10
0.0
 20
0.0
 30
0.0
  3
*D21
  1

  0
LINE
  5
171
100
AcDbEntity
  8
図
  6
CONTINUOUS
 62
     3
100
AcDbLine
 10
787.50293
 20
2223.0
 30
0.0
 11
874.00293
 21
2223.0
 31
0.0
  0
LINE
  5
172
100
AcDbEntity
  8
図
  6
CONTINUOUS
 62
     3
100
AcDbLine
 10
787.50293
 20
2028.0
 30
0.0
 11
874.00293
 21
2028.0
 31
0.0
  0
TEXT
  5
173
100
AcDbEntity
  8
図
  6
CONTINUOUS
 62
     2
100
AcDbText
 10
860.50293
 20
2082.82
 30
0.0
 40
40.0
  1
195
 50
90.0
 41
0.84
  7
EXCADSTD
 72
     1
 11
860.50293
 21
2126.5
 31
0.0
100
AcDbText
  0
LINE
  5
174
100
AcDbEntity
  8
図
  6
CONTINUOUS
 62
     3
100
AcDbLine
 10
864.00293
 20
2223.0
 30
0.0
 11
864.00293
 21
2028.0
 31
0.0
  0
LINE
  5
175
100
AcDbEntity
  8
図
  6
CONTINUOUS
 62
     3
100
AcDbLine
 10
869.00293
 20
2193.0
 30
0.0
 11
864.00293
 21
2223.0
 31
0.0
  0
LINE
  5
176
100
AcDbEntity
  8
図
  6
CONTINUOUS
 62
     3
100
AcDbLine
 10
864.00293
 20
2223.0
 30
0.0
 11
859.00293
 21
2193.0
 31
0.0
  0
LINE
  5
177
100
AcDbEntity
  8
図
  6
CONTINUOUS
 62
     3
100
AcDbLine
 10
859.00293
 20
2058.0
 30
0.0
 11
864.00293
 21
2028.0
 31
0.0
  0
LINE
  5
178
100
AcDbEntity
  8
図
  6
CONTINUOUS
 62
     3
100
AcDbLine
 10
864.00293
 20
2028.0
 30
0.0
 11
869.00293
 21
2058.0
 31
0.0
  0
ENDBLK
  5
179
100
AcDbEntity
  8
0
100
AcDbBlockEnd
  0
BLOCK
  5
182
100
AcDbEntity
  8
0
100
AcDbBlockBegin
  2
*D22
 70
    65
 10
0.0
 20
0.0
 30
0.0
  3
*D22
  1

  0
LINE
  5
183
100
AcDbEntity
  8
図
  6
CONTINUOUS
 62
     3
100
AcDbLine
 10
996.00293
 20
1952.0
 30
0.0
 11
820.50293
 21
1952.0
 31
0.0
  0
TEXT
  5
184
100
AcDbEntity
  8
図
  6
CONTINUOUS
 62
     2
100
AcDbText
 10
838.94293
 20
1955.5
 30
0.0
 40
40.0
  1
4－%%c15
 41
0.84
  7
EXCADSTD
 72
     1
 11
909.502929
 21
1955.5
 31
0.0
100
AcDbText
  0
LINE
  5
185
100
AcDbEntity
  8
図
  6
CONTINUOUS
 62
     3
100
AcDbLine
 10
776.977922
 20
2021.640013
 30
0.0
 11
820.50293
 21
1952.0
 31
0.0
  0
LINE
  5
186
100
AcDbEntity
  8
図
  6
CONTINUOUS
 62
     3
100
AcDbLine
 10
797.117881
 20
1998.850058
 30
0.0
 11
776.977922
 21
2021.640013
 31
0.0
  0
LINE
  5
187
100
AcDbEntity
  8
図
  6
CONTINUOUS
 62
     3
100
AcDbLine
 10
776.977922
 20
2021.640013
 30
0.0
 11
788.637898
 21
1993.550069
 31
0.0
  0
ENDBLK
  5
188
100
AcDbEntity
  8
0
100
AcDbBlockEnd
  0
BLOCK
  5
18B
100
AcDbEntity
  8
0
100
AcDbBlockBegin
  2
*D23
 70
    65
 10
0.0
 20
0.0
 30
0.0
  3
*D23
  1

  0
LINE
  5
18C
100
AcDbEntity
  8
図
  6
CONTINUOUS
 62
     3
100
AcDbLine
 10
1431.99999
 20
924.0
 30
0.0
 11
1431.99999
 21
719.0
 31
0.0
  0
TEXT
  5
18D
100
AcDbEntity
  8
図
  6
CONTINUOUS
 62
     2
100
AcDbText
 10
1507.49999
 20
732.5
 30
0.0
 40
40.0
  1
235
 41
0.84
  7
EXCADSTD
 72
     1
 11
1549.49999
 21
732.5
 31
0.0
100
AcDbText
  0
LINE
  5
18E
100
AcDbEntity
  8
図
  6
CONTINUOUS
 62
     3
100
AcDbLine
 10
1431.99999
 20
729.0
 30
0.0
 11
1666.99999
 21
729.0
 31
0.0
  0
LINE
  5
18F
100
AcDbEntity
  8
図
  6
CONTINUOUS
 62
     3
100
AcDbLine
 10
1461.99999
 20
734.0
 30
0.0
 11
1431.99999
 21
729.0
 31
0.0
  0
LINE
  5
190
100
AcDbEntity
  8
図
  6
CONTINUOUS
 62
     3
100
AcDbLine
 10
1431.99999
 20
729.0
 30
0.0
 11
1461.99999
 21
724.0
 31
0.0
  0
LINE
  5
191
100
AcDbEntity
  8
図
  6
CONTINUOUS
 62
     3
100
AcDbLine
 10
1636.99999
 20
724.0
 30
0.0
 11
1666.99999
 21
729.0
 31
0.0
  0
LINE
  5
192
100
AcDbEntity
  8
図
  6
CONTINUOUS
 62
     3
100
AcDbLine
 10
1666.99999
 20
729.0
 30
0.0
 11
1636.99999
 21
734.0
 31
0.0
  0
ENDBLK
  5
193
100
AcDbEntity
  8
0
100
AcDbBlockEnd
  0
BLOCK
  5
1B3
100
AcDbEntity
  8
0
100
AcDbBlockBegin
  2
*D24
 70
    65
 10
0.0
 20
0.0
 30
0.0
  3
*D24
  1

  0
LINE
  5
1B4
100
AcDbEntity
  8
図
  6
CONTINUOUS
 62
     3
100
AcDbLine
 10
933.0
 20
1168.0
 30
0.0
 11
1046.999999
 21
1168.0
 31
0.0
  0
LINE
  5
1B5
100
AcDbEntity
  8
図
  6
CONTINUOUS
 62
     3
100
AcDbLine
 10
933.0
 20
1143.0
 30
0.0
 11
981.0
 21
1143.0
 31
0.0
  0
TEXT
  5
1B6
100
AcDbEntity
  8
図
  6
CONTINUOUS
 62
     2
100
AcDbText
 10
967.5
 20
910.6
 30
0.0
 40
40.0
  1
（10～25）
 50
90.0
 41
0.84
  7
EXCADSTD
 72
     1
 11
967.5
 21
1003.0
 31
0.0
100
AcDbText
  0
LINE
  5
1B7
100
AcDbEntity
  8
図
  6
CONTINUOUS
 62
     3
100
AcDbLine
 10
971.0
 20
1198.0
 30
0.0
 11
971.0
 21
889.499996
 31
0.0
  0
LINE
  5
1B8
100
AcDbEntity
  8
図
  6
CONTINUOUS
 62
     3
100
AcDbLine
 10
966.0
 20
1198.0
 30
0.0
 11
971.0
 21
1168.0
 31
0.0
  0
LINE
  5
1B9
100
AcDbEntity
  8
図
  6
CONTINUOUS
 62
     3
100
AcDbLine
 10
971.0
 20
1168.0
 30
0.0
 11
976.0
 21
1198.0
 31
0.0
  0
LINE
  5
1BA
100
AcDbEntity
  8
図
  6
CONTINUOUS
 62
     3
100
AcDbLine
 10
976.0
 20
1113.0
 30
0.0
 11
971.0
 21
1143.0
 31
0.0
  0
LINE
  5
1BB
100
AcDbEntity
  8
図
  6
CONTINUOUS
 62
     3
100
AcDbLine
 10
971.0
 20
1143.0
 30
0.0
 11
966.0
 21
1113.0
 31
0.0
  0
ENDBLK
  5
1BC
100
AcDbEntity
  8
0
100
AcDbBlockEnd
  0
BLOCK
  5
981
100
AcDbEntity
  8
0
100
AcDbBlockBegin
  2
*D25
 70
    65
 10
0.0
 20
0.0
 30
0.0
  3
*D25
  1

  0
LINE
  5
982
100
AcDbEntity
  8
寸法
  6
CONTINUOUS
 62
     3
100
AcDbLine
 10
474.0
 20
806.499998
 30
0.0
 11
474.0
 21
731.7
 31
0.0
  0
LINE
  5
983
100
AcDbEntity
  8
寸法
  6
CONTINUOUS
 62
     3
100
AcDbLine
 10
624.0
 20
806.499998
 30
0.0
 11
624.0
 21
731.7
 31
0.0
  0
TEXT
  5
984
100
AcDbEntity
  8
寸法
  6
CONTINUOUS
 62
     2
100
AcDbText
 10
507.0
 20
745.2
 30
0.0
 40
40.0
  1
150
 41
0.84
  7
EXCADSTD
 72
     1
 11
549.0
 21
745.2
 31
0.0
100
AcDbText
  0
LINE
  5
985
100
AcDbEntity
  8
寸法
  6
CONTINUOUS
 62
     3
100
AcDbLine
 10
474.0
 20
741.7
 30
0.0
 11
624.0
 21
741.7
 31
0.0
  0
LINE
  5
986
100
AcDbEntity
  8
寸法
  6
CONTINUOUS
 62
     3
100
AcDbLine
 10
504.0
 20
746.7
 30
0.0
 11
474.0
 21
741.7
 31
0.0
  0
LINE
  5
987
100
AcDbEntity
  8
寸法
  6
CONTINUOUS
 62
     3
100
AcDbLine
 10
474.0
 20
741.7
 30
0.0
 11
504.0
 21
736.7
 31
0.0
  0
LINE
  5
988
100
AcDbEntity
  8
寸法
  6
CONTINUOUS
 62
     3
100
AcDbLine
 10
594.0
 20
736.7
 30
0.0
 11
624.0
 21
741.7
 31
0.0
  0
LINE
  5
989
100
AcDbEntity
  8
寸法
  6
CONTINUOUS
 62
     3
100
AcDbLine
 10
624.0
 20
741.7
 30
0.0
 11
594.0
 21
746.7
 31
0.0
  0
ENDBLK
  5
98A
100
AcDbEntity
  8
0
100
AcDbBlockEnd
  0
BLOCK
  5
98D
100
AcDbEntity
  8
0
100
AcDbBlockBegin
  2
*D26
 70
    65
 10
0.0
 20
0.0
 30
0.0
  3
*D26
  1

  0
LINE
  5
98E
100
AcDbEntity
  8
寸法
  6
CONTINUOUS
 62
     3
100
AcDbLine
 10
273.994628
 20
1308.001246
 30
0.0
 11
273.994628
 21
1532.0
 31
0.0
  0
LINE
  5
98F
100
AcDbEntity
  8
寸法
  6
CONTINUOUS
 62
     3
100
AcDbLine
 10
824.005519
 20
1308.001246
 30
0.0
 11
824.005519
 21
1532.0
 31
0.0
  0
TEXT
  5
990
100
AcDbEntity
  8
寸法
  6
CONTINUOUS
 62
     2
100
AcDbText
 10
507.000073
 20
1525.5
 30
0.0
 40
40.0
  1
550
 41
0.84
  7
EXCADSTD
 72
     1
 11
549.000073
 21
1525.5
 31
0.0
100
AcDbText
  0
LINE
  5
991
100
AcDbEntity
  8
寸法
  6
CONTINUOUS
 62
     3
100
AcDbLine
 10
273.994628
 20
1522.0
 30
0.0
 11
824.005519
 21
1522.0
 31
0.0
  0
LINE
  5
992
100
AcDbEntity
  8
寸法
  6
CONTINUOUS
 62
     3
100
AcDbLine
 10
303.994628
 20
1527.0
 30
0.0
 11
273.994628
 21
1522.0
 31
0.0
  0
LINE
  5
993
100
AcDbEntity
  8
寸法
  6
CONTINUOUS
 62
     3
100
AcDbLine
 10
273.994628
 20
1522.0
 30
0.0
 11
303.994628
 21
1517.0
 31
0.0
  0
LINE
  5
994
100
AcDbEntity
  8
寸法
  6
CONTINUOUS
 62
     3
100
AcDbLine
 10
794.005519
 20
1517.0
 30
0.0
 11
824.005519
 21
1522.0
 31
0.0
  0
LINE
  5
995
100
AcDbEntity
  8
寸法
  6
CONTINUOUS
 62
     3
100
AcDbLine
 10
824.005519
 20
1522.0
 30
0.0
 11
794.005519
 21
1527.0
 31
0.0
  0
ENDBLK
  5
996
100
AcDbEntity
  8
0
100
AcDbBlockEnd
  0
BLOCK
  5
999
100
AcDbEntity
  8
0
100
AcDbBlockBegin
  2
*D27
 70
    65
 10
0.0
 20
0.0
 30
0.0
  3
*D27
  1

  0
LINE
  5
99A
100
AcDbEntity
  8
寸法
  6
CONTINUOUS
 62
     3
100
AcDbLine
 10
1167.36315
 20
1308.0
 30
0.0
 11
1167.36315
 21
1532.0
 31
0.0
  0
TEXT
  5
99B
100
AcDbEntity
  8
寸法
  6
CONTINUOUS
 62
     2
100
AcDbText
 10
1375.18157
 20
1525.5
 30
0.0
 40
40.0
  1
500
 41
0.84
  7
EXCADSTD
 72
     1
 11
1417.18157
 21
1525.5
 31
0.0
100
AcDbText
  0
LINE
  5
99C
100
AcDbEntity
  8
寸法
  6
CONTINUOUS
 62
     3
100
AcDbLine
 10
1167.36315
 20
1522.0
 30
0.0
 11
1666.99999
 21
1522.0
 31
0.0
  0
LINE
  5
99D
100
AcDbEntity
  8
寸法
  6
CONTINUOUS
 62
     3
100
AcDbLine
 10
1197.36315
 20
1527.0
 30
0.0
 11
1167.36315
 21
1522.0
 31
0.0
  0
LINE
  5
99E
100
AcDbEntity
  8
寸法
  6
CONTINUOUS
 62
     3
100
AcDbLine
 10
1167.36315
 20
1522.0
 30
0.0
 11
1197.36315
 21
1517.0
 31
0.0
  0
LINE
  5
99F
100
AcDbEntity
  8
寸法
  6
CONTINUOUS
 62
     3
100
AcDbLine
 10
1636.99999
 20
1517.0
 30
0.0
 11
1666.99999
 21
1522.0
 31
0.0
  0
LINE
  5
9A0
100
AcDbEntity
  8
寸法
  6
CONTINUOUS
 62
     3
100
AcDbLine
 10
1666.99999
 20
1522.0
 30
0.0
 11
1636.99999
 21
1527.0
 31
0.0
  0
ENDBLK
  5
9A1
100
AcDbEntity
  8
0
100
AcDbBlockEnd
  0
BLOCK
  5
9A4
100
AcDbEntity
  8
0
100
AcDbBlockBegin
  2
*D28
 70
    65
 10
0.0
 20
0.0
 30
0.0
  3
*D28
  1

  0
LINE
  5
9A5
100
AcDbEntity
  8
寸法
  6
CONTINUOUS
 62
     3
100
AcDbLine
 10
1752.0
 20
1168.0
 30
0.0
 11
1819.0
 21
1168.0
 31
0.0
  0
TEXT
  5
9A6
100
AcDbEntity
  8
寸法
  6
CONTINUOUS
 62
     2
100
AcDbText
 10
1805.5
 20
1222.8
 30
0.0
 40
40.0
  1
265（Ｐトラップ）
 50
90.0
 41
0.84
  7
EXCADSTD
 72
     1
 11
1805.5
 21
1353.0
 31
0.0
100
AcDbText
  0
LINE
  5
9A7
100
AcDbEntity
  8
寸法
  6
CONTINUOUS
 62
     3
100
AcDbLine
 10
1809.0
 20
873.0
 30
0.0
 11
1809.0
 21
1511.499985
 31
0.0
  0
LINE
  5
9A8
100
AcDbEntity
  8
寸法
  6
CONTINUOUS
 62
     3
100
AcDbLine
 10
1814.0
 20
873.0
 30
0.0
 11
1809.0
 21
903.0
 31
0.0
  0
LINE
  5
9A9
100
AcDbEntity
  8
寸法
  6
CONTINUOUS
 62
     3
100
AcDbLine
 10
1809.0
 20
903.0
 30
0.0
 11
1804.0
 21
873.0
 31
0.0
  0
LINE
  5
9AA
100
AcDbEntity
  8
寸法
  6
CONTINUOUS
 62
     3
100
AcDbLine
 10
1804.0
 20
1198.0
 30
0.0
 11
1809.0
 21
1168.0
 31
0.0
  0
LINE
  5
9AB
100
AcDbEntity
  8
寸法
  6
CONTINUOUS
 62
     3
100
AcDbLine
 10
1809.0
 20
1168.0
 30
0.0
 11
1814.0
 21
1198.0
 31
0.0
  0
ENDBLK
  5
9AC
100
AcDbEntity
  8
0
100
AcDbBlockEnd
  0
BLOCK
  5
9AF
100
AcDbEntity
  8
0
100
AcDbBlockBegin
  2
*D29
 70
    65
 10
0.0
 20
0.0
 30
0.0
  3
*D29
  1

  0
LINE
  5
9B0
100
AcDbEntity
  8
寸法
  6
CONTINUOUS
 62
     3
100
AcDbLine
 10
1711.99999
 20
973.0
 30
0.0
 11
1757.0
 21
973.0
 31
0.0
  0
LINE
  5
9B1
100
AcDbEntity
  8
寸法
  6
CONTINUOUS
 62
     3
100
AcDbLine
 10
1804.0
 20
1168.0
 30
0.0
 11
1737.0
 21
1168.0
 31
0.0
  0
TEXT
  5
9B2
100
AcDbEntity
  8
寸法
  6
CONTINUOUS
 62
     2
100
AcDbText
 10
1743.5
 20
1227.6
 30
0.0
 40
40.0
  1
195（ボトルトラップ）
 50
90.0
 41
0.84
  7
EXCADSTD
 72
     1
 11
1743.5
 21
1383.0
 31
0.0
100
AcDbText
  0
LINE
  5
9B3
100
AcDbEntity
  8
寸法
  6
CONTINUOUS
 62
     3
100
AcDbLine
 10
1747.0
 20
943.0
 30
0.0
 11
1747.0
 21
1571.499985
 31
0.0
  0
LINE
  5
9B4
100
AcDbEntity
  8
寸法
  6
CONTINUOUS
 62
     3
100
AcDbLine
 10
1752.0
 20
943.0
 30
0.0
 11
1747.0
 21
973.0
 31
0.0
  0
LINE
  5
9B5
100
AcDbEntity
  8
寸法
  6
CONTINUOUS
 62
     3
100
AcDbLine
 10
1747.0
 20
973.0
 30
0.0
 11
1742.0
 21
943.0
 31
0.0
  0
LINE
  5
9B6
100
AcDbEntity
  8
寸法
  6
CONTINUOUS
 62
     3
100
AcDbLine
 10
1742.0
 20
1198.0
 30
0.0
 11
1747.0
 21
1168.0
 31
0.0
  0
LINE
  5
9B7
100
AcDbEntity
  8
寸法
  6
CONTINUOUS
 62
     3
100
AcDbLine
 10
1747.0
 20
1168.0
 30
0.0
 11
1752.0
 21
1198.0
 31
0.0
  0
ENDBLK
  5
9B8
100
AcDbEntity
  8
0
100
AcDbBlockEnd
  0
BLOCK
  5
9BC
100
AcDbEntity
  8
0
100
AcDbBlockBegin
  2
*D30
 70
    65
 10
0.0
 20
0.0
 30
0.0
  3
*D30
  1

  0
LINE
  5
9BD
100
AcDbEntity
  8
寸法
  6
CONTINUOUS
 62
     3
100
AcDbLine
 10
1676.99999
 20
1168.0
 30
0.0
 11
1874.0
 21
1168.0
 31
0.0
  0
LINE
  5
9BE
100
AcDbEntity
  8
寸法
  6
CONTINUOUS
 62
     3
100
AcDbLine
 10
1687.776966
 20
858.0
 30
0.0
 11
1874.0
 21
858.0
 31
0.0
  0
TEXT
  5
9BF
100
AcDbEntity
  8
寸法
  6
CONTINUOUS
 62
     2
100
AcDbText
 10
1860.5
 20
971.0
 30
0.0
 40
40.0
  1
310
 50
90.0
 41
0.84
  7
EXCADSTD
 72
     1
 11
1860.5
 21
1013.0
 31
0.0
100
AcDbText
  0
LINE
  5
9C0
100
AcDbEntity
  8
寸法
  6
CONTINUOUS
 62
     3
100
AcDbLine
 10
1864.0
 20
1168.0
 30
0.0
 11
1864.0
 21
858.0
 31
0.0
  0
LINE
  5
9C1
100
AcDbEntity
  8
寸法
  6
CONTINUOUS
 62
     3
100
AcDbLine
 10
1869.0
 20
1138.0
 30
0.0
 11
1864.0
 21
1168.0
 31
0.0
  0
LINE
  5
9C2
100
AcDbEntity
  8
寸法
  6
CONTINUOUS
 62
     3
100
AcDbLine
 10
1864.0
 20
1168.0
 30
0.0
 11
1859.0
 21
1138.0
 31
0.0
  0
LINE
  5
9C3
100
AcDbEntity
  8
寸法
  6
CONTINUOUS
 62
     3
100
AcDbLine
 10
1859.0
 20
888.0
 30
0.0
 11
1864.0
 21
858.0
 31
0.0
  0
LINE
  5
9C4
100
AcDbEntity
  8
寸法
  6
CONTINUOUS
 62
     3
100
AcDbLine
 10
1864.0
 20
858.0
 30
0.0
 11
1869.0
 21
888.0
 31
0.0
  0
ENDBLK
  5
9C5
100
AcDbEntity
  8
0
100
AcDbBlockEnd
  0
BLOCK
  5
9C8
100
AcDbEntity
  8
0
100
AcDbBlockBegin
  2
*D31
 70
    65
 10
0.0
 20
0.0
 30
0.0
  3
*D31
  1

  0
LINE
  5
9C9
100
AcDbEntity
  8
寸法
  6
CONTINUOUS
 62
     3
100
AcDbLine
 10
1582.001678
 20
485.0
 30
0.0
 11
1582.001678
 21
444.0
 31
0.0
  0
LINE
  5
9CA
100
AcDbEntity
  8
寸法
  6
CONTINUOUS
 62
     3
100
AcDbLine
 10
1666.99999
 20
503.0
 30
0.0
 11
1666.99999
 21
444.0
 31
0.0
  0
TEXT
  5
9CB
100
AcDbEntity
  8
寸法
  6
CONTINUOUS
 62
     2
100
AcDbText
 10
1714.59999
 20
457.5
 30
0.0
 40
40.0
  1
85（床給水）
 41
0.84
  7
EXCADSTD
 72
     1
 11
1806.99999
 21
457.5
 31
0.0
100
AcDbText
  0
LINE
  5
9CC
100
AcDbEntity
  8
寸法
  6
CONTINUOUS
 62
     3
100
AcDbLine
 10
1552.001678
 20
454.0
 30
0.0
 11
1920.499994
 21
454.0
 31
0.0
  0
LINE
  5
9CD
100
AcDbEntity
  8
寸法
  6
CONTINUOUS
 62
     3
100
AcDbLine
 10
1552.001678
 20
449.0
 30
0.0
 11
1582.001678
 21
454.0
 31
0.0
  0
LINE
  5
9CE
100
AcDbEntity
  8
寸法
  6
CONTINUOUS
 62
     3
100
AcDbLine
 10
1582.001678
 20
454.0
 30
0.0
 11
1552.001678
 21
459.0
 31
0.0
  0
LINE
  5
9CF
100
AcDbEntity
  8
寸法
  6
CONTINUOUS
 62
     3
100
AcDbLine
 10
1696.99999
 20
459.0
 30
0.0
 11
1666.99999
 21
454.0
 31
0.0
  0
LINE
  5
9D0
100
AcDbEntity
  8
寸法
  6
CONTINUOUS
 62
     3
100
AcDbLine
 10
1666.99999
 20
454.0
 30
0.0
 11
1696.99999
 21
449.0
 31
0.0
  0
ENDBLK
  5
9D1
100
AcDbEntity
  8
0
100
AcDbBlockEnd
  0
ENDSEC
  0
SECTION
  2
ENTITIES
  0
LINE
  5
84
100
AcDbEntity
  8
枠・表
  6
CONTINUOUS
 62
     7
100
AcDbLine
 10
180.0
 20
135.0
 30
0.0
 11
2000.0
 21
135.0
 31
0.0
  0
LINE
  5
85
100
AcDbEntity
  8
枠・表
  6
CONTINUOUS
 62
     7
100
AcDbLine
 10
2000.0
 20
135.0
 30
0.0
 11
2000.0
 21
2885.0
 31
0.0
  0
LINE
  5
86
100
AcDbEntity
  8
枠・表
  6
CONTINUOUS
 62
     7
100
AcDbLine
 10
180.0
 20
135.0
 30
0.0
 11
180.0
 21
2885.0
 31
0.0
  0
LINE
  5
87
100
AcDbEntity
  8
枠・表
  6
CONTINUOUS
 62
     7
100
AcDbLine
 10
180.0
 20
2885.0
 30
0.0
 11
2000.0
 21
2885.0
 31
0.0
  0
LINE
  5
88
100
AcDbEntity
  8
枠・表
  6
CONTINUOUS
 62
     7
100
AcDbLine
 10
180.0
 20
355.0
 30
0.0
 11
2000.0
 21
355.0
 31
0.0
  0
LINE
  5
89
100
AcDbEntity
  8
枠・表
  6
CONTINUOUS
 62
     6
100
AcDbLine
 10
2000.0
 20
235.0
 30
0.0
 11
750.0
 21
235.0
 31
0.0
  0
LINE
  5
8A
100
AcDbEntity
  8
枠・表
  6
CONTINUOUS
 62
     6
100
AcDbLine
 10
1860.0
 20
355.0
 30
0.0
 11
1860.0
 21
235.0
 31
0.0
  0
LINE
  5
8B
100
AcDbEntity
  8
枠・表
  6
CONTINUOUS
 62
     6
100
AcDbLine
 10
1810.0
 20
355.0
 30
0.0
 11
1810.0
 21
235.0
 31
0.0
  0
LINE
  5
8C
100
AcDbEntity
  8
枠・表
  6
CONTINUOUS
 62
     6
100
AcDbLine
 10
1440.0
 20
355.0
 30
0.0
 11
1440.0
 21
135.0
 31
0.0
  0
LINE
  5
8D
100
AcDbEntity
  8
枠・表
  6
CONTINUOUS
 62
     6
100
AcDbLine
 10
1390.0
 20
355.0
 30
0.0
 11
1390.0
 21
135.0
 31
0.0
  0
LINE
  5
8E
100
AcDbEntity
  8
枠・表
  6
CONTINUOUS
 62
     6
100
AcDbLine
 10
800.0
 20
355.0
 30
0.0
 11
800.0
 21
235.0
 31
0.0
  0
LINE
  5
8F
100
AcDbEntity
  8
枠・表
  6
CONTINUOUS
 62
     6
100
AcDbLine
 10
750.0
 20
355.0
 30
0.0
 11
750.0
 21
135.0
 31
0.0
  0
LINE
  5
90
100
AcDbEntity
  8
枠・表
  6
CONTINUOUS
 62
     6
100
AcDbLine
 10
620.0
 20
355.0
 30
0.0
 11
620.0
 21
135.0
 31
0.0
  0
LINE
  5
91
100
AcDbEntity
  8
枠・表
  6
CONTINUOUS
 62
     6
100
AcDbLine
 10
490.0
 20
355.0
 30
0.0
 11
490.0
 21
135.0
 31
0.0
  0
LINE
  5
92
100
AcDbEntity
  8
枠・表
  6
CONTINUOUS
 62
     6
100
AcDbLine
 10
335.0
 20
355.0
 30
0.0
 11
335.0
 21
135.0
 31
0.0
  0
LINE
  5
93
100
AcDbEntity
  8
枠・表
  6
CONTINUOUS
 62
     6
100
AcDbLine
 10
180.0
 20
305.0
 30
0.0
 11
750.0
 21
305.0
 31
0.0
  0
LINE
  5
94
100
AcDbEntity
  8
枠・表
  6
CONTINUOUS
 62
     6
100
AcDbLine
 10
1892.653809
 20
258.00293
 30
0.0
 11
1969.993897
 21
336.699829
 31
0.0
  0
LINE
  5
95
100
AcDbEntity
  8
枠・表
  6
EXLTYPE2
 62
     6
100
AcDbLine
 10
180.0
 20
185.0
 30
0.0
 11
490.0
 21
185.0
 31
0.0
  0
CIRCLE
  5
96
100
AcDbEntity
  8
枠・表
  6
CONTINUOUS
 62
     6
100
AcDbCircle
 10
230.0
 20
160.0
 30
0.0
 40
1.0
  0
CIRCLE
  5
97
100
AcDbEntity
  8
枠・表
  6
CONTINUOUS
 62
     6
100
AcDbCircle
 10
280.0
 20
160.0
 30
0.0
 40
1.0
  0
CIRCLE
  5
98
100
AcDbEntity
  8
枠・表
  6
CONTINUOUS
 62
     6
100
AcDbCircle
 10
385.0
 20
160.0
 30
0.0
 40
1.0
  0
CIRCLE
  5
99
100
AcDbEntity
  8
枠・表
  6
CONTINUOUS
 62
     6
100
AcDbCircle
 10
435.0
 20
160.0
 30
0.0
 40
1.0
  0
TEXT
  5
9A
100
AcDbEntity
  8
枠・表
  6
CONTINUOUS
 62
     2
100
AcDbText
 10
1890.537109
 20
302.722778
 30
0.0
 40
30.0
  1
１
 41
0.826
  7
EXCADSTD
 72
     5
 11
1914.13711
 21
302.722778
 31
0.0
100
AcDbText
  0
TEXT
  5
9B
100
AcDbEntity
  8
枠・表
  6
CONTINUOUS
 62
     2
100
AcDbText
 10
202.5
 20
308.75
 30
0.0
 40
42.5
  1
製図
 41
1.087059
  7
EXCADSTD
 72
     5
 11
303.326
 21
308.75
 31
0.0
100
AcDbText
  0
TEXT
  5
9C
100
AcDbEntity
  8
枠・表
  6
CONTINUOUS
 62
     2
100
AcDbText
 10
357.5
 20
308.75
 30
0.0
 40
42.5
  1
写図
 41
1.087059
  7
EXCADSTD
 72
     5
 11
458.326
 21
308.75
 31
0.0
100
AcDbText
  0
TEXT
  5
9D
100
AcDbEntity
  8
枠・表
  6
CONTINUOUS
 62
     2
100
AcDbText
 10
507.5
 20
308.75
 30
0.0
 40
42.5
  1
検図
 41
0.938824
  7
EXCADSTD
 72
     5
 11
594.577
 21
308.75
 31
0.0
100
AcDbText
  0
TEXT
  5
9E
100
AcDbEntity
  8
枠・表
  6
CONTINUOUS
 62
     2
100
AcDbText
 10
637.5
 20
308.75
 30
0.0
 40
42.5
  1
承認
 41
0.938824
  7
EXCADSTD
 72
     5
 11
724.577
 21
308.75
 31
0.0
100
AcDbText
  0
TEXT
  5
9F
100
AcDbEntity
  8
枠・表
  6
CONTINUOUS
 62
     2
100
AcDbText
 10
755.75
 20
298.75
 30
0.0
 40
42.5
  1
品
 41
0.84
  7
EXCADSTD
 72
     5
 11
789.75
 21
298.75
 31
0.0
100
AcDbText
  0
TEXT
  5
A0
100
AcDbEntity
  8
枠・表
  6
CONTINUOUS
 62
     2
100
AcDbText
 10
755.75
 20
248.75
 30
0.0
 40
42.5
  1
名
 41
0.84
  7
EXCADSTD
 72
     5
 11
789.75
 21
248.75
 31
0.0
100
AcDbText
  0
TEXT
  5
A1
100
AcDbEntity
  8
枠・表
  6
CONTINUOUS
 62
     2
100
AcDbText
 10
1395.75
 20
298.75
 30
0.0
 40
42.5
  1
品
 41
0.84
  7
EXCADSTD
 72
     5
 11
1429.75
 21
298.75
 31
0.0
100
AcDbText
  0
TEXT
  5
A2
100
AcDbEntity
  8
枠・表
  6
CONTINUOUS
 62
     2
100
AcDbText
 10
1395.75
 20
248.75
 30
0.0
 40
42.5
  1
番
 41
0.84
  7
EXCADSTD
 72
     5
 11
1429.75
 21
248.75
 31
0.0
100
AcDbText
  0
TEXT
  5
A3
100
AcDbEntity
  8
枠・表
  6
CONTINUOUS
 62
     2
100
AcDbText
 10
1816.75
 20
298.75
 30
0.0
 40
42.5
  1
尺
 41
0.84
  7
EXCADSTD
 72
     5
 11
1850.75
 21
298.75
 31
0.0
100
AcDbText
  0
TEXT
  5
A4
100
AcDbEntity
  8
枠・表
  6
CONTINUOUS
 62
     2
100
AcDbText
 10
1816.75
 20
248.75
 30
0.0
 40
42.5
  1
度
 41
0.84
  7
EXCADSTD
 72
     5
 11
1850.75
 21
248.75
 31
0.0
100
AcDbText
  0
TEXT
  5
A5
100
AcDbEntity
  8
枠・表
  6
CONTINUOUS
 62
     2
100
AcDbText
 10
1395.75
 20
185.75
 30
0.0
 40
42.5
  1
図
 41
0.84
  7
EXCADSTD
 72
     5
 11
1429.75
 21
185.75
 31
0.0
100
AcDbText
  0
TEXT
  5
A6
100
AcDbEntity
  8
枠・表
  6
CONTINUOUS
 62
     2
100
AcDbText
 10
1395.75
 20
142.75
 30
0.0
 40
42.5
  1
番
 41
0.84
  7
EXCADSTD
 72
     5
 11
1429.75
 21
142.75
 31
0.0
100
AcDbText
  0
TEXT
  5
A7
100
AcDbEntity
  8
枠・表
  6
CONTINUOUS
 62
     2
100
AcDbText
 10
1931.279297
 20
258.348846
 30
0.0
 40
30.0
  1
１０
 41
0.791
  7
EXCADSTD
 72
     5
 11
1983.067198
 21
258.348846
 31
0.0
100
AcDbText
  0
TEXT
  5
A8
100
AcDbEntity
  8
枠・表
  6
CONTINUOUS
 62
     2
100
AcDbText
 10
633.833333
 20
220.0
 30
0.0
 40
50.0
  1
古林
 41
0.882
  7
EXCADSTD
 72
     5
 11
730.076333
 21
220.0
 31
0.0
100
AcDbText
  0
TEXT
  5
A9
100
AcDbEntity
  8
枠・表
  6
CONTINUOUS
 62
     2
100
AcDbText
 10
1504.0
 20
270.0
 30
0.0
 40
50.0
  1
Ｌ５５３ＣＦ
 41
0.7
  7
EXCADSTD
 72
     5
 11
1754.0
 21
270.0
 31
0.0
100
AcDbText
  0
DIMENSION
  5
B6
100
AcDbEntity
  8
枠・表
  6
CONTINUOUS
 62
     3
100
AcDbDimension
  2
*D14
 10
1582.001678
 20
794.0
 30
0.0
 11
1624.500834
 21
817.5
 31
0.0
 70
   160
  3
STANDARD
100
AcDbAlignedDimension
 13
1666.99999
 23
888.0
 33
0.0
 14
1582.001678
 24
908.053711
 34
0.0
100
AcDbRotatedDimension
1001
ACAD
1000
DSTYLE
1002
{
1070
     6
1000
_EX_NORM
1070
     7
1000
_EX_NORM
1070
    41
1040
30.0
1070
    42
1040
5.0
1070
    44
1040
10.0
1070
    73
1070
     0
1070
    74
1070
     0
1070
    75
1070
     0
1070
    76
1070
     0
1070
    77
1070
     1
1070
    78
1070
     8
1070
   140
1040
40.0
1070
   147
1040
3.5
1070
   173
1070
     1
1070
   176
1070
     3
1070
   177
1070
     3
1070
   178
1070
     2
1070
   271
1070
     2
1070
   279
1070
     2
1070
   280
1070
     0
1070
   287
1070
     5
1070
   340
1005
B5
1002
}
  0
TEXT
  5
B7
100
AcDbEntity
  8
枠・表
  6
CONTINUOUS
 62
     2
100
AcDbText
 10
326.00293
 20
1940.5
 30
0.0
 40
40.0
  1
洗面器中心
 41
0.7056
  7
EXCADSTD
 72
     5
 11
494.00293
 21
1940.5
 31
0.0
100
AcDbText
  0
POLYLINE
  5
B8
100
AcDbEntity
  8
枠・表
  6
CONTINUOUS
 62
     3
100
AcDb2dPolyline
 66
     1
 10
0.0
 20
0.0
 30
0.0
 70
   128
  0
VERTEX
  5
B9
100
AcDbEntity
  8
枠・表
  6
CONTINUOUS
 62
     3
100
AcDbVertex
100
AcDb2dVertex
 10
535.00293
 20
1970.0
 30
0.0
  0
VERTEX
  5
BA
100
AcDbEntity
  8
枠・表
  6
CONTINUOUS
 62
     3
100
AcDbVertex
100
AcDb2dVertex
 10
499.00293
 20
1937.0
 30
0.0
  0
VERTEX
  5
BB
100
AcDbEntity
  8
枠・表
  6
CONTINUOUS
 62
     3
100
AcDbVertex
100
AcDb2dVertex
 10
322.00293
 20
1937.0
 30
0.0
  0
SEQEND
  5
BC
100
AcDbEntity
  8
枠・表
  6
CONTINUOUS
 62
     3
  0
LINE
  5
BD
100
AcDbEntity
  8
枠・表
  6
CONTINUOUS
 62
     3
100
AcDbLine
 10
516.266929
 20
1946.04249
 30
0.0
 11
535.00293
 21
1970.0
 31
0.0
  0
LINE
  5
BE
100
AcDbEntity
  8
枠・表
  6
CONTINUOUS
 62
     3
100
AcDbLine
 10
535.00293
 20
1970.0
 30
0.0
 11
509.509682
 21
1953.414032
 31
0.0
  0
TEXT
  5
BF
100
AcDbEntity
  8
枠・表
  6
CONTINUOUS
 62
     2
100
AcDbText
 10
207.5
 20
220.0
 30
0.0
 40
50.0
  1
間瀬
 41
0.882
  7
EXCADSTD
 72
     5
 11
303.743
 21
220.0
 31
0.0
100
AcDbText
  0
TEXT
  5
C1
100
AcDbEntity
  8
枠・表
  6
CONTINUOUS
 62
     2
100
AcDbText
 10
770.0
 20
155.0
 30
0.0
 40
45.0
  1
ジャニス工業株式会社
  7
EXCADTTF1
 72
     5
 11
1370.0
 21
155.0
 31
0.0
100
AcDbText
  0
LINE
  5
C2
100
AcDbEntity
  8
枠・表
  6
EXLTYPE2
 62
     6
100
AcDbLine
 10
4.0
 20
1510.0
 30
0.0
 11
180.0
 21
1510.0
 31
0.0
  0
TEXT
  5
C3
100
AcDbEntity
  8
枠・表
  6
CONTINUOUS
 62
     2
100
AcDbText
 10
826.500001
 20
295.0
 30
0.0
 40
60.0
  1
　スクエアライン
 41
0.8365
  7
EXCADSTD
 72
     5
 11
1304.499999
 21
295.0
 31
0.0
100
AcDbText
  0
TEXT
  5
C4
100
AcDbEntity
  8
枠・表
  6
CONTINUOUS
 62
     2
100
AcDbText
 10
826.500001
 20
235.0
 30
0.0
 40
60.0
  1
（カウンター仕様）
 41
0.835333
  7
EXCADSTD
 72
     5
 11
1363.499999
 21
235.0
 31
0.0
100
AcDbText
  0
TEXT
  5
C5
100
AcDbEntity
  8
枠・表
  6
CONTINUOUS
 62
     2
100
AcDbText
 10
1889.00293
 20
2535.249023
 30
0.0
 40
47.5
  1
１
 41
1.043368
  7
EXCADSTD
 72
     5
 11
1936.20293
 21
2535.249023
 31
0.0
100
AcDbText
  0
LINE
  5
C6
100
AcDbEntity
  8
枠・表
  6
CONTINUOUS
 62
     6
100
AcDbLine
 10
1124.00293
 20
2526.635742
 30
0.0
 11
1959.00293
 21
2526.635742
 31
0.0
  0
TEXT
  5
C7
100
AcDbEntity
  8
枠・表
  6
CONTINUOUS
 62
     2
100
AcDbText
 10
503.833333
 20
220.0
 30
0.0
 40
50.0
  1
中村
 41
0.882
  7
EXCADSTD
 72
     5
 11
600.076333
 21
220.0
 31
0.0
100
AcDbText
  0
TEXT
  5
C8
100
AcDbEntity
  8
枠・表
  6
CONTINUOUS
 62
     2
100
AcDbText
 10
1874.00293
 20
2726.635742
 30
0.0
 40
55.0
  1
個数
 41
0.664364
  7
EXCADSTD
 72
     5
 11
1953.74713
 21
2726.635742
 31
0.0
100
AcDbText
  0
TEXT
  5
C9
100
AcDbEntity
  8
枠・表
  6
CONTINUOUS
 62
     2
100
AcDbText
 10
1889.00293
 20
2666.396484
 30
0.0
 40
47.5
  1
１
 41
1.043368
  7
EXCADSTD
 72
     5
 11
1936.20293
 21
2666.396484
 31
0.0
100
AcDbText
  0
TEXT
  5
CA
100
AcDbEntity
  8
枠・表
  6
CONTINUOUS
 62
     2
100
AcDbText
 10
1141.053711
 20
2798.640137
 30
0.0
 40
60.0
  1
器　具　明　細
 41
0.91
  7
EXCADSTD
 72
     5
 11
1596.053711
 21
2798.640137
 31
0.0
100
AcDbText
  0
LINE
  5
CB
100
AcDbEntity
  8
枠・表
  6
CONTINUOUS
 62
     6
100
AcDbLine
 10
1124.00293
 20
2656.635742
 30
0.0
 11
1959.00293
 21
2656.635742
 31
0.0
  0
LINE
  5
CC
100
AcDbEntity
  8
枠・表
  6
CONTINUOUS
 62
     6
100
AcDbLine
 10
1124.00293
 20
2786.635742
 30
0.0
 11
1959.00293
 21
2786.635742
 31
0.0
  0
TEXT
  5
CD
100
AcDbEntity
  8
枠・表
  6
CONTINUOUS
 62
     2
100
AcDbText
 10
1129.082581
 20
2664.816895
 30
0.0
 40
50.0
  1
Ｌ５５３ＣＦ
 41
0.6244
  7
EXCADSTD
 72
     5
 11
1352.082594
 21
2664.816895
 31
0.0
100
AcDbText
  0
LINE
  5
CE
100
AcDbEntity
  8
枠・表
  6
CONTINUOUS
 62
     6
100
AcDbLine
 10
1124.00293
 20
2721.635742
 30
0.0
 11
1959.00293
 21
2721.635742
 31
0.0
  0
TEXT
  5
CF
100
AcDbEntity
  8
枠・表
  6
CONTINUOUS
 62
     2
100
AcDbText
 10
1889.00293
 20
2601.396484
 30
0.0
 40
47.5
  1
１
 41
1.043368
  7
EXCADSTD
 72
     5
 11
1936.20293
 21
2601.396484
 31
0.0
100
AcDbText
  0
LINE
  5
D0
100
AcDbEntity
  8
枠・表
  6
CONTINUOUS
 62
     6
100
AcDbLine
 10
1124.00293
 20
2591.635742
 30
0.0
 11
1959.00293
 21
2591.635742
 31
0.0
  0
TEXT
  5
D1
100
AcDbEntity
  8
枠・表
  6
CONTINUOUS
 62
     2
100
AcDbText
 10
1889.00293
 20
2470.016937
 30
0.0
 40
47.5
  1
１
 41
1.043368
  7
EXCADSTD
 72
     5
 11
1936.20293
 21
2470.016937
 31
0.0
100
AcDbText
  0
TEXT
  5
D2
100
AcDbEntity
  8
枠・表
  6
CONTINUOUS
 62
     2
100
AcDbText
 10
1889.00293
 20
2276.847992
 30
0.0
 40
47.5
  1
１
 41
1.043368
  7
EXCADSTD
 72
     5
 11
1936.20293
 21
2276.847992
 31
0.0
100
AcDbText
  0
TEXT
  5
D3
100
AcDbEntity
  8
枠・表
  6
CONTINUOUS
 62
     2
100
AcDbText
 10
1129.082581
 20
2599.816895
 30
0.0
 40
50.0
  1
Ｐ６９１３２
 41
0.6244
  7
EXCADSTD
 72
     5
 11
1352.082594
 21
2599.816895
 31
0.0
100
AcDbText
  0
TEXT
  5
D4
100
AcDbEntity
  8
枠・表
  6
CONTINUOUS
 62
     2
100
AcDbText
 10
1130.049988
 20
2469.75708
 30
0.0
 40
50.0
  1
Ｐ２１７１
 41
0.63168
  7
EXCADSTD
 72
     5
 11
1318.049999
 21
2469.75708
 31
0.0
100
AcDbText
  0
TEXT
  5
D5
100
AcDbEntity
  8
枠・表
  6
CONTINUOUS
 62
     2
100
AcDbText
 10
1128.115173
 20
2274.346619
 30
0.0
 40
50.0
  1
Ｐ２２３３
 41
0.63168
  7
EXCADSTD
 72
     5
 11
1316.115185
 21
2274.346619
 31
0.0
100
AcDbText
  0
TEXT
  5
D6
100
AcDbEntity
  8
枠・表
  6
CONTINUOUS
 62
     2
100
AcDbText
 10
1889.00293
 20
2341.847992
 30
0.0
 40
47.5
  1
１
 41
1.043368
  7
EXCADSTD
 72
     5
 11
1936.20293
 21
2341.847992
 31
0.0
100
AcDbText
  0
TEXT
  5
D7
100
AcDbEntity
  8
枠・表
  6
CONTINUOUS
 62
     2
100
AcDbText
 10
1128.115173
 20
2339.346619
 30
0.0
 40
50.0
  1
Ｐ２２３４
 41
0.63168
  7
EXCADSTD
 72
     5
 11
1316.115185
 21
2339.346619
 31
0.0
100
AcDbText
  0
LINE
  5
D8
100
AcDbEntity
  8
枠・表
  6
CONTINUOUS
 62
     6
100
AcDbLine
 10
1124.00293
 20
2461.635742
 30
0.0
 11
1959.00293
 21
2461.635742
 31
0.0
  0
TEXT
  5
D9
100
AcDbEntity
  8
枠・表
  6
CONTINUOUS
 62
     2
100
AcDbText
 10
1889.00293
 20
2211.847992
 30
0.0
 40
47.5
  1
１
 41
1.043368
  7
EXCADSTD
 72
     5
 11
1936.20293
 21
2211.847992
 31
0.0
100
AcDbText
  0
TEXT
  5
DA
100
AcDbEntity
  8
枠・表
  6
CONTINUOUS
 62
     2
100
AcDbText
 10
1128.115173
 20
2209.346619
 30
0.0
 40
50.0
  1
Ｐ２２３２
 41
0.63168
  7
EXCADSTD
 72
     5
 11
1316.115185
 21
2209.346619
 31
0.0
100
AcDbText
  0
LINE
  5
DB
100
AcDbEntity
  8
枠・表
  6
CONTINUOUS
 62
     6
100
AcDbLine
 10
1124.00293
 20
2396.635742
 30
0.0
 11
1959.00293
 21
2396.635742
 31
0.0
  0
LINE
  5
DC
100
AcDbEntity
  8
枠・表
  6
CONTINUOUS
 62
     6
100
AcDbLine
 10
1124.00293
 20
2786.635742
 30
0.0
 11
1124.00293
 21
2461.635742
 31
0.0
  0
LINE
  5
DD
100
AcDbEntity
  8
枠・表
  6
CONTINUOUS
 62
     6
100
AcDbLine
 10
1869.00293
 20
2786.635742
 30
0.0
 11
1869.00293
 21
2461.635742
 31
0.0
  0
LINE
  5
DE
100
AcDbEntity
  8
枠・表
  6
CONTINUOUS
 62
     6
100
AcDbLine
 10
1959.00293
 20
2786.635742
 30
0.0
 11
1959.00293
 21
2461.635742
 31
0.0
  0
LINE
  5
DF
100
AcDbEntity
  8
枠・表
  6
CONTINUOUS
 62
     6
100
AcDbLine
 10
1124.00293
 20
2331.635742
 30
0.0
 11
1959.00293
 21
2331.635742
 31
0.0
  0
LINE
  5
E0
100
AcDbEntity
  8
枠・表
  6
CONTINUOUS
 62
     6
100
AcDbLine
 10
1124.00293
 20
2266.635742
 30
0.0
 11
1959.00293
 21
2266.635742
 31
0.0
  0
TEXT
  5
E1
100
AcDbEntity
  8
枠・表
  6
CONTINUOUS
 62
     2
100
AcDbText
 10
1889.00293
 20
2146.847992
 30
0.0
 40
47.5
  1
１
 41
1.043368
  7
EXCADSTD
 72
     5
 11
1936.20293
 21
2146.847992
 31
0.0
100
AcDbText
  0
LINE
  5
E2
100
AcDbEntity
  8
枠・表
  6
CONTINUOUS
 62
     6
100
AcDbLine
 10
1124.00293
 20
2201.635742
 30
0.0
 11
1959.00293
 21
2201.635742
 31
0.0
  0
TEXT
  5
E3
100
AcDbEntity
  8
枠・表
  6
CONTINUOUS
 62
     2
100
AcDbText
 10
184.5
 20
140.0
 30
0.0
 40
40.0
  1
21
 41
0.5
  7
EXCADSTD
 72
     5
 11
216.5
 21
140.0
 31
0.0
100
AcDbText
  0
TEXT
  5
E4
100
AcDbEntity
  8
枠・表
  6
CONTINUOUS
 62
     2
100
AcDbText
 10
288.0
 20
140.0
 30
0.0
 40
40.0
  1
10
 41
0.5
  7
EXCADSTD
 72
     5
 11
320.0
 21
140.0
 31
0.0
100
AcDbText
  0
TEXT
  5
E5
100
AcDbEntity
  8
枠・表
  6
CONTINUOUS
 62
     2
100
AcDbText
 10
235.0
 20
140.0
 30
0.0
 40
40.0
  1
11
 41
0.5
  7
EXCADSTD
 72
     5
 11
267.0
 21
140.0
 31
0.0
100
AcDbText
  0
TEXT
  5
E6
100
AcDbEntity
  8
枠・表
  6
CONTINUOUS
 62
     2
100
AcDbText
 10
1128.115173
 20
2535.673828
 30
0.0
 40
50.0
  1
ＪＬ２４２
 41
0.63168
  7
EXCADSTD
 72
     5
 11
1316.115185
 21
2535.673828
 31
0.0
100
AcDbText
  0
TEXT
  5
E7
100
AcDbEntity
  8
枠・表
  6
CONTINUOUS
 62
     7
100
AcDbText
 10
1452.000002
 20
151.5
 30
0.0
 40
70.0
  1
Ｌ０５５３０１３
 41
0.804
  7
EXCADSTD
 72
     5
 11
1987.999998
 21
151.5
 31
0.0
100
AcDbText
  0
TEXT
  5
E8
100
AcDbEntity
  8
枠・表
  6
CONTINUOUS
 62
     2
100
AcDbText
 10
1528.527405
 20
2661.635742
 30
0.0
 40
50.0
  1
洗面器
 41
0.7168
  7
EXCADSTD
 72
     5
 11
1656.52741
 21
2661.635742
 31
0.0
100
AcDbText
  0
LINE
  5
E9
100
AcDbEntity
  8
枠・表
  6
CONTINUOUS
 62
     6
100
AcDbLine
 10
1511.00293
 20
2786.635742
 30
0.0
 11
1511.00293
 21
2461.635742
 31
0.0
  0
TEXT
  5
EA
100
AcDbEntity
  8
枠・表
  6
CONTINUOUS
 62
     2
100
AcDbText
 10
1528.527405
 20
2596.635742
 30
0.0
 40
50.0
  1
固定金具
 41
0.7056
  7
EXCADSTD
 72
     5
 11
1696.527412
 21
2596.635742
 31
0.0
100
AcDbText
  0
TEXT
  5
EB
100
AcDbEntity
  8
枠・表
  6
CONTINUOUS
 62
     2
100
AcDbText
 10
1528.527405
 20
2466.635742
 30
0.0
 40
50.0
  1
排水上部
 41
0.7056
  7
EXCADSTD
 72
     5
 11
1696.527412
 21
2466.635742
 31
0.0
100
AcDbText
  0
TEXT
  5
EC
100
AcDbEntity
  8
枠・表
  6
CONTINUOUS
 62
     2
100
AcDbText
 10
1528.527405
 20
2271.635742
 30
0.0
 40
50.0
  1
Ｓトラップ
 41
0.69888
  7
EXCADSTD
 72
     5
 11
1736.527414
 21
2271.635742
 31
0.0
100
AcDbText
  0
TEXT
  5
ED
100
AcDbEntity
  8
枠・表
  6
CONTINUOUS
 62
     2
100
AcDbText
 10
1528.527405
 20
2336.635742
 30
0.0
 40
50.0
  1
Ｐトラップ
 41
0.69888
  7
EXCADSTD
 72
     5
 11
1736.527414
 21
2336.635742
 31
0.0
100
AcDbText
  0
TEXT
  5
EE
100
AcDbEntity
  8
枠・表
  6
CONTINUOUS
 62
     2
100
AcDbText
 10
1523.527405
 20
2206.635742
 30
0.0
 40
50.0
  1
ボトルトラップ
 41
0.6912
  7
EXCADSTD
 72
     5
 11
1811.527417
 21
2206.635742
 31
0.0
100
AcDbText
  0
TEXT
  5
EF
100
AcDbEntity
  8
枠・表
  6
CONTINUOUS
 62
     2
100
AcDbText
 10
1523.527405
 20
2141.635742
 30
0.0
 40
50.0
  1
配管アダプター
 41
0.6912
  7
EXCADSTD
 72
     5
 11
1811.527417
 21
2141.635742
 31
0.0
100
AcDbText
  0
TEXT
  5
F0
100
AcDbEntity
  8
枠・表
  6
CONTINUOUS
 62
     2
100
AcDbText
 10
1606.02002
 20
2726.635742
 30
0.0
 40
55.0
  1
品　　名
 41
0.687273
  7
EXCADSTD
 72
     5
 11
1786.02002
 21
2726.635742
 31
0.0
100
AcDbText
  0
LINE
  5
F1
100
AcDbEntity
  8
枠・表
  6
CONTINUOUS
 62
     6
100
AcDbLine
 10
1124.00293
 20
2071.635742
 30
0.0
 11
1959.00293
 21
2071.635742
 31
0.0
  0
LINE
  5
F2
100
AcDbEntity
  8
枠・表
  6
CONTINUOUS
 62
     6
100
AcDbLine
 10
1124.00293
 20
2006.635742
 30
0.0
 11
1959.00293
 21
2006.635742
 31
0.0
  0
LINE
  5
F3
100
AcDbEntity
  8
枠・表
  6
CONTINUOUS
 62
     6
100
AcDbLine
 10
1124.00293
 20
1941.635742
 30
0.0
 11
1959.00293
 21
1941.635742
 31
0.0
  0
TEXT
  5
F4
100
AcDbEntity
  8
枠・表
  6
CONTINUOUS
 62
     2
100
AcDbText
 10
1128.115173
 20
2014.346619
 30
0.0
 40
50.0
  1
ＮＬ２２１－７５ＷＭＹ
 41
0.557455
  7
EXCADSTD
 72
     5
 11
1493.115178
 21
2014.346619
 31
0.0
100
AcDbText
  0
TEXT
  5
F5
100
AcDbEntity
  8
枠・表
  6
CONTINUOUS
 62
     2
100
AcDbText
 10
1528.527405
 20
2011.635742
 30
0.0
 40
50.0
  1
アングル形止水栓
 41
0.6384
  7
EXCADSTD
 72
     5
 11
1832.527404
 21
2011.635742
 31
0.0
100
AcDbText
  0
TEXT
  5
F6
100
AcDbEntity
  8
枠・表
  6
CONTINUOUS
 62
     2
100
AcDbText
 10
1528.527405
 20
1946.635742
 30
0.0
 40
50.0
  1
ストレート形止水栓
 41
0.602933
  7
EXCADSTD
 72
     5
 11
1851.527421
 21
1946.635742
 31
0.0
100
AcDbText
  0
LINE
  5
F7
100
AcDbEntity
  8
枠・表
  6
CONTINUOUS
 62
     6
100
AcDbLine
 10
1124.00293
 20
2136.635742
 30
0.0
 11
1959.00293
 21
2136.635742
 31
0.0
  0
TEXT
  5
F8
100
AcDbEntity
  8
枠・表
  6
CONTINUOUS
 62
     2
100
AcDbText
 10
1128.115173
 20
1949.346619
 30
0.0
 40
50.0
  1
ＮＬ２１１－３３０ＷＭＹ
 41
0.5222
  7
EXCADSTD
 72
     5
 11
1501.115202
 21
1949.346619
 31
0.0
100
AcDbText
  0
LINE
  5
F9
100
AcDbEntity
  8
枠・表
  6
CONTINUOUS
 62
     6
100
AcDbLine
 10
1124.00293
 20
2396.635742
 30
0.0
 11
1124.00293
 21
2136.635742
 31
0.0
  0
LINE
  5
FA
100
AcDbEntity
  8
枠・表
  6
CONTINUOUS
 62
     6
100
AcDbLine
 10
1124.00293
 20
2071.635742
 30
0.0
 11
1124.00293
 21
1941.635742
 31
0.0
  0
LINE
  5
FB
100
AcDbEntity
  8
枠・表
  6
CONTINUOUS
 62
     6
100
AcDbLine
 10
1511.00293
 20
2396.635742
 30
0.0
 11
1511.00293
 21
2136.635742
 31
0.0
  0
LINE
  5
FC
100
AcDbEntity
  8
枠・表
  6
CONTINUOUS
 62
     6
100
AcDbLine
 10
1511.00293
 20
2071.635742
 30
0.0
 11
1511.00293
 21
1941.635742
 31
0.0
  0
LINE
  5
FD
100
AcDbEntity
  8
枠・表
  6
CONTINUOUS
 62
     6
100
AcDbLine
 10
1869.00293
 20
2396.635742
 30
0.0
 11
1869.00293
 21
2136.635742
 31
0.0
  0
LINE
  5
FE
100
AcDbEntity
  8
枠・表
  6
CONTINUOUS
 62
     6
100
AcDbLine
 10
1869.00293
 20
2071.635742
 30
0.0
 11
1869.00293
 21
1941.635742
 31
0.0
  0
LINE
  5
FF
100
AcDbEntity
  8
枠・表
  6
CONTINUOUS
 62
     6
100
AcDbLine
 10
1959.00293
 20
2396.635742
 30
0.0
 11
1959.00293
 21
2136.635742
 31
0.0
  0
LINE
  5
100
100
AcDbEntity
  8
枠・表
  6
CONTINUOUS
 62
     6
100
AcDbLine
 10
1959.00293
 20
2071.635742
 30
0.0
 11
1959.00293
 21
1941.635742
 31
0.0
  0
TEXT
  5
101
100
AcDbEntity
  8
枠・表
  6
CONTINUOUS
 62
     2
100
AcDbText
 10
1528.527405
 20
2531.635742
 30
0.0
 40
50.0
  1
水栓金具（共用形）
 41
0.653333
  7
EXCADSTD
 72
     5
 11
1878.527395
 21
2531.635742
 31
0.0
100
AcDbText
  0
TEXT
  5
102
100
AcDbEntity
  8
枠・表
  6
CONTINUOUS
 62
     2
100
AcDbText
 10
1128.115173
 20
2404.346619
 30
0.0
 40
50.0
  1
トラップ
 41
0.7056
  7
EXCADSTD
 72
     5
 11
1296.115181
 21
2404.346619
 31
0.0
100
AcDbText
  0
TEXT
  5
103
100
AcDbEntity
  8
枠・表
  6
CONTINUOUS
 62
     2
100
AcDbText
 10
1128.115173
 20
2079.346619
 30
0.0
 40
50.0
  1
止水栓
 41
0.7168
  7
EXCADSTD
 72
     5
 11
1256.115179
 21
2079.346619
 31
0.0
100
AcDbText
  0
TEXT
  5
104
100
AcDbEntity
  8
枠・表
  6
CONTINUOUS
 62
     2
100
AcDbText
 10
1201.40332
 20
2726.635742
 30
0.0
 40
55.0
  1
品　　番
 41
0.887727
  7
EXCADSTD
 72
     5
 11
1433.90332
 21
2726.635742
 31
0.0
100
AcDbText
  0
TEXT
  5
105
100
AcDbEntity
  8
枠・表
  6
CONTINUOUS
 62
     2
100
AcDbText
 10
1132.115173
 20
1808.346619
 30
0.0
 40
40.0
  1
本図は水あふれふち高さ８００で
 41
0.749
  7
EXCADSTD
 72
     5
 11
1667.115173
 21
1808.346619
 31
0.0
100
AcDbText
  0
TEXT
  5
106
100
AcDbEntity
  8
枠・表
  6
CONTINUOUS
 62
     2
100
AcDbText
 10
1132.115173
 20
1768.346619
 30
0.0
 40
40.0
  1
上記器具を組み合わせた場合の一例を示す。
 41
0.7455
  7
EXCADSTD
 72
     5
 11
1842.115173
 21
1768.346619
 31
0.0
100
AcDbText
  0
TEXT
  5
107
100
AcDbEntity
  8
枠・表
  6
CONTINUOUS
 62
     2
100
AcDbText
 10
1132.115173
 20
1728.346619
 30
0.0
 40
40.0
  1
止水栓、排水トラップは洗面器の取付位置に
 41
0.7455
  7
EXCADSTD
 72
     5
 11
1842.115173
 21
1728.346619
 31
0.0
100
AcDbText
  0
TEXT
  5
108
100
AcDbEntity
  8
枠・表
  6
CONTINUOUS
 62
     2
100
AcDbText
 10
1132.115173
 20
1688.346619
 30
0.0
 40
40.0
  1
応じ、適当なものを選択してください。
 41
0.746667
  7
EXCADSTD
 72
     5
 11
1772.115173
 21
1688.346619
 31
0.0
100
AcDbText
  0
TEXT
  5
109
100
AcDbEntity
  8
枠・表
  6
CONTINUOUS
 62
     2
100
AcDbText
 10
1128.115173
 20
2144.346619
 30
0.0
 40
50.0
  1
ＬＵＭＥＨ７０－２０－３２Ｂ
 41
0.4524
  7
EXCADSTD
 72
     5
 11
1505.115193
 21
2144.346619
 31
0.0
100
AcDbText
  0
TEXT
  5
10A
100
AcDbEntity
  8
枠・表
  6
CONTINUOUS
 62
     2
100
AcDbText
 10
1889.00293
 20
2016.847992
 30
0.0
 40
47.5
  1
２
 41
1.043368
  7
EXCADSTD
 72
     5
 11
1936.20293
 21
2016.847992
 31
0.0
100
AcDbText
  0
TEXT
  5
10B
100
AcDbEntity
  8
枠・表
  6
CONTINUOUS
 62
     2
100
AcDbText
 10
1889.00293
 20
1951.847992
 30
0.0
 40
47.5
  1
２
 41
1.043368
  7
EXCADSTD
 72
     5
 11
1936.20293
 21
1951.847992
 31
0.0
100
AcDbText
  0
LINE
  5
10C
100
AcDbEntity
  8
図
  6
CONTINUOUS
 62
     2
100
AcDbLine
 10
634.832611
 20
1143.0
 30
0.0
 11
659.832611
 21
1168.0
 31
0.0
  0
LINE
  5
10D
100
AcDbEntity
  8
図
  6
CONTINUOUS
 62
     2
100
AcDbLine
 10
663.116882
 20
1143.0
 30
0.0
 11
688.116882
 21
1168.0
 31
0.0
  0
LINE
  5
10E
100
AcDbEntity
  8
図
  6
CONTINUOUS
 62
     2
100
AcDbLine
 10
691.401154
 20
1143.0
 30
0.0
 11
716.401154
 21
1168.0
 31
0.0
  0
LINE
  5
10F
100
AcDbEntity
  8
図
  6
CONTINUOUS
 62
     2
100
AcDbLine
 10
747.969696
 20
1143.0
 30
0.0
 11
772.969696
 21
1168.0
 31
0.0
  0
LINE
  5
110
100
AcDbEntity
  8
図
  6
CONTINUOUS
 62
     2
100
AcDbLine
 10
776.253967
 20
1143.0
 30
0.0
 11
801.253967
 21
1168.0
 31
0.0
  0
LINE
  5
111
100
AcDbEntity
  8
図
  6
CONTINUOUS
 62
     2
100
AcDbLine
 10
804.538239
 20
1143.0
 30
0.0
 11
829.538239
 21
1168.0
 31
0.0
  0
LINE
  5
112
100
AcDbEntity
  8
図
  6
CONTINUOUS
 62
     2
100
AcDbLine
 10
832.82251
 20
1143.0
 30
0.0
 11
857.82251
 21
1168.0
 31
0.0
  0
LINE
  5
113
100
AcDbEntity
  8
図
  6
CONTINUOUS
 62
     2
100
AcDbLine
 10
861.106781
 20
1143.0
 30
0.0
 11
886.106781
 21
1168.0
 31
0.0
  0
LINE
  5
114
100
AcDbEntity
  8
図
  6
CONTINUOUS
 62
     2
100
AcDbLine
 10
889.391052
 20
1143.0
 30
0.0
 11
914.391052
 21
1168.0
 31
0.0
  0
LINE
  5
115
100
AcDbEntity
  8
図
  6
CONTINUOUS
 62
     2
100
AcDbLine
 10
210.568542
 20
1143.0
 30
0.0
 11
235.568542
 21
1168.0
 31
0.0
  0
LINE
  5
116
100
AcDbEntity
  8
図
  6
CONTINUOUS
 62
     2
100
AcDbLine
 10
238.852814
 20
1143.0
 30
0.0
 11
263.852814
 21
1168.0
 31
0.0
  0
LINE
  5
117
100
AcDbEntity
  8
図
  6
CONTINUOUS
 62
     2
100
AcDbLine
 10
267.137085
 20
1143.0
 30
0.0
 11
292.137085
 21
1168.0
 31
0.0
  0
LINE
  5
118
100
AcDbEntity
  8
図
  6
CONTINUOUS
 62
     2
100
AcDbLine
 10
295.421356
 20
1143.0
 30
0.0
 11
320.421356
 21
1168.0
 31
0.0
  0
LINE
  5
119
100
AcDbEntity
  8
図
  6
CONTINUOUS
 62
     2
100
AcDbLine
 10
323.705627
 20
1143.0
 30
0.0
 11
348.705627
 21
1168.0
 31
0.0
  0
LINE
  5
11A
100
AcDbEntity
  8
図
  6
CONTINUOUS
 62
     2
100
AcDbLine
 10
351.989899
 20
1143.0
 30
0.0
 11
376.989899
 21
1168.0
 31
0.0
  0
LINE
  5
11B
100
AcDbEntity
  8
図
  6
CONTINUOUS
 62
     2
100
AcDbLine
 10
380.27417
 20
1143.0
 30
0.0
 11
405.27417
 21
1168.0
 31
0.0
  0
LINE
  5
11C
100
AcDbEntity
  8
図
  6
CONTINUOUS
 62
     2
100
AcDbLine
 10
408.558441
 20
1143.0
 30
0.0
 11
433.558441
 21
1168.0
 31
0.0
  0
LINE
  5
11D
100
AcDbEntity
  8
図
  6
CONTINUOUS
 62
     2
100
AcDbLine
 10
436.842712
 20
1143.0
 30
0.0
 11
461.842712
 21
1168.0
 31
0.0
  0
LINE
  5
11E
100
AcDbEntity
  8
図
  6
CONTINUOUS
 62
     2
100
AcDbLine
 10
465.126984
 20
1143.0
 30
0.0
 11
490.126984
 21
1168.0
 31
0.0
  0
LINE
  5
11F
100
AcDbEntity
  8
図
  6
CONTINUOUS
 62
     2
100
AcDbLine
 10
493.411255
 20
1143.0
 30
0.0
 11
518.411255
 21
1168.0
 31
0.0
  0
LINE
  5
120
100
AcDbEntity
  8
図
  6
CONTINUOUS
 62
     2
100
AcDbLine
 10
521.695526
 20
1143.0
 30
0.0
 11
546.695526
 21
1168.0
 31
0.0
  0
LINE
  5
121
100
AcDbEntity
  8
図
  6
CONTINUOUS
 62
     2
100
AcDbLine
 10
549.979797
 20
1143.0
 30
0.0
 11
574.979797
 21
1168.0
 31
0.0
  0
LINE
  5
122
100
AcDbEntity
  8
図
  6
CONTINUOUS
 62
     2
100
AcDbLine
 10
578.264069
 20
1143.0
 30
0.0
 11
603.264069
 21
1168.0
 31
0.0
  0
LINE
  5
123
100
AcDbEntity
  8
図
  6
CONTINUOUS
 62
     2
100
AcDbLine
 10
606.54834
 20
1143.0
 30
0.0
 11
631.54834
 21
1168.0
 31
0.0
  0
LINE
  5
124
100
AcDbEntity
  8
図
  6
CONTINUOUS
 62
     2
100
AcDbLine
 10
719.685425
 20
1143.0
 30
0.0
 11
744.685425
 21
1168.0
 31
0.0
  0
DIMENSION
  5
12F
100
AcDbEntity
  8
図
  6
CONTINUOUS
 62
     2
100
AcDbDimension
  2
*D15
 10
1085.0
 20
508.0
 30
0.0
 11
1061.5
 21
908.0
 31
0.0
 70
   160
  1
800
  3
STANDARD
100
AcDbAlignedDimension
 13
819.005492
 23
1308.0
 33
0.0
 14
1074.0
 24
508.0
 34
0.0
 50
90.0
100
AcDbRotatedDimension
1001
ACAD
1000
DSTYLE
1002
{
1070
     6
1000
_EX_NORM
1070
     7
1000
_EX_NORM
1070
    41
1040
30.0
1070
    42
1040
5.0
1070
    44
1040
10.0
1070
    73
1070
     0
1070
    74
1070
     0
1070
    75
1070
     0
1070
    76
1070
     1
1070
    77
1070
     1
1070
    78
1070
     8
1070
   140
1040
40.0
1070
   147
1040
3.5
1070
   173
1070
     1
1070
   176
1070
     3
1070
   177
1070
     3
1070
   178
1070
     2
1070
   271
1070
     2
1070
   279
1070
     2
1070
   280
1070
     0
1070
   287
1070
     5
1070
   340
1005
B5
1002
}
  0
DIMENSION
  5
139
100
AcDbEntity
  8
図
  6
CONTINUOUS
 62
     3
100
AcDbDimension
  2
*D16
 10
1029.0
 20
1308.0
 30
0.0
 11
1005.5
 21
1238.0
 31
0.0
 70
   160
  3
STANDARD
100
AcDbAlignedDimension
 13
928.0
 23
1168.0
 33
0.0
 14
994.0
 24
1308.0
 34
0.0
 50
90.0
100
AcDbRotatedDimension
1001
ACAD
1000
DSTYLE
1002
{
1070
     6
1000
_EX_NORM
1070
     7
1000
_EX_NORM
1070
    41
1040
30.0
1070
    42
1040
0.0
1070
    44
1040
0.0
1070
    73
1070
     0
1070
    74
1070
     0
1070
    75
1070
     1
1070
    76
1070
     1
1070
    77
1070
     1
1070
    78
1070
     8
1070
   140
1040
40.0
1070
   147
1040
3.5
1070
   173
1070
     1
1070
   176
1070
     3
1070
   177
1070
     3
1070
   178
1070
     2
1070
   271
1070
     2
1070
   279
1070
     2
1070
   280
1070
     0
1070
   287
1070
     5
1070
   340
1005
B5
1002
}
  0
DIMENSION
  5
143
100
AcDbEntity
  8
図
  6
CONTINUOUS
 62
     3
100
AcDbDimension
  2
*D17
 10
1029.0
 20
508.0
 30
0.0
 11
1005.5
 21
838.0
 31
0.0
 70
   160
  3
STANDARD
100
AcDbAlignedDimension
 13
994.0
 23
1168.0
 33
0.0
 14
994.0
 24
508.0
 34
0.0
 50
90.0
100
AcDbRotatedDimension
1001
ACAD
1000
DSTYLE
1002
{
1070
     6
1000
_EX_NORM
1070
     7
1000
_EX_NORM
1070
    41
1040
30.0
1070
    42
1040
0.0
1070
    44
1040
0.0
1070
    73
1070
     0
1070
    74
1070
     0
1070
    75
1070
     1
1070
    76
1070
     1
1070
    77
1070
     1
1070
    78
1070
     8
1070
   140
1040
40.0
1070
   147
1040
3.5
1070
   173
1070
     1
1070
   176
1070
     3
1070
   177
1070
     3
1070
   178
1070
     2
1070
   271
1070
     2
1070
   279
1070
     2
1070
   280
1070
     0
1070
   287
1070
     5
1070
   340
1005
B5
1002
}
  0
DIMENSION
  5
150
100
AcDbEntity
  8
図
  6
CONTINUOUS
 62
     3
100
AcDbDimension
  2
*D18
 10
773.00293
 20
2470.0
 30
0.0
 11
532.00293
 21
2493.5
 31
0.0
 70
   160
  3
STANDARD
100
AcDbAlignedDimension
 13
297.00293
 23
2232.5
 33
0.0
 14
773.00293
 24
2232.5
 34
0.0
100
AcDbRotatedDimension
1001
ACAD
1000
DSTYLE
1002
{
1070
     6
1000
_EX_NORM
1070
     7
1000
_EX_NORM
1070
    41
1040
30.0
1070
    42
1040
5.0
1070
    44
1040
10.0
1070
    73
1070
     0
1070
    74
1070
     0
1070
    75
1070
     0
1070
    76
1070
     0
1070
    77
1070
     1
1070
    78
1070
     8
1070
   140
1040
40.0
1070
   147
1040
3.5
1070
   173
1070
     1
1070
   176
1070
     3
1070
   177
1070
     3
1070
   178
1070
     2
1070
   271
1070
     2
1070
   279
1070
     2
1070
   280
1070
     0
1070
   287
1070
     5
1070
   340
1005
14F
1002
}
  0
DIMENSION
  5
15C
100
AcDbEntity
  8
図
  6
CONTINUOUS
 62
     3
100
AcDbDimension
  2
*D19
 10
635.00293
 20
2407.0
 30
0.0
 11
532.00293
 21
2430.5
 31
0.0
 70
   160
  3
STANDARD
100
AcDbAlignedDimension
 13
435.00293
 23
2310.0
 33
0.0
 14
635.00293
 24
2310.0
 34
0.0
100
AcDbRotatedDimension
1001
ACAD
1000
DSTYLE
1002
{
1070
     6
1000
_EX_NORM
1070
     7
1000
_EX_NORM
1070
    41
1040
30.0
1070
    42
1040
5.0
1070
    44
1040
10.0
1070
    73
1070
     0
1070
    74
1070
     0
1070
    75
1070
     0
1070
    76
1070
     0
1070
    77
1070
     1
1070
    78
1070
     8
1070
   140
1040
40.0
1070
   147
1040
3.5
1070
   173
1070
     1
1070
   176
1070
     3
1070
   177
1070
     3
1070
   178
1070
     2
1070
   271
1070
     2
1070
   279
1070
     2
1070
   280
1070
     0
1070
   287
1070
     5
1070
   340
1005
14F
1002
}
  0
DIMENSION
  5
168
100
AcDbEntity
  8
図
  6
CONTINUOUS
 62
     3
100
AcDbDimension
  2
*D20
 10
722.00293
 20
2008.0
 30
0.0
 11
698.50293
 21
2150.0
 31
0.0
 70
   160
  3
STANDARD
100
AcDbAlignedDimension
 13
637.00293
 23
2308.0
 33
0.0
 14
637.00293
 24
2008.0
 34
0.0
 50
90.0
100
AcDbRotatedDimension
1001
ACAD
1000
DSTYLE
1002
{
1070
     6
1000
_EX_NORM
1070
     7
1000
_EX_NORM
1070
    41
1040
30.0
1070
    42
1040
5.0
1070
    44
1040
10.0
1070
    73
1070
     0
1070
    74
1070
     0
1070
    75
1070
     0
1070
    76
1070
     0
1070
    77
1070
     1
1070
    78
1070
     8
1070
   140
1040
40.0
1070
   147
1040
3.5
1070
   173
1070
     1
1070
   176
1070
     3
1070
   177
1070
     3
1070
   178
1070
     2
1070
   271
1070
     2
1070
   279
1070
     2
1070
   280
1070
     0
1070
   287
1070
     5
1070
   340
1005
14F
1002
}
  0
TEXT
  5
169
100
AcDbEntity
  8
図
  6
CONTINUOUS
 62
     2
100
AcDbText
 10
718.50293
 20
2378.0
 30
0.0
 40
40.0
  1
４０
 50
90.0
 41
0.756
  7
EXCADSTD
 72
     5
 11
718.50293
 21
2443.9952
 31
0.0
100
AcDbText
  0
LINE
  5
16A
100
AcDbEntity
  8
図
  6
CONTINUOUS
 62
     3
100
AcDbLine
 10
722.00293
 20
2278.0
 30
0.0
 11
722.00293
 21
2461.500004
 31
0.0
  0
LINE
  5
16B
100
AcDbEntity
  8
図
  6
CONTINUOUS
 62
     3
100
AcDbLine
 10
727.00293
 20
2278.0
 30
0.0
 11
722.00293
 21
2308.0
 31
0.0
  0
LINE
  5
16C
100
AcDbEntity
  8
図
  6
CONTINUOUS
 62
     3
100
AcDbLine
 10
722.00293
 20
2308.0
 30
0.0
 11
717.00293
 21
2278.0
 31
0.0
  0
LINE
  5
16D
100
AcDbEntity
  8
図
  6
CONTINUOUS
 62
     3
100
AcDbLine
 10
717.00293
 20
2378.0
 30
0.0
 11
722.00293
 21
2348.0
 31
0.0
  0
LINE
  5
16E
100
AcDbEntity
  8
図
  6
CONTINUOUS
 62
     3
100
AcDbLine
 10
722.00293
 20
2348.0
 30
0.0
 11
727.00293
 21
2378.0
 31
0.0
  0
DIMENSION
  5
17A
100
AcDbEntity
  8
図
  6
CONTINUOUS
 62
     3
100
AcDbDimension
  2
*D21
 10
864.00293
 20
2028.0
 30
0.0
 11
840.50293
 21
2126.5
 31
0.0
 70
   160
  3
STANDARD
100
AcDbAlignedDimension
 13
782.50293
 23
2223.0
 33
0.0
 14
782.50293
 24
2028.0
 34
0.0
 50
90.0
100
AcDbRotatedDimension
1001
ACAD
1000
DSTYLE
1002
{
1070
     6
1000
_EX_NORM
1070
     7
1000
_EX_NORM
1070
    41
1040
30.0
1070
    42
1040
5.0
1070
    44
1040
10.0
1070
    73
1070
     0
1070
    74
1070
     0
1070
    75
1070
     0
1070
    76
1070
     0
1070
    77
1070
     1
1070
    78
1070
     8
1070
   140
1040
40.0
1070
   147
1040
3.5
1070
   173
1070
     1
1070
   176
1070
     3
1070
   177
1070
     3
1070
   178
1070
     2
1070
   271
1070
     2
1070
   279
1070
     2
1070
   280
1070
     0
1070
   287
1070
     5
1070
   340
1005
14F
1002
}
  0
TEXT
  5
17B
100
AcDbEntity
  8
図
  6
CONTINUOUS
 62
     2
100
AcDbText
 10
860.50293
 20
2234.5
 30
0.0
 40
40.0
  1
１２５
 50
90.0
 41
0.728
  7
EXCADSTD
 72
     5
 11
860.50293
 21
2338.5
 31
0.0
100
AcDbText
  0
LINE
  5
17C
100
AcDbEntity
  8
図
  6
CONTINUOUS
 62
     3
100
AcDbLine
 10
864.00293
 20
2223.0
 30
0.0
 11
864.00293
 21
2348.0
 31
0.0
  0
LINE
  5
17D
100
AcDbEntity
  8
図
  6
CONTINUOUS
 62
     3
100
AcDbLine
 10
859.00293
 20
2253.0
 30
0.0
 11
864.00293
 21
2223.0
 31
0.0
  0
LINE
  5
17E
100
AcDbEntity
  8
図
  6
CONTINUOUS
 62
     3
100
AcDbLine
 10
864.00293
 20
2223.0
 30
0.0
 11
869.00293
 21
2253.0
 31
0.0
  0
LINE
  5
17F
100
AcDbEntity
  8
図
  6
CONTINUOUS
 62
     3
100
AcDbLine
 10
869.00293
 20
2318.0
 30
0.0
 11
864.00293
 21
2348.0
 31
0.0
  0
LINE
  5
180
100
AcDbEntity
  8
図
  6
CONTINUOUS
 62
     3
100
AcDbLine
 10
864.00293
 20
2348.0
 30
0.0
 11
859.00293
 21
2318.0
 31
0.0
  0
DIMENSION
  5
189
100
AcDbEntity
  8
図
  6
CONTINUOUS
 62
     3
100
AcDbDimension
  2
*D22
 10
820.50293
 20
1952.0
 30
0.0
 11
909.502929
 21
1975.5
 31
0.0
 70
   160
 52
-122.005383
  1
4－%%c15
  3
STANDARD
100
AcDbAlignedDimension
 13
776.977922
 23
2021.640013
 33
0.0
 14
1001.00293
 24
1952.0
 34
0.0
 50
122.005383
100
AcDbRotatedDimension
1001
ACAD
1000
DSTYLE
1002
{
1070
     6
1000
_EX_NORM
1070
     7
1000
_EX_NONE
1070
    41
1040
30.0
1070
    42
1040
5.0
1070
    44
1040
0.0
1070
    73
1070
     0
1070
    74
1070
     0
1070
    75
1070
     1
1070
    76
1070
     0
1070
    77
1070
     1
1070
    78
1070
     8
1070
   140
1040
40.0
1070
   147
1040
3.5
1070
   173
1070
     1
1070
   176
1070
     3
1070
   177
1070
     3
1070
   178
1070
     2
1070
   271
1070
     2
1070
   279
1070
     2
1070
   280
1070
     0
1070
   287
1070
     5
1070
   340
1005
14F
1002
}
  0
DIMENSION
  5
194
100
AcDbEntity
  8
図
  6
CONTINUOUS
 62
     3
100
AcDbDimension
  2
*D23
 10
1666.99999
 20
729.0
 30
0.0
 11
1549.49999
 21
752.5
 31
0.0
 70
   160
  3
STANDARD
100
AcDbAlignedDimension
 13
1431.99999
 23
929.0
 33
0.0
 14
1666.99999
 24
887.7
 34
0.0
100
AcDbRotatedDimension
1001
ACAD
1000
DSTYLE
1002
{
1070
     6
1000
_EX_NORM
1070
     7
1000
_EX_NORM
1070
    41
1040
30.0
1070
    42
1040
5.0
1070
    44
1040
10.0
1070
    73
1070
     0
1070
    74
1070
     0
1070
    75
1070
     0
1070
    76
1070
     1
1070
    77
1070
     1
1070
    78
1070
     8
1070
   140
1040
40.0
1070
   147
1040
3.5
1070
   173
1070
     1
1070
   176
1070
     3
1070
   177
1070
     3
1070
   178
1070
     2
1070
   271
1070
     2
1070
   279
1070
     2
1070
   280
1070
     0
1070
   287
1070
     5
1070
   340
1005
14F
1002
}
  0
LINE
  5
195
100
AcDbEntity
  8
図
  6
CONTINUOUS
 62
     6
100
AcDbLine
 10
760.50293
 20
2223.0
 30
0.0
 11
785.50293
 21
2223.0
 31
0.0
  0
LINE
  5
196
100
AcDbEntity
  8
図
  6
CONTINUOUS
 62
     6
100
AcDbLine
 10
760.50293
 20
2028.0
 30
0.0
 11
785.50293
 21
2028.0
 31
0.0
  0
LINE
  5
197
100
AcDbEntity
  8
図
  6
EXLTYPE3
 62
     6
100
AcDbLine
 10
773.00293
 20
2235.5
 30
0.0
 11
773.00293
 21
2015.5
 31
0.0
  0
LINE
  5
198
100
AcDbEntity
  8
図
  6
CONTINUOUS
 62
     6
100
AcDbLine
 10
309.50293
 20
2223.0
 30
0.0
 11
284.50293
 21
2223.0
 31
0.0
  0
LINE
  5
199
100
AcDbEntity
  8
図
  6
CONTINUOUS
 62
     6
100
AcDbLine
 10
309.50293
 20
2028.0
 30
0.0
 11
284.50293
 21
2028.0
 31
0.0
  0
LINE
  5
19A
100
AcDbEntity
  8
図
  6
EXLTYPE3
 62
     6
100
AcDbLine
 10
297.00293
 20
2235.5
 30
0.0
 11
297.00293
 21
2015.5
 31
0.0
  0
CIRCLE
  5
19B
100
AcDbEntity
  8
図
  6
CONTINUOUS
 62
     7
100
AcDbCircle
 10
297.00293
 20
2223.0
 30
0.0
 40
7.5
  0
CIRCLE
  5
19C
100
AcDbEntity
  8
図
  6
CONTINUOUS
 62
     7
100
AcDbCircle
 10
297.00293
 20
2028.0
 30
0.0
 40
7.5
  0
CIRCLE
  5
19D
100
AcDbEntity
  8
図
  6
CONTINUOUS
 62
     7
100
AcDbCircle
 10
773.00293
 20
2223.0
 30
0.0
 40
7.5
  0
CIRCLE
  5
19E
100
AcDbEntity
  8
図
  6
CONTINUOUS
 62
     7
100
AcDbCircle
 10
773.00293
 20
2028.0
 30
0.0
 40
7.5
  0
LINE
  5
19F
100
AcDbEntity
  8
図
  6
CONTINUOUS
 62
     7
100
AcDbLine
 10
635.00293
 20
2308.0
 30
0.0
 11
635.00293
 21
2008.0
 31
0.0
  0
LINE
  5
1A0
100
AcDbEntity
  8
図
  6
CONTINUOUS
 62
     7
100
AcDbLine
 10
435.00293
 20
2008.0
 30
0.0
 11
635.00293
 21
2008.0
 31
0.0
  0
LINE
  5
1A1
100
AcDbEntity
  8
図
  6
CONTINUOUS
 62
     7
100
AcDbLine
 10
435.00293
 20
2308.0
 30
0.0
 11
435.00293
 21
2008.0
 31
0.0
  0
LINE
  5
1A2
100
AcDbEntity
  8
図
  6
CONTINUOUS
 62
     7
100
AcDbLine
 10
435.00293
 20
2308.0
 30
0.0
 11
635.00293
 21
2308.0
 31
0.0
  0
LINE
  5
1A3
100
AcDbEntity
  8
図
  6
CONTINUOUS
 62
     7
100
AcDbLine
 10
253.00293
 20
2348.0
 30
0.0
 11
1025.00293
 21
2348.0
 31
0.0
  0
LINE
  5
1A4
100
AcDbEntity
  8
図
  6
CONTINUOUS
 62
     2
100
AcDbLine
 10
253.00293
 20
1898.0
 30
0.0
 11
1025.00293
 21
1898.0
 31
0.0
  0
LINE
  5
1A5
100
AcDbEntity
  8
図
  6
CONTINUOUS
 62
     3
100
AcDbLine
 10
642.00293
 20
2308.0
 30
0.0
 11
732.00293
 21
2308.0
 31
0.0
  0
LINE
  5
1A6
100
AcDbEntity
  8
図
  6
CONTINUOUS
 62
     3
100
AcDbLine
 10
787.50293
 20
2223.0
 30
0.0
 11
874.00293
 21
2223.0
 31
0.0
  0
LINE
  5
1A7
100
AcDbEntity
  8
図
  6
CONTINUOUS
 62
     3
100
AcDbLine
 10
808.00293
 20
2348.0
 30
0.0
 11
837.00293
 21
2402.0
 31
0.0
  0
LINE
  5
1A8
100
AcDbEntity
  8
図
  6
CONTINUOUS
 62
     3
100
AcDbLine
 10
808.00293
 20
2348.0
 30
0.0
 11
817.791757
 21
2376.795466
 31
0.0
  0
LINE
  5
1A9
100
AcDbEntity
  8
図
  6
CONTINUOUS
 62
     3
100
AcDbLine
 10
808.00293
 20
2348.0
 30
0.0
 11
826.601701
 21
2372.0642
 31
0.0
  0
TEXT
  5
1AA
100
AcDbEntity
  8
図
  6
CONTINUOUS
 62
     2
100
AcDbText
 10
845.00293
 20
2405.5
 30
0.0
 40
40.0
  1
壁側
 41
0.756
  7
EXCADSTD
 72
     5
 11
910.99813
 21
2405.5
 31
0.0
100
AcDbText
  0
LINE
  5
1AB
100
AcDbEntity
  8
図
  6
CONTINUOUS
 62
     3
100
AcDbLine
 10
837.00293
 20
2402.0
 30
0.0
 11
919.00293
 21
2402.0
 31
0.0
  0
TEXT
  5
1AC
100
AcDbEntity
  8
図
  6
CONTINUOUS
 62
     2
100
AcDbText
 10
229.00293
 20
2535.0
 30
0.0
 40
50.0
  1
カウンター　穴加工寸法
 41
0.687273
  7
EXCADSTD
 72
     5
 11
679.00293
 21
2535.0
 31
0.0
100
AcDbText
  0
LINE
  5
1AD
100
AcDbEntity
  8
図
  6
EXLTYPE3
 62
     6
100
AcDbLine
 10
535.00293
 20
2358.0
 30
0.0
 11
535.00293
 21
1888.0
 31
0.0
  0
LINE
  5
1AE
100
AcDbEntity
  8
図
  6
CONTINUOUS
 62
     6
100
AcDbLine
 10
224.00293
 20
1870.0
 30
0.0
 11
224.00293
 21
2597.0
 31
0.0
  0
LINE
  5
1AF
100
AcDbEntity
  8
図
  6
CONTINUOUS
 62
     6
100
AcDbLine
 10
224.00293
 20
2597.0
 30
0.0
 11
1059.00293
 21
2597.0
 31
0.0
  0
LINE
  5
1B0
100
AcDbEntity
  8
図
  6
CONTINUOUS
 62
     6
100
AcDbLine
 10
224.00293
 20
1870.0
 30
0.0
 11
1059.00293
 21
1870.0
 31
0.0
  0
LINE
  5
1B1
100
AcDbEntity
  8
図
  6
CONTINUOUS
 62
     6
100
AcDbLine
 10
1059.00293
 20
1870.0
 30
0.0
 11
1059.00293
 21
2597.0
 31
0.0
  0
DIMENSION
  5
1BD
100
AcDbEntity
  8
図
  6
CONTINUOUS
 62
     3
100
AcDbDimension
  2
*D24
 10
971.0
 20
1143.0
 30
0.0
 11
947.5
 21
1003.0
 31
0.0
 70
   160
  1
（10～25）
  3
STANDARD
100
AcDbAlignedDimension
 13
928.0
 23
1168.0
 33
0.0
 14
928.0
 24
1143.0
 34
0.0
 50
90.0
100
AcDbRotatedDimension
1001
ACAD
1000
DSTYLE
1002
{
1070
     6
1000
_EX_NORM
1070
     7
1000
_EX_NORM
1070
    41
1040
30.0
1070
    42
1040
5.0
1070
    44
1040
75.999999
1070
    73
1070
     0
1070
    74
1070
     0
1070
    75
1070
     0
1070
    76
1070
     0
1070
    77
1070
     1
1070
    78
1070
     8
1070
   140
1040
40.0
1070
   147
1040
3.5
1070
   173
1070
     1
1070
   176
1070
     3
1070
   177
1070
     3
1070
   178
1070
     2
1070
   271
1070
     2
1070
   279
1070
     2
1070
   280
1070
     2
1070
   287
1070
     5
1070
   340
1005
14F
1002
}
  0
TEXT
  5
1BE
100
AcDbEntity
  8
図
  6
CONTINUOUS
 62
     2
100
AcDbText
 10
1696.99999
 20
396.5
 30
0.0
 40
40.0
  1
１３０
 41
0.7
  7
EXCADSTD
 72
     5
 11
1796.99999
 21
396.5
 31
0.0
100
AcDbText
  0
TEXT
  5
1BF
100
AcDbEntity
  8
図
  6
CONTINUOUS
 62
     2
100
AcDbText
 10
1791.99999
 20
396.5
 30
0.0
 40
31.999998
  1
（Ｓトラップ）
 41
0.66
  7
EXCADSTD
 72
     5
 11
1967.99998
 21
396.5
 31
0.0
100
AcDbText
  0
LINE
  5
1C0
100
AcDbEntity
  8
図
  6
CONTINUOUS
 62
     3
100
AcDbLine
 10
1506.99999
 20
393.0
 30
0.0
 11
1966.499998
 21
393.0
 31
0.0
  0
LINE
  5
1C1
100
AcDbEntity
  8
図
  6
CONTINUOUS
 62
     3
100
AcDbLine
 10
1506.99999
 20
388.0
 30
0.0
 11
1536.99999
 21
393.0
 31
0.0
  0
LINE
  5
1C2
100
AcDbEntity
  8
図
  6
CONTINUOUS
 62
     3
100
AcDbLine
 10
1536.99999
 20
393.0
 30
0.0
 11
1506.99999
 21
398.0
 31
0.0
  0
LINE
  5
1C3
100
AcDbEntity
  8
図
  6
CONTINUOUS
 62
     3
100
AcDbLine
 10
1696.99999
 20
398.0
 30
0.0
 11
1666.99999
 21
393.0
 31
0.0
  0
LINE
  5
1C4
100
AcDbEntity
  8
図
  6
CONTINUOUS
 62
     3
100
AcDbLine
 10
1666.99999
 20
393.0
 30
0.0
 11
1696.99999
 21
388.0
 31
0.0
  0
LINE
  5
1C5
100
AcDbEntity
  8
図
  6
CONTINUOUS
 62
     3
100
AcDbLine
 10
1666.99999
 20
502.9
 30
0.0
 11
1666.99999
 21
383.0
 31
0.0
  0
LINE
  5
1C6
100
AcDbEntity
  8
図
  6
CONTINUOUS
 62
     3
100
AcDbLine
 10
1536.99999
 20
465.6
 30
0.0
 11
1536.99999
 21
383.0
 31
0.0
  0
TEXT
  5
1C7
100
AcDbEntity
  8
図
  6
CONTINUOUS
 62
     2
100
AcDbText
 10
1719.431467
 20
777.417905
 30
0.0
 40
40.0
  1
ＶＰ･ＶＵ５０
 41
0.653306
  7
EXCADSTD
 72
     5
 11
1931.431466
 21
777.417905
 31
0.0
100
AcDbText
  0
LEADER
  5
1C8
100
AcDbEntity
  8
図
  6
CONTINUOUS
 62
     3
100
AcDbLeader
  3
STANDARD
 73
     3
 74
     1
 75
     0
 40
0.0
 76
     3
 10
1682.994213
 20
877.5
 30
0.0
 10
1728.0
 20
773.917905
 30
0.0
 10
1924.0
 20
773.917905
 30
0.0
 77
     3
1001
ACAD
1000
DSTYLE
1002
{
1070
    41
1040
30.0
1070
     5
1000
_EX_NORM
1070
     6
1000
_EX_NORM
1070
     7
1000
_EX_NORM
1070
   341
1005
28
1002
}
  0
TEXT
  5
1C9
100
AcDbEntity
  8
図
  6
CONTINUOUS
 62
     2
100
AcDbText
 10
1708.49999
 20
692.5
 30
0.0
 40
40.0
  1
Ｒ１/２
 41
0.638
  7
EXCADSTD
 72
     5
 11
1824.49999
 21
692.5
 31
0.0
100
AcDbText
  0
LEADER
  5
1CA
100
AcDbEntity
  8
図
  6
CONTINUOUS
 62
     3
100
AcDbLeader
  3
STANDARD
 73
     3
 74
     1
 75
     0
 40
0.0
 76
     3
 10
1670.864944
 20
847.61493
 30
0.0
 10
1709.77349
 20
689.0
 30
0.0
 10
1822.0
 20
689.0
 30
0.0
 77
     3
1001
ACAD
1000
DSTYLE
1002
{
1070
    41
1040
30.0
1070
     5
1000
_EX_NORM
1070
     6
1000
_EX_NORM
1070
     7
1000
_EX_NORM
1070
   341
1005
28
1002
}
  0
ARC
  5
1CB
100
AcDbEntity
  8
図
  6
CONTINUOUS
 62
     7
100
AcDbCircle
 10
278.994628
 20
1303.0
 30
0.0
 40
5.0
100
AcDbArc
 50
90.000003
 51
179.985716
  0
ARC
  5
1CC
100
AcDbEntity
  8
図
  6
CONTINUOUS
 62
     7
100
AcDbCircle
 10
3273.994504
 20
1302.25348
 30
0.0
 40
3000.0
100
AcDbArc
 50
179.985716
 51
182.473449
  0
ARC
  5
1CD
100
AcDbEntity
  8
図
  6
CONTINUOUS
 62
     7
100
AcDbCircle
 10
281.784788
 20
1173.0
 30
0.0
 40
5.0
100
AcDbArc
 50
182.473449
 51
270.0
  0
ARC
  5
1CE
100
AcDbEntity
  8
図
  6
CONTINUOUS
 62
     7
100
AcDbCircle
 10
816.215208
 20
1173.0
 30
0.0
 40
5.0
100
AcDbArc
 50
270.0
 51
357.526553
  0
ARC
  5
1CF
100
AcDbEntity
  8
図
  6
CONTINUOUS
 62
     7
100
AcDbCircle
 10
-2175.994388
 20
1302.25348
 30
0.0
 40
3000.0
100
AcDbArc
 50
357.526553
 51
0.014271
  0
ARC
  5
1D0
100
AcDbEntity
  8
図
  6
CONTINUOUS
 62
     7
100
AcDbCircle
 10
819.005492
 20
1303.0
 30
0.0
 40
5.0
100
AcDbArc
 50
0.014282
 51
90.000003
  0
LINE
  5
1D1
100
AcDbEntity
  8
図
  6
CONTINUOUS
 62
     7
100
AcDbLine
 10
278.994628
 20
1308.0
 30
0.0
 11
819.005492
 21
1308.0
 31
0.0
  0
LINE
  5
1D2
100
AcDbEntity
  8
図
  6
CONTINUOUS
 62
     7
100
AcDbLine
 10
281.784788
 20
1168.0
 30
0.0
 11
816.215208
 21
1168.0
 31
0.0
  0
LINE
  5
1D3
100
AcDbEntity
  8
図
  6
CONTINUOUS
 62
     7
100
AcDbLine
 10
513.093748
 20
1133.0
 30
0.0
 11
585.076416
 21
1133.0
 31
0.0
  0
ARC
  5
1D4
100
AcDbEntity
  8
図
  6
CONTINUOUS
 62
     7
100
AcDbCircle
 10
512.923584
 20
1138.0
 30
0.0
 40
5.0
100
AcDbArc
 50
187.000006
 51
270.0
  0
ARC
  5
1D5
100
AcDbEntity
  8
図
  6
CONTINUOUS
 62
     7
100
AcDbCircle
 10
585.076416
 20
1138.0
 30
0.0
 40
5.0
100
AcDbArc
 50
270.0
 51
352.999995
  0
LINE
  5
1D6
100
AcDbEntity
  8
図
  6
CONTINUOUS
 62
     2
100
AcDbLine
 10
569.25
 20
1110.6
 30
0.0
 11
529.25
 21
1110.6
 31
0.0
  0
LINE
  5
1D7
100
AcDbEntity
  8
図
  6
CONTINUOUS
 62
     2
100
AcDbLine
 10
529.25
 20
1110.6
 30
0.0
 11
529.25
 21
1073.1
 31
0.0
  0
LINE
  5
1D8
100
AcDbEntity
  8
図
  6
CONTINUOUS
 62
     2
100
AcDbLine
 10
565.25
 20
1071.1
 30
0.0
 11
533.25
 21
1071.1
 31
0.0
  0
LINE
  5
1D9
100
AcDbEntity
  8
図
  6
CONTINUOUS
 62
     2
100
AcDbLine
 10
533.25
 20
1071.1
 30
0.0
 11
529.25
 21
1073.1
 31
0.0
  0
ARC
  5
1DA
100
AcDbEntity
  8
図
  6
CONTINUOUS
 62
     2
100
AcDbCircle
 10
531.25
 20
1114.1
 30
0.0
 40
3.5
100
AcDbArc
 50
90.0
 51
270.0
  0
ARC
  5
1DB
100
AcDbEntity
  8
図
  6
CONTINUOUS
 62
     2
100
AcDbCircle
 10
567.25
 20
1114.1
 30
0.0
 40
3.5
100
AcDbArc
 50
270.0
 51
90.0
  0
LINE
  5
1DC
100
AcDbEntity
  8
図
  6
CONTINUOUS
 62
     2
100
AcDbLine
 10
567.25
 20
1110.6
 30
0.0
 11
531.25
 21
1110.6
 31
0.0
  0
LINE
  5
1DD
100
AcDbEntity
  8
図
  6
CONTINUOUS
 62
     2
100
AcDbLine
 10
567.25
 20
1117.6
 30
0.0
 11
531.25
 21
1117.6
 31
0.0
  0
LINE
  5
1DE
100
AcDbEntity
  8
図
  6
CONTINUOUS
 62
     2
100
AcDbLine
 10
523.75
 20
1125.6
 30
0.0
 11
574.75
 21
1125.6
 31
0.0
  0
LINE
  5
1DF
100
AcDbEntity
  8
図
  6
CONTINUOUS
 62
     2
100
AcDbLine
 10
523.25
 20
1126.1
 30
0.0
 11
523.25
 21
1127.1
 31
0.0
  0
LINE
  5
1E0
100
AcDbEntity
  8
図
  6
CONTINUOUS
 62
     2
100
AcDbLine
 10
528.282256
 20
1119.1
 30
0.0
 11
528.282256
 21
1125.6
 31
0.0
  0
LINE
  5
1E1
100
AcDbEntity
  8
図
  6
CONTINUOUS
 62
     2
100
AcDbLine
 10
575.25
 20
1126.1
 30
0.0
 11
575.25
 21
1127.1
 31
0.0
  0
LINE
  5
1E2
100
AcDbEntity
  8
図
  6
CONTINUOUS
 62
     2
100
AcDbLine
 10
570.217736
 20
1119.1
 30
0.0
 11
570.217736
 21
1125.6
 31
0.0
  0
LINE
  5
1E3
100
AcDbEntity
  8
図
  6
CONTINUOUS
 62
     2
100
AcDbLine
 10
523.25
 20
1127.1
 30
0.0
 11
575.25
 21
1127.1
 31
0.0
  0
LINE
  5
1E4
100
AcDbEntity
  8
図
  6
CONTINUOUS
 62
     2
100
AcDbLine
 10
528.782256
 20
1118.6
 30
0.0
 11
569.717736
 21
1118.6
 31
0.0
  0
ARC
  5
1E5
100
AcDbEntity
  8
図
  6
CONTINUOUS
 62
     2
100
AcDbCircle
 10
523.75
 20
1126.1
 30
0.0
 40
0.5
100
AcDbArc
 50
180.0
 51
270.0
  0
ARC
  5
1E6
100
AcDbEntity
  8
図
  6
CONTINUOUS
 62
     2
100
AcDbCircle
 10
574.75
 20
1126.1
 30
0.0
 40
0.5
100
AcDbArc
 50
270.0
 51
0.0
  0
ARC
  5
1E7
100
AcDbEntity
  8
図
  6
CONTINUOUS
 62
     2
100
AcDbCircle
 10
528.782256
 20
1119.1
 30
0.0
 40
0.5
100
AcDbArc
 50
180.0
 51
270.0
  0
ARC
  5
1E8
100
AcDbEntity
  8
図
  6
CONTINUOUS
 62
     2
100
AcDbCircle
 10
569.717736
 20
1119.1
 30
0.0
 40
0.5
100
AcDbArc
 50
270.0
 51
0.0
  0
LINE
  5
1E9
100
AcDbEntity
  8
図
  6
CONTINUOUS
 62
     2
100
AcDbLine
 10
521.75
 20
1127.5
 30
0.0
 11
576.75
 21
1127.5
 31
0.0
  0
LINE
  5
1EA
100
AcDbEntity
  8
図
  6
CONTINUOUS
 62
     2
100
AcDbLine
 10
566.75
 20
1118.6
 30
0.0
 11
566.75
 21
1117.6
 31
0.0
  0
LINE
  5
1EB
100
AcDbEntity
  8
図
  6
CONTINUOUS
 62
     2
100
AcDbLine
 10
531.75
 20
1118.6
 30
0.0
 11
531.75
 21
1117.6
 31
0.0
  0
LINE
  5
1EC
100
AcDbEntity
  8
図
  6
CONTINUOUS
 62
     2
100
AcDbLine
 10
521.75
 20
1128.5
 30
0.0
 11
576.75
 21
1128.5
 31
0.0
  0
LINE
  5
1ED
100
AcDbEntity
  8
図
  6
CONTINUOUS
 62
     2
100
AcDbLine
 10
521.75
 20
1130.0
 30
0.0
 11
576.75
 21
1130.0
 31
0.0
  0
LINE
  5
1EE
100
AcDbEntity
  8
図
  6
CONTINUOUS
 62
     2
100
AcDbLine
 10
565.25
 20
1071.1
 30
0.0
 11
569.25
 21
1073.1
 31
0.0
  0
LINE
  5
1EF
100
AcDbEntity
  8
図
  6
CONTINUOUS
 62
     2
100
AcDbLine
 10
569.25
 20
1073.1
 30
0.0
 11
529.25
 21
1073.1
 31
0.0
  0
LINE
  5
1F0
100
AcDbEntity
  8
図
  6
CONTINUOUS
 62
     2
100
AcDbLine
 10
569.25
 20
1110.6
 30
0.0
 11
569.25
 21
1073.1
 31
0.0
  0
POLYLINE
  5
1F1
100
AcDbEntity
  8
図
  6
CONTINUOUS
 62
     6
100
AcDb2dPolyline
 66
     1
 10
0.0
 20
0.0
 30
0.0
 70
   128
  0
VERTEX
  5
1F2
100
AcDbEntity
  8
図
  6
CONTINUOUS
 62
     6
100
AcDbVertex
100
AcDb2dVertex
 10
527.834808
 20
1114.100204
 30
0.0
  0
VERTEX
  5
1F3
100
AcDbEntity
  8
図
  6
CONTINUOUS
 62
     6
100
AcDbVertex
100
AcDb2dVertex
 10
527.846946
 20
1113.8344
 30
0.0
  0
VERTEX
  5
1F4
100
AcDbEntity
  8
図
  6
CONTINUOUS
 62
     6
100
AcDbVertex
100
AcDb2dVertex
 10
527.88174
 20
1113.576546
 30
0.0
  0
VERTEX
  5
1F5
100
AcDbEntity
  8
図
  6
CONTINUOUS
 62
     6
100
AcDbVertex
100
AcDb2dVertex
 10
527.936292
 20
1113.33489
 30
0.0
  0
VERTEX
  5
1F6
100
AcDbEntity
  8
図
  6
CONTINUOUS
 62
     6
100
AcDbVertex
100
AcDb2dVertex
 10
528.007064
 20
1113.1104
 30
0.0
  0
VERTEX
  5
1F7
100
AcDbEntity
  8
図
  6
CONTINUOUS
 62
     6
100
AcDbVertex
100
AcDb2dVertex
 10
528.102764
 20
1112.87821
 30
0.0
  0
VERTEX
  5
1F8
100
AcDbEntity
  8
図
  6
CONTINUOUS
 62
     6
100
AcDbVertex
100
AcDb2dVertex
 10
528.211394
 20
1112.668298
 30
0.0
  0
VERTEX
  5
1F9
100
AcDbEntity
  8
図
  6
CONTINUOUS
 62
     6
100
AcDbVertex
100
AcDb2dVertex
 10
528.329238
 20
1112.480126
 30
0.0
  0
VERTEX
  5
1FA
100
AcDbEntity
  8
図
  6
CONTINUOUS
 62
     6
100
AcDbVertex
100
AcDb2dVertex
 10
528.55821
 20
1112.187612
 30
0.0
  0
VERTEX
  5
1FB
100
AcDbEntity
  8
図
  6
CONTINUOUS
 62
     6
100
AcDbVertex
100
AcDb2dVertex
 10
528.802738
 20
1111.94589
 30
0.0
  0
VERTEX
  5
1FC
100
AcDbEntity
  8
図
  6
CONTINUOUS
 62
     6
100
AcDbVertex
100
AcDb2dVertex
 10
529.056316
 20
1111.746556
 30
0.0
  0
VERTEX
  5
1FD
100
AcDbEntity
  8
図
  6
CONTINUOUS
 62
     6
100
AcDbVertex
100
AcDb2dVertex
 10
529.447242
 20
1111.50519
 30
0.0
  0
VERTEX
  5
1FE
100
AcDbEntity
  8
図
  6
CONTINUOUS
 62
     6
100
AcDbVertex
100
AcDb2dVertex
 10
529.84657
 20
1111.320906
 30
0.0
  0
VERTEX
  5
1FF
100
AcDbEntity
  8
図
  6
CONTINUOUS
 62
     6
100
AcDbVertex
100
AcDb2dVertex
 10
530.252012
 20
1111.184806
 30
0.0
  0
VERTEX
  5
200
100
AcDbEntity
  8
図
  6
CONTINUOUS
 62
     6
100
AcDbVertex
100
AcDb2dVertex
 10
530.661284
 20
1111.087986
 30
0.0
  0
VERTEX
  5
201
100
AcDbEntity
  8
図
  6
CONTINUOUS
 62
     6
100
AcDbVertex
100
AcDb2dVertex
 10
531.072104
 20
1111.021546
 30
0.0
  0
VERTEX
  5
202
100
AcDbEntity
  8
図
  6
CONTINUOUS
 62
     6
100
AcDbVertex
100
AcDb2dVertex
 10
531.482184
 20
1110.976586
 30
0.0
  0
VERTEX
  5
203
100
AcDbEntity
  8
図
  6
CONTINUOUS
 62
     6
100
AcDbVertex
100
AcDb2dVertex
 10
532.071524
 20
1110.940952
 30
0.0
  0
VERTEX
  5
204
100
AcDbEntity
  8
図
  6
CONTINUOUS
 62
     6
100
AcDbVertex
100
AcDb2dVertex
 10
532.661268
 20
1110.941178
 30
0.0
  0
VERTEX
  5
205
100
AcDbEntity
  8
図
  6
CONTINUOUS
 62
     6
100
AcDbVertex
100
AcDb2dVertex
 10
533.2506
 20
1110.977296
 30
0.0
  0
VERTEX
  5
206
100
AcDbEntity
  8
図
  6
CONTINUOUS
 62
     6
100
AcDbVertex
100
AcDb2dVertex
 10
533.864344
 20
1111.05707
 30
0.0
  0
VERTEX
  5
207
100
AcDbEntity
  8
図
  6
CONTINUOUS
 62
     6
100
AcDbVertex
100
AcDb2dVertex
 10
534.47534
 20
1111.195294
 30
0.0
  0
VERTEX
  5
208
100
AcDbEntity
  8
図
  6
CONTINUOUS
 62
     6
100
AcDbVertex
100
AcDb2dVertex
 10
534.812402
 20
1111.303774
 30
0.0
  0
VERTEX
  5
209
100
AcDbEntity
  8
図
  6
CONTINUOUS
 62
     6
100
AcDbVertex
100
AcDb2dVertex
 10
535.147218
 20
1111.442582
 30
0.0
  0
VERTEX
  5
20A
100
AcDbEntity
  8
図
  6
CONTINUOUS
 62
     6
100
AcDbVertex
100
AcDb2dVertex
 10
535.476952
 20
1111.619844
 30
0.0
  0
VERTEX
  5
20B
100
AcDbEntity
  8
図
  6
CONTINUOUS
 62
     6
100
AcDbVertex
100
AcDb2dVertex
 10
535.798766
 20
1111.843678
 30
0.0
  0
VERTEX
  5
20C
100
AcDbEntity
  8
図
  6
CONTINUOUS
 62
     6
100
AcDbVertex
100
AcDb2dVertex
 10
536.032716
 20
1112.048528
 30
0.0
  0
VERTEX
  5
20D
100
AcDbEntity
  8
図
  6
CONTINUOUS
 62
     6
100
AcDbVertex
100
AcDb2dVertex
 10
536.256626
 20
1112.293542
 30
0.0
  0
VERTEX
  5
20E
100
AcDbEntity
  8
図
  6
CONTINUOUS
 62
     6
100
AcDbVertex
100
AcDb2dVertex
 10
536.399188
 20
1112.485028
 30
0.0
  0
VERTEX
  5
20F
100
AcDbEntity
  8
図
  6
CONTINUOUS
 62
     6
100
AcDbVertex
100
AcDb2dVertex
 10
536.53265
 20
1112.701986
 30
0.0
  0
VERTEX
  5
210
100
AcDbEntity
  8
図
  6
CONTINUOUS
 62
     6
100
AcDbVertex
100
AcDb2dVertex
 10
536.65279
 20
1112.946264
 30
0.0
  0
VERTEX
  5
211
100
AcDbEntity
  8
図
  6
CONTINUOUS
 62
     6
100
AcDbVertex
100
AcDb2dVertex
 10
536.744372
 20
1113.187092
 30
0.0
  0
VERTEX
  5
212
100
AcDbEntity
  8
図
  6
CONTINUOUS
 62
     6
100
AcDbVertex
100
AcDb2dVertex
 10
536.817722
 20
1113.451294
 30
0.0
  0
VERTEX
  5
213
100
AcDbEntity
  8
図
  6
CONTINUOUS
 62
     6
100
AcDbVertex
100
AcDb2dVertex
 10
536.862842
 20
1113.700428
 30
0.0
  0
VERTEX
  5
214
100
AcDbEntity
  8
図
  6
CONTINUOUS
 62
     6
100
AcDbVertex
100
AcDb2dVertex
 10
536.886902
 20
1113.960774
 30
0.0
  0
VERTEX
  5
215
100
AcDbEntity
  8
図
  6
CONTINUOUS
 62
     6
100
AcDbVertex
100
AcDb2dVertex
 10
536.890192
 20
1114.100204
 30
0.0
  0
VERTEX
  5
216
100
AcDbEntity
  8
図
  6
CONTINUOUS
 62
     6
100
AcDbVertex
100
AcDb2dVertex
 10
536.878038
 20
1114.365804
 30
0.0
  0
VERTEX
  5
217
100
AcDbEntity
  8
図
  6
CONTINUOUS
 62
     6
100
AcDbVertex
100
AcDb2dVertex
 10
536.84326
 20
1114.62346
 30
0.0
  0
VERTEX
  5
218
100
AcDbEntity
  8
図
  6
CONTINUOUS
 62
     6
100
AcDbVertex
100
AcDb2dVertex
 10
536.788708
 20
1114.865118
 30
0.0
  0
VERTEX
  5
219
100
AcDbEntity
  8
図
  6
CONTINUOUS
 62
     6
100
AcDbVertex
100
AcDb2dVertex
 10
536.717936
 20
1115.089608
 30
0.0
  0
VERTEX
  5
21A
100
AcDbEntity
  8
図
  6
CONTINUOUS
 62
     6
100
AcDbVertex
100
AcDb2dVertex
 10
536.622236
 20
1115.321798
 30
0.0
  0
VERTEX
  5
21B
100
AcDbEntity
  8
図
  6
CONTINUOUS
 62
     6
100
AcDbVertex
100
AcDb2dVertex
 10
536.513606
 20
1115.531708
 30
0.0
  0
VERTEX
  5
21C
100
AcDbEntity
  8
図
  6
CONTINUOUS
 62
     6
100
AcDbVertex
100
AcDb2dVertex
 10
536.395762
 20
1115.719882
 30
0.0
  0
VERTEX
  5
21D
100
AcDbEntity
  8
図
  6
CONTINUOUS
 62
     6
100
AcDbVertex
100
AcDb2dVertex
 10
536.16679
 20
1116.012396
 30
0.0
  0
VERTEX
  5
21E
100
AcDbEntity
  8
図
  6
CONTINUOUS
 62
     6
100
AcDbVertex
100
AcDb2dVertex
 10
535.922262
 20
1116.254116
 30
0.0
  0
VERTEX
  5
21F
100
AcDbEntity
  8
図
  6
CONTINUOUS
 62
     6
100
AcDbVertex
100
AcDb2dVertex
 10
535.668686
 20
1116.45345
 30
0.0
  0
VERTEX
  5
220
100
AcDbEntity
  8
図
  6
CONTINUOUS
 62
     6
100
AcDbVertex
100
AcDb2dVertex
 10
535.277758
 20
1116.694818
 30
0.0
  0
VERTEX
  5
221
100
AcDbEntity
  8
図
  6
CONTINUOUS
 62
     6
100
AcDbVertex
100
AcDb2dVertex
 10
534.87843
 20
1116.8791
 30
0.0
  0
VERTEX
  5
222
100
AcDbEntity
  8
図
  6
CONTINUOUS
 62
     6
100
AcDbVertex
100
AcDb2dVertex
 10
534.472988
 20
1117.015202
 30
0.0
  0
VERTEX
  5
223
100
AcDbEntity
  8
図
  6
CONTINUOUS
 62
     6
100
AcDbVertex
100
AcDb2dVertex
 10
534.063716
 20
1117.112022
 30
0.0
  0
VERTEX
  5
224
100
AcDbEntity
  8
図
  6
CONTINUOUS
 62
     6
100
AcDbVertex
100
AcDb2dVertex
 10
533.652896
 20
1117.178462
 30
0.0
  0
VERTEX
  5
225
100
AcDbEntity
  8
図
  6
CONTINUOUS
 62
     6
100
AcDbVertex
100
AcDb2dVertex
 10
533.242818
 20
1117.223422
 30
0.0
  0
VERTEX
  5
226
100
AcDbEntity
  8
図
  6
CONTINUOUS
 62
     6
100
AcDbVertex
100
AcDb2dVertex
 10
532.653478
 20
1117.259056
 30
0.0
  0
VERTEX
  5
227
100
AcDbEntity
  8
図
  6
CONTINUOUS
 62
     6
100
AcDbVertex
100
AcDb2dVertex
 10
532.063732
 20
1117.25883
 30
0.0
  0
VERTEX
  5
228
100
AcDbEntity
  8
図
  6
CONTINUOUS
 62
     6
100
AcDbVertex
100
AcDb2dVertex
 10
531.4744
 20
1117.22271
 30
0.0
  0
VERTEX
  5
229
100
AcDbEntity
  8
図
  6
CONTINUOUS
 62
     6
100
AcDbVertex
100
AcDb2dVertex
 10
530.860658
 20
1117.142938
 30
0.0
  0
VERTEX
  5
22A
100
AcDbEntity
  8
図
  6
CONTINUOUS
 62
     6
100
AcDbVertex
100
AcDb2dVertex
 10
530.24966
 20
1117.004714
 30
0.0
  0
VERTEX
  5
22B
100
AcDbEntity
  8
図
  6
CONTINUOUS
 62
     6
100
AcDbVertex
100
AcDb2dVertex
 10
529.912598
 20
1116.896234
 30
0.0
  0
VERTEX
  5
22C
100
AcDbEntity
  8
図
  6
CONTINUOUS
 62
     6
100
AcDbVertex
100
AcDb2dVertex
 10
529.577782
 20
1116.757426
 30
0.0
  0
VERTEX
  5
22D
100
AcDbEntity
  8
図
  6
CONTINUOUS
 62
     6
100
AcDbVertex
100
AcDb2dVertex
 10
529.248048
 20
1116.580164
 30
0.0
  0
VERTEX
  5
22E
100
AcDbEntity
  8
図
  6
CONTINUOUS
 62
     6
100
AcDbVertex
100
AcDb2dVertex
 10
528.926234
 20
1116.356328
 30
0.0
  0
VERTEX
  5
22F
100
AcDbEntity
  8
図
  6
CONTINUOUS
 62
     6
100
AcDbVertex
100
AcDb2dVertex
 10
528.692284
 20
1116.15148
 30
0.0
  0
VERTEX
  5
230
100
AcDbEntity
  8
図
  6
CONTINUOUS
 62
     6
100
AcDbVertex
100
AcDb2dVertex
 10
528.468374
 20
1115.906464
 30
0.0
  0
VERTEX
  5
231
100
AcDbEntity
  8
図
  6
CONTINUOUS
 62
     6
100
AcDbVertex
100
AcDb2dVertex
 10
528.325812
 20
1115.71498
 30
0.0
  0
VERTEX
  5
232
100
AcDbEntity
  8
図
  6
CONTINUOUS
 62
     6
100
AcDbVertex
100
AcDb2dVertex
 10
528.19235
 20
1115.498022
 30
0.0
  0
VERTEX
  5
233
100
AcDbEntity
  8
図
  6
CONTINUOUS
 62
     6
100
AcDbVertex
100
AcDb2dVertex
 10
528.07221
 20
1115.253742
 30
0.0
  0
VERTEX
  5
234
100
AcDbEntity
  8
図
  6
CONTINUOUS
 62
     6
100
AcDbVertex
100
AcDb2dVertex
 10
527.98063
 20
1115.012916
 30
0.0
  0
VERTEX
  5
235
100
AcDbEntity
  8
図
  6
CONTINUOUS
 62
     6
100
AcDbVertex
100
AcDb2dVertex
 10
527.907278
 20
1114.748714
 30
0.0
  0
VERTEX
  5
236
100
AcDbEntity
  8
図
  6
CONTINUOUS
 62
     6
100
AcDbVertex
100
AcDb2dVertex
 10
527.862158
 20
1114.49958
 30
0.0
  0
VERTEX
  5
237
100
AcDbEntity
  8
図
  6
CONTINUOUS
 62
     6
100
AcDbVertex
100
AcDb2dVertex
 10
527.838098
 20
1114.239234
 30
0.0
  0
VERTEX
  5
238
100
AcDbEntity
  8
図
  6
CONTINUOUS
 62
     6
100
AcDbVertex
100
AcDb2dVertex
 10
527.834808
 20
1114.100204
 30
0.0
  0
SEQEND
  5
239
100
AcDbEntity
  8
図
  6
CONTINUOUS
 62
     6
  0
POLYLINE
  5
23A
100
AcDbEntity
  8
図
  6
CONTINUOUS
 62
     6
100
AcDb2dPolyline
 66
     1
 10
0.0
 20
0.0
 30
0.0
 70
   128
  0
VERTEX
  5
23B
100
AcDbEntity
  8
図
  6
CONTINUOUS
 62
     6
100
AcDbVertex
100
AcDb2dVertex
 10
549.249996
 20
1110.937726
 30
0.0
  0
VERTEX
  5
23C
100
AcDbEntity
  8
図
  6
CONTINUOUS
 62
     6
100
AcDbVertex
100
AcDb2dVertex
 10
549.834264
 20
1110.94151
 30
0.0
  0
VERTEX
  5
23D
100
AcDbEntity
  8
図
  6
CONTINUOUS
 62
     6
100
AcDbVertex
100
AcDb2dVertex
 10
550.418428
 20
1110.953598
 30
0.0
  0
VERTEX
  5
23E
100
AcDbEntity
  8
図
  6
CONTINUOUS
 62
     6
100
AcDbVertex
100
AcDb2dVertex
 10
551.002438
 20
1110.974954
 30
0.0
  0
VERTEX
  5
23F
100
AcDbEntity
  8
図
  6
CONTINUOUS
 62
     6
100
AcDbVertex
100
AcDb2dVertex
 10
551.585972
 20
1111.006714
 30
0.0
  0
VERTEX
  5
240
100
AcDbEntity
  8
図
  6
CONTINUOUS
 62
     6
100
AcDbVertex
100
AcDb2dVertex
 10
552.168502
 20
1111.04994
 30
0.0
  0
VERTEX
  5
241
100
AcDbEntity
  8
図
  6
CONTINUOUS
 62
     6
100
AcDbVertex
100
AcDb2dVertex
 10
552.749996
 20
1111.105332
 30
0.0
  0
VERTEX
  5
242
100
AcDbEntity
  8
図
  6
CONTINUOUS
 62
     6
100
AcDbVertex
100
AcDb2dVertex
 10
553.464676
 20
1111.192144
 30
0.0
  0
VERTEX
  5
243
100
AcDbEntity
  8
図
  6
CONTINUOUS
 62
     6
100
AcDbVertex
100
AcDb2dVertex
 10
554.177784
 20
1111.305858
 30
0.0
  0
VERTEX
  5
244
100
AcDbEntity
  8
図
  6
CONTINUOUS
 62
     6
100
AcDbVertex
100
AcDb2dVertex
 10
554.88355
 20
1111.455166
 30
0.0
  0
VERTEX
  5
245
100
AcDbEntity
  8
図
  6
CONTINUOUS
 62
     6
100
AcDbVertex
100
AcDb2dVertex
 10
555.576208
 20
1111.64876
 30
0.0
  0
VERTEX
  5
246
100
AcDbEntity
  8
図
  6
CONTINUOUS
 62
     6
100
AcDbVertex
100
AcDb2dVertex
 10
556.249996
 20
1111.895332
 30
0.0
  0
VERTEX
  5
247
100
AcDbEntity
  8
図
  6
CONTINUOUS
 62
     6
100
AcDbVertex
100
AcDb2dVertex
 10
556.69134
 20
1112.098572
 30
0.0
  0
VERTEX
  5
248
100
AcDbEntity
  8
図
  6
CONTINUOUS
 62
     6
100
AcDbVertex
100
AcDb2dVertex
 10
557.113524
 20
1112.340342
 30
0.0
  0
VERTEX
  5
249
100
AcDbEntity
  8
図
  6
CONTINUOUS
 62
     6
100
AcDbVertex
100
AcDb2dVertex
 10
557.504054
 20
1112.627066
 30
0.0
  0
VERTEX
  5
24A
100
AcDbEntity
  8
図
  6
CONTINUOUS
 62
     6
100
AcDbVertex
100
AcDb2dVertex
 10
557.760384
 20
1112.868546
 30
0.0
  0
VERTEX
  5
24B
100
AcDbEntity
  8
図
  6
CONTINUOUS
 62
     6
100
AcDbVertex
100
AcDb2dVertex
 10
557.982678
 20
1113.141124
 30
0.0
  0
VERTEX
  5
24C
100
AcDbEntity
  8
図
  6
CONTINUOUS
 62
     6
100
AcDbVertex
100
AcDb2dVertex
 10
558.10699
 20
1113.343904
 30
0.0
  0
VERTEX
  5
24D
100
AcDbEntity
  8
図
  6
CONTINUOUS
 62
     6
100
AcDbVertex
100
AcDb2dVertex
 10
558.205522
 20
1113.56126
 30
0.0
  0
VERTEX
  5
24E
100
AcDbEntity
  8
図
  6
CONTINUOUS
 62
     6
100
AcDbVertex
100
AcDb2dVertex
 10
558.272442
 20
1113.788918
 30
0.0
  0
VERTEX
  5
24F
100
AcDbEntity
  8
図
  6
CONTINUOUS
 62
     6
100
AcDbVertex
100
AcDb2dVertex
 10
558.303858
 20
1114.038924
 30
0.0
  0
VERTEX
  5
250
100
AcDbEntity
  8
図
  6
CONTINUOUS
 62
     6
100
AcDbVertex
100
AcDb2dVertex
 10
558.29304
 20
1114.290628
 30
0.0
  0
VERTEX
  5
251
100
AcDbEntity
  8
図
  6
CONTINUOUS
 62
     6
100
AcDbVertex
100
AcDb2dVertex
 10
558.240162
 20
1114.536392
 30
0.0
  0
VERTEX
  5
252
100
AcDbEntity
  8
図
  6
CONTINUOUS
 62
     6
100
AcDbVertex
100
AcDb2dVertex
 10
558.150018
 20
1114.771262
 30
0.0
  0
VERTEX
  5
253
100
AcDbEntity
  8
図
  6
CONTINUOUS
 62
     6
100
AcDbVertex
100
AcDb2dVertex
 10
557.971402
 20
1115.0747
 30
0.0
  0
VERTEX
  5
254
100
AcDbEntity
  8
図
  6
CONTINUOUS
 62
     6
100
AcDbVertex
100
AcDb2dVertex
 10
557.746342
 20
1115.346302
 30
0.0
  0
VERTEX
  5
255
100
AcDbEntity
  8
図
  6
CONTINUOUS
 62
     6
100
AcDbVertex
100
AcDb2dVertex
 10
557.469596
 20
1115.601758
 30
0.0
  0
VERTEX
  5
256
100
AcDbEntity
  8
図
  6
CONTINUOUS
 62
     6
100
AcDbVertex
100
AcDb2dVertex
 10
557.164938
 20
1115.825702
 30
0.0
  0
VERTEX
  5
257
100
AcDbEntity
  8
図
  6
CONTINUOUS
 62
     6
100
AcDbVertex
100
AcDb2dVertex
 10
556.841798
 20
1116.020994
 30
0.0
  0
VERTEX
  5
258
100
AcDbEntity
  8
図
  6
CONTINUOUS
 62
     6
100
AcDbVertex
100
AcDb2dVertex
 10
556.337092
 20
1116.268718
 30
0.0
  0
VERTEX
  5
259
100
AcDbEntity
  8
図
  6
CONTINUOUS
 62
     6
100
AcDbVertex
100
AcDb2dVertex
 10
555.811414
 20
1116.47284
 30
0.0
  0
VERTEX
  5
25A
100
AcDbEntity
  8
図
  6
CONTINUOUS
 62
     6
100
AcDbVertex
100
AcDb2dVertex
 10
555.271714
 20
1116.640186
 30
0.0
  0
VERTEX
  5
25B
100
AcDbEntity
  8
図
  6
CONTINUOUS
 62
     6
100
AcDbVertex
100
AcDb2dVertex
 10
554.72494
 20
1116.777582
 30
0.0
  0
VERTEX
  5
25C
100
AcDbEntity
  8
図
  6
CONTINUOUS
 62
     6
100
AcDbVertex
100
AcDb2dVertex
 10
554.23048
 20
1116.881046
 30
0.0
  0
VERTEX
  5
25D
100
AcDbEntity
  8
図
  6
CONTINUOUS
 62
     6
100
AcDbVertex
100
AcDb2dVertex
 10
553.732862
 20
1116.96825
 30
0.0
  0
VERTEX
  5
25E
100
AcDbEntity
  8
図
  6
CONTINUOUS
 62
     6
100
AcDbVertex
100
AcDb2dVertex
 10
553.23222
 20
1117.04079
 30
0.0
  0
VERTEX
  5
25F
100
AcDbEntity
  8
図
  6
CONTINUOUS
 62
     6
100
AcDbVertex
100
AcDb2dVertex
 10
552.729844
 20
1117.100076
 30
0.0
  0
VERTEX
  5
260
100
AcDbEntity
  8
図
  6
CONTINUOUS
 62
     6
100
AcDbVertex
100
AcDb2dVertex
 10
552.225704
 20
1117.147712
 30
0.0
  0
VERTEX
  5
261
100
AcDbEntity
  8
図
  6
CONTINUOUS
 62
     6
100
AcDbVertex
100
AcDb2dVertex
 10
551.720706
 20
1117.185208
 30
0.0
  0
VERTEX
  5
262
100
AcDbEntity
  8
図
  6
CONTINUOUS
 62
     6
100
AcDbVertex
100
AcDb2dVertex
 10
551.215666
 20
1117.21409
 30
0.0
  0
VERTEX
  5
263
100
AcDbEntity
  8
図
  6
CONTINUOUS
 62
     6
100
AcDbVertex
100
AcDb2dVertex
 10
550.71026
 20
1117.2358
 30
0.0
  0
VERTEX
  5
264
100
AcDbEntity
  8
図
  6
CONTINUOUS
 62
     6
100
AcDbVertex
100
AcDb2dVertex
 10
550.021122
 20
1117.255608
 30
0.0
  0
VERTEX
  5
265
100
AcDbEntity
  8
図
  6
CONTINUOUS
 62
     6
100
AcDbVertex
100
AcDb2dVertex
 10
549.331752
 20
1117.263914
 30
0.0
  0
VERTEX
  5
266
100
AcDbEntity
  8
図
  6
CONTINUOUS
 62
     6
100
AcDbVertex
100
AcDb2dVertex
 10
548.642146
 20
1117.260004
 30
0.0
  0
VERTEX
  5
267
100
AcDbEntity
  8
図
  6
CONTINUOUS
 62
     6
100
AcDbVertex
100
AcDb2dVertex
 10
547.952734
 20
1117.24321
 30
0.0
  0
VERTEX
  5
268
100
AcDbEntity
  8
図
  6
CONTINUOUS
 62
     6
100
AcDbVertex
100
AcDb2dVertex
 10
547.264062
 20
1117.21298
 30
0.0
  0
VERTEX
  5
269
100
AcDbEntity
  8
図
  6
CONTINUOUS
 62
     6
100
AcDbVertex
100
AcDb2dVertex
 10
546.576132
 20
1117.169092
 30
0.0
  0
VERTEX
  5
26A
100
AcDbEntity
  8
図
  6
CONTINUOUS
 62
     6
100
AcDbVertex
100
AcDb2dVertex
 10
545.768988
 20
1117.09861
 30
0.0
  0
VERTEX
  5
26B
100
AcDbEntity
  8
図
  6
CONTINUOUS
 62
     6
100
AcDbVertex
100
AcDb2dVertex
 10
544.962534
 20
1117.000526
 30
0.0
  0
VERTEX
  5
26C
100
AcDbEntity
  8
図
  6
CONTINUOUS
 62
     6
100
AcDbVertex
100
AcDb2dVertex
 10
544.162332
 20
1116.864884
 30
0.0
  0
VERTEX
  5
26D
100
AcDbEntity
  8
図
  6
CONTINUOUS
 62
     6
100
AcDbVertex
100
AcDb2dVertex
 10
543.373948
 20
1116.681728
 30
0.0
  0
VERTEX
  5
26E
100
AcDbEntity
  8
図
  6
CONTINUOUS
 62
     6
100
AcDbVertex
100
AcDb2dVertex
 10
542.602946
 20
1116.441104
 30
0.0
  0
VERTEX
  5
26F
100
AcDbEntity
  8
図
  6
CONTINUOUS
 62
     6
100
AcDbVertex
100
AcDb2dVertex
 10
542.097228
 20
1116.23941
 30
0.0
  0
VERTEX
  5
270
100
AcDbEntity
  8
図
  6
CONTINUOUS
 62
     6
100
AcDbVertex
100
AcDb2dVertex
 10
541.610106
 20
1115.994814
 30
0.0
  0
VERTEX
  5
271
100
AcDbEntity
  8
図
  6
CONTINUOUS
 62
     6
100
AcDbVertex
100
AcDb2dVertex
 10
541.155016
 20
1115.698844
 30
0.0
  0
VERTEX
  5
272
100
AcDbEntity
  8
図
  6
CONTINUOUS
 62
     6
100
AcDbVertex
100
AcDb2dVertex
 10
540.86955
 20
1115.461
 30
0.0
  0
VERTEX
  5
273
100
AcDbEntity
  8
図
  6
CONTINUOUS
 62
     6
100
AcDbVertex
100
AcDb2dVertex
 10
540.615984
 20
1115.189982
 30
0.0
  0
VERTEX
  5
274
100
AcDbEntity
  8
図
  6
CONTINUOUS
 62
     6
100
AcDbVertex
100
AcDb2dVertex
 10
540.469268
 20
1114.986364
 30
0.0
  0
VERTEX
  5
275
100
AcDbEntity
  8
図
  6
CONTINUOUS
 62
     6
100
AcDbVertex
100
AcDb2dVertex
 10
540.347776
 20
1114.765886
 30
0.0
  0
VERTEX
  5
276
100
AcDbEntity
  8
図
  6
CONTINUOUS
 62
     6
100
AcDbVertex
100
AcDb2dVertex
 10
540.258364
 20
1114.532094
 30
0.0
  0
VERTEX
  5
277
100
AcDbEntity
  8
図
  6
CONTINUOUS
 62
     6
100
AcDbVertex
100
AcDb2dVertex
 10
540.20631
 20
1114.283616
 30
0.0
  0
VERTEX
  5
278
100
AcDbEntity
  8
図
  6
CONTINUOUS
 62
     6
100
AcDbVertex
100
AcDb2dVertex
 10
540.19627
 20
1114.030044
 30
0.0
  0
VERTEX
  5
279
100
AcDbEntity
  8
図
  6
CONTINUOUS
 62
     6
100
AcDbVertex
100
AcDb2dVertex
 10
540.230008
 20
1113.778558
 30
0.0
  0
VERTEX
  5
27A
100
AcDbEntity
  8
図
  6
CONTINUOUS
 62
     6
100
AcDbVertex
100
AcDb2dVertex
 10
540.303894
 20
1113.535648
 30
0.0
  0
VERTEX
  5
27B
100
AcDbEntity
  8
図
  6
CONTINUOUS
 62
     6
100
AcDbVertex
100
AcDb2dVertex
 10
540.45104
 20
1113.242524
 30
0.0
  0
VERTEX
  5
27C
100
AcDbEntity
  8
図
  6
CONTINUOUS
 62
     6
100
AcDbVertex
100
AcDb2dVertex
 10
540.643688
 20
1112.97642
 30
0.0
  0
VERTEX
  5
27D
100
AcDbEntity
  8
図
  6
CONTINUOUS
 62
     6
100
AcDbVertex
100
AcDb2dVertex
 10
540.876104
 20
1112.73278
 30
0.0
  0
VERTEX
  5
27E
100
AcDbEntity
  8
図
  6
CONTINUOUS
 62
     6
100
AcDbVertex
100
AcDb2dVertex
 10
541.13535
 20
1112.515838
 30
0.0
  0
VERTEX
  5
27F
100
AcDbEntity
  8
図
  6
CONTINUOUS
 62
     6
100
AcDbVertex
100
AcDb2dVertex
 10
541.413024
 20
1112.323958
 30
0.0
  0
VERTEX
  5
280
100
AcDbEntity
  8
図
  6
CONTINUOUS
 62
     6
100
AcDbVertex
100
AcDb2dVertex
 10
541.830552
 20
1112.087118
 30
0.0
  0
VERTEX
  5
281
100
AcDbEntity
  8
図
  6
CONTINUOUS
 62
     6
100
AcDbVertex
100
AcDb2dVertex
 10
542.268312
 20
1111.886588
 30
0.0
  0
VERTEX
  5
282
100
AcDbEntity
  8
図
  6
CONTINUOUS
 62
     6
100
AcDbVertex
100
AcDb2dVertex
 10
542.720082
 20
1111.717334
 30
0.0
  0
VERTEX
  5
283
100
AcDbEntity
  8
図
  6
CONTINUOUS
 62
     6
100
AcDbVertex
100
AcDb2dVertex
 10
543.179642
 20
1111.574328
 30
0.0
  0
VERTEX
  5
284
100
AcDbEntity
  8
図
  6
CONTINUOUS
 62
     6
100
AcDbVertex
100
AcDb2dVertex
 10
543.913138
 20
1111.390832
 30
0.0
  0
VERTEX
  5
285
100
AcDbEntity
  8
図
  6
CONTINUOUS
 62
     6
100
AcDbVertex
100
AcDb2dVertex
 10
544.657028
 20
1111.249866
 30
0.0
  0
VERTEX
  5
286
100
AcDbEntity
  8
図
  6
CONTINUOUS
 62
     6
100
AcDbVertex
100
AcDb2dVertex
 10
545.407402
 20
1111.143806
 30
0.0
  0
VERTEX
  5
287
100
AcDbEntity
  8
図
  6
CONTINUOUS
 62
     6
100
AcDbVertex
100
AcDb2dVertex
 10
546.160356
 20
1111.065028
 30
0.0
  0
VERTEX
  5
288
100
AcDbEntity
  8
図
  6
CONTINUOUS
 62
     6
100
AcDbVertex
100
AcDb2dVertex
 10
546.674154
 20
1111.023596
 30
0.0
  0
VERTEX
  5
289
100
AcDbEntity
  8
図
  6
CONTINUOUS
 62
     6
100
AcDbVertex
100
AcDb2dVertex
 10
547.18859
 20
1110.99101
 30
0.0
  0
VERTEX
  5
28A
100
AcDbEntity
  8
図
  6
CONTINUOUS
 62
     6
100
AcDbVertex
100
AcDb2dVertex
 10
547.703642
 20
1110.966756
 30
0.0
  0
VERTEX
  5
28B
100
AcDbEntity
  8
図
  6
CONTINUOUS
 62
     6
100
AcDbVertex
100
AcDb2dVertex
 10
548.219002
 20
1110.950224
 30
0.0
  0
VERTEX
  5
28C
100
AcDbEntity
  8
図
  6
CONTINUOUS
 62
     6
100
AcDbVertex
100
AcDb2dVertex
 10
548.734464
 20
1110.940768
 30
0.0
  0
VERTEX
  5
28D
100
AcDbEntity
  8
図
  6
CONTINUOUS
 62
     6
100
AcDbVertex
100
AcDb2dVertex
 10
549.249996
 20
1110.937726
 30
0.0
  0
SEQEND
  5
28E
100
AcDbEntity
  8
図
  6
CONTINUOUS
 62
     6
  0
POLYLINE
  5
28F
100
AcDbEntity
  8
図
  6
CONTINUOUS
 62
     6
100
AcDb2dPolyline
 66
     1
 10
0.0
 20
0.0
 30
0.0
 70
   128
  0
VERTEX
  5
290
100
AcDbEntity
  8
図
  6
CONTINUOUS
 62
     6
100
AcDbVertex
100
AcDb2dVertex
 10
561.609798
 20
1114.100204
 30
0.0
  0
VERTEX
  5
291
100
AcDbEntity
  8
図
  6
CONTINUOUS
 62
     6
100
AcDbVertex
100
AcDb2dVertex
 10
561.621936
 20
1113.8344
 30
0.0
  0
VERTEX
  5
292
100
AcDbEntity
  8
図
  6
CONTINUOUS
 62
     6
100
AcDbVertex
100
AcDb2dVertex
 10
561.65673
 20
1113.576546
 30
0.0
  0
VERTEX
  5
293
100
AcDbEntity
  8
図
  6
CONTINUOUS
 62
     6
100
AcDbVertex
100
AcDb2dVertex
 10
561.711282
 20
1113.33489
 30
0.0
  0
VERTEX
  5
294
100
AcDbEntity
  8
図
  6
CONTINUOUS
 62
     6
100
AcDbVertex
100
AcDb2dVertex
 10
561.782054
 20
1113.1104
 30
0.0
  0
VERTEX
  5
295
100
AcDbEntity
  8
図
  6
CONTINUOUS
 62
     6
100
AcDbVertex
100
AcDb2dVertex
 10
561.877754
 20
1112.87821
 30
0.0
  0
VERTEX
  5
296
100
AcDbEntity
  8
図
  6
CONTINUOUS
 62
     6
100
AcDbVertex
100
AcDb2dVertex
 10
561.986384
 20
1112.668298
 30
0.0
  0
VERTEX
  5
297
100
AcDbEntity
  8
図
  6
CONTINUOUS
 62
     6
100
AcDbVertex
100
AcDb2dVertex
 10
562.104228
 20
1112.480126
 30
0.0
  0
VERTEX
  5
298
100
AcDbEntity
  8
図
  6
CONTINUOUS
 62
     6
100
AcDbVertex
100
AcDb2dVertex
 10
562.3332
 20
1112.187612
 30
0.0
  0
VERTEX
  5
299
100
AcDbEntity
  8
図
  6
CONTINUOUS
 62
     6
100
AcDbVertex
100
AcDb2dVertex
 10
562.57773
 20
1111.94589
 30
0.0
  0
VERTEX
  5
29A
100
AcDbEntity
  8
図
  6
CONTINUOUS
 62
     6
100
AcDbVertex
100
AcDb2dVertex
 10
562.831306
 20
1111.746556
 30
0.0
  0
VERTEX
  5
29B
100
AcDbEntity
  8
図
  6
CONTINUOUS
 62
     6
100
AcDbVertex
100
AcDb2dVertex
 10
563.222234
 20
1111.50519
 30
0.0
  0
VERTEX
  5
29C
100
AcDbEntity
  8
図
  6
CONTINUOUS
 62
     6
100
AcDbVertex
100
AcDb2dVertex
 10
563.62156
 20
1111.320906
 30
0.0
  0
VERTEX
  5
29D
100
AcDbEntity
  8
図
  6
CONTINUOUS
 62
     6
100
AcDbVertex
100
AcDb2dVertex
 10
564.027002
 20
1111.184806
 30
0.0
  0
VERTEX
  5
29E
100
AcDbEntity
  8
図
  6
CONTINUOUS
 62
     6
100
AcDbVertex
100
AcDb2dVertex
 10
564.436276
 20
1111.087986
 30
0.0
  0
VERTEX
  5
29F
100
AcDbEntity
  8
図
  6
CONTINUOUS
 62
     6
100
AcDbVertex
100
AcDb2dVertex
 10
564.847094
 20
1111.021546
 30
0.0
  0
VERTEX
  5
2A0
100
AcDbEntity
  8
図
  6
CONTINUOUS
 62
     6
100
AcDbVertex
100
AcDb2dVertex
 10
565.257174
 20
1110.976586
 30
0.0
  0
VERTEX
  5
2A1
100
AcDbEntity
  8
図
  6
CONTINUOUS
 62
     6
100
AcDbVertex
100
AcDb2dVertex
 10
565.846514
 20
1110.940952
 30
0.0
  0
VERTEX
  5
2A2
100
AcDbEntity
  8
図
  6
CONTINUOUS
 62
     6
100
AcDbVertex
100
AcDb2dVertex
 10
566.43626
 20
1110.941178
 30
0.0
  0
VERTEX
  5
2A3
100
AcDbEntity
  8
図
  6
CONTINUOUS
 62
     6
100
AcDbVertex
100
AcDb2dVertex
 10
567.025592
 20
1110.977296
 30
0.0
  0
VERTEX
  5
2A4
100
AcDbEntity
  8
図
  6
CONTINUOUS
 62
     6
100
AcDbVertex
100
AcDb2dVertex
 10
567.639334
 20
1111.05707
 30
0.0
  0
VERTEX
  5
2A5
100
AcDbEntity
  8
図
  6
CONTINUOUS
 62
     6
100
AcDbVertex
100
AcDb2dVertex
 10
568.250332
 20
1111.195294
 30
0.0
  0
VERTEX
  5
2A6
100
AcDbEntity
  8
図
  6
CONTINUOUS
 62
     6
100
AcDbVertex
100
AcDb2dVertex
 10
568.587392
 20
1111.303774
 30
0.0
  0
VERTEX
  5
2A7
100
AcDbEntity
  8
図
  6
CONTINUOUS
 62
     6
100
AcDbVertex
100
AcDb2dVertex
 10
568.922208
 20
1111.442582
 30
0.0
  0
VERTEX
  5
2A8
100
AcDbEntity
  8
図
  6
CONTINUOUS
 62
     6
100
AcDbVertex
100
AcDb2dVertex
 10
569.251942
 20
1111.619844
 30
0.0
  0
VERTEX
  5
2A9
100
AcDbEntity
  8
図
  6
CONTINUOUS
 62
     6
100
AcDbVertex
100
AcDb2dVertex
 10
569.573756
 20
1111.843678
 30
0.0
  0
VERTEX
  5
2AA
100
AcDbEntity
  8
図
  6
CONTINUOUS
 62
     6
100
AcDbVertex
100
AcDb2dVertex
 10
569.807706
 20
1112.048528
 30
0.0
  0
VERTEX
  5
2AB
100
AcDbEntity
  8
図
  6
CONTINUOUS
 62
     6
100
AcDbVertex
100
AcDb2dVertex
 10
570.031616
 20
1112.293542
 30
0.0
  0
VERTEX
  5
2AC
100
AcDbEntity
  8
図
  6
CONTINUOUS
 62
     6
100
AcDbVertex
100
AcDb2dVertex
 10
570.174178
 20
1112.485028
 30
0.0
  0
VERTEX
  5
2AD
100
AcDbEntity
  8
図
  6
CONTINUOUS
 62
     6
100
AcDbVertex
100
AcDb2dVertex
 10
570.30764
 20
1112.701986
 30
0.0
  0
VERTEX
  5
2AE
100
AcDbEntity
  8
図
  6
CONTINUOUS
 62
     6
100
AcDbVertex
100
AcDb2dVertex
 10
570.42778
 20
1112.946264
 30
0.0
  0
VERTEX
  5
2AF
100
AcDbEntity
  8
図
  6
CONTINUOUS
 62
     6
100
AcDbVertex
100
AcDb2dVertex
 10
570.519362
 20
1113.187092
 30
0.0
  0
VERTEX
  5
2B0
100
AcDbEntity
  8
図
  6
CONTINUOUS
 62
     6
100
AcDbVertex
100
AcDb2dVertex
 10
570.592714
 20
1113.451294
 30
0.0
  0
VERTEX
  5
2B1
100
AcDbEntity
  8
図
  6
CONTINUOUS
 62
     6
100
AcDbVertex
100
AcDb2dVertex
 10
570.637832
 20
1113.700428
 30
0.0
  0
VERTEX
  5
2B2
100
AcDbEntity
  8
図
  6
CONTINUOUS
 62
     6
100
AcDbVertex
100
AcDb2dVertex
 10
570.661894
 20
1113.960774
 30
0.0
  0
VERTEX
  5
2B3
100
AcDbEntity
  8
図
  6
CONTINUOUS
 62
     6
100
AcDbVertex
100
AcDb2dVertex
 10
570.665184
 20
1114.100204
 30
0.0
  0
VERTEX
  5
2B4
100
AcDbEntity
  8
図
  6
CONTINUOUS
 62
     6
100
AcDbVertex
100
AcDb2dVertex
 10
570.653028
 20
1114.365804
 30
0.0
  0
VERTEX
  5
2B5
100
AcDbEntity
  8
図
  6
CONTINUOUS
 62
     6
100
AcDbVertex
100
AcDb2dVertex
 10
570.61825
 20
1114.62346
 30
0.0
  0
VERTEX
  5
2B6
100
AcDbEntity
  8
図
  6
CONTINUOUS
 62
     6
100
AcDbVertex
100
AcDb2dVertex
 10
570.5637
 20
1114.865118
 30
0.0
  0
VERTEX
  5
2B7
100
AcDbEntity
  8
図
  6
CONTINUOUS
 62
     6
100
AcDbVertex
100
AcDb2dVertex
 10
570.492928
 20
1115.089608
 30
0.0
  0
VERTEX
  5
2B8
100
AcDbEntity
  8
図
  6
CONTINUOUS
 62
     6
100
AcDbVertex
100
AcDb2dVertex
 10
570.397228
 20
1115.321798
 30
0.0
  0
VERTEX
  5
2B9
100
AcDbEntity
  8
図
  6
CONTINUOUS
 62
     6
100
AcDbVertex
100
AcDb2dVertex
 10
570.288598
 20
1115.531708
 30
0.0
  0
VERTEX
  5
2BA
100
AcDbEntity
  8
図
  6
CONTINUOUS
 62
     6
100
AcDbVertex
100
AcDb2dVertex
 10
570.170754
 20
1115.719882
 30
0.0
  0
VERTEX
  5
2BB
100
AcDbEntity
  8
図
  6
CONTINUOUS
 62
     6
100
AcDbVertex
100
AcDb2dVertex
 10
569.941782
 20
1116.012396
 30
0.0
  0
VERTEX
  5
2BC
100
AcDbEntity
  8
図
  6
CONTINUOUS
 62
     6
100
AcDbVertex
100
AcDb2dVertex
 10
569.697252
 20
1116.254116
 30
0.0
  0
VERTEX
  5
2BD
100
AcDbEntity
  8
図
  6
CONTINUOUS
 62
     6
100
AcDbVertex
100
AcDb2dVertex
 10
569.443676
 20
1116.45345
 30
0.0
  0
VERTEX
  5
2BE
100
AcDbEntity
  8
図
  6
CONTINUOUS
 62
     6
100
AcDbVertex
100
AcDb2dVertex
 10
569.052748
 20
1116.694818
 30
0.0
  0
VERTEX
  5
2BF
100
AcDbEntity
  8
図
  6
CONTINUOUS
 62
     6
100
AcDbVertex
100
AcDb2dVertex
 10
568.653422
 20
1116.8791
 30
0.0
  0
VERTEX
  5
2C0
100
AcDbEntity
  8
図
  6
CONTINUOUS
 62
     6
100
AcDbVertex
100
AcDb2dVertex
 10
568.24798
 20
1117.015202
 30
0.0
  0
VERTEX
  5
2C1
100
AcDbEntity
  8
図
  6
CONTINUOUS
 62
     6
100
AcDbVertex
100
AcDb2dVertex
 10
567.838706
 20
1117.112022
 30
0.0
  0
VERTEX
  5
2C2
100
AcDbEntity
  8
図
  6
CONTINUOUS
 62
     6
100
AcDbVertex
100
AcDb2dVertex
 10
567.427888
 20
1117.178462
 30
0.0
  0
VERTEX
  5
2C3
100
AcDbEntity
  8
図
  6
CONTINUOUS
 62
     6
100
AcDbVertex
100
AcDb2dVertex
 10
567.017808
 20
1117.223422
 30
0.0
  0
VERTEX
  5
2C4
100
AcDbEntity
  8
図
  6
CONTINUOUS
 62
     6
100
AcDbVertex
100
AcDb2dVertex
 10
566.428468
 20
1117.259056
 30
0.0
  0
VERTEX
  5
2C5
100
AcDbEntity
  8
図
  6
CONTINUOUS
 62
     6
100
AcDbVertex
100
AcDb2dVertex
 10
565.838722
 20
1117.25883
 30
0.0
  0
VERTEX
  5
2C6
100
AcDbEntity
  8
図
  6
CONTINUOUS
 62
     6
100
AcDbVertex
100
AcDb2dVertex
 10
565.24939
 20
1117.22271
 30
0.0
  0
VERTEX
  5
2C7
100
AcDbEntity
  8
図
  6
CONTINUOUS
 62
     6
100
AcDbVertex
100
AcDb2dVertex
 10
564.635648
 20
1117.142938
 30
0.0
  0
VERTEX
  5
2C8
100
AcDbEntity
  8
図
  6
CONTINUOUS
 62
     6
100
AcDbVertex
100
AcDb2dVertex
 10
564.02465
 20
1117.004714
 30
0.0
  0
VERTEX
  5
2C9
100
AcDbEntity
  8
図
  6
CONTINUOUS
 62
     6
100
AcDbVertex
100
AcDb2dVertex
 10
563.68759
 20
1116.896234
 30
0.0
  0
VERTEX
  5
2CA
100
AcDbEntity
  8
図
  6
CONTINUOUS
 62
     6
100
AcDbVertex
100
AcDb2dVertex
 10
563.352772
 20
1116.757426
 30
0.0
  0
VERTEX
  5
2CB
100
AcDbEntity
  8
図
  6
CONTINUOUS
 62
     6
100
AcDbVertex
100
AcDb2dVertex
 10
563.02304
 20
1116.580164
 30
0.0
  0
VERTEX
  5
2CC
100
AcDbEntity
  8
図
  6
CONTINUOUS
 62
     6
100
AcDbVertex
100
AcDb2dVertex
 10
562.701226
 20
1116.356328
 30
0.0
  0
VERTEX
  5
2CD
100
AcDbEntity
  8
図
  6
CONTINUOUS
 62
     6
100
AcDbVertex
100
AcDb2dVertex
 10
562.467276
 20
1116.15148
 30
0.0
  0
VERTEX
  5
2CE
100
AcDbEntity
  8
図
  6
CONTINUOUS
 62
     6
100
AcDbVertex
100
AcDb2dVertex
 10
562.243366
 20
1115.906464
 30
0.0
  0
VERTEX
  5
2CF
100
AcDbEntity
  8
図
  6
CONTINUOUS
 62
     6
100
AcDbVertex
100
AcDb2dVertex
 10
562.100804
 20
1115.71498
 30
0.0
  0
VERTEX
  5
2D0
100
AcDbEntity
  8
図
  6
CONTINUOUS
 62
     6
100
AcDbVertex
100
AcDb2dVertex
 10
561.967342
 20
1115.498022
 30
0.0
  0
VERTEX
  5
2D1
100
AcDbEntity
  8
図
  6
CONTINUOUS
 62
     6
100
AcDbVertex
100
AcDb2dVertex
 10
561.847202
 20
1115.253742
 30
0.0
  0
VERTEX
  5
2D2
100
AcDbEntity
  8
図
  6
CONTINUOUS
 62
     6
100
AcDbVertex
100
AcDb2dVertex
 10
561.75562
 20
1115.012916
 30
0.0
  0
VERTEX
  5
2D3
100
AcDbEntity
  8
図
  6
CONTINUOUS
 62
     6
100
AcDbVertex
100
AcDb2dVertex
 10
561.682268
 20
1114.748714
 30
0.0
  0
VERTEX
  5
2D4
100
AcDbEntity
  8
図
  6
CONTINUOUS
 62
     6
100
AcDbVertex
100
AcDb2dVertex
 10
561.63715
 20
1114.49958
 30
0.0
  0
VERTEX
  5
2D5
100
AcDbEntity
  8
図
  6
CONTINUOUS
 62
     6
100
AcDbVertex
100
AcDb2dVertex
 10
561.613088
 20
1114.239234
 30
0.0
  0
VERTEX
  5
2D6
100
AcDbEntity
  8
図
  6
CONTINUOUS
 62
     6
100
AcDbVertex
100
AcDb2dVertex
 10
561.609798
 20
1114.100204
 30
0.0
  0
SEQEND
  5
2D7
100
AcDbEntity
  8
図
  6
CONTINUOUS
 62
     6
  0
LINE
  5
2D8
100
AcDbEntity
  8
図
  6
CONTINUOUS
 62
     6
100
AcDbLine
 10
539.18548
 20
1118.6
 30
0.0
 11
539.18548
 21
1125.6
 31
0.0
  0
LINE
  5
2D9
100
AcDbEntity
  8
図
  6
CONTINUOUS
 62
     6
100
AcDbLine
 10
537.927416
 20
1118.6
 30
0.0
 11
537.927416
 21
1125.6
 31
0.0
  0
LINE
  5
2DA
100
AcDbEntity
  8
図
  6
CONTINUOUS
 62
     6
100
AcDbLine
 10
559.314512
 20
1118.6
 30
0.0
 11
559.314512
 21
1125.6
 31
0.0
  0
LINE
  5
2DB
100
AcDbEntity
  8
図
  6
CONTINUOUS
 62
     6
100
AcDbLine
 10
560.572576
 20
1118.6
 30
0.0
 11
560.572576
 21
1125.6
 31
0.0
  0
LINE
  5
2DC
100
AcDbEntity
  8
図
  6
CONTINUOUS
 62
     6
100
AcDbLine
 10
532.75
 20
1117.6
 30
0.0
 11
532.75
 21
1118.6
 31
0.0
  0
LINE
  5
2DD
100
AcDbEntity
  8
図
  6
CONTINUOUS
 62
     6
100
AcDbLine
 10
565.75
 20
1117.6
 30
0.0
 11
565.75
 21
1118.6
 31
0.0
  0
LINE
  5
2DE
100
AcDbEntity
  8
図
  6
CONTINUOUS
 62
     2
100
AcDbLine
 10
521.75
 20
1130.0
 30
0.0
 11
521.75
 21
1127.5
 31
0.0
  0
LINE
  5
2DF
100
AcDbEntity
  8
図
  6
CONTINUOUS
 62
     2
100
AcDbLine
 10
524.926471
 20
1133.0
 30
0.0
 11
521.75
 21
1130.0
 31
0.0
  0
LINE
  5
2E0
100
AcDbEntity
  8
図
  6
CONTINUOUS
 62
     2
100
AcDbLine
 10
576.75
 20
1130.0
 30
0.0
 11
576.75
 21
1127.5
 31
0.0
  0
LINE
  5
2E1
100
AcDbEntity
  8
図
  6
CONTINUOUS
 62
     2
100
AcDbLine
 10
573.573529
 20
1133.0
 30
0.0
 11
576.75
 21
1130.0
 31
0.0
  0
LINE
  5
2E2
100
AcDbEntity
  8
図
  6
CONTINUOUS
 62
     2
100
AcDbLine
 10
816.215208
 20
1168.0
 30
0.0
 11
928.0
 21
1168.0
 31
0.0
  0
LINE
  5
2E3
100
AcDbEntity
  8
図
  6
CONTINUOUS
 62
     7
100
AcDbLine
 10
507.272181
 20
1143.0
 30
0.0
 11
507.960936
 21
1137.390656
 31
0.0
  0
LINE
  5
2E4
100
AcDbEntity
  8
図
  6
CONTINUOUS
 62
     7
100
AcDbLine
 10
590.727815
 20
1143.0
 30
0.0
 11
590.03906
 21
1137.390656
 31
0.0
  0
LINE
  5
2E5
100
AcDbEntity
  8
図
  6
EXLTYPE4
 62
     6
100
AcDbLine
 10
565.0
 20
875.689487
 30
0.0
 11
565.0
 21
831.2
 31
0.0
  0
LINE
  5
2E6
100
AcDbEntity
  8
図
  6
CONTINUOUS
 62
     6
100
AcDbLine
 10
463.5
 20
500.0
 30
0.0
 11
484.5
 21
500.0
 31
0.0
  0
LINE
  5
2E7
100
AcDbEntity
  8
図
  6
EXLTYPE4
 62
     6
100
AcDbLine
 10
484.5
 20
708.0
 30
0.0
 11
484.5
 21
500.0
 31
0.0
  0
LINE
  5
2E8
100
AcDbEntity
  8
図
  6
EXLTYPE4
 62
     6
100
AcDbLine
 10
463.5
 20
708.0
 30
0.0
 11
463.5
 21
500.0
 31
0.0
  0
LINE
  5
2E9
100
AcDbEntity
  8
図
  6
EXLTYPE4
 62
     6
100
AcDbLine
 10
634.5
 20
708.0
 30
0.0
 11
634.5
 21
500.0
 31
0.0
  0
LINE
  5
2EA
100
AcDbEntity
  8
図
  6
EXLTYPE4
 62
     6
100
AcDbLine
 10
613.5
 20
708.0
 30
0.0
 11
613.5
 21
500.0
 31
0.0
  0
LINE
  5
2EB
100
AcDbEntity
  8
図
  6
CONTINUOUS
 62
     6
100
AcDbLine
 10
634.5
 20
500.0
 30
0.0
 11
613.5
 21
500.0
 31
0.0
  0
LINE
  5
2EC
100
AcDbEntity
  8
図
  6
CONTINUOUS
 62
     2
100
AcDbLine
 10
281.784788
 20
1168.0
 30
0.0
 11
213.0
 21
1168.0
 31
0.0
  0
LINE
  5
2ED
100
AcDbEntity
  8
図
  6
CONTINUOUS
 62
     2
100
AcDbLine
 10
213.0
 20
1143.0
 30
0.0
 11
928.0
 21
1143.0
 31
0.0
  0
LINE
  5
2EE
100
AcDbEntity
  8
図
  6
CONTINUOUS
 62
     7
100
AcDbLine
 10
1641.195546
 20
1168.0
 30
0.0
 11
1192.883343
 21
1168.0
 31
0.0
  0
ARC
  5
2EF
100
AcDbEntity
  8
図
  6
CONTINUOUS
 62
     7
100
AcDbCircle
 10
1192.883343
 20
1172.0
 30
0.0
 40
4.0
100
AcDbArc
 50
189.334729
 51
270.0
  0
LINE
  5
2F0
100
AcDbEntity
  8
図
  6
CONTINUOUS
 62
     7
100
AcDbLine
 10
1167.429362
 20
1302.18899
 30
0.0
 11
1188.936312
 21
1171.351192
 31
0.0
  0
ARC
  5
2F1
100
AcDbEntity
  8
図
  6
CONTINUOUS
 62
     7
100
AcDbCircle
 10
1172.36315
 20
1303.0
 30
0.0
 40
5.0
100
AcDbArc
 50
90.000003
 51
189.334729
  0
LINE
  5
2F2
100
AcDbEntity
  8
図
  6
CONTINUOUS
 62
     7
100
AcDbLine
 10
1641.423574
 20
1168.0
 30
0.0
 11
1662.99999
 21
1168.0
 31
0.0
  0
ARC
  5
2F3
100
AcDbEntity
  8
図
  6
CONTINUOUS
 62
     7
100
AcDbCircle
 10
1662.99999
 20
1172.0
 30
0.0
 40
4.0
100
AcDbArc
 50
270.0
 51
0.00001
  0
LINE
  5
2F4
100
AcDbEntity
  8
図
  6
CONTINUOUS
 62
     7
100
AcDbLine
 10
1665.99999
 20
1308.0
 30
0.0
 11
1172.36315
 21
1308.0
 31
0.0
  0
LINE
  5
2F5
100
AcDbEntity
  8
図
  6
CONTINUOUS
 62
     2
100
AcDbLine
 10
1252.168131
 20
1168.0
 30
0.0
 11
1147.667614
 21
1168.0
 31
0.0
  0
LINE
  5
2F6
100
AcDbEntity
  8
図
  6
CONTINUOUS
 62
     7
100
AcDbLine
 10
1395.721178
 20
1133.0
 30
0.0
 11
1468.278802
 21
1133.0
 31
0.0
  0
ARC
  5
2F7
100
AcDbEntity
  8
図
  6
CONTINUOUS
 62
     7
100
AcDbCircle
 10
1395.721186
 20
1138.0
 30
0.0
 40
5.000012
100
AcDbArc
 50
187.000119
 51
269.999909
  0
ARC
  5
2F8
100
AcDbEntity
  8
図
  6
CONTINUOUS
 62
     7
100
AcDbCircle
 10
1468.278802
 20
1138.0
 30
0.0
 40
5.000004
100
AcDbArc
 50
270.000086
 51
339.238856
  0
LINE
  5
2F9
100
AcDbEntity
  8
図
  6
CONTINUOUS
 62
     2
100
AcDbLine
 10
1452.047602
 20
1110.6
 30
0.0
 11
1412.047602
 21
1110.6
 31
0.0
  0
LINE
  5
2FA
100
AcDbEntity
  8
図
  6
CONTINUOUS
 62
     2
100
AcDbLine
 10
1412.047602
 20
1110.6
 30
0.0
 11
1412.047602
 21
1073.1
 31
0.0
  0
LINE
  5
2FB
100
AcDbEntity
  8
図
  6
CONTINUOUS
 62
     2
100
AcDbLine
 10
1448.047602
 20
1071.1
 30
0.0
 11
1416.047602
 21
1071.1
 31
0.0
  0
LINE
  5
2FC
100
AcDbEntity
  8
図
  6
CONTINUOUS
 62
     2
100
AcDbLine
 10
1416.047602
 20
1071.1
 30
0.0
 11
1412.047602
 21
1073.1
 31
0.0
  0
ARC
  5
2FD
100
AcDbEntity
  8
図
  6
CONTINUOUS
 62
     2
100
AcDbCircle
 10
1414.047602
 20
1114.1
 30
0.0
 40
3.5
100
AcDbArc
 50
90.0
 51
270.0
  0
ARC
  5
2FE
100
AcDbEntity
  8
図
  6
CONTINUOUS
 62
     2
100
AcDbCircle
 10
1450.047602
 20
1114.1
 30
0.0
 40
3.5
100
AcDbArc
 50
270.0
 51
90.0
  0
LINE
  5
2FF
100
AcDbEntity
  8
図
  6
CONTINUOUS
 62
     2
100
AcDbLine
 10
1450.047602
 20
1110.6
 30
0.0
 11
1414.047602
 21
1110.6
 31
0.0
  0
LINE
  5
300
100
AcDbEntity
  8
図
  6
CONTINUOUS
 62
     2
100
AcDbLine
 10
1450.047602
 20
1117.6
 30
0.0
 11
1414.047602
 21
1117.6
 31
0.0
  0
LINE
  5
301
100
AcDbEntity
  8
図
  6
CONTINUOUS
 62
     2
100
AcDbLine
 10
1406.547602
 20
1125.6
 30
0.0
 11
1457.547602
 21
1125.6
 31
0.0
  0
LINE
  5
302
100
AcDbEntity
  8
図
  6
CONTINUOUS
 62
     2
100
AcDbLine
 10
1406.047602
 20
1126.1
 30
0.0
 11
1406.047602
 21
1127.1
 31
0.0
  0
LINE
  5
303
100
AcDbEntity
  8
図
  6
CONTINUOUS
 62
     2
100
AcDbLine
 10
1411.079858
 20
1119.1
 30
0.0
 11
1411.079858
 21
1125.6
 31
0.0
  0
LINE
  5
304
100
AcDbEntity
  8
図
  6
CONTINUOUS
 62
     2
100
AcDbLine
 10
1458.047602
 20
1126.1
 30
0.0
 11
1458.047602
 21
1127.1
 31
0.0
  0
LINE
  5
305
100
AcDbEntity
  8
図
  6
CONTINUOUS
 62
     2
100
AcDbLine
 10
1453.015338
 20
1119.1
 30
0.0
 11
1453.015338
 21
1125.6
 31
0.0
  0
LINE
  5
306
100
AcDbEntity
  8
図
  6
CONTINUOUS
 62
     2
100
AcDbLine
 10
1406.047602
 20
1127.1
 30
0.0
 11
1458.047602
 21
1127.1
 31
0.0
  0
LINE
  5
307
100
AcDbEntity
  8
図
  6
CONTINUOUS
 62
     2
100
AcDbLine
 10
1411.579858
 20
1118.6
 30
0.0
 11
1452.515338
 21
1118.6
 31
0.0
  0
ARC
  5
308
100
AcDbEntity
  8
図
  6
CONTINUOUS
 62
     2
100
AcDbCircle
 10
1406.547602
 20
1126.1
 30
0.0
 40
0.5
100
AcDbArc
 50
180.0
 51
270.0
  0
ARC
  5
309
100
AcDbEntity
  8
図
  6
CONTINUOUS
 62
     2
100
AcDbCircle
 10
1457.547602
 20
1126.1
 30
0.0
 40
0.5
100
AcDbArc
 50
270.0
 51
0.0
  0
ARC
  5
30A
100
AcDbEntity
  8
図
  6
CONTINUOUS
 62
     2
100
AcDbCircle
 10
1411.579858
 20
1119.1
 30
0.0
 40
0.5
100
AcDbArc
 50
180.0
 51
270.0
  0
ARC
  5
30B
100
AcDbEntity
  8
図
  6
CONTINUOUS
 62
     2
100
AcDbCircle
 10
1452.515338
 20
1119.1
 30
0.0
 40
0.5
100
AcDbArc
 50
270.0
 51
0.0
  0
LINE
  5
30C
100
AcDbEntity
  8
図
  6
CONTINUOUS
 62
     2
100
AcDbLine
 10
1404.547602
 20
1127.5
 30
0.0
 11
1459.547602
 21
1127.5
 31
0.0
  0
LINE
  5
30D
100
AcDbEntity
  8
図
  6
CONTINUOUS
 62
     2
100
AcDbLine
 10
1449.547602
 20
1118.6
 30
0.0
 11
1449.547602
 21
1117.6
 31
0.0
  0
LINE
  5
30E
100
AcDbEntity
  8
図
  6
CONTINUOUS
 62
     2
100
AcDbLine
 10
1414.547602
 20
1118.6
 30
0.0
 11
1414.547602
 21
1117.6
 31
0.0
  0
LINE
  5
30F
100
AcDbEntity
  8
図
  6
CONTINUOUS
 62
     2
100
AcDbLine
 10
1404.547602
 20
1128.5
 30
0.0
 11
1459.547602
 21
1128.5
 31
0.0
  0
LINE
  5
310
100
AcDbEntity
  8
図
  6
CONTINUOUS
 62
     2
100
AcDbLine
 10
1404.547602
 20
1130.0
 30
0.0
 11
1459.547602
 21
1130.0
 31
0.0
  0
LINE
  5
311
100
AcDbEntity
  8
図
  6
CONTINUOUS
 62
     2
100
AcDbLine
 10
1452.047602
 20
1073.1
 30
0.0
 11
1412.047602
 21
1073.1
 31
0.0
  0
POLYLINE
  5
312
100
AcDbEntity
  8
図
  6
CONTINUOUS
 62
     6
100
AcDb2dPolyline
 66
     1
 10
0.0
 20
0.0
 30
0.0
 70
   128
  0
VERTEX
  5
313
100
AcDbEntity
  8
図
  6
CONTINUOUS
 62
     6
100
AcDbVertex
100
AcDb2dVertex
 10
1410.63241
 20
1114.100204
 30
0.0
  0
VERTEX
  5
314
100
AcDbEntity
  8
図
  6
CONTINUOUS
 62
     6
100
AcDbVertex
100
AcDb2dVertex
 10
1410.644548
 20
1113.8344
 30
0.0
  0
VERTEX
  5
315
100
AcDbEntity
  8
図
  6
CONTINUOUS
 62
     6
100
AcDbVertex
100
AcDb2dVertex
 10
1410.679342
 20
1113.576546
 30
0.0
  0
VERTEX
  5
316
100
AcDbEntity
  8
図
  6
CONTINUOUS
 62
     6
100
AcDbVertex
100
AcDb2dVertex
 10
1410.733894
 20
1113.33489
 30
0.0
  0
VERTEX
  5
317
100
AcDbEntity
  8
図
  6
CONTINUOUS
 62
     6
100
AcDbVertex
100
AcDb2dVertex
 10
1410.804666
 20
1113.1104
 30
0.0
  0
VERTEX
  5
318
100
AcDbEntity
  8
図
  6
CONTINUOUS
 62
     6
100
AcDbVertex
100
AcDb2dVertex
 10
1410.900366
 20
1112.87821
 30
0.0
  0
VERTEX
  5
319
100
AcDbEntity
  8
図
  6
CONTINUOUS
 62
     6
100
AcDbVertex
100
AcDb2dVertex
 10
1411.008996
 20
1112.668298
 30
0.0
  0
VERTEX
  5
31A
100
AcDbEntity
  8
図
  6
CONTINUOUS
 62
     6
100
AcDbVertex
100
AcDb2dVertex
 10
1411.12684
 20
1112.480126
 30
0.0
  0
VERTEX
  5
31B
100
AcDbEntity
  8
図
  6
CONTINUOUS
 62
     6
100
AcDbVertex
100
AcDb2dVertex
 10
1411.355812
 20
1112.187612
 30
0.0
  0
VERTEX
  5
31C
100
AcDbEntity
  8
図
  6
CONTINUOUS
 62
     6
100
AcDbVertex
100
AcDb2dVertex
 10
1411.60034
 20
1111.94589
 30
0.0
  0
VERTEX
  5
31D
100
AcDbEntity
  8
図
  6
CONTINUOUS
 62
     6
100
AcDbVertex
100
AcDb2dVertex
 10
1411.853918
 20
1111.746556
 30
0.0
  0
VERTEX
  5
31E
100
AcDbEntity
  8
図
  6
CONTINUOUS
 62
     6
100
AcDbVertex
100
AcDb2dVertex
 10
1412.244844
 20
1111.50519
 30
0.0
  0
VERTEX
  5
31F
100
AcDbEntity
  8
図
  6
CONTINUOUS
 62
     6
100
AcDbVertex
100
AcDb2dVertex
 10
1412.644172
 20
1111.320906
 30
0.0
  0
VERTEX
  5
320
100
AcDbEntity
  8
図
  6
CONTINUOUS
 62
     6
100
AcDbVertex
100
AcDb2dVertex
 10
1413.049614
 20
1111.184806
 30
0.0
  0
VERTEX
  5
321
100
AcDbEntity
  8
図
  6
CONTINUOUS
 62
     6
100
AcDbVertex
100
AcDb2dVertex
 10
1413.458886
 20
1111.087986
 30
0.0
  0
VERTEX
  5
322
100
AcDbEntity
  8
図
  6
CONTINUOUS
 62
     6
100
AcDbVertex
100
AcDb2dVertex
 10
1413.869706
 20
1111.021546
 30
0.0
  0
VERTEX
  5
323
100
AcDbEntity
  8
図
  6
CONTINUOUS
 62
     6
100
AcDbVertex
100
AcDb2dVertex
 10
1414.279786
 20
1110.976586
 30
0.0
  0
VERTEX
  5
324
100
AcDbEntity
  8
図
  6
CONTINUOUS
 62
     6
100
AcDbVertex
100
AcDb2dVertex
 10
1414.869126
 20
1110.940952
 30
0.0
  0
VERTEX
  5
325
100
AcDbEntity
  8
図
  6
CONTINUOUS
 62
     6
100
AcDbVertex
100
AcDb2dVertex
 10
1415.45887
 20
1110.941178
 30
0.0
  0
VERTEX
  5
326
100
AcDbEntity
  8
図
  6
CONTINUOUS
 62
     6
100
AcDbVertex
100
AcDb2dVertex
 10
1416.048202
 20
1110.977296
 30
0.0
  0
VERTEX
  5
327
100
AcDbEntity
  8
図
  6
CONTINUOUS
 62
     6
100
AcDbVertex
100
AcDb2dVertex
 10
1416.661946
 20
1111.05707
 30
0.0
  0
VERTEX
  5
328
100
AcDbEntity
  8
図
  6
CONTINUOUS
 62
     6
100
AcDbVertex
100
AcDb2dVertex
 10
1417.272942
 20
1111.195294
 30
0.0
  0
VERTEX
  5
329
100
AcDbEntity
  8
図
  6
CONTINUOUS
 62
     6
100
AcDbVertex
100
AcDb2dVertex
 10
1417.610004
 20
1111.303774
 30
0.0
  0
VERTEX
  5
32A
100
AcDbEntity
  8
図
  6
CONTINUOUS
 62
     6
100
AcDbVertex
100
AcDb2dVertex
 10
1417.94482
 20
1111.442582
 30
0.0
  0
VERTEX
  5
32B
100
AcDbEntity
  8
図
  6
CONTINUOUS
 62
     6
100
AcDbVertex
100
AcDb2dVertex
 10
1418.274554
 20
1111.619844
 30
0.0
  0
VERTEX
  5
32C
100
AcDbEntity
  8
図
  6
CONTINUOUS
 62
     6
100
AcDbVertex
100
AcDb2dVertex
 10
1418.596368
 20
1111.843678
 30
0.0
  0
VERTEX
  5
32D
100
AcDbEntity
  8
図
  6
CONTINUOUS
 62
     6
100
AcDbVertex
100
AcDb2dVertex
 10
1418.830318
 20
1112.048528
 30
0.0
  0
VERTEX
  5
32E
100
AcDbEntity
  8
図
  6
CONTINUOUS
 62
     6
100
AcDbVertex
100
AcDb2dVertex
 10
1419.054228
 20
1112.293542
 30
0.0
  0
VERTEX
  5
32F
100
AcDbEntity
  8
図
  6
CONTINUOUS
 62
     6
100
AcDbVertex
100
AcDb2dVertex
 10
1419.19679
 20
1112.485028
 30
0.0
  0
VERTEX
  5
330
100
AcDbEntity
  8
図
  6
CONTINUOUS
 62
     6
100
AcDbVertex
100
AcDb2dVertex
 10
1419.330252
 20
1112.701986
 30
0.0
  0
VERTEX
  5
331
100
AcDbEntity
  8
図
  6
CONTINUOUS
 62
     6
100
AcDbVertex
100
AcDb2dVertex
 10
1419.450392
 20
1112.946264
 30
0.0
  0
VERTEX
  5
332
100
AcDbEntity
  8
図
  6
CONTINUOUS
 62
     6
100
AcDbVertex
100
AcDb2dVertex
 10
1419.541974
 20
1113.187092
 30
0.0
  0
VERTEX
  5
333
100
AcDbEntity
  8
図
  6
CONTINUOUS
 62
     6
100
AcDbVertex
100
AcDb2dVertex
 10
1419.615324
 20
1113.451294
 30
0.0
  0
VERTEX
  5
334
100
AcDbEntity
  8
図
  6
CONTINUOUS
 62
     6
100
AcDbVertex
100
AcDb2dVertex
 10
1419.660444
 20
1113.700428
 30
0.0
  0
VERTEX
  5
335
100
AcDbEntity
  8
図
  6
CONTINUOUS
 62
     6
100
AcDbVertex
100
AcDb2dVertex
 10
1419.684504
 20
1113.960774
 30
0.0
  0
VERTEX
  5
336
100
AcDbEntity
  8
図
  6
CONTINUOUS
 62
     6
100
AcDbVertex
100
AcDb2dVertex
 10
1419.687794
 20
1114.100204
 30
0.0
  0
VERTEX
  5
337
100
AcDbEntity
  8
図
  6
CONTINUOUS
 62
     6
100
AcDbVertex
100
AcDb2dVertex
 10
1419.67564
 20
1114.365804
 30
0.0
  0
VERTEX
  5
338
100
AcDbEntity
  8
図
  6
CONTINUOUS
 62
     6
100
AcDbVertex
100
AcDb2dVertex
 10
1419.640862
 20
1114.62346
 30
0.0
  0
VERTEX
  5
339
100
AcDbEntity
  8
図
  6
CONTINUOUS
 62
     6
100
AcDbVertex
100
AcDb2dVertex
 10
1419.58631
 20
1114.865118
 30
0.0
  0
VERTEX
  5
33A
100
AcDbEntity
  8
図
  6
CONTINUOUS
 62
     6
100
AcDbVertex
100
AcDb2dVertex
 10
1419.515538
 20
1115.089608
 30
0.0
  0
VERTEX
  5
33B
100
AcDbEntity
  8
図
  6
CONTINUOUS
 62
     6
100
AcDbVertex
100
AcDb2dVertex
 10
1419.419838
 20
1115.321798
 30
0.0
  0
VERTEX
  5
33C
100
AcDbEntity
  8
図
  6
CONTINUOUS
 62
     6
100
AcDbVertex
100
AcDb2dVertex
 10
1419.311208
 20
1115.531708
 30
0.0
  0
VERTEX
  5
33D
100
AcDbEntity
  8
図
  6
CONTINUOUS
 62
     6
100
AcDbVertex
100
AcDb2dVertex
 10
1419.193364
 20
1115.719882
 30
0.0
  0
VERTEX
  5
33E
100
AcDbEntity
  8
図
  6
CONTINUOUS
 62
     6
100
AcDbVertex
100
AcDb2dVertex
 10
1418.964392
 20
1116.012396
 30
0.0
  0
VERTEX
  5
33F
100
AcDbEntity
  8
図
  6
CONTINUOUS
 62
     6
100
AcDbVertex
100
AcDb2dVertex
 10
1418.719864
 20
1116.254116
 30
0.0
  0
VERTEX
  5
340
100
AcDbEntity
  8
図
  6
CONTINUOUS
 62
     6
100
AcDbVertex
100
AcDb2dVertex
 10
1418.466288
 20
1116.45345
 30
0.0
  0
VERTEX
  5
341
100
AcDbEntity
  8
図
  6
CONTINUOUS
 62
     6
100
AcDbVertex
100
AcDb2dVertex
 10
1418.07536
 20
1116.694818
 30
0.0
  0
VERTEX
  5
342
100
AcDbEntity
  8
図
  6
CONTINUOUS
 62
     6
100
AcDbVertex
100
AcDb2dVertex
 10
1417.676032
 20
1116.8791
 30
0.0
  0
VERTEX
  5
343
100
AcDbEntity
  8
図
  6
CONTINUOUS
 62
     6
100
AcDbVertex
100
AcDb2dVertex
 10
1417.27059
 20
1117.015202
 30
0.0
  0
VERTEX
  5
344
100
AcDbEntity
  8
図
  6
CONTINUOUS
 62
     6
100
AcDbVertex
100
AcDb2dVertex
 10
1416.861318
 20
1117.112022
 30
0.0
  0
VERTEX
  5
345
100
AcDbEntity
  8
図
  6
CONTINUOUS
 62
     6
100
AcDbVertex
100
AcDb2dVertex
 10
1416.450498
 20
1117.178462
 30
0.0
  0
VERTEX
  5
346
100
AcDbEntity
  8
図
  6
CONTINUOUS
 62
     6
100
AcDbVertex
100
AcDb2dVertex
 10
1416.04042
 20
1117.223422
 30
0.0
  0
VERTEX
  5
347
100
AcDbEntity
  8
図
  6
CONTINUOUS
 62
     6
100
AcDbVertex
100
AcDb2dVertex
 10
1415.45108
 20
1117.259056
 30
0.0
  0
VERTEX
  5
348
100
AcDbEntity
  8
図
  6
CONTINUOUS
 62
     6
100
AcDbVertex
100
AcDb2dVertex
 10
1414.861334
 20
1117.25883
 30
0.0
  0
VERTEX
  5
349
100
AcDbEntity
  8
図
  6
CONTINUOUS
 62
     6
100
AcDbVertex
100
AcDb2dVertex
 10
1414.272002
 20
1117.22271
 30
0.0
  0
VERTEX
  5
34A
100
AcDbEntity
  8
図
  6
CONTINUOUS
 62
     6
100
AcDbVertex
100
AcDb2dVertex
 10
1413.65826
 20
1117.142938
 30
0.0
  0
VERTEX
  5
34B
100
AcDbEntity
  8
図
  6
CONTINUOUS
 62
     6
100
AcDbVertex
100
AcDb2dVertex
 10
1413.047262
 20
1117.004714
 30
0.0
  0
VERTEX
  5
34C
100
AcDbEntity
  8
図
  6
CONTINUOUS
 62
     6
100
AcDbVertex
100
AcDb2dVertex
 10
1412.7102
 20
1116.896234
 30
0.0
  0
VERTEX
  5
34D
100
AcDbEntity
  8
図
  6
CONTINUOUS
 62
     6
100
AcDbVertex
100
AcDb2dVertex
 10
1412.375384
 20
1116.757426
 30
0.0
  0
VERTEX
  5
34E
100
AcDbEntity
  8
図
  6
CONTINUOUS
 62
     6
100
AcDbVertex
100
AcDb2dVertex
 10
1412.04565
 20
1116.580164
 30
0.0
  0
VERTEX
  5
34F
100
AcDbEntity
  8
図
  6
CONTINUOUS
 62
     6
100
AcDbVertex
100
AcDb2dVertex
 10
1411.723836
 20
1116.356328
 30
0.0
  0
VERTEX
  5
350
100
AcDbEntity
  8
図
  6
CONTINUOUS
 62
     6
100
AcDbVertex
100
AcDb2dVertex
 10
1411.489886
 20
1116.15148
 30
0.0
  0
VERTEX
  5
351
100
AcDbEntity
  8
図
  6
CONTINUOUS
 62
     6
100
AcDbVertex
100
AcDb2dVertex
 10
1411.265976
 20
1115.906464
 30
0.0
  0
VERTEX
  5
352
100
AcDbEntity
  8
図
  6
CONTINUOUS
 62
     6
100
AcDbVertex
100
AcDb2dVertex
 10
1411.123414
 20
1115.71498
 30
0.0
  0
VERTEX
  5
353
100
AcDbEntity
  8
図
  6
CONTINUOUS
 62
     6
100
AcDbVertex
100
AcDb2dVertex
 10
1410.989952
 20
1115.498022
 30
0.0
  0
VERTEX
  5
354
100
AcDbEntity
  8
図
  6
CONTINUOUS
 62
     6
100
AcDbVertex
100
AcDb2dVertex
 10
1410.869812
 20
1115.253742
 30
0.0
  0
VERTEX
  5
355
100
AcDbEntity
  8
図
  6
CONTINUOUS
 62
     6
100
AcDbVertex
100
AcDb2dVertex
 10
1410.778232
 20
1115.012916
 30
0.0
  0
VERTEX
  5
356
100
AcDbEntity
  8
図
  6
CONTINUOUS
 62
     6
100
AcDbVertex
100
AcDb2dVertex
 10
1410.70488
 20
1114.748714
 30
0.0
  0
VERTEX
  5
357
100
AcDbEntity
  8
図
  6
CONTINUOUS
 62
     6
100
AcDbVertex
100
AcDb2dVertex
 10
1410.65976
 20
1114.49958
 30
0.0
  0
VERTEX
  5
358
100
AcDbEntity
  8
図
  6
CONTINUOUS
 62
     6
100
AcDbVertex
100
AcDb2dVertex
 10
1410.6357
 20
1114.239234
 30
0.0
  0
VERTEX
  5
359
100
AcDbEntity
  8
図
  6
CONTINUOUS
 62
     6
100
AcDbVertex
100
AcDb2dVertex
 10
1410.63241
 20
1114.100204
 30
0.0
  0
SEQEND
  5
35A
100
AcDbEntity
  8
図
  6
CONTINUOUS
 62
     6
  0
POLYLINE
  5
35B
100
AcDbEntity
  8
図
  6
CONTINUOUS
 62
     6
100
AcDb2dPolyline
 66
     1
 10
0.0
 20
0.0
 30
0.0
 70
   128
  0
VERTEX
  5
35C
100
AcDbEntity
  8
図
  6
CONTINUOUS
 62
     6
100
AcDbVertex
100
AcDb2dVertex
 10
1432.047598
 20
1110.937726
 30
0.0
  0
VERTEX
  5
35D
100
AcDbEntity
  8
図
  6
CONTINUOUS
 62
     6
100
AcDbVertex
100
AcDb2dVertex
 10
1432.631866
 20
1110.94151
 30
0.0
  0
VERTEX
  5
35E
100
AcDbEntity
  8
図
  6
CONTINUOUS
 62
     6
100
AcDbVertex
100
AcDb2dVertex
 10
1433.21603
 20
1110.953598
 30
0.0
  0
VERTEX
  5
35F
100
AcDbEntity
  8
図
  6
CONTINUOUS
 62
     6
100
AcDbVertex
100
AcDb2dVertex
 10
1433.80004
 20
1110.974954
 30
0.0
  0
VERTEX
  5
360
100
AcDbEntity
  8
図
  6
CONTINUOUS
 62
     6
100
AcDbVertex
100
AcDb2dVertex
 10
1434.383574
 20
1111.006714
 30
0.0
  0
VERTEX
  5
361
100
AcDbEntity
  8
図
  6
CONTINUOUS
 62
     6
100
AcDbVertex
100
AcDb2dVertex
 10
1434.966104
 20
1111.04994
 30
0.0
  0
VERTEX
  5
362
100
AcDbEntity
  8
図
  6
CONTINUOUS
 62
     6
100
AcDbVertex
100
AcDb2dVertex
 10
1435.547598
 20
1111.105332
 30
0.0
  0
VERTEX
  5
363
100
AcDbEntity
  8
図
  6
CONTINUOUS
 62
     6
100
AcDbVertex
100
AcDb2dVertex
 10
1436.262278
 20
1111.192144
 30
0.0
  0
VERTEX
  5
364
100
AcDbEntity
  8
図
  6
CONTINUOUS
 62
     6
100
AcDbVertex
100
AcDb2dVertex
 10
1436.975386
 20
1111.305858
 30
0.0
  0
VERTEX
  5
365
100
AcDbEntity
  8
図
  6
CONTINUOUS
 62
     6
100
AcDbVertex
100
AcDb2dVertex
 10
1437.681152
 20
1111.455166
 30
0.0
  0
VERTEX
  5
366
100
AcDbEntity
  8
図
  6
CONTINUOUS
 62
     6
100
AcDbVertex
100
AcDb2dVertex
 10
1438.37381
 20
1111.64876
 30
0.0
  0
VERTEX
  5
367
100
AcDbEntity
  8
図
  6
CONTINUOUS
 62
     6
100
AcDbVertex
100
AcDb2dVertex
 10
1439.047598
 20
1111.895332
 30
0.0
  0
VERTEX
  5
368
100
AcDbEntity
  8
図
  6
CONTINUOUS
 62
     6
100
AcDbVertex
100
AcDb2dVertex
 10
1439.488942
 20
1112.098572
 30
0.0
  0
VERTEX
  5
369
100
AcDbEntity
  8
図
  6
CONTINUOUS
 62
     6
100
AcDbVertex
100
AcDb2dVertex
 10
1439.911126
 20
1112.340342
 30
0.0
  0
VERTEX
  5
36A
100
AcDbEntity
  8
図
  6
CONTINUOUS
 62
     6
100
AcDbVertex
100
AcDb2dVertex
 10
1440.301656
 20
1112.627066
 30
0.0
  0
VERTEX
  5
36B
100
AcDbEntity
  8
図
  6
CONTINUOUS
 62
     6
100
AcDbVertex
100
AcDb2dVertex
 10
1440.557986
 20
1112.868546
 30
0.0
  0
VERTEX
  5
36C
100
AcDbEntity
  8
図
  6
CONTINUOUS
 62
     6
100
AcDbVertex
100
AcDb2dVertex
 10
1440.78028
 20
1113.141124
 30
0.0
  0
VERTEX
  5
36D
100
AcDbEntity
  8
図
  6
CONTINUOUS
 62
     6
100
AcDbVertex
100
AcDb2dVertex
 10
1440.904592
 20
1113.343904
 30
0.0
  0
VERTEX
  5
36E
100
AcDbEntity
  8
図
  6
CONTINUOUS
 62
     6
100
AcDbVertex
100
AcDb2dVertex
 10
1441.003124
 20
1113.56126
 30
0.0
  0
VERTEX
  5
36F
100
AcDbEntity
  8
図
  6
CONTINUOUS
 62
     6
100
AcDbVertex
100
AcDb2dVertex
 10
1441.070044
 20
1113.788918
 30
0.0
  0
VERTEX
  5
370
100
AcDbEntity
  8
図
  6
CONTINUOUS
 62
     6
100
AcDbVertex
100
AcDb2dVertex
 10
1441.10146
 20
1114.038924
 30
0.0
  0
VERTEX
  5
371
100
AcDbEntity
  8
図
  6
CONTINUOUS
 62
     6
100
AcDbVertex
100
AcDb2dVertex
 10
1441.090642
 20
1114.290628
 30
0.0
  0
VERTEX
  5
372
100
AcDbEntity
  8
図
  6
CONTINUOUS
 62
     6
100
AcDbVertex
100
AcDb2dVertex
 10
1441.037764
 20
1114.536392
 30
0.0
  0
VERTEX
  5
373
100
AcDbEntity
  8
図
  6
CONTINUOUS
 62
     6
100
AcDbVertex
100
AcDb2dVertex
 10
1440.94762
 20
1114.771262
 30
0.0
  0
VERTEX
  5
374
100
AcDbEntity
  8
図
  6
CONTINUOUS
 62
     6
100
AcDbVertex
100
AcDb2dVertex
 10
1440.769004
 20
1115.0747
 30
0.0
  0
VERTEX
  5
375
100
AcDbEntity
  8
図
  6
CONTINUOUS
 62
     6
100
AcDbVertex
100
AcDb2dVertex
 10
1440.543944
 20
1115.346302
 30
0.0
  0
VERTEX
  5
376
100
AcDbEntity
  8
図
  6
CONTINUOUS
 62
     6
100
AcDbVertex
100
AcDb2dVertex
 10
1440.267198
 20
1115.601758
 30
0.0
  0
VERTEX
  5
377
100
AcDbEntity
  8
図
  6
CONTINUOUS
 62
     6
100
AcDbVertex
100
AcDb2dVertex
 10
1439.96254
 20
1115.825702
 30
0.0
  0
VERTEX
  5
378
100
AcDbEntity
  8
図
  6
CONTINUOUS
 62
     6
100
AcDbVertex
100
AcDb2dVertex
 10
1439.6394
 20
1116.020994
 30
0.0
  0
VERTEX
  5
379
100
AcDbEntity
  8
図
  6
CONTINUOUS
 62
     6
100
AcDbVertex
100
AcDb2dVertex
 10
1439.134694
 20
1116.268718
 30
0.0
  0
VERTEX
  5
37A
100
AcDbEntity
  8
図
  6
CONTINUOUS
 62
     6
100
AcDbVertex
100
AcDb2dVertex
 10
1438.609016
 20
1116.47284
 30
0.0
  0
VERTEX
  5
37B
100
AcDbEntity
  8
図
  6
CONTINUOUS
 62
     6
100
AcDbVertex
100
AcDb2dVertex
 10
1438.069316
 20
1116.640186
 30
0.0
  0
VERTEX
  5
37C
100
AcDbEntity
  8
図
  6
CONTINUOUS
 62
     6
100
AcDbVertex
100
AcDb2dVertex
 10
1437.522542
 20
1116.777582
 30
0.0
  0
VERTEX
  5
37D
100
AcDbEntity
  8
図
  6
CONTINUOUS
 62
     6
100
AcDbVertex
100
AcDb2dVertex
 10
1437.028082
 20
1116.881046
 30
0.0
  0
VERTEX
  5
37E
100
AcDbEntity
  8
図
  6
CONTINUOUS
 62
     6
100
AcDbVertex
100
AcDb2dVertex
 10
1436.530464
 20
1116.96825
 30
0.0
  0
VERTEX
  5
37F
100
AcDbEntity
  8
図
  6
CONTINUOUS
 62
     6
100
AcDbVertex
100
AcDb2dVertex
 10
1436.029822
 20
1117.04079
 30
0.0
  0
VERTEX
  5
380
100
AcDbEntity
  8
図
  6
CONTINUOUS
 62
     6
100
AcDbVertex
100
AcDb2dVertex
 10
1435.527446
 20
1117.100076
 30
0.0
  0
VERTEX
  5
381
100
AcDbEntity
  8
図
  6
CONTINUOUS
 62
     6
100
AcDbVertex
100
AcDb2dVertex
 10
1435.023306
 20
1117.147712
 30
0.0
  0
VERTEX
  5
382
100
AcDbEntity
  8
図
  6
CONTINUOUS
 62
     6
100
AcDbVertex
100
AcDb2dVertex
 10
1434.518308
 20
1117.185208
 30
0.0
  0
VERTEX
  5
383
100
AcDbEntity
  8
図
  6
CONTINUOUS
 62
     6
100
AcDbVertex
100
AcDb2dVertex
 10
1434.013268
 20
1117.21409
 30
0.0
  0
VERTEX
  5
384
100
AcDbEntity
  8
図
  6
CONTINUOUS
 62
     6
100
AcDbVertex
100
AcDb2dVertex
 10
1433.507862
 20
1117.2358
 30
0.0
  0
VERTEX
  5
385
100
AcDbEntity
  8
図
  6
CONTINUOUS
 62
     6
100
AcDbVertex
100
AcDb2dVertex
 10
1432.818724
 20
1117.255608
 30
0.0
  0
VERTEX
  5
386
100
AcDbEntity
  8
図
  6
CONTINUOUS
 62
     6
100
AcDbVertex
100
AcDb2dVertex
 10
1432.129354
 20
1117.263914
 30
0.0
  0
VERTEX
  5
387
100
AcDbEntity
  8
図
  6
CONTINUOUS
 62
     6
100
AcDbVertex
100
AcDb2dVertex
 10
1431.439748
 20
1117.260004
 30
0.0
  0
VERTEX
  5
388
100
AcDbEntity
  8
図
  6
CONTINUOUS
 62
     6
100
AcDbVertex
100
AcDb2dVertex
 10
1430.750336
 20
1117.24321
 30
0.0
  0
VERTEX
  5
389
100
AcDbEntity
  8
図
  6
CONTINUOUS
 62
     6
100
AcDbVertex
100
AcDb2dVertex
 10
1430.061664
 20
1117.21298
 30
0.0
  0
VERTEX
  5
38A
100
AcDbEntity
  8
図
  6
CONTINUOUS
 62
     6
100
AcDbVertex
100
AcDb2dVertex
 10
1429.373734
 20
1117.169092
 30
0.0
  0
VERTEX
  5
38B
100
AcDbEntity
  8
図
  6
CONTINUOUS
 62
     6
100
AcDbVertex
100
AcDb2dVertex
 10
1428.56659
 20
1117.09861
 30
0.0
  0
VERTEX
  5
38C
100
AcDbEntity
  8
図
  6
CONTINUOUS
 62
     6
100
AcDbVertex
100
AcDb2dVertex
 10
1427.760136
 20
1117.000526
 30
0.0
  0
VERTEX
  5
38D
100
AcDbEntity
  8
図
  6
CONTINUOUS
 62
     6
100
AcDbVertex
100
AcDb2dVertex
 10
1426.959934
 20
1116.864884
 30
0.0
  0
VERTEX
  5
38E
100
AcDbEntity
  8
図
  6
CONTINUOUS
 62
     6
100
AcDbVertex
100
AcDb2dVertex
 10
1426.17155
 20
1116.681728
 30
0.0
  0
VERTEX
  5
38F
100
AcDbEntity
  8
図
  6
CONTINUOUS
 62
     6
100
AcDbVertex
100
AcDb2dVertex
 10
1425.400548
 20
1116.441104
 30
0.0
  0
VERTEX
  5
390
100
AcDbEntity
  8
図
  6
CONTINUOUS
 62
     6
100
AcDbVertex
100
AcDb2dVertex
 10
1424.89483
 20
1116.23941
 30
0.0
  0
VERTEX
  5
391
100
AcDbEntity
  8
図
  6
CONTINUOUS
 62
     6
100
AcDbVertex
100
AcDb2dVertex
 10
1424.407708
 20
1115.994814
 30
0.0
  0
VERTEX
  5
392
100
AcDbEntity
  8
図
  6
CONTINUOUS
 62
     6
100
AcDbVertex
100
AcDb2dVertex
 10
1423.952618
 20
1115.698844
 30
0.0
  0
VERTEX
  5
393
100
AcDbEntity
  8
図
  6
CONTINUOUS
 62
     6
100
AcDbVertex
100
AcDb2dVertex
 10
1423.667152
 20
1115.461
 30
0.0
  0
VERTEX
  5
394
100
AcDbEntity
  8
図
  6
CONTINUOUS
 62
     6
100
AcDbVertex
100
AcDb2dVertex
 10
1423.413586
 20
1115.189982
 30
0.0
  0
VERTEX
  5
395
100
AcDbEntity
  8
図
  6
CONTINUOUS
 62
     6
100
AcDbVertex
100
AcDb2dVertex
 10
1423.26687
 20
1114.986364
 30
0.0
  0
VERTEX
  5
396
100
AcDbEntity
  8
図
  6
CONTINUOUS
 62
     6
100
AcDbVertex
100
AcDb2dVertex
 10
1423.145378
 20
1114.765886
 30
0.0
  0
VERTEX
  5
397
100
AcDbEntity
  8
図
  6
CONTINUOUS
 62
     6
100
AcDbVertex
100
AcDb2dVertex
 10
1423.055966
 20
1114.532094
 30
0.0
  0
VERTEX
  5
398
100
AcDbEntity
  8
図
  6
CONTINUOUS
 62
     6
100
AcDbVertex
100
AcDb2dVertex
 10
1423.003912
 20
1114.283616
 30
0.0
  0
VERTEX
  5
399
100
AcDbEntity
  8
図
  6
CONTINUOUS
 62
     6
100
AcDbVertex
100
AcDb2dVertex
 10
1422.993872
 20
1114.030044
 30
0.0
  0
VERTEX
  5
39A
100
AcDbEntity
  8
図
  6
CONTINUOUS
 62
     6
100
AcDbVertex
100
AcDb2dVertex
 10
1423.02761
 20
1113.778558
 30
0.0
  0
VERTEX
  5
39B
100
AcDbEntity
  8
図
  6
CONTINUOUS
 62
     6
100
AcDbVertex
100
AcDb2dVertex
 10
1423.101496
 20
1113.535648
 30
0.0
  0
VERTEX
  5
39C
100
AcDbEntity
  8
図
  6
CONTINUOUS
 62
     6
100
AcDbVertex
100
AcDb2dVertex
 10
1423.248642
 20
1113.242524
 30
0.0
  0
VERTEX
  5
39D
100
AcDbEntity
  8
図
  6
CONTINUOUS
 62
     6
100
AcDbVertex
100
AcDb2dVertex
 10
1423.44129
 20
1112.97642
 30
0.0
  0
VERTEX
  5
39E
100
AcDbEntity
  8
図
  6
CONTINUOUS
 62
     6
100
AcDbVertex
100
AcDb2dVertex
 10
1423.673706
 20
1112.73278
 30
0.0
  0
VERTEX
  5
39F
100
AcDbEntity
  8
図
  6
CONTINUOUS
 62
     6
100
AcDbVertex
100
AcDb2dVertex
 10
1423.932952
 20
1112.515838
 30
0.0
  0
VERTEX
  5
3A0
100
AcDbEntity
  8
図
  6
CONTINUOUS
 62
     6
100
AcDbVertex
100
AcDb2dVertex
 10
1424.210626
 20
1112.323958
 30
0.0
  0
VERTEX
  5
3A1
100
AcDbEntity
  8
図
  6
CONTINUOUS
 62
     6
100
AcDbVertex
100
AcDb2dVertex
 10
1424.628154
 20
1112.087118
 30
0.0
  0
VERTEX
  5
3A2
100
AcDbEntity
  8
図
  6
CONTINUOUS
 62
     6
100
AcDbVertex
100
AcDb2dVertex
 10
1425.065914
 20
1111.886588
 30
0.0
  0
VERTEX
  5
3A3
100
AcDbEntity
  8
図
  6
CONTINUOUS
 62
     6
100
AcDbVertex
100
AcDb2dVertex
 10
1425.517684
 20
1111.717334
 30
0.0
  0
VERTEX
  5
3A4
100
AcDbEntity
  8
図
  6
CONTINUOUS
 62
     6
100
AcDbVertex
100
AcDb2dVertex
 10
1425.977244
 20
1111.574328
 30
0.0
  0
VERTEX
  5
3A5
100
AcDbEntity
  8
図
  6
CONTINUOUS
 62
     6
100
AcDbVertex
100
AcDb2dVertex
 10
1426.71074
 20
1111.390832
 30
0.0
  0
VERTEX
  5
3A6
100
AcDbEntity
  8
図
  6
CONTINUOUS
 62
     6
100
AcDbVertex
100
AcDb2dVertex
 10
1427.45463
 20
1111.249866
 30
0.0
  0
VERTEX
  5
3A7
100
AcDbEntity
  8
図
  6
CONTINUOUS
 62
     6
100
AcDbVertex
100
AcDb2dVertex
 10
1428.205004
 20
1111.143806
 30
0.0
  0
VERTEX
  5
3A8
100
AcDbEntity
  8
図
  6
CONTINUOUS
 62
     6
100
AcDbVertex
100
AcDb2dVertex
 10
1428.957958
 20
1111.065028
 30
0.0
  0
VERTEX
  5
3A9
100
AcDbEntity
  8
図
  6
CONTINUOUS
 62
     6
100
AcDbVertex
100
AcDb2dVertex
 10
1429.471756
 20
1111.023596
 30
0.0
  0
VERTEX
  5
3AA
100
AcDbEntity
  8
図
  6
CONTINUOUS
 62
     6
100
AcDbVertex
100
AcDb2dVertex
 10
1429.986192
 20
1110.99101
 30
0.0
  0
VERTEX
  5
3AB
100
AcDbEntity
  8
図
  6
CONTINUOUS
 62
     6
100
AcDbVertex
100
AcDb2dVertex
 10
1430.501244
 20
1110.966756
 30
0.0
  0
VERTEX
  5
3AC
100
AcDbEntity
  8
図
  6
CONTINUOUS
 62
     6
100
AcDbVertex
100
AcDb2dVertex
 10
1431.016604
 20
1110.950224
 30
0.0
  0
VERTEX
  5
3AD
100
AcDbEntity
  8
図
  6
CONTINUOUS
 62
     6
100
AcDbVertex
100
AcDb2dVertex
 10
1431.532066
 20
1110.940768
 30
0.0
  0
VERTEX
  5
3AE
100
AcDbEntity
  8
図
  6
CONTINUOUS
 62
     6
100
AcDbVertex
100
AcDb2dVertex
 10
1432.047598
 20
1110.937726
 30
0.0
  0
SEQEND
  5
3AF
100
AcDbEntity
  8
図
  6
CONTINUOUS
 62
     6
  0
POLYLINE
  5
3B0
100
AcDbEntity
  8
図
  6
CONTINUOUS
 62
     6
100
AcDb2dPolyline
 66
     1
 10
0.0
 20
0.0
 30
0.0
 70
   128
  0
VERTEX
  5
3B1
100
AcDbEntity
  8
図
  6
CONTINUOUS
 62
     6
100
AcDbVertex
100
AcDb2dVertex
 10
1444.4074
 20
1114.100204
 30
0.0
  0
VERTEX
  5
3B2
100
AcDbEntity
  8
図
  6
CONTINUOUS
 62
     6
100
AcDbVertex
100
AcDb2dVertex
 10
1444.419538
 20
1113.8344
 30
0.0
  0
VERTEX
  5
3B3
100
AcDbEntity
  8
図
  6
CONTINUOUS
 62
     6
100
AcDbVertex
100
AcDb2dVertex
 10
1444.454332
 20
1113.576546
 30
0.0
  0
VERTEX
  5
3B4
100
AcDbEntity
  8
図
  6
CONTINUOUS
 62
     6
100
AcDbVertex
100
AcDb2dVertex
 10
1444.508884
 20
1113.33489
 30
0.0
  0
VERTEX
  5
3B5
100
AcDbEntity
  8
図
  6
CONTINUOUS
 62
     6
100
AcDbVertex
100
AcDb2dVertex
 10
1444.579656
 20
1113.1104
 30
0.0
  0
VERTEX
  5
3B6
100
AcDbEntity
  8
図
  6
CONTINUOUS
 62
     6
100
AcDbVertex
100
AcDb2dVertex
 10
1444.675356
 20
1112.87821
 30
0.0
  0
VERTEX
  5
3B7
100
AcDbEntity
  8
図
  6
CONTINUOUS
 62
     6
100
AcDbVertex
100
AcDb2dVertex
 10
1444.783986
 20
1112.668298
 30
0.0
  0
VERTEX
  5
3B8
100
AcDbEntity
  8
図
  6
CONTINUOUS
 62
     6
100
AcDbVertex
100
AcDb2dVertex
 10
1444.90183
 20
1112.480126
 30
0.0
  0
VERTEX
  5
3B9
100
AcDbEntity
  8
図
  6
CONTINUOUS
 62
     6
100
AcDbVertex
100
AcDb2dVertex
 10
1445.130802
 20
1112.187612
 30
0.0
  0
VERTEX
  5
3BA
100
AcDbEntity
  8
図
  6
CONTINUOUS
 62
     6
100
AcDbVertex
100
AcDb2dVertex
 10
1445.375332
 20
1111.94589
 30
0.0
  0
VERTEX
  5
3BB
100
AcDbEntity
  8
図
  6
CONTINUOUS
 62
     6
100
AcDbVertex
100
AcDb2dVertex
 10
1445.628908
 20
1111.746556
 30
0.0
  0
VERTEX
  5
3BC
100
AcDbEntity
  8
図
  6
CONTINUOUS
 62
     6
100
AcDbVertex
100
AcDb2dVertex
 10
1446.019836
 20
1111.50519
 30
0.0
  0
VERTEX
  5
3BD
100
AcDbEntity
  8
図
  6
CONTINUOUS
 62
     6
100
AcDbVertex
100
AcDb2dVertex
 10
1446.419162
 20
1111.320906
 30
0.0
  0
VERTEX
  5
3BE
100
AcDbEntity
  8
図
  6
CONTINUOUS
 62
     6
100
AcDbVertex
100
AcDb2dVertex
 10
1446.824604
 20
1111.184806
 30
0.0
  0
VERTEX
  5
3BF
100
AcDbEntity
  8
図
  6
CONTINUOUS
 62
     6
100
AcDbVertex
100
AcDb2dVertex
 10
1447.233878
 20
1111.087986
 30
0.0
  0
VERTEX
  5
3C0
100
AcDbEntity
  8
図
  6
CONTINUOUS
 62
     6
100
AcDbVertex
100
AcDb2dVertex
 10
1447.644696
 20
1111.021546
 30
0.0
  0
VERTEX
  5
3C1
100
AcDbEntity
  8
図
  6
CONTINUOUS
 62
     6
100
AcDbVertex
100
AcDb2dVertex
 10
1448.054776
 20
1110.976586
 30
0.0
  0
VERTEX
  5
3C2
100
AcDbEntity
  8
図
  6
CONTINUOUS
 62
     6
100
AcDbVertex
100
AcDb2dVertex
 10
1448.644116
 20
1110.940952
 30
0.0
  0
VERTEX
  5
3C3
100
AcDbEntity
  8
図
  6
CONTINUOUS
 62
     6
100
AcDbVertex
100
AcDb2dVertex
 10
1449.233862
 20
1110.941178
 30
0.0
  0
VERTEX
  5
3C4
100
AcDbEntity
  8
図
  6
CONTINUOUS
 62
     6
100
AcDbVertex
100
AcDb2dVertex
 10
1449.823194
 20
1110.977296
 30
0.0
  0
VERTEX
  5
3C5
100
AcDbEntity
  8
図
  6
CONTINUOUS
 62
     6
100
AcDbVertex
100
AcDb2dVertex
 10
1450.436936
 20
1111.05707
 30
0.0
  0
VERTEX
  5
3C6
100
AcDbEntity
  8
図
  6
CONTINUOUS
 62
     6
100
AcDbVertex
100
AcDb2dVertex
 10
1451.047934
 20
1111.195294
 30
0.0
  0
VERTEX
  5
3C7
100
AcDbEntity
  8
図
  6
CONTINUOUS
 62
     6
100
AcDbVertex
100
AcDb2dVertex
 10
1451.384994
 20
1111.303774
 30
0.0
  0
VERTEX
  5
3C8
100
AcDbEntity
  8
図
  6
CONTINUOUS
 62
     6
100
AcDbVertex
100
AcDb2dVertex
 10
1451.71981
 20
1111.442582
 30
0.0
  0
VERTEX
  5
3C9
100
AcDbEntity
  8
図
  6
CONTINUOUS
 62
     6
100
AcDbVertex
100
AcDb2dVertex
 10
1452.049544
 20
1111.619844
 30
0.0
  0
VERTEX
  5
3CA
100
AcDbEntity
  8
図
  6
CONTINUOUS
 62
     6
100
AcDbVertex
100
AcDb2dVertex
 10
1452.371358
 20
1111.843678
 30
0.0
  0
VERTEX
  5
3CB
100
AcDbEntity
  8
図
  6
CONTINUOUS
 62
     6
100
AcDbVertex
100
AcDb2dVertex
 10
1452.605308
 20
1112.048528
 30
0.0
  0
VERTEX
  5
3CC
100
AcDbEntity
  8
図
  6
CONTINUOUS
 62
     6
100
AcDbVertex
100
AcDb2dVertex
 10
1452.829218
 20
1112.293542
 30
0.0
  0
VERTEX
  5
3CD
100
AcDbEntity
  8
図
  6
CONTINUOUS
 62
     6
100
AcDbVertex
100
AcDb2dVertex
 10
1452.97178
 20
1112.485028
 30
0.0
  0
VERTEX
  5
3CE
100
AcDbEntity
  8
図
  6
CONTINUOUS
 62
     6
100
AcDbVertex
100
AcDb2dVertex
 10
1453.105242
 20
1112.701986
 30
0.0
  0
VERTEX
  5
3CF
100
AcDbEntity
  8
図
  6
CONTINUOUS
 62
     6
100
AcDbVertex
100
AcDb2dVertex
 10
1453.225382
 20
1112.946264
 30
0.0
  0
VERTEX
  5
3D0
100
AcDbEntity
  8
図
  6
CONTINUOUS
 62
     6
100
AcDbVertex
100
AcDb2dVertex
 10
1453.316964
 20
1113.187092
 30
0.0
  0
VERTEX
  5
3D1
100
AcDbEntity
  8
図
  6
CONTINUOUS
 62
     6
100
AcDbVertex
100
AcDb2dVertex
 10
1453.390316
 20
1113.451294
 30
0.0
  0
VERTEX
  5
3D2
100
AcDbEntity
  8
図
  6
CONTINUOUS
 62
     6
100
AcDbVertex
100
AcDb2dVertex
 10
1453.435434
 20
1113.700428
 30
0.0
  0
VERTEX
  5
3D3
100
AcDbEntity
  8
図
  6
CONTINUOUS
 62
     6
100
AcDbVertex
100
AcDb2dVertex
 10
1453.459496
 20
1113.960774
 30
0.0
  0
VERTEX
  5
3D4
100
AcDbEntity
  8
図
  6
CONTINUOUS
 62
     6
100
AcDbVertex
100
AcDb2dVertex
 10
1453.462786
 20
1114.100204
 30
0.0
  0
VERTEX
  5
3D5
100
AcDbEntity
  8
図
  6
CONTINUOUS
 62
     6
100
AcDbVertex
100
AcDb2dVertex
 10
1453.45063
 20
1114.365804
 30
0.0
  0
VERTEX
  5
3D6
100
AcDbEntity
  8
図
  6
CONTINUOUS
 62
     6
100
AcDbVertex
100
AcDb2dVertex
 10
1453.415852
 20
1114.62346
 30
0.0
  0
VERTEX
  5
3D7
100
AcDbEntity
  8
図
  6
CONTINUOUS
 62
     6
100
AcDbVertex
100
AcDb2dVertex
 10
1453.361302
 20
1114.865118
 30
0.0
  0
VERTEX
  5
3D8
100
AcDbEntity
  8
図
  6
CONTINUOUS
 62
     6
100
AcDbVertex
100
AcDb2dVertex
 10
1453.29053
 20
1115.089608
 30
0.0
  0
VERTEX
  5
3D9
100
AcDbEntity
  8
図
  6
CONTINUOUS
 62
     6
100
AcDbVertex
100
AcDb2dVertex
 10
1453.19483
 20
1115.321798
 30
0.0
  0
VERTEX
  5
3DA
100
AcDbEntity
  8
図
  6
CONTINUOUS
 62
     6
100
AcDbVertex
100
AcDb2dVertex
 10
1453.0862
 20
1115.531708
 30
0.0
  0
VERTEX
  5
3DB
100
AcDbEntity
  8
図
  6
CONTINUOUS
 62
     6
100
AcDbVertex
100
AcDb2dVertex
 10
1452.968356
 20
1115.719882
 30
0.0
  0
VERTEX
  5
3DC
100
AcDbEntity
  8
図
  6
CONTINUOUS
 62
     6
100
AcDbVertex
100
AcDb2dVertex
 10
1452.739384
 20
1116.012396
 30
0.0
  0
VERTEX
  5
3DD
100
AcDbEntity
  8
図
  6
CONTINUOUS
 62
     6
100
AcDbVertex
100
AcDb2dVertex
 10
1452.494854
 20
1116.254116
 30
0.0
  0
VERTEX
  5
3DE
100
AcDbEntity
  8
図
  6
CONTINUOUS
 62
     6
100
AcDbVertex
100
AcDb2dVertex
 10
1452.241278
 20
1116.45345
 30
0.0
  0
VERTEX
  5
3DF
100
AcDbEntity
  8
図
  6
CONTINUOUS
 62
     6
100
AcDbVertex
100
AcDb2dVertex
 10
1451.85035
 20
1116.694818
 30
0.0
  0
VERTEX
  5
3E0
100
AcDbEntity
  8
図
  6
CONTINUOUS
 62
     6
100
AcDbVertex
100
AcDb2dVertex
 10
1451.451024
 20
1116.8791
 30
0.0
  0
VERTEX
  5
3E1
100
AcDbEntity
  8
図
  6
CONTINUOUS
 62
     6
100
AcDbVertex
100
AcDb2dVertex
 10
1451.045582
 20
1117.015202
 30
0.0
  0
VERTEX
  5
3E2
100
AcDbEntity
  8
図
  6
CONTINUOUS
 62
     6
100
AcDbVertex
100
AcDb2dVertex
 10
1450.636308
 20
1117.112022
 30
0.0
  0
VERTEX
  5
3E3
100
AcDbEntity
  8
図
  6
CONTINUOUS
 62
     6
100
AcDbVertex
100
AcDb2dVertex
 10
1450.22549
 20
1117.178462
 30
0.0
  0
VERTEX
  5
3E4
100
AcDbEntity
  8
図
  6
CONTINUOUS
 62
     6
100
AcDbVertex
100
AcDb2dVertex
 10
1449.81541
 20
1117.223422
 30
0.0
  0
VERTEX
  5
3E5
100
AcDbEntity
  8
図
  6
CONTINUOUS
 62
     6
100
AcDbVertex
100
AcDb2dVertex
 10
1449.22607
 20
1117.259056
 30
0.0
  0
VERTEX
  5
3E6
100
AcDbEntity
  8
図
  6
CONTINUOUS
 62
     6
100
AcDbVertex
100
AcDb2dVertex
 10
1448.636324
 20
1117.25883
 30
0.0
  0
VERTEX
  5
3E7
100
AcDbEntity
  8
図
  6
CONTINUOUS
 62
     6
100
AcDbVertex
100
AcDb2dVertex
 10
1448.046992
 20
1117.22271
 30
0.0
  0
VERTEX
  5
3E8
100
AcDbEntity
  8
図
  6
CONTINUOUS
 62
     6
100
AcDbVertex
100
AcDb2dVertex
 10
1447.43325
 20
1117.142938
 30
0.0
  0
VERTEX
  5
3E9
100
AcDbEntity
  8
図
  6
CONTINUOUS
 62
     6
100
AcDbVertex
100
AcDb2dVertex
 10
1446.822252
 20
1117.004714
 30
0.0
  0
VERTEX
  5
3EA
100
AcDbEntity
  8
図
  6
CONTINUOUS
 62
     6
100
AcDbVertex
100
AcDb2dVertex
 10
1446.485192
 20
1116.896234
 30
0.0
  0
VERTEX
  5
3EB
100
AcDbEntity
  8
図
  6
CONTINUOUS
 62
     6
100
AcDbVertex
100
AcDb2dVertex
 10
1446.150374
 20
1116.757426
 30
0.0
  0
VERTEX
  5
3EC
100
AcDbEntity
  8
図
  6
CONTINUOUS
 62
     6
100
AcDbVertex
100
AcDb2dVertex
 10
1445.820642
 20
1116.580164
 30
0.0
  0
VERTEX
  5
3ED
100
AcDbEntity
  8
図
  6
CONTINUOUS
 62
     6
100
AcDbVertex
100
AcDb2dVertex
 10
1445.498828
 20
1116.356328
 30
0.0
  0
VERTEX
  5
3EE
100
AcDbEntity
  8
図
  6
CONTINUOUS
 62
     6
100
AcDbVertex
100
AcDb2dVertex
 10
1445.264878
 20
1116.15148
 30
0.0
  0
VERTEX
  5
3EF
100
AcDbEntity
  8
図
  6
CONTINUOUS
 62
     6
100
AcDbVertex
100
AcDb2dVertex
 10
1445.040968
 20
1115.906464
 30
0.0
  0
VERTEX
  5
3F0
100
AcDbEntity
  8
図
  6
CONTINUOUS
 62
     6
100
AcDbVertex
100
AcDb2dVertex
 10
1444.898406
 20
1115.71498
 30
0.0
  0
VERTEX
  5
3F1
100
AcDbEntity
  8
図
  6
CONTINUOUS
 62
     6
100
AcDbVertex
100
AcDb2dVertex
 10
1444.764944
 20
1115.498022
 30
0.0
  0
VERTEX
  5
3F2
100
AcDbEntity
  8
図
  6
CONTINUOUS
 62
     6
100
AcDbVertex
100
AcDb2dVertex
 10
1444.644804
 20
1115.253742
 30
0.0
  0
VERTEX
  5
3F3
100
AcDbEntity
  8
図
  6
CONTINUOUS
 62
     6
100
AcDbVertex
100
AcDb2dVertex
 10
1444.553222
 20
1115.012916
 30
0.0
  0
VERTEX
  5
3F4
100
AcDbEntity
  8
図
  6
CONTINUOUS
 62
     6
100
AcDbVertex
100
AcDb2dVertex
 10
1444.47987
 20
1114.748714
 30
0.0
  0
VERTEX
  5
3F5
100
AcDbEntity
  8
図
  6
CONTINUOUS
 62
     6
100
AcDbVertex
100
AcDb2dVertex
 10
1444.434752
 20
1114.49958
 30
0.0
  0
VERTEX
  5
3F6
100
AcDbEntity
  8
図
  6
CONTINUOUS
 62
     6
100
AcDbVertex
100
AcDb2dVertex
 10
1444.41069
 20
1114.239234
 30
0.0
  0
VERTEX
  5
3F7
100
AcDbEntity
  8
図
  6
CONTINUOUS
 62
     6
100
AcDbVertex
100
AcDb2dVertex
 10
1444.4074
 20
1114.100204
 30
0.0
  0
SEQEND
  5
3F8
100
AcDbEntity
  8
図
  6
CONTINUOUS
 62
     6
  0
LINE
  5
3F9
100
AcDbEntity
  8
図
  6
CONTINUOUS
 62
     6
100
AcDbLine
 10
1421.983082
 20
1118.6
 30
0.0
 11
1421.983082
 21
1125.6
 31
0.0
  0
LINE
  5
3FA
100
AcDbEntity
  8
図
  6
CONTINUOUS
 62
     6
100
AcDbLine
 10
1420.725018
 20
1118.6
 30
0.0
 11
1420.725018
 21
1125.6
 31
0.0
  0
LINE
  5
3FB
100
AcDbEntity
  8
図
  6
CONTINUOUS
 62
     6
100
AcDbLine
 10
1442.112114
 20
1118.6
 30
0.0
 11
1442.112114
 21
1125.6
 31
0.0
  0
LINE
  5
3FC
100
AcDbEntity
  8
図
  6
CONTINUOUS
 62
     6
100
AcDbLine
 10
1443.370178
 20
1118.6
 30
0.0
 11
1443.370178
 21
1125.6
 31
0.0
  0
LINE
  5
3FD
100
AcDbEntity
  8
図
  6
CONTINUOUS
 62
     6
100
AcDbLine
 10
1415.547602
 20
1117.6
 30
0.0
 11
1415.547602
 21
1118.6
 31
0.0
  0
LINE
  5
3FE
100
AcDbEntity
  8
図
  6
CONTINUOUS
 62
     6
100
AcDbLine
 10
1448.547602
 20
1117.6
 30
0.0
 11
1448.547602
 21
1118.6
 31
0.0
  0
LINE
  5
3FF
100
AcDbEntity
  8
図
  6
CONTINUOUS
 62
     2
100
AcDbLine
 10
1404.547602
 20
1130.0
 30
0.0
 11
1404.547602
 21
1127.5
 31
0.0
  0
LINE
  5
400
100
AcDbEntity
  8
図
  6
CONTINUOUS
 62
     2
100
AcDbLine
 10
1407.724073
 20
1133.0
 30
0.0
 11
1404.547602
 21
1130.0
 31
0.0
  0
LINE
  5
401
100
AcDbEntity
  8
図
  6
CONTINUOUS
 62
     2
100
AcDbLine
 10
1459.547602
 20
1130.0
 30
0.0
 11
1459.547602
 21
1127.5
 31
0.0
  0
LINE
  5
402
100
AcDbEntity
  8
図
  6
CONTINUOUS
 62
     2
100
AcDbLine
 10
1456.371131
 20
1133.0
 30
0.0
 11
1459.547602
 21
1130.0
 31
0.0
  0
LINE
  5
403
100
AcDbEntity
  8
図
  6
CONTINUOUS
 62
     2
100
AcDbLine
 10
1452.047602
 20
1110.6
 30
0.0
 11
1452.047602
 21
1103.2784
 31
0.0
  0
LINE
  5
404
100
AcDbEntity
  8
図
  6
CONTINUOUS
 62
     2
100
AcDbLine
 10
1448.047602
 20
1071.1
 30
0.0
 11
1452.047602
 21
1073.1
 31
0.0
  0
LINE
  5
405
100
AcDbEntity
  8
図
  6
CONTINUOUS
 62
     2
100
AcDbLine
 10
1487.547602
 20
1102.1
 30
0.0
 11
1487.547602
 21
1078.1
 31
0.0
  0
LINE
  5
406
100
AcDbEntity
  8
図
  6
CONTINUOUS
 62
     2
100
AcDbLine
 10
1494.047602
 20
1102.1
 30
0.0
 11
1494.047602
 21
1078.1
 31
0.0
  0
LINE
  5
407
100
AcDbEntity
  8
図
  6
CONTINUOUS
 62
     2
100
AcDbLine
 10
1482.547602
 20
1100.6
 30
0.0
 11
1474.047602
 21
1100.6
 31
0.0
  0
LINE
  5
408
100
AcDbEntity
  8
図
  6
CONTINUOUS
 62
     2
100
AcDbLine
 10
1506.047602
 20
1098.1
 30
0.0
 11
1506.047602
 21
1082.1
 31
0.0
  0
LINE
  5
409
100
AcDbEntity
  8
図
  6
CONTINUOUS
 62
     2
100
AcDbLine
 10
1482.547602
 20
1101.6
 30
0.0
 11
1482.547602
 21
1078.6
 31
0.0
  0
LINE
  5
40A
100
AcDbEntity
  8
図
  6
CONTINUOUS
 62
     2
100
AcDbLine
 10
1494.047602
 20
1102.1
 30
0.0
 11
1487.547602
 21
1102.1
 31
0.0
  0
ARC
  5
40B
100
AcDbEntity
  8
図
  6
CONTINUOUS
 62
     2
100
AcDbCircle
 10
1503.047602
 20
1098.1
 30
0.0
 40
3.0
100
AcDbArc
 50
0.0
 51
90.0
  0
LINE
  5
40C
100
AcDbEntity
  8
図
  6
CONTINUOUS
 62
     2
100
AcDbLine
 10
1503.047602
 20
1101.1
 30
0.0
 11
1494.047602
 21
1101.1
 31
0.0
  0
LINE
  5
40D
100
AcDbEntity
  8
図
  6
CONTINUOUS
 62
     2
100
AcDbLine
 10
1482.547602
 20
1079.6
 30
0.0
 11
1474.047602
 21
1079.6
 31
0.0
  0
LINE
  5
40E
100
AcDbEntity
  8
図
  6
CONTINUOUS
 62
     2
100
AcDbLine
 10
1494.047602
 20
1078.1
 30
0.0
 11
1487.547602
 21
1078.1
 31
0.0
  0
ARC
  5
40F
100
AcDbEntity
  8
図
  6
CONTINUOUS
 62
     2
100
AcDbCircle
 10
1503.047602
 20
1082.1
 30
0.0
 40
3.0
100
AcDbArc
 50
270.0
 51
0.0
  0
LINE
  5
410
100
AcDbEntity
  8
図
  6
CONTINUOUS
 62
     2
100
AcDbLine
 10
1503.047602
 20
1079.1
 30
0.0
 11
1494.047602
 21
1079.1
 31
0.0
  0
LINE
  5
411
100
AcDbEntity
  8
図
  6
CONTINUOUS
 62
     2
100
AcDbLine
 10
1474.047602
 20
1100.6
 30
0.0
 11
1474.047602
 21
1079.6
 31
0.0
  0
LINE
  5
412
100
AcDbEntity
  8
図
  6
CONTINUOUS
 62
     2
100
AcDbLine
 10
1454.708866
 20
1100.297584
 30
0.0
 11
1474.047602
 21
1098.1
 31
0.0
  0
LINE
  5
413
100
AcDbEntity
  8
図
  6
CONTINUOUS
 62
     2
100
AcDbLine
 10
1454.708866
 20
1079.902424
 30
0.0
 11
1474.047602
 21
1082.1
 31
0.0
  0
ARC
  5
414
100
AcDbEntity
  8
図
  6
CONTINUOUS
 62
     2
100
AcDbCircle
 10
1455.047602
 20
1076.921608
 30
0.0
 40
3.0
100
AcDbArc
 50
96.483074
 51
180.0
  0
ARC
  5
415
100
AcDbEntity
  8
図
  6
CONTINUOUS
 62
     2
100
AcDbCircle
 10
1455.047602
 20
1103.2784
 30
0.0
 40
3.0
100
AcDbArc
 50
180.0
 51
263.516926
  0
LINE
  5
416
100
AcDbEntity
  8
図
  6
CONTINUOUS
 62
     2
100
AcDbLine
 10
1452.047602
 20
1076.921608
 30
0.0
 11
1452.047602
 21
1073.1
 31
0.0
  0
LINE
  5
417
100
AcDbEntity
  8
図
  6
CONTINUOUS
 62
     2
100
AcDbLine
 10
1487.547602
 20
1101.6
 30
0.0
 11
1482.547602
 21
1101.6
 31
0.0
  0
LINE
  5
418
100
AcDbEntity
  8
図
  6
CONTINUOUS
 62
     2
100
AcDbLine
 10
1487.547602
 20
1078.6
 30
0.0
 11
1482.547602
 21
1078.6
 31
0.0
  0
LINE
  5
419
100
AcDbEntity
  8
図
  6
CONTINUOUS
 62
     2
100
AcDbLine
 10
1627.047602
 20
1093.1
 30
0.0
 11
1627.047602
 21
1087.1
 31
0.0
  0
LINE
  5
41A
100
AcDbEntity
  8
図
  6
CONTINUOUS
 62
     7
100
AcDbLine
 10
1390.758538
 20
1137.390624
 30
0.0
 11
1390.683713
 21
1138.0
 31
0.0
  0
ARC
  5
41B
100
AcDbEntity
  8
図
  6
CONTINUOUS
 62
     6
100
AcDbCircle
 10
1665.99999
 20
1307.0
 30
0.0
 40
1.0
100
AcDbArc
 50
0.0
 51
89.999989
  0
LEADER
  5
41C
100
AcDbEntity
  8
図
  6
CONTINUOUS
 62
     3
100
AcDbLeader
  3
STANDARD
 73
     3
 74
     1
 75
     0
 40
0.0
 76
     3
 10
1412.047602
 20
1097.0
 30
0.0
 10
1352.79123
 20
1054.300685
 30
0.0
 10
1204.922602
 20
1054.300685
 30
0.0
 77
     3
1001
ACAD
1000
DSTYLE
1002
{
1070
    41
1040
30.0
1070
     5
1000
_EX_NORM
1070
     6
1000
_EX_NORM
1070
     7
1000
_EX_NORM
1070
   341
1005
28
1002
}
  0
TEXT
  5
41D
100
AcDbEntity
  8
図
  6
CONTINUOUS
 62
     2
100
AcDbText
 10
1209.864257
 20
1056.974396
 30
0.0
 40
40.0
  1
排水上部
 41
0.76125
  7
EXCADSTD
 72
     5
 11
1354.864257
 21
1056.974396
 31
0.0
100
AcDbText
  0
LINE
  5
41E
100
AcDbEntity
  8
図
  6
CONTINUOUS
 62
     2
100
AcDbLine
 10
1147.667614
 20
1143.0
 30
0.0
 11
1666.99999
 21
1143.0
 31
0.0
  0
LINE
  5
41F
100
AcDbEntity
  8
図
  6
CONTINUOUS
 62
     2
100
AcDbLine
 10
1177.667614
 20
1168.0
 30
0.0
 11
1152.667614
 21
1143.0
 31
0.0
  0
LINE
  5
420
100
AcDbEntity
  8
図
  6
CONTINUOUS
 62
     2
100
AcDbLine
 10
1234.236157
 20
1168.0
 30
0.0
 11
1209.236157
 21
1143.0
 31
0.0
  0
LINE
  5
421
100
AcDbEntity
  8
図
  6
CONTINUOUS
 62
     2
100
AcDbLine
 10
1262.520428
 20
1168.0
 30
0.0
 11
1237.520428
 21
1143.0
 31
0.0
  0
LINE
  5
422
100
AcDbEntity
  8
図
  6
CONTINUOUS
 62
     2
100
AcDbLine
 10
1319.08897
 20
1168.0
 30
0.0
 11
1294.08897
 21
1143.0
 31
0.0
  0
LINE
  5
423
100
AcDbEntity
  8
図
  6
CONTINUOUS
 62
     2
100
AcDbLine
 10
1290.804699
 20
1168.0
 30
0.0
 11
1265.804699
 21
1143.0
 31
0.0
  0
LINE
  5
424
100
AcDbEntity
  8
図
  6
CONTINUOUS
 62
     2
100
AcDbLine
 10
1205.951885
 20
1168.0
 30
0.0
 11
1180.951885
 21
1143.0
 31
0.0
  0
LINE
  5
425
100
AcDbEntity
  8
図
  6
CONTINUOUS
 62
     2
100
AcDbLine
 10
1347.373242
 20
1168.0
 30
0.0
 11
1322.373242
 21
1143.0
 31
0.0
  0
LINE
  5
426
100
AcDbEntity
  8
図
  6
CONTINUOUS
 62
     2
100
AcDbLine
 10
1375.657513
 20
1168.0
 30
0.0
 11
1350.657513
 21
1143.0
 31
0.0
  0
LINE
  5
427
100
AcDbEntity
  8
図
  6
CONTINUOUS
 62
     2
100
AcDbLine
 10
1403.941784
 20
1168.0
 30
0.0
 11
1378.941784
 21
1143.0
 31
0.0
  0
LINE
  5
428
100
AcDbEntity
  8
図
  6
CONTINUOUS
 62
     2
100
AcDbLine
 10
1432.226055
 20
1168.0
 30
0.0
 11
1407.226055
 21
1143.0
 31
0.0
  0
LINE
  5
429
100
AcDbEntity
  8
図
  6
CONTINUOUS
 62
     2
100
AcDbLine
 10
1460.510327
 20
1168.0
 30
0.0
 11
1435.510327
 21
1143.0
 31
0.0
  0
LINE
  5
42A
100
AcDbEntity
  8
図
  6
CONTINUOUS
 62
     2
100
AcDbLine
 10
1488.794598
 20
1168.0
 30
0.0
 11
1463.794598
 21
1143.0
 31
0.0
  0
LINE
  5
42B
100
AcDbEntity
  8
図
  6
CONTINUOUS
 62
     2
100
AcDbLine
 10
1517.078869
 20
1168.0
 30
0.0
 11
1492.078869
 21
1143.0
 31
0.0
  0
LINE
  5
42C
100
AcDbEntity
  8
図
  6
CONTINUOUS
 62
     2
100
AcDbLine
 10
1545.36314
 20
1168.0
 30
0.0
 11
1520.36314
 21
1143.0
 31
0.0
  0
LINE
  5
42D
100
AcDbEntity
  8
図
  6
CONTINUOUS
 62
     2
100
AcDbLine
 10
1573.647412
 20
1168.0
 30
0.0
 11
1548.647412
 21
1143.0
 31
0.0
  0
LINE
  5
42E
100
AcDbEntity
  8
図
  6
CONTINUOUS
 62
     2
100
AcDbLine
 10
1601.931683
 20
1168.0
 30
0.0
 11
1576.931683
 21
1143.0
 31
0.0
  0
LINE
  5
42F
100
AcDbEntity
  8
図
  6
CONTINUOUS
 62
     2
100
AcDbLine
 10
1630.215954
 20
1168.0
 30
0.0
 11
1605.215954
 21
1143.0
 31
0.0
  0
LINE
  5
430
100
AcDbEntity
  8
図
  6
CONTINUOUS
 62
     2
100
AcDbLine
 10
1658.500225
 20
1168.0
 30
0.0
 11
1633.500225
 21
1143.0
 31
0.0
  0
LINE
  5
431
100
AcDbEntity
  8
図
  6
CONTINUOUS
 62
     7
100
AcDbLine
 10
1390.758538
 20
1137.390624
 30
0.0
 11
1390.683713
 21
1138.0
 31
0.0
  0
ARC
  5
432
100
AcDbEntity
  8
図
  6
CONTINUOUS
 62
     7
100
AcDbCircle
 10
1481.369866
 20
1133.037352
 30
0.0
 40
9.000052
100
AcDbArc
 50
122.588069
 51
159.238798
  0
POLYLINE
  5
433
100
AcDbEntity
  8
図
  6
CONTINUOUS
 62
     7
100
AcDb2dPolyline
 66
     1
 10
0.0
 20
0.0
 30
0.0
 70
   128
  0
VERTEX
  5
434
100
AcDbEntity
  8
図
  6
CONTINUOUS
 62
     7
100
AcDbVertex
100
AcDb2dVertex
 10
1479.853313
 20
1143.0
 30
0.0
  0
VERTEX
  5
435
100
AcDbEntity
  8
図
  6
CONTINUOUS
 62
     7
100
AcDbVertex
100
AcDb2dVertex
 10
1479.649031
 20
1142.836516
 30
0.0
  0
VERTEX
  5
436
100
AcDbEntity
  8
図
  6
CONTINUOUS
 62
     7
100
AcDbVertex
100
AcDb2dVertex
 10
1478.096783
 20
1141.691376
 30
0.0
  0
VERTEX
  5
437
100
AcDbEntity
  8
図
  6
CONTINUOUS
 62
     7
100
AcDbVertex
100
AcDb2dVertex
 10
1476.522443
 20
1140.620452
 30
0.0
  0
SEQEND
  5
438
100
AcDbEntity
  8
図
  6
CONTINUOUS
 62
     7
  0
LINE
  5
439
100
AcDbEntity
  8
図
  6
CONTINUOUS
 62
     7
100
AcDbLine
 10
1390.069778
 20
1143.0
 30
0.0
 11
1390.683713
 21
1138.0
 31
0.0
  0
TEXT
  5
43A
100
AcDbEntity
  8
図
  6
CONTINUOUS
 62
     2
100
AcDbText
 10
1269.073027
 20
1465.673711
 30
0.0
 40
40.0
  1
水栓金具
 41
0.76125
  7
EXCADSTD
 72
     5
 11
1414.073027
 21
1465.673711
 31
0.0
100
AcDbText
  0
LINE
  5
43B
100
AcDbEntity
  8
図
  6
CONTINUOUS
 62
     6
100
AcDbLine
 10
1696.99999
 20
957.0
 30
0.0
 11
1696.99999
 21
989.0
 31
0.0
  0
LINE
  5
43C
100
AcDbEntity
  8
図
  6
CONTINUOUS
 62
     6
100
AcDbLine
 10
1666.99999
 20
928.5
 30
0.0
 11
1691.99999
 21
928.5
 31
0.0
  0
LINE
  5
43D
100
AcDbEntity
  8
図
  6
CONTINUOUS
 62
     6
100
AcDbLine
 10
1691.99999
 20
877.5
 30
0.0
 11
1691.99999
 21
928.5
 31
0.0
  0
LINE
  5
43E
100
AcDbEntity
  8
図
  6
CONTINUOUS
 62
     6
100
AcDbLine
 10
1666.99999
 20
877.5
 30
0.0
 11
1691.99999
 21
877.5
 31
0.0
  0
LINE
  5
43F
100
AcDbEntity
  8
図
  6
CONTINUOUS
 62
     2
100
AcDbLine
 10
1416.172602
 20
1071.1
 30
0.0
 11
1416.172602
 21
947.0
 31
0.0
  0
LINE
  5
440
100
AcDbEntity
  8
図
  6
CONTINUOUS
 62
     2
100
AcDbLine
 10
1447.922602
 20
1071.1
 30
0.0
 11
1447.922602
 21
947.0
 31
0.0
  0
LINE
  5
441
100
AcDbEntity
  8
図
  6
CONTINUOUS
 62
     2
100
AcDbLine
 10
1523.99999
 20
852.0
 30
0.0
 11
1523.99999
 21
849.0
 31
0.0
  0
LINE
  5
442
100
AcDbEntity
  8
図
  6
CONTINUOUS
 62
     2
100
AcDbLine
 10
1491.99999
 20
852.0
 30
0.0
 11
1491.99999
 21
849.0
 31
0.0
  0
LINE
  5
443
100
AcDbEntity
  8
図
  6
CONTINUOUS
 62
     2
100
AcDbLine
 10
1485.99999
 20
864.0
 30
0.0
 11
1529.99999
 21
864.0
 31
0.0
  0
LINE
  5
444
100
AcDbEntity
  8
図
  6
CONTINUOUS
 62
     2
100
AcDbLine
 10
1485.99999
 20
852.0
 30
0.0
 11
1529.99999
 21
852.0
 31
0.0
  0
ARC
  5
445
100
AcDbEntity
  8
図
  6
CONTINUOUS
 62
     2
100
AcDbCircle
 10
1521.99999
 20
858.0
 30
0.0
 40
10.0
100
AcDbArc
 50
323.130102
 51
36.869898
  0
ARC
  5
446
100
AcDbEntity
  8
図
  6
CONTINUOUS
 62
     2
100
AcDbCircle
 10
1493.99999
 20
858.0
 30
0.0
 40
10.0
100
AcDbArc
 50
143.130102
 51
216.869898
  0
ARC
  5
447
100
AcDbEntity
  8
図
  6
CONTINUOUS
 62
     2
100
AcDbCircle
 10
1469.99999
 20
849.0
 30
0.0
 40
54.0
100
AcDbArc
 50
180.0
 51
0.0
  0
ARC
  5
448
100
AcDbEntity
  8
図
  6
CONTINUOUS
 62
     2
100
AcDbCircle
 10
1469.99999
 20
849.0
 30
0.0
 40
22.0
100
AcDbArc
 50
180.0
 51
0.0
  0
LINE
  5
449
100
AcDbEntity
  8
図
  6
CONTINUOUS
 62
     2
100
AcDbLine
 10
1409.99999
 20
947.0
 30
0.0
 11
1453.99999
 21
947.0
 31
0.0
  0
LINE
  5
44A
100
AcDbEntity
  8
図
  6
CONTINUOUS
 62
     2
100
AcDbLine
 10
1415.99999
 20
885.024887
 30
0.0
 11
1415.99999
 21
849.0
 31
0.0
  0
LINE
  5
44B
100
AcDbEntity
  8
図
  6
CONTINUOUS
 62
     2
100
AcDbLine
 10
1447.99999
 20
885.024886
 30
0.0
 11
1447.99999
 21
849.0
 31
0.0
  0
LINE
  5
44C
100
AcDbEntity
  8
図
  6
CONTINUOUS
 62
     2
100
AcDbLine
 10
1415.99999
 20
885.399887
 30
0.0
 11
1447.99999
 21
885.399887
 31
0.0
  0
LINE
  5
44D
100
AcDbEntity
  8
図
  6
CONTINUOUS
 62
     2
100
AcDbLine
 10
1415.24999
 20
885.774887
 30
0.0
 11
1415.99999
 21
885.024887
 31
0.0
  0
LINE
  5
44E
100
AcDbEntity
  8
図
  6
CONTINUOUS
 62
     2
100
AcDbLine
 10
1448.74999
 20
885.774887
 30
0.0
 11
1447.99999
 21
885.024886
 31
0.0
  0
LINE
  5
44F
100
AcDbEntity
  8
図
  6
CONTINUOUS
 62
     2
100
AcDbLine
 10
1448.74999
 20
935.0
 30
0.0
 11
1448.74999
 21
885.774887
 31
0.0
  0
LINE
  5
450
100
AcDbEntity
  8
図
  6
CONTINUOUS
 62
     2
100
AcDbLine
 10
1415.24999
 20
935.0
 30
0.0
 11
1415.24999
 21
885.774887
 31
0.0
  0
LINE
  5
451
100
AcDbEntity
  8
図
  6
CONTINUOUS
 62
     2
100
AcDbLine
 10
1409.99999
 20
935.0
 30
0.0
 11
1453.99999
 21
935.0
 31
0.0
  0
ARC
  5
452
100
AcDbEntity
  8
図
  6
CONTINUOUS
 62
     2
100
AcDbCircle
 10
1445.99999
 20
941.0
 30
0.0
 40
10.0
100
AcDbArc
 50
323.130102
 51
36.869898
  0
ARC
  5
453
100
AcDbEntity
  8
図
  6
CONTINUOUS
 62
     2
100
AcDbCircle
 10
1417.99999
 20
941.0
 30
0.0
 40
10.0
100
AcDbArc
 50
143.130102
 51
216.869898
  0
ELLIPSE
  5
454
100
AcDbEntity
  8
図
  6
CONTINUOUS
 62
     6
100
AcDbEllipse
 10
1413.356558
 20
941.0
 30
0.0
 11
0.0000000000000004
 21
6.0000475440321903
 31
0.0
210
0.0
220
0.0
230
1.0
 40
0.892754
 41
0.0
 42
6.2831853071796004
  0
ELLIPSE
  5
455
100
AcDbEntity
  8
図
  6
CONTINUOUS
 62
     6
100
AcDbEllipse
 10
1431.99999
 20
941.0
 30
0.0
 11
10.665364503850013
 21
0.0
 31
0.0
210
0.0
220
0.0
230
1.0
 40
0.562569
 41
0.0
 42
6.2831853071796004
  0
ELLIPSE
  5
456
100
AcDbEntity
  8
図
  6
CONTINUOUS
 62
     6
100
AcDbEllipse
 10
1450.643422
 20
941.0
 30
0.0
 11
0.0000000000000004
 21
6.0000475440321521
 31
0.0
210
0.0
220
0.0
230
1.0
 40
0.892754
 41
0.0
 42
6.2831853071796004
  0
ELLIPSE
  5
457
100
AcDbEntity
  8
図
  6
CONTINUOUS
 62
     6
100
AcDbEllipse
 10
1489.356558
 20
858.0
 30
0.0
 11
0.0000000000000004
 21
6.0000475440321903
 31
0.0
210
0.0
220
0.0
230
1.0
 40
0.892754
 41
0.0
 42
6.2831853071796004
  0
ELLIPSE
  5
458
100
AcDbEntity
  8
図
  6
CONTINUOUS
 62
     6
100
AcDbEllipse
 10
1507.99999
 20
858.0
 30
0.0
 11
10.665364503850013
 21
0.0
 31
0.0
210
0.0
220
0.0
230
1.0
 40
0.562569
 41
0.0
 42
6.2831853071796004
  0
ELLIPSE
  5
459
100
AcDbEntity
  8
図
  6
CONTINUOUS
 62
     6
100
AcDbEllipse
 10
1526.643422
 20
858.0
 30
0.0
 11
0.0000000000000004
 21
6.0000475440321521
 31
0.0
210
0.0
220
0.0
230
1.0
 40
0.892754
 41
0.0
 42
6.2831853071796004
  0
ARC
  5
45A
100
AcDbEntity
  8
図
  6
CONTINUOUS
 62
     2
100
AcDbCircle
 10
1545.99999
 20
865.0
 30
0.0
 40
54.0
100
AcDbArc
 50
90.0
 51
181.061094
  0
ARC
  5
45B
100
AcDbEntity
  8
図
  6
CONTINUOUS
 62
     2
100
AcDbCircle
 10
1545.99999
 20
865.0
 30
0.0
 40
22.0
100
AcDbArc
 50
90.0
 51
182.605251
  0
ARC
  5
45C
100
AcDbEntity
  8
図
  6
CONTINUOUS
 62
     2
100
AcDbCircle
 10
1638.00298
 20
924.997008
 30
0.0
 40
11.002992
100
AcDbArc
 50
90.0
 51
180.0
  0
LINE
  5
45D
100
AcDbEntity
  8
図
  6
CONTINUOUS
 62
     2
100
AcDbLine
 10
1638.00298
 20
936.0
 30
0.0
 11
1666.99999
 21
936.0
 31
0.0
  0
LINE
  5
45E
100
AcDbEntity
  8
図
  6
EXLTYPE4
 62
     6
100
AcDbLine
 10
1602.0
 20
989.0
 30
0.0
 11
1696.99999
 21
989.0
 31
0.0
  0
LINE
  5
45F
100
AcDbEntity
  8
図
  6
EXLTYPE3
 62
     6
100
AcDbLine
 10
1602.0
 20
973.0
 30
0.0
 11
1706.99999
 21
973.0
 31
0.0
  0
LINE
  5
460
100
AcDbEntity
  8
図
  6
EXLTYPE4
 62
     6
100
AcDbLine
 10
1602.0
 20
957.0
 30
0.0
 11
1696.99999
 21
957.0
 31
0.0
  0
LINE
  5
461
100
AcDbEntity
  8
図
  6
EXLTYPE3
 62
     6
100
AcDbLine
 10
1674.0
 20
903.0
 30
0.0
 11
1701.99999
 21
903.0
 31
0.0
  0
LINE
  5
462
100
AcDbEntity
  8
図
  6
EXLTYPE3
 62
     6
100
AcDbLine
 10
1431.99999
 20
929.0
 30
0.0
 11
1431.99999
 21
1143.0
 31
0.0
  0
LINE
  5
463
100
AcDbEntity
  8
図
  6
CONTINUOUS
 62
     2
100
AcDbLine
 10
567.984
 20
932.0
 30
0.0
 11
569.0
 21
933.016
 31
0.0
  0
LINE
  5
464
100
AcDbEntity
  8
図
  6
CONTINUOUS
 62
     2
100
AcDbLine
 10
566.0
 20
932.0
 30
0.0
 11
566.984
 21
932.0
 31
0.0
  0
LINE
  5
465
100
AcDbEntity
  8
図
  6
CONTINUOUS
 62
     2
100
AcDbLine
 10
529.0
 20
935.0
 30
0.0
 11
529.0
 21
933.016
 31
0.0
  0
LINE
  5
466
100
AcDbEntity
  8
図
  6
CONTINUOUS
 62
     2
100
AcDbLine
 10
530.016
 20
932.0
 30
0.0
 11
529.0
 21
933.016
 31
0.0
  0
LINE
  5
467
100
AcDbEntity
  8
図
  6
CONTINUOUS
 62
     2
100
AcDbLine
 10
525.596588
 20
947.0
 30
0.0
 11
572.403412
 21
947.0
 31
0.0
  0
LINE
  5
468
100
AcDbEntity
  8
図
  6
CONTINUOUS
 62
     2
100
AcDbLine
 10
525.596588
 20
935.0
 30
0.0
 11
572.403412
 21
935.0
 31
0.0
  0
ARC
  5
469
100
AcDbEntity
  8
図
  6
CONTINUOUS
 62
     2
100
AcDbCircle
 10
564.403412
 20
941.0
 30
0.0
 40
10.0
100
AcDbArc
 50
323.130102
 51
36.869898
  0
ARC
  5
46A
100
AcDbEntity
  8
図
  6
CONTINUOUS
 62
     2
100
AcDbCircle
 10
533.596588
 20
941.0
 30
0.0
 40
10.0
100
AcDbArc
 50
143.130102
 51
216.869898
  0
LINE
  5
46B
100
AcDbEntity
  8
図
  6
CONTINUOUS
 62
     2
100
AcDbLine
 10
569.0
 20
933.016
 30
0.0
 11
529.0
 21
933.016
 31
0.0
  0
LINE
  5
46C
100
AcDbEntity
  8
図
  6
CONTINUOUS
 62
     2
100
AcDbLine
 10
530.016
 20
932.0
 30
0.0
 11
567.984
 21
932.0
 31
0.0
  0
LINE
  5
46D
100
AcDbEntity
  8
図
  6
CONTINUOUS
 62
     2
100
AcDbLine
 10
569.0
 20
935.0
 30
0.0
 11
569.0
 21
933.016
 31
0.0
  0
POLYLINE
  5
46E
100
AcDbEntity
  8
図
  6
CONTINUOUS
 62
     6
100
AcDb2dPolyline
 66
     1
 10
0.0
 20
0.0
 30
0.0
 70
   128
  0
VERTEX
  5
46F
100
AcDbEntity
  8
図
  6
CONTINUOUS
 62
     6
100
AcDbVertex
100
AcDb2dVertex
 10
528.822442
 20
935.0
 30
0.0
  0
VERTEX
  5
470
100
AcDbEntity
  8
図
  6
CONTINUOUS
 62
     6
100
AcDbVertex
100
AcDb2dVertex
 10
529.277904
 20
935.022832
 30
0.0
  0
VERTEX
  5
471
100
AcDbEntity
  8
図
  6
CONTINUOUS
 62
     6
100
AcDbVertex
100
AcDb2dVertex
 10
529.729902
 20
935.091154
 30
0.0
  0
VERTEX
  5
472
100
AcDbEntity
  8
図
  6
CONTINUOUS
 62
     6
100
AcDbVertex
100
AcDb2dVertex
 10
530.174992
 20
935.204446
 30
0.0
  0
VERTEX
  5
473
100
AcDbEntity
  8
図
  6
CONTINUOUS
 62
     6
100
AcDbVertex
100
AcDb2dVertex
 10
530.609788
 20
935.361844
 30
0.0
  0
VERTEX
  5
474
100
AcDbEntity
  8
図
  6
CONTINUOUS
 62
     6
100
AcDbVertex
100
AcDb2dVertex
 10
531.030982
 20
935.562154
 30
0.0
  0
VERTEX
  5
475
100
AcDbEntity
  8
図
  6
CONTINUOUS
 62
     6
100
AcDbVertex
100
AcDb2dVertex
 10
531.435368
 20
935.803848
 30
0.0
  0
VERTEX
  5
476
100
AcDbEntity
  8
図
  6
CONTINUOUS
 62
     6
100
AcDbVertex
100
AcDb2dVertex
 10
531.819868
 20
936.085088
 30
0.0
  0
VERTEX
  5
477
100
AcDbEntity
  8
図
  6
CONTINUOUS
 62
     6
100
AcDbVertex
100
AcDb2dVertex
 10
532.181554
 20
936.403734
 30
0.0
  0
VERTEX
  5
478
100
AcDbEntity
  8
図
  6
CONTINUOUS
 62
     6
100
AcDbVertex
100
AcDb2dVertex
 10
532.517678
 20
936.75736
 30
0.0
  0
VERTEX
  5
479
100
AcDbEntity
  8
図
  6
CONTINUOUS
 62
     6
100
AcDbVertex
100
AcDb2dVertex
 10
532.825678
 20
937.143274
 30
0.0
  0
VERTEX
  5
47A
100
AcDbEntity
  8
図
  6
CONTINUOUS
 62
     6
100
AcDbVertex
100
AcDb2dVertex
 10
533.10321
 20
937.558542
 30
0.0
  0
VERTEX
  5
47B
100
AcDbEntity
  8
図
  6
CONTINUOUS
 62
     6
100
AcDbVertex
100
AcDb2dVertex
 10
533.348162
 20
938.0
 30
0.0
  0
VERTEX
  5
47C
100
AcDbEntity
  8
図
  6
CONTINUOUS
 62
     6
100
AcDbVertex
100
AcDb2dVertex
 10
533.558672
 20
938.46429
 30
0.0
  0
VERTEX
  5
47D
100
AcDbEntity
  8
図
  6
CONTINUOUS
 62
     6
100
AcDbVertex
100
AcDb2dVertex
 10
533.733136
 20
938.94788
 30
0.0
  0
VERTEX
  5
47E
100
AcDbEntity
  8
図
  6
CONTINUOUS
 62
     6
100
AcDbVertex
100
AcDb2dVertex
 10
533.870228
 20
939.447086
 30
0.0
  0
VERTEX
  5
47F
100
AcDbEntity
  8
図
  6
CONTINUOUS
 62
     6
100
AcDbVertex
100
AcDb2dVertex
 10
533.968902
 20
939.958112
 30
0.0
  0
VERTEX
  5
480
100
AcDbEntity
  8
図
  6
CONTINUOUS
 62
     6
100
AcDbVertex
100
AcDb2dVertex
 10
534.028408
 20
940.477066
 30
0.0
  0
VERTEX
  5
481
100
AcDbEntity
  8
図
  6
CONTINUOUS
 62
     6
100
AcDbVertex
100
AcDb2dVertex
 10
534.048294
 20
941.0
 30
0.0
  0
VERTEX
  5
482
100
AcDbEntity
  8
図
  6
CONTINUOUS
 62
     6
100
AcDbVertex
100
AcDb2dVertex
 10
534.028408
 20
941.522934
 30
0.0
  0
VERTEX
  5
483
100
AcDbEntity
  8
図
  6
CONTINUOUS
 62
     6
100
AcDbVertex
100
AcDb2dVertex
 10
533.968902
 20
942.04189
 30
0.0
  0
VERTEX
  5
484
100
AcDbEntity
  8
図
  6
CONTINUOUS
 62
     6
100
AcDbVertex
100
AcDb2dVertex
 10
533.870228
 20
942.552914
 30
0.0
  0
VERTEX
  5
485
100
AcDbEntity
  8
図
  6
CONTINUOUS
 62
     6
100
AcDbVertex
100
AcDb2dVertex
 10
533.733136
 20
943.052122
 30
0.0
  0
VERTEX
  5
486
100
AcDbEntity
  8
図
  6
CONTINUOUS
 62
     6
100
AcDbVertex
100
AcDb2dVertex
 10
533.558672
 20
943.53571
 30
0.0
  0
VERTEX
  5
487
100
AcDbEntity
  8
図
  6
CONTINUOUS
 62
     6
100
AcDbVertex
100
AcDb2dVertex
 10
533.348162
 20
944.0
 30
0.0
  0
VERTEX
  5
488
100
AcDbEntity
  8
図
  6
CONTINUOUS
 62
     6
100
AcDbVertex
100
AcDb2dVertex
 10
533.10321
 20
944.441458
 30
0.0
  0
VERTEX
  5
489
100
AcDbEntity
  8
図
  6
CONTINUOUS
 62
     6
100
AcDbVertex
100
AcDb2dVertex
 10
532.825678
 20
944.856726
 30
0.0
  0
VERTEX
  5
48A
100
AcDbEntity
  8
図
  6
CONTINUOUS
 62
     6
100
AcDbVertex
100
AcDb2dVertex
 10
532.517678
 20
945.24264
 30
0.0
  0
VERTEX
  5
48B
100
AcDbEntity
  8
図
  6
CONTINUOUS
 62
     6
100
AcDbVertex
100
AcDb2dVertex
 10
532.181554
 20
945.596266
 30
0.0
  0
VERTEX
  5
48C
100
AcDbEntity
  8
図
  6
CONTINUOUS
 62
     6
100
AcDbVertex
100
AcDb2dVertex
 10
531.819868
 20
945.914912
 30
0.0
  0
VERTEX
  5
48D
100
AcDbEntity
  8
図
  6
CONTINUOUS
 62
     6
100
AcDbVertex
100
AcDb2dVertex
 10
531.435368
 20
946.196152
 30
0.0
  0
VERTEX
  5
48E
100
AcDbEntity
  8
図
  6
CONTINUOUS
 62
     6
100
AcDbVertex
100
AcDb2dVertex
 10
531.030982
 20
946.437846
 30
0.0
  0
VERTEX
  5
48F
100
AcDbEntity
  8
図
  6
CONTINUOUS
 62
     6
100
AcDbVertex
100
AcDb2dVertex
 10
530.609788
 20
946.638156
 30
0.0
  0
VERTEX
  5
490
100
AcDbEntity
  8
図
  6
CONTINUOUS
 62
     6
100
AcDbVertex
100
AcDb2dVertex
 10
530.174992
 20
946.795556
 30
0.0
  0
VERTEX
  5
491
100
AcDbEntity
  8
図
  6
CONTINUOUS
 62
     6
100
AcDbVertex
100
AcDb2dVertex
 10
529.729902
 20
946.908846
 30
0.0
  0
VERTEX
  5
492
100
AcDbEntity
  8
図
  6
CONTINUOUS
 62
     6
100
AcDbVertex
100
AcDb2dVertex
 10
529.277904
 20
946.977168
 30
0.0
  0
VERTEX
  5
493
100
AcDbEntity
  8
図
  6
CONTINUOUS
 62
     6
100
AcDbVertex
100
AcDb2dVertex
 10
528.822442
 20
947.0
 30
0.0
  0
VERTEX
  5
494
100
AcDbEntity
  8
図
  6
CONTINUOUS
 62
     6
100
AcDbVertex
100
AcDb2dVertex
 10
528.366978
 20
946.977168
 30
0.0
  0
VERTEX
  5
495
100
AcDbEntity
  8
図
  6
CONTINUOUS
 62
     6
100
AcDbVertex
100
AcDb2dVertex
 10
527.914982
 20
946.908846
 30
0.0
  0
VERTEX
  5
496
100
AcDbEntity
  8
図
  6
CONTINUOUS
 62
     6
100
AcDbVertex
100
AcDb2dVertex
 10
527.469892
 20
946.795556
 30
0.0
  0
VERTEX
  5
497
100
AcDbEntity
  8
図
  6
CONTINUOUS
 62
     6
100
AcDbVertex
100
AcDb2dVertex
 10
527.035094
 20
946.638156
 30
0.0
  0
VERTEX
  5
498
100
AcDbEntity
  8
図
  6
CONTINUOUS
 62
     6
100
AcDbVertex
100
AcDb2dVertex
 10
526.6139
 20
946.437846
 30
0.0
  0
VERTEX
  5
499
100
AcDbEntity
  8
図
  6
CONTINUOUS
 62
     6
100
AcDbVertex
100
AcDb2dVertex
 10
526.209514
 20
946.196152
 30
0.0
  0
VERTEX
  5
49A
100
AcDbEntity
  8
図
  6
CONTINUOUS
 62
     6
100
AcDbVertex
100
AcDb2dVertex
 10
525.825016
 20
945.914912
 30
0.0
  0
VERTEX
  5
49B
100
AcDbEntity
  8
図
  6
CONTINUOUS
 62
     6
100
AcDbVertex
100
AcDb2dVertex
 10
525.463328
 20
945.596266
 30
0.0
  0
VERTEX
  5
49C
100
AcDbEntity
  8
図
  6
CONTINUOUS
 62
     6
100
AcDbVertex
100
AcDb2dVertex
 10
525.127206
 20
945.24264
 30
0.0
  0
VERTEX
  5
49D
100
AcDbEntity
  8
図
  6
CONTINUOUS
 62
     6
100
AcDbVertex
100
AcDb2dVertex
 10
524.819206
 20
944.856726
 30
0.0
  0
VERTEX
  5
49E
100
AcDbEntity
  8
図
  6
CONTINUOUS
 62
     6
100
AcDbVertex
100
AcDb2dVertex
 10
524.541674
 20
944.441458
 30
0.0
  0
VERTEX
  5
49F
100
AcDbEntity
  8
図
  6
CONTINUOUS
 62
     6
100
AcDbVertex
100
AcDb2dVertex
 10
524.29672
 20
944.0
 30
0.0
  0
VERTEX
  5
4A0
100
AcDbEntity
  8
図
  6
CONTINUOUS
 62
     6
100
AcDbVertex
100
AcDb2dVertex
 10
524.08621
 20
943.53571
 30
0.0
  0
VERTEX
  5
4A1
100
AcDbEntity
  8
図
  6
CONTINUOUS
 62
     6
100
AcDbVertex
100
AcDb2dVertex
 10
523.911746
 20
943.052122
 30
0.0
  0
VERTEX
  5
4A2
100
AcDbEntity
  8
図
  6
CONTINUOUS
 62
     6
100
AcDbVertex
100
AcDb2dVertex
 10
523.774656
 20
942.552914
 30
0.0
  0
VERTEX
  5
4A3
100
AcDbEntity
  8
図
  6
CONTINUOUS
 62
     6
100
AcDbVertex
100
AcDb2dVertex
 10
523.67598
 20
942.04189
 30
0.0
  0
VERTEX
  5
4A4
100
AcDbEntity
  8
図
  6
CONTINUOUS
 62
     6
100
AcDbVertex
100
AcDb2dVertex
 10
523.616474
 20
941.522934
 30
0.0
  0
VERTEX
  5
4A5
100
AcDbEntity
  8
図
  6
CONTINUOUS
 62
     6
100
AcDbVertex
100
AcDb2dVertex
 10
523.596588
 20
941.0
 30
0.0
  0
VERTEX
  5
4A6
100
AcDbEntity
  8
図
  6
CONTINUOUS
 62
     6
100
AcDbVertex
100
AcDb2dVertex
 10
523.616474
 20
940.477066
 30
0.0
  0
VERTEX
  5
4A7
100
AcDbEntity
  8
図
  6
CONTINUOUS
 62
     6
100
AcDbVertex
100
AcDb2dVertex
 10
523.67598
 20
939.958112
 30
0.0
  0
VERTEX
  5
4A8
100
AcDbEntity
  8
図
  6
CONTINUOUS
 62
     6
100
AcDbVertex
100
AcDb2dVertex
 10
523.774656
 20
939.447086
 30
0.0
  0
VERTEX
  5
4A9
100
AcDbEntity
  8
図
  6
CONTINUOUS
 62
     6
100
AcDbVertex
100
AcDb2dVertex
 10
523.911746
 20
938.94788
 30
0.0
  0
VERTEX
  5
4AA
100
AcDbEntity
  8
図
  6
CONTINUOUS
 62
     6
100
AcDbVertex
100
AcDb2dVertex
 10
524.08621
 20
938.46429
 30
0.0
  0
VERTEX
  5
4AB
100
AcDbEntity
  8
図
  6
CONTINUOUS
 62
     6
100
AcDbVertex
100
AcDb2dVertex
 10
524.29672
 20
938.0
 30
0.0
  0
VERTEX
  5
4AC
100
AcDbEntity
  8
図
  6
CONTINUOUS
 62
     6
100
AcDbVertex
100
AcDb2dVertex
 10
524.541674
 20
937.558542
 30
0.0
  0
VERTEX
  5
4AD
100
AcDbEntity
  8
図
  6
CONTINUOUS
 62
     6
100
AcDbVertex
100
AcDb2dVertex
 10
524.819206
 20
937.143274
 30
0.0
  0
VERTEX
  5
4AE
100
AcDbEntity
  8
図
  6
CONTINUOUS
 62
     6
100
AcDbVertex
100
AcDb2dVertex
 10
525.127206
 20
936.75736
 30
0.0
  0
VERTEX
  5
4AF
100
AcDbEntity
  8
図
  6
CONTINUOUS
 62
     6
100
AcDbVertex
100
AcDb2dVertex
 10
525.463328
 20
936.403734
 30
0.0
  0
VERTEX
  5
4B0
100
AcDbEntity
  8
図
  6
CONTINUOUS
 62
     6
100
AcDbVertex
100
AcDb2dVertex
 10
525.825016
 20
936.085088
 30
0.0
  0
VERTEX
  5
4B1
100
AcDbEntity
  8
図
  6
CONTINUOUS
 62
     6
100
AcDbVertex
100
AcDb2dVertex
 10
526.209514
 20
935.803848
 30
0.0
  0
VERTEX
  5
4B2
100
AcDbEntity
  8
図
  6
CONTINUOUS
 62
     6
100
AcDbVertex
100
AcDb2dVertex
 10
526.6139
 20
935.562154
 30
0.0
  0
VERTEX
  5
4B3
100
AcDbEntity
  8
図
  6
CONTINUOUS
 62
     6
100
AcDbVertex
100
AcDb2dVertex
 10
527.035094
 20
935.361844
 30
0.0
  0
VERTEX
  5
4B4
100
AcDbEntity
  8
図
  6
CONTINUOUS
 62
     6
100
AcDbVertex
100
AcDb2dVertex
 10
527.469892
 20
935.204446
 30
0.0
  0
VERTEX
  5
4B5
100
AcDbEntity
  8
図
  6
CONTINUOUS
 62
     6
100
AcDbVertex
100
AcDb2dVertex
 10
527.914982
 20
935.091154
 30
0.0
  0
VERTEX
  5
4B6
100
AcDbEntity
  8
図
  6
CONTINUOUS
 62
     6
100
AcDbVertex
100
AcDb2dVertex
 10
528.366978
 20
935.022832
 30
0.0
  0
VERTEX
  5
4B7
100
AcDbEntity
  8
図
  6
CONTINUOUS
 62
     6
100
AcDbVertex
100
AcDb2dVertex
 10
528.822442
 20
935.0
 30
0.0
  0
SEQEND
  5
4B8
100
AcDbEntity
  8
図
  6
CONTINUOUS
 62
     6
  0
POLYLINE
  5
4B9
100
AcDbEntity
  8
図
  6
CONTINUOUS
 62
     6
100
AcDb2dPolyline
 66
     1
 10
0.0
 20
0.0
 30
0.0
 70
   128
  0
VERTEX
  5
4BA
100
AcDbEntity
  8
図
  6
CONTINUOUS
 62
     6
100
AcDbVertex
100
AcDb2dVertex
 10
559.451706
 20
941.0
 30
0.0
  0
VERTEX
  5
4BB
100
AcDbEntity
  8
図
  6
CONTINUOUS
 62
     6
100
AcDbVertex
100
AcDb2dVertex
 10
559.411934
 20
941.522934
 30
0.0
  0
VERTEX
  5
4BC
100
AcDbEntity
  8
図
  6
CONTINUOUS
 62
     6
100
AcDbVertex
100
AcDb2dVertex
 10
559.292922
 20
942.04189
 30
0.0
  0
VERTEX
  5
4BD
100
AcDbEntity
  8
図
  6
CONTINUOUS
 62
     6
100
AcDbVertex
100
AcDb2dVertex
 10
559.095572
 20
942.552914
 30
0.0
  0
VERTEX
  5
4BE
100
AcDbEntity
  8
図
  6
CONTINUOUS
 62
     6
100
AcDbVertex
100
AcDb2dVertex
 10
558.821392
 20
943.052122
 30
0.0
  0
VERTEX
  5
4BF
100
AcDbEntity
  8
図
  6
CONTINUOUS
 62
     6
100
AcDbVertex
100
AcDb2dVertex
 10
558.472462
 20
943.53571
 30
0.0
  0
VERTEX
  5
4C0
100
AcDbEntity
  8
図
  6
CONTINUOUS
 62
     6
100
AcDbVertex
100
AcDb2dVertex
 10
558.051444
 20
944.0
 30
0.0
  0
VERTEX
  5
4C1
100
AcDbEntity
  8
図
  6
CONTINUOUS
 62
     6
100
AcDbVertex
100
AcDb2dVertex
 10
557.561536
 20
944.441458
 30
0.0
  0
VERTEX
  5
4C2
100
AcDbEntity
  8
図
  6
CONTINUOUS
 62
     6
100
AcDbVertex
100
AcDb2dVertex
 10
557.006472
 20
944.856726
 30
0.0
  0
VERTEX
  5
4C3
100
AcDbEntity
  8
図
  6
CONTINUOUS
 62
     6
100
AcDbVertex
100
AcDb2dVertex
 10
556.390472
 20
945.24264
 30
0.0
  0
VERTEX
  5
4C4
100
AcDbEntity
  8
図
  6
CONTINUOUS
 62
     6
100
AcDbVertex
100
AcDb2dVertex
 10
555.718228
 20
945.596266
 30
0.0
  0
VERTEX
  5
4C5
100
AcDbEntity
  8
図
  6
CONTINUOUS
 62
     6
100
AcDbVertex
100
AcDb2dVertex
 10
554.994852
 20
945.914912
 30
0.0
  0
VERTEX
  5
4C6
100
AcDbEntity
  8
図
  6
CONTINUOUS
 62
     6
100
AcDbVertex
100
AcDb2dVertex
 10
554.225854
 20
946.196152
 30
0.0
  0
VERTEX
  5
4C7
100
AcDbEntity
  8
図
  6
CONTINUOUS
 62
     6
100
AcDbVertex
100
AcDb2dVertex
 10
553.417082
 20
946.437846
 30
0.0
  0
VERTEX
  5
4C8
100
AcDbEntity
  8
図
  6
CONTINUOUS
 62
     6
100
AcDbVertex
100
AcDb2dVertex
 10
552.574694
 20
946.638156
 30
0.0
  0
VERTEX
  5
4C9
100
AcDbEntity
  8
図
  6
CONTINUOUS
 62
     6
100
AcDbVertex
100
AcDb2dVertex
 10
551.7051
 20
946.795556
 30
0.0
  0
VERTEX
  5
4CA
100
AcDbEntity
  8
図
  6
CONTINUOUS
 62
     6
100
AcDbVertex
100
AcDb2dVertex
 10
550.81492
 20
946.908846
 30
0.0
  0
VERTEX
  5
4CB
100
AcDbEntity
  8
図
  6
CONTINUOUS
 62
     6
100
AcDbVertex
100
AcDb2dVertex
 10
549.910926
 20
946.977168
 30
0.0
  0
VERTEX
  5
4CC
100
AcDbEntity
  8
図
  6
CONTINUOUS
 62
     6
100
AcDbVertex
100
AcDb2dVertex
 10
549.0
 20
947.0
 30
0.0
  0
VERTEX
  5
4CD
100
AcDbEntity
  8
図
  6
CONTINUOUS
 62
     6
100
AcDbVertex
100
AcDb2dVertex
 10
548.089074
 20
946.977168
 30
0.0
  0
VERTEX
  5
4CE
100
AcDbEntity
  8
図
  6
CONTINUOUS
 62
     6
100
AcDbVertex
100
AcDb2dVertex
 10
547.18508
 20
946.908846
 30
0.0
  0
VERTEX
  5
4CF
100
AcDbEntity
  8
図
  6
CONTINUOUS
 62
     6
100
AcDbVertex
100
AcDb2dVertex
 10
546.2949
 20
946.795556
 30
0.0
  0
VERTEX
  5
4D0
100
AcDbEntity
  8
図
  6
CONTINUOUS
 62
     6
100
AcDbVertex
100
AcDb2dVertex
 10
545.425306
 20
946.638156
 30
0.0
  0
VERTEX
  5
4D1
100
AcDbEntity
  8
図
  6
CONTINUOUS
 62
     6
100
AcDbVertex
100
AcDb2dVertex
 10
544.582918
 20
946.437846
 30
0.0
  0
VERTEX
  5
4D2
100
AcDbEntity
  8
図
  6
CONTINUOUS
 62
     6
100
AcDbVertex
100
AcDb2dVertex
 10
543.774148
 20
946.196152
 30
0.0
  0
VERTEX
  5
4D3
100
AcDbEntity
  8
図
  6
CONTINUOUS
 62
     6
100
AcDbVertex
100
AcDb2dVertex
 10
543.005148
 20
945.914912
 30
0.0
  0
VERTEX
  5
4D4
100
AcDbEntity
  8
図
  6
CONTINUOUS
 62
     6
100
AcDbVertex
100
AcDb2dVertex
 10
542.281774
 20
945.596266
 30
0.0
  0
VERTEX
  5
4D5
100
AcDbEntity
  8
図
  6
CONTINUOUS
 62
     6
100
AcDbVertex
100
AcDb2dVertex
 10
541.609528
 20
945.24264
 30
0.0
  0
VERTEX
  5
4D6
100
AcDbEntity
  8
図
  6
CONTINUOUS
 62
     6
100
AcDbVertex
100
AcDb2dVertex
 10
540.99353
 20
944.856726
 30
0.0
  0
VERTEX
  5
4D7
100
AcDbEntity
  8
図
  6
CONTINUOUS
 62
     6
100
AcDbVertex
100
AcDb2dVertex
 10
540.438464
 20
944.441458
 30
0.0
  0
VERTEX
  5
4D8
100
AcDbEntity
  8
図
  6
CONTINUOUS
 62
     6
100
AcDbVertex
100
AcDb2dVertex
 10
539.948558
 20
944.0
 30
0.0
  0
VERTEX
  5
4D9
100
AcDbEntity
  8
図
  6
CONTINUOUS
 62
     6
100
AcDbVertex
100
AcDb2dVertex
 10
539.527538
 20
943.53571
 30
0.0
  0
VERTEX
  5
4DA
100
AcDbEntity
  8
図
  6
CONTINUOUS
 62
     6
100
AcDbVertex
100
AcDb2dVertex
 10
539.17861
 20
943.052122
 30
0.0
  0
VERTEX
  5
4DB
100
AcDbEntity
  8
図
  6
CONTINUOUS
 62
     6
100
AcDbVertex
100
AcDb2dVertex
 10
538.904428
 20
942.552914
 30
0.0
  0
VERTEX
  5
4DC
100
AcDbEntity
  8
図
  6
CONTINUOUS
 62
     6
100
AcDbVertex
100
AcDb2dVertex
 10
538.70708
 20
942.04189
 30
0.0
  0
VERTEX
  5
4DD
100
AcDbEntity
  8
図
  6
CONTINUOUS
 62
     6
100
AcDbVertex
100
AcDb2dVertex
 10
538.588066
 20
941.522934
 30
0.0
  0
VERTEX
  5
4DE
100
AcDbEntity
  8
図
  6
CONTINUOUS
 62
     6
100
AcDbVertex
100
AcDb2dVertex
 10
538.548294
 20
941.0
 30
0.0
  0
VERTEX
  5
4DF
100
AcDbEntity
  8
図
  6
CONTINUOUS
 62
     6
100
AcDbVertex
100
AcDb2dVertex
 10
538.588066
 20
940.477066
 30
0.0
  0
VERTEX
  5
4E0
100
AcDbEntity
  8
図
  6
CONTINUOUS
 62
     6
100
AcDbVertex
100
AcDb2dVertex
 10
538.70708
 20
939.958112
 30
0.0
  0
VERTEX
  5
4E1
100
AcDbEntity
  8
図
  6
CONTINUOUS
 62
     6
100
AcDbVertex
100
AcDb2dVertex
 10
538.904428
 20
939.447086
 30
0.0
  0
VERTEX
  5
4E2
100
AcDbEntity
  8
図
  6
CONTINUOUS
 62
     6
100
AcDbVertex
100
AcDb2dVertex
 10
539.17861
 20
938.94788
 30
0.0
  0
VERTEX
  5
4E3
100
AcDbEntity
  8
図
  6
CONTINUOUS
 62
     6
100
AcDbVertex
100
AcDb2dVertex
 10
539.527538
 20
938.46429
 30
0.0
  0
VERTEX
  5
4E4
100
AcDbEntity
  8
図
  6
CONTINUOUS
 62
     6
100
AcDbVertex
100
AcDb2dVertex
 10
539.948558
 20
938.0
 30
0.0
  0
VERTEX
  5
4E5
100
AcDbEntity
  8
図
  6
CONTINUOUS
 62
     6
100
AcDbVertex
100
AcDb2dVertex
 10
540.438464
 20
937.558542
 30
0.0
  0
VERTEX
  5
4E6
100
AcDbEntity
  8
図
  6
CONTINUOUS
 62
     6
100
AcDbVertex
100
AcDb2dVertex
 10
540.99353
 20
937.143274
 30
0.0
  0
VERTEX
  5
4E7
100
AcDbEntity
  8
図
  6
CONTINUOUS
 62
     6
100
AcDbVertex
100
AcDb2dVertex
 10
541.609528
 20
936.75736
 30
0.0
  0
VERTEX
  5
4E8
100
AcDbEntity
  8
図
  6
CONTINUOUS
 62
     6
100
AcDbVertex
100
AcDb2dVertex
 10
542.281774
 20
936.403734
 30
0.0
  0
VERTEX
  5
4E9
100
AcDbEntity
  8
図
  6
CONTINUOUS
 62
     6
100
AcDbVertex
100
AcDb2dVertex
 10
543.005148
 20
936.085088
 30
0.0
  0
VERTEX
  5
4EA
100
AcDbEntity
  8
図
  6
CONTINUOUS
 62
     6
100
AcDbVertex
100
AcDb2dVertex
 10
543.774148
 20
935.803848
 30
0.0
  0
VERTEX
  5
4EB
100
AcDbEntity
  8
図
  6
CONTINUOUS
 62
     6
100
AcDbVertex
100
AcDb2dVertex
 10
544.582918
 20
935.562154
 30
0.0
  0
VERTEX
  5
4EC
100
AcDbEntity
  8
図
  6
CONTINUOUS
 62
     6
100
AcDbVertex
100
AcDb2dVertex
 10
545.425306
 20
935.361844
 30
0.0
  0
VERTEX
  5
4ED
100
AcDbEntity
  8
図
  6
CONTINUOUS
 62
     6
100
AcDbVertex
100
AcDb2dVertex
 10
546.2949
 20
935.204446
 30
0.0
  0
VERTEX
  5
4EE
100
AcDbEntity
  8
図
  6
CONTINUOUS
 62
     6
100
AcDbVertex
100
AcDb2dVertex
 10
547.18508
 20
935.091154
 30
0.0
  0
VERTEX
  5
4EF
100
AcDbEntity
  8
図
  6
CONTINUOUS
 62
     6
100
AcDbVertex
100
AcDb2dVertex
 10
548.089074
 20
935.022832
 30
0.0
  0
VERTEX
  5
4F0
100
AcDbEntity
  8
図
  6
CONTINUOUS
 62
     6
100
AcDbVertex
100
AcDb2dVertex
 10
549.0
 20
935.0
 30
0.0
  0
VERTEX
  5
4F1
100
AcDbEntity
  8
図
  6
CONTINUOUS
 62
     6
100
AcDbVertex
100
AcDb2dVertex
 10
549.910926
 20
935.022832
 30
0.0
  0
VERTEX
  5
4F2
100
AcDbEntity
  8
図
  6
CONTINUOUS
 62
     6
100
AcDbVertex
100
AcDb2dVertex
 10
550.81492
 20
935.091154
 30
0.0
  0
VERTEX
  5
4F3
100
AcDbEntity
  8
図
  6
CONTINUOUS
 62
     6
100
AcDbVertex
100
AcDb2dVertex
 10
551.7051
 20
935.204446
 30
0.0
  0
VERTEX
  5
4F4
100
AcDbEntity
  8
図
  6
CONTINUOUS
 62
     6
100
AcDbVertex
100
AcDb2dVertex
 10
552.574694
 20
935.361844
 30
0.0
  0
VERTEX
  5
4F5
100
AcDbEntity
  8
図
  6
CONTINUOUS
 62
     6
100
AcDbVertex
100
AcDb2dVertex
 10
553.417082
 20
935.562154
 30
0.0
  0
VERTEX
  5
4F6
100
AcDbEntity
  8
図
  6
CONTINUOUS
 62
     6
100
AcDbVertex
100
AcDb2dVertex
 10
554.225854
 20
935.803848
 30
0.0
  0
VERTEX
  5
4F7
100
AcDbEntity
  8
図
  6
CONTINUOUS
 62
     6
100
AcDbVertex
100
AcDb2dVertex
 10
554.994852
 20
936.085088
 30
0.0
  0
VERTEX
  5
4F8
100
AcDbEntity
  8
図
  6
CONTINUOUS
 62
     6
100
AcDbVertex
100
AcDb2dVertex
 10
555.718228
 20
936.403734
 30
0.0
  0
VERTEX
  5
4F9
100
AcDbEntity
  8
図
  6
CONTINUOUS
 62
     6
100
AcDbVertex
100
AcDb2dVertex
 10
556.390472
 20
936.75736
 30
0.0
  0
VERTEX
  5
4FA
100
AcDbEntity
  8
図
  6
CONTINUOUS
 62
     6
100
AcDbVertex
100
AcDb2dVertex
 10
557.006472
 20
937.143274
 30
0.0
  0
VERTEX
  5
4FB
100
AcDbEntity
  8
図
  6
CONTINUOUS
 62
     6
100
AcDbVertex
100
AcDb2dVertex
 10
557.561536
 20
937.558542
 30
0.0
  0
VERTEX
  5
4FC
100
AcDbEntity
  8
図
  6
CONTINUOUS
 62
     6
100
AcDbVertex
100
AcDb2dVertex
 10
558.051444
 20
938.0
 30
0.0
  0
VERTEX
  5
4FD
100
AcDbEntity
  8
図
  6
CONTINUOUS
 62
     6
100
AcDbVertex
100
AcDb2dVertex
 10
558.472462
 20
938.46429
 30
0.0
  0
VERTEX
  5
4FE
100
AcDbEntity
  8
図
  6
CONTINUOUS
 62
     6
100
AcDbVertex
100
AcDb2dVertex
 10
558.821392
 20
938.94788
 30
0.0
  0
VERTEX
  5
4FF
100
AcDbEntity
  8
図
  6
CONTINUOUS
 62
     6
100
AcDbVertex
100
AcDb2dVertex
 10
559.095572
 20
939.447086
 30
0.0
  0
VERTEX
  5
500
100
AcDbEntity
  8
図
  6
CONTINUOUS
 62
     6
100
AcDbVertex
100
AcDb2dVertex
 10
559.292922
 20
939.958112
 30
0.0
  0
VERTEX
  5
501
100
AcDbEntity
  8
図
  6
CONTINUOUS
 62
     6
100
AcDbVertex
100
AcDb2dVertex
 10
559.411934
 20
940.477066
 30
0.0
  0
VERTEX
  5
502
100
AcDbEntity
  8
図
  6
CONTINUOUS
 62
     6
100
AcDbVertex
100
AcDb2dVertex
 10
559.451706
 20
941.0
 30
0.0
  0
SEQEND
  5
503
100
AcDbEntity
  8
図
  6
CONTINUOUS
 62
     6
  0
POLYLINE
  5
504
100
AcDbEntity
  8
図
  6
CONTINUOUS
 62
     6
100
AcDb2dPolyline
 66
     1
 10
0.0
 20
0.0
 30
0.0
 70
   128
  0
VERTEX
  5
505
100
AcDbEntity
  8
図
  6
CONTINUOUS
 62
     6
100
AcDbVertex
100
AcDb2dVertex
 10
569.17756
 20
935.0
 30
0.0
  0
VERTEX
  5
506
100
AcDbEntity
  8
図
  6
CONTINUOUS
 62
     6
100
AcDbVertex
100
AcDb2dVertex
 10
569.633022
 20
935.022832
 30
0.0
  0
VERTEX
  5
507
100
AcDbEntity
  8
図
  6
CONTINUOUS
 62
     6
100
AcDbVertex
100
AcDb2dVertex
 10
570.08502
 20
935.091154
 30
0.0
  0
VERTEX
  5
508
100
AcDbEntity
  8
図
  6
CONTINUOUS
 62
     6
100
AcDbVertex
100
AcDb2dVertex
 10
570.53011
 20
935.204446
 30
0.0
  0
VERTEX
  5
509
100
AcDbEntity
  8
図
  6
CONTINUOUS
 62
     6
100
AcDbVertex
100
AcDb2dVertex
 10
570.964906
 20
935.361844
 30
0.0
  0
VERTEX
  5
50A
100
AcDbEntity
  8
図
  6
CONTINUOUS
 62
     6
100
AcDbVertex
100
AcDb2dVertex
 10
571.3861
 20
935.562154
 30
0.0
  0
VERTEX
  5
50B
100
AcDbEntity
  8
図
  6
CONTINUOUS
 62
     6
100
AcDbVertex
100
AcDb2dVertex
 10
571.790486
 20
935.803848
 30
0.0
  0
VERTEX
  5
50C
100
AcDbEntity
  8
図
  6
CONTINUOUS
 62
     6
100
AcDbVertex
100
AcDb2dVertex
 10
572.174986
 20
936.085088
 30
0.0
  0
VERTEX
  5
50D
100
AcDbEntity
  8
図
  6
CONTINUOUS
 62
     6
100
AcDbVertex
100
AcDb2dVertex
 10
572.536672
 20
936.403734
 30
0.0
  0
VERTEX
  5
50E
100
AcDbEntity
  8
図
  6
CONTINUOUS
 62
     6
100
AcDbVertex
100
AcDb2dVertex
 10
572.872796
 20
936.75736
 30
0.0
  0
VERTEX
  5
50F
100
AcDbEntity
  8
図
  6
CONTINUOUS
 62
     6
100
AcDbVertex
100
AcDb2dVertex
 10
573.180794
 20
937.143274
 30
0.0
  0
VERTEX
  5
510
100
AcDbEntity
  8
図
  6
CONTINUOUS
 62
     6
100
AcDbVertex
100
AcDb2dVertex
 10
573.458328
 20
937.558542
 30
0.0
  0
VERTEX
  5
511
100
AcDbEntity
  8
図
  6
CONTINUOUS
 62
     6
100
AcDbVertex
100
AcDb2dVertex
 10
573.70328
 20
938.0
 30
0.0
  0
VERTEX
  5
512
100
AcDbEntity
  8
図
  6
CONTINUOUS
 62
     6
100
AcDbVertex
100
AcDb2dVertex
 10
573.91379
 20
938.46429
 30
0.0
  0
VERTEX
  5
513
100
AcDbEntity
  8
図
  6
CONTINUOUS
 62
     6
100
AcDbVertex
100
AcDb2dVertex
 10
574.088254
 20
938.94788
 30
0.0
  0
VERTEX
  5
514
100
AcDbEntity
  8
図
  6
CONTINUOUS
 62
     6
100
AcDbVertex
100
AcDb2dVertex
 10
574.225346
 20
939.447086
 30
0.0
  0
VERTEX
  5
515
100
AcDbEntity
  8
図
  6
CONTINUOUS
 62
     6
100
AcDbVertex
100
AcDb2dVertex
 10
574.32402
 20
939.958112
 30
0.0
  0
VERTEX
  5
516
100
AcDbEntity
  8
図
  6
CONTINUOUS
 62
     6
100
AcDbVertex
100
AcDb2dVertex
 10
574.383526
 20
940.477066
 30
0.0
  0
VERTEX
  5
517
100
AcDbEntity
  8
図
  6
CONTINUOUS
 62
     6
100
AcDbVertex
100
AcDb2dVertex
 10
574.403412
 20
941.0
 30
0.0
  0
VERTEX
  5
518
100
AcDbEntity
  8
図
  6
CONTINUOUS
 62
     6
100
AcDbVertex
100
AcDb2dVertex
 10
574.383526
 20
941.522934
 30
0.0
  0
VERTEX
  5
519
100
AcDbEntity
  8
図
  6
CONTINUOUS
 62
     6
100
AcDbVertex
100
AcDb2dVertex
 10
574.32402
 20
942.04189
 30
0.0
  0
VERTEX
  5
51A
100
AcDbEntity
  8
図
  6
CONTINUOUS
 62
     6
100
AcDbVertex
100
AcDb2dVertex
 10
574.225346
 20
942.552914
 30
0.0
  0
VERTEX
  5
51B
100
AcDbEntity
  8
図
  6
CONTINUOUS
 62
     6
100
AcDbVertex
100
AcDb2dVertex
 10
574.088254
 20
943.052122
 30
0.0
  0
VERTEX
  5
51C
100
AcDbEntity
  8
図
  6
CONTINUOUS
 62
     6
100
AcDbVertex
100
AcDb2dVertex
 10
573.91379
 20
943.53571
 30
0.0
  0
VERTEX
  5
51D
100
AcDbEntity
  8
図
  6
CONTINUOUS
 62
     6
100
AcDbVertex
100
AcDb2dVertex
 10
573.70328
 20
944.0
 30
0.0
  0
VERTEX
  5
51E
100
AcDbEntity
  8
図
  6
CONTINUOUS
 62
     6
100
AcDbVertex
100
AcDb2dVertex
 10
573.458328
 20
944.441458
 30
0.0
  0
VERTEX
  5
51F
100
AcDbEntity
  8
図
  6
CONTINUOUS
 62
     6
100
AcDbVertex
100
AcDb2dVertex
 10
573.180794
 20
944.856726
 30
0.0
  0
VERTEX
  5
520
100
AcDbEntity
  8
図
  6
CONTINUOUS
 62
     6
100
AcDbVertex
100
AcDb2dVertex
 10
572.872796
 20
945.24264
 30
0.0
  0
VERTEX
  5
521
100
AcDbEntity
  8
図
  6
CONTINUOUS
 62
     6
100
AcDbVertex
100
AcDb2dVertex
 10
572.536672
 20
945.596266
 30
0.0
  0
VERTEX
  5
522
100
AcDbEntity
  8
図
  6
CONTINUOUS
 62
     6
100
AcDbVertex
100
AcDb2dVertex
 10
572.174986
 20
945.914912
 30
0.0
  0
VERTEX
  5
523
100
AcDbEntity
  8
図
  6
CONTINUOUS
 62
     6
100
AcDbVertex
100
AcDb2dVertex
 10
571.790486
 20
946.196152
 30
0.0
  0
VERTEX
  5
524
100
AcDbEntity
  8
図
  6
CONTINUOUS
 62
     6
100
AcDbVertex
100
AcDb2dVertex
 10
571.3861
 20
946.437846
 30
0.0
  0
VERTEX
  5
525
100
AcDbEntity
  8
図
  6
CONTINUOUS
 62
     6
100
AcDbVertex
100
AcDb2dVertex
 10
570.964906
 20
946.638156
 30
0.0
  0
VERTEX
  5
526
100
AcDbEntity
  8
図
  6
CONTINUOUS
 62
     6
100
AcDbVertex
100
AcDb2dVertex
 10
570.53011
 20
946.795556
 30
0.0
  0
VERTEX
  5
527
100
AcDbEntity
  8
図
  6
CONTINUOUS
 62
     6
100
AcDbVertex
100
AcDb2dVertex
 10
570.08502
 20
946.908846
 30
0.0
  0
VERTEX
  5
528
100
AcDbEntity
  8
図
  6
CONTINUOUS
 62
     6
100
AcDbVertex
100
AcDb2dVertex
 10
569.633022
 20
946.977168
 30
0.0
  0
VERTEX
  5
529
100
AcDbEntity
  8
図
  6
CONTINUOUS
 62
     6
100
AcDbVertex
100
AcDb2dVertex
 10
569.17756
 20
947.0
 30
0.0
  0
VERTEX
  5
52A
100
AcDbEntity
  8
図
  6
CONTINUOUS
 62
     6
100
AcDbVertex
100
AcDb2dVertex
 10
568.722096
 20
946.977168
 30
0.0
  0
VERTEX
  5
52B
100
AcDbEntity
  8
図
  6
CONTINUOUS
 62
     6
100
AcDbVertex
100
AcDb2dVertex
 10
568.2701
 20
946.908846
 30
0.0
  0
VERTEX
  5
52C
100
AcDbEntity
  8
図
  6
CONTINUOUS
 62
     6
100
AcDbVertex
100
AcDb2dVertex
 10
567.825008
 20
946.795556
 30
0.0
  0
VERTEX
  5
52D
100
AcDbEntity
  8
図
  6
CONTINUOUS
 62
     6
100
AcDbVertex
100
AcDb2dVertex
 10
567.390212
 20
946.638156
 30
0.0
  0
VERTEX
  5
52E
100
AcDbEntity
  8
図
  6
CONTINUOUS
 62
     6
100
AcDbVertex
100
AcDb2dVertex
 10
566.969018
 20
946.437846
 30
0.0
  0
VERTEX
  5
52F
100
AcDbEntity
  8
図
  6
CONTINUOUS
 62
     6
100
AcDbVertex
100
AcDb2dVertex
 10
566.564632
 20
946.196152
 30
0.0
  0
VERTEX
  5
530
100
AcDbEntity
  8
図
  6
CONTINUOUS
 62
     6
100
AcDbVertex
100
AcDb2dVertex
 10
566.180134
 20
945.914912
 30
0.0
  0
VERTEX
  5
531
100
AcDbEntity
  8
図
  6
CONTINUOUS
 62
     6
100
AcDbVertex
100
AcDb2dVertex
 10
565.818446
 20
945.596266
 30
0.0
  0
VERTEX
  5
532
100
AcDbEntity
  8
図
  6
CONTINUOUS
 62
     6
100
AcDbVertex
100
AcDb2dVertex
 10
565.482324
 20
945.24264
 30
0.0
  0
VERTEX
  5
533
100
AcDbEntity
  8
図
  6
CONTINUOUS
 62
     6
100
AcDbVertex
100
AcDb2dVertex
 10
565.174324
 20
944.856726
 30
0.0
  0
VERTEX
  5
534
100
AcDbEntity
  8
図
  6
CONTINUOUS
 62
     6
100
AcDbVertex
100
AcDb2dVertex
 10
564.896792
 20
944.441458
 30
0.0
  0
VERTEX
  5
535
100
AcDbEntity
  8
図
  6
CONTINUOUS
 62
     6
100
AcDbVertex
100
AcDb2dVertex
 10
564.651838
 20
944.0
 30
0.0
  0
VERTEX
  5
536
100
AcDbEntity
  8
図
  6
CONTINUOUS
 62
     6
100
AcDbVertex
100
AcDb2dVertex
 10
564.441328
 20
943.53571
 30
0.0
  0
VERTEX
  5
537
100
AcDbEntity
  8
図
  6
CONTINUOUS
 62
     6
100
AcDbVertex
100
AcDb2dVertex
 10
564.266864
 20
943.052122
 30
0.0
  0
VERTEX
  5
538
100
AcDbEntity
  8
図
  6
CONTINUOUS
 62
     6
100
AcDbVertex
100
AcDb2dVertex
 10
564.129772
 20
942.552914
 30
0.0
  0
VERTEX
  5
539
100
AcDbEntity
  8
図
  6
CONTINUOUS
 62
     6
100
AcDbVertex
100
AcDb2dVertex
 10
564.031098
 20
942.04189
 30
0.0
  0
VERTEX
  5
53A
100
AcDbEntity
  8
図
  6
CONTINUOUS
 62
     6
100
AcDbVertex
100
AcDb2dVertex
 10
563.971592
 20
941.522934
 30
0.0
  0
VERTEX
  5
53B
100
AcDbEntity
  8
図
  6
CONTINUOUS
 62
     6
100
AcDbVertex
100
AcDb2dVertex
 10
563.951706
 20
941.0
 30
0.0
  0
VERTEX
  5
53C
100
AcDbEntity
  8
図
  6
CONTINUOUS
 62
     6
100
AcDbVertex
100
AcDb2dVertex
 10
563.971592
 20
940.477066
 30
0.0
  0
VERTEX
  5
53D
100
AcDbEntity
  8
図
  6
CONTINUOUS
 62
     6
100
AcDbVertex
100
AcDb2dVertex
 10
564.031098
 20
939.958112
 30
0.0
  0
VERTEX
  5
53E
100
AcDbEntity
  8
図
  6
CONTINUOUS
 62
     6
100
AcDbVertex
100
AcDb2dVertex
 10
564.129772
 20
939.447086
 30
0.0
  0
VERTEX
  5
53F
100
AcDbEntity
  8
図
  6
CONTINUOUS
 62
     6
100
AcDbVertex
100
AcDb2dVertex
 10
564.266864
 20
938.94788
 30
0.0
  0
VERTEX
  5
540
100
AcDbEntity
  8
図
  6
CONTINUOUS
 62
     6
100
AcDbVertex
100
AcDb2dVertex
 10
564.441328
 20
938.46429
 30
0.0
  0
VERTEX
  5
541
100
AcDbEntity
  8
図
  6
CONTINUOUS
 62
     6
100
AcDbVertex
100
AcDb2dVertex
 10
564.651838
 20
938.0
 30
0.0
  0
VERTEX
  5
542
100
AcDbEntity
  8
図
  6
CONTINUOUS
 62
     6
100
AcDbVertex
100
AcDb2dVertex
 10
564.896792
 20
937.558542
 30
0.0
  0
VERTEX
  5
543
100
AcDbEntity
  8
図
  6
CONTINUOUS
 62
     6
100
AcDbVertex
100
AcDb2dVertex
 10
565.174324
 20
937.143274
 30
0.0
  0
VERTEX
  5
544
100
AcDbEntity
  8
図
  6
CONTINUOUS
 62
     6
100
AcDbVertex
100
AcDb2dVertex
 10
565.482324
 20
936.75736
 30
0.0
  0
VERTEX
  5
545
100
AcDbEntity
  8
図
  6
CONTINUOUS
 62
     6
100
AcDbVertex
100
AcDb2dVertex
 10
565.818446
 20
936.403734
 30
0.0
  0
VERTEX
  5
546
100
AcDbEntity
  8
図
  6
CONTINUOUS
 62
     6
100
AcDbVertex
100
AcDb2dVertex
 10
566.180134
 20
936.085088
 30
0.0
  0
VERTEX
  5
547
100
AcDbEntity
  8
図
  6
CONTINUOUS
 62
     6
100
AcDbVertex
100
AcDb2dVertex
 10
566.564632
 20
935.803848
 30
0.0
  0
VERTEX
  5
548
100
AcDbEntity
  8
図
  6
CONTINUOUS
 62
     6
100
AcDbVertex
100
AcDb2dVertex
 10
566.969018
 20
935.562154
 30
0.0
  0
VERTEX
  5
549
100
AcDbEntity
  8
図
  6
CONTINUOUS
 62
     6
100
AcDbVertex
100
AcDb2dVertex
 10
567.390212
 20
935.361844
 30
0.0
  0
VERTEX
  5
54A
100
AcDbEntity
  8
図
  6
CONTINUOUS
 62
     6
100
AcDbVertex
100
AcDb2dVertex
 10
567.825008
 20
935.204446
 30
0.0
  0
VERTEX
  5
54B
100
AcDbEntity
  8
図
  6
CONTINUOUS
 62
     6
100
AcDbVertex
100
AcDb2dVertex
 10
568.2701
 20
935.091154
 30
0.0
  0
VERTEX
  5
54C
100
AcDbEntity
  8
図
  6
CONTINUOUS
 62
     6
100
AcDbVertex
100
AcDb2dVertex
 10
568.722096
 20
935.022832
 30
0.0
  0
VERTEX
  5
54D
100
AcDbEntity
  8
図
  6
CONTINUOUS
 62
     6
100
AcDbVertex
100
AcDb2dVertex
 10
569.17756
 20
935.0
 30
0.0
  0
SEQEND
  5
54E
100
AcDbEntity
  8
図
  6
CONTINUOUS
 62
     6
  0
LINE
  5
54F
100
AcDbEntity
  8
図
  6
CONTINUOUS
 62
     6
100
AcDbLine
 10
530.016
 20
935.0
 30
0.0
 11
530.016
 21
932.0
 31
0.0
  0
LINE
  5
550
100
AcDbEntity
  8
図
  6
CONTINUOUS
 62
     6
100
AcDbLine
 10
567.984
 20
932.0
 30
0.0
 11
567.984
 21
935.0
 31
0.0
  0
LINE
  5
551
100
AcDbEntity
  8
図
  6
CONTINUOUS
 62
     2
100
AcDbLine
 10
565.125
 20
1071.1
 30
0.0
 11
565.125
 21
947.0
 31
0.0
  0
LINE
  5
552
100
AcDbEntity
  8
図
  6
CONTINUOUS
 62
     2
100
AcDbLine
 10
533.375
 20
1071.1
 30
0.0
 11
533.375
 21
947.0
 31
0.0
  0
ARC
  5
553
100
AcDbEntity
  8
図
  6
CONTINUOUS
 62
     2
100
AcDbCircle
 10
531.75
 20
884.238709
 30
0.0
 40
1.25
100
AcDbArc
 50
0.0
 51
55.150095
  0
ARC
  5
554
100
AcDbEntity
  8
図
  6
CONTINUOUS
 62
     2
100
AcDbCircle
 10
532.75
 20
885.674849
 30
0.0
 40
0.5
100
AcDbArc
 50
180.0
 51
235.150095
  0
ARC
  5
555
100
AcDbEntity
  8
図
  6
CONTINUOUS
 62
     2
100
AcDbCircle
 10
565.25
 20
885.674849
 30
0.0
 40
0.5
100
AcDbArc
 50
304.849905
 51
0.0
  0
ARC
  5
556
100
AcDbEntity
  8
図
  6
CONTINUOUS
 62
     2
100
AcDbCircle
 10
566.25
 20
884.238709
 30
0.0
 40
1.25
100
AcDbArc
 50
124.849905
 51
180.0
  0
LINE
  5
557
100
AcDbEntity
  8
図
  6
CONTINUOUS
 62
     6
100
AcDbLine
 10
562.581974
 20
885.399887
 30
0.0
 11
534.760118
 21
885.399887
 31
0.0
  0
LINE
  5
558
100
AcDbEntity
  8
図
  6
CONTINUOUS
 62
     2
100
AcDbLine
 10
533.0
 20
884.238709
 30
0.0
 11
533.0
 21
847.238709
 31
0.0
  0
LINE
  5
559
100
AcDbEntity
  8
図
  6
CONTINUOUS
 62
     2
100
AcDbLine
 10
565.0
 20
884.238709
 30
0.0
 11
565.0
 21
847.238709
 31
0.0
  0
LINE
  5
55A
100
AcDbEntity
  8
図
  6
CONTINUOUS
 62
     2
100
AcDbLine
 10
565.0
 20
884.238709
 30
0.0
 11
565.0
 21
809.240677
 31
0.0
  0
ARC
  5
55B
100
AcDbEntity
  8
図
  6
CONTINUOUS
 62
     2
100
AcDbCircle
 10
549.0
 20
809.240677
 30
0.0
 40
16.0
100
AcDbArc
 50
180.0
 51
0.0
  0
LINE
  5
55C
100
AcDbEntity
  8
図
  6
CONTINUOUS
 62
     2
100
AcDbLine
 10
533.0
 20
884.238709
 30
0.0
 11
533.0
 21
809.240677
 31
0.0
  0
LINE
  5
55D
100
AcDbEntity
  8
図
  6
CONTINUOUS
 62
     2
100
AcDbLine
 10
532.25
 20
932.0
 30
0.0
 11
532.25
 21
885.399887
 31
0.0
  0
LINE
  5
55E
100
AcDbEntity
  8
図
  6
CONTINUOUS
 62
     2
100
AcDbLine
 10
565.75
 20
932.0
 30
0.0
 11
565.75
 21
885.399887
 31
0.0
  0
ARC
  5
55F
100
AcDbEntity
  8
図
  6
CONTINUOUS
 62
     2
100
AcDbCircle
 10
549.0
 20
903.0
 30
0.0
 40
33.0
100
AcDbArc
 50
120.502487
 51
240.997454
  0
ARC
  5
560
100
AcDbEntity
  8
図
  6
CONTINUOUS
 62
     2
100
AcDbCircle
 10
549.0
 20
903.0
 30
0.0
 40
33.0
100
AcDbArc
 50
299.002546
 51
59.497513
  0
POLYLINE
  5
561
100
AcDbEntity
  8
図
  6
CONTINUOUS
 62
     6
100
AcDb2dPolyline
 66
     1
 10
0.0
 20
0.0
 30
0.0
 70
   128
  0
VERTEX
  5
562
100
AcDbEntity
  8
図
  6
CONTINUOUS
 62
     6
100
AcDbVertex
100
AcDb2dVertex
 10
1557.017553
 20
1417.874225
 30
0.0
  0
VERTEX
  5
563
100
AcDbEntity
  8
図
  6
CONTINUOUS
 62
     6
100
AcDbVertex
100
AcDb2dVertex
 10
1557.017556
 20
1417.870412
 30
0.0
  0
VERTEX
  5
564
100
AcDbEntity
  8
図
  6
CONTINUOUS
 62
     6
100
AcDbVertex
100
AcDb2dVertex
 10
1557.017561
 20
1417.859584
 30
0.0
  0
VERTEX
  5
565
100
AcDbEntity
  8
図
  6
CONTINUOUS
 62
     6
100
AcDbVertex
100
AcDb2dVertex
 10
1557.017565
 20
1417.842658
 30
0.0
  0
VERTEX
  5
566
100
AcDbEntity
  8
図
  6
CONTINUOUS
 62
     6
100
AcDbVertex
100
AcDb2dVertex
 10
1557.017564
 20
1417.820551
 30
0.0
  0
VERTEX
  5
567
100
AcDbEntity
  8
図
  6
CONTINUOUS
 62
     6
100
AcDbVertex
100
AcDb2dVertex
 10
1557.017555
 20
1417.794181
 30
0.0
  0
VERTEX
  5
568
100
AcDbEntity
  8
図
  6
CONTINUOUS
 62
     6
100
AcDbVertex
100
AcDb2dVertex
 10
1557.017533
 20
1417.764463
 30
0.0
  0
VERTEX
  5
569
100
AcDbEntity
  8
図
  6
CONTINUOUS
 62
     6
100
AcDbVertex
100
AcDb2dVertex
 10
1557.017495
 20
1417.732316
 30
0.0
  0
VERTEX
  5
56A
100
AcDbEntity
  8
図
  6
CONTINUOUS
 62
     6
100
AcDbVertex
100
AcDb2dVertex
 10
1557.017438
 20
1417.698656
 30
0.0
  0
VERTEX
  5
56B
100
AcDbEntity
  8
図
  6
CONTINUOUS
 62
     6
100
AcDbVertex
100
AcDb2dVertex
 10
1557.017357
 20
1417.6644
 30
0.0
  0
VERTEX
  5
56C
100
AcDbEntity
  8
図
  6
CONTINUOUS
 62
     6
100
AcDbVertex
100
AcDb2dVertex
 10
1557.017248
 20
1417.630465
 30
0.0
  0
VERTEX
  5
56D
100
AcDbEntity
  8
図
  6
CONTINUOUS
 62
     6
100
AcDbVertex
100
AcDb2dVertex
 10
1557.017108
 20
1417.597769
 30
0.0
  0
VERTEX
  5
56E
100
AcDbEntity
  8
図
  6
CONTINUOUS
 62
     6
100
AcDbVertex
100
AcDb2dVertex
 10
1557.016942
 20
1417.56821
 30
0.0
  0
VERTEX
  5
56F
100
AcDbEntity
  8
図
  6
CONTINUOUS
 62
     6
100
AcDbVertex
100
AcDb2dVertex
 10
1557.016745
 20
1417.540414
 30
0.0
  0
VERTEX
  5
570
100
AcDbEntity
  8
図
  6
CONTINUOUS
 62
     6
100
AcDbVertex
100
AcDb2dVertex
 10
1557.016519
 20
1417.514153
 30
0.0
  0
VERTEX
  5
571
100
AcDbEntity
  8
図
  6
CONTINUOUS
 62
     6
100
AcDbVertex
100
AcDb2dVertex
 10
1557.016264
 20
1417.489203
 30
0.0
  0
VERTEX
  5
572
100
AcDbEntity
  8
図
  6
CONTINUOUS
 62
     6
100
AcDbVertex
100
AcDb2dVertex
 10
1557.015982
 20
1417.465338
 30
0.0
  0
VERTEX
  5
573
100
AcDbEntity
  8
図
  6
CONTINUOUS
 62
     6
100
AcDbVertex
100
AcDb2dVertex
 10
1557.015675
 20
1417.442331
 30
0.0
  0
VERTEX
  5
574
100
AcDbEntity
  8
図
  6
CONTINUOUS
 62
     6
100
AcDbVertex
100
AcDb2dVertex
 10
1557.015343
 20
1417.419956
 30
0.0
  0
VERTEX
  5
575
100
AcDbEntity
  8
図
  6
CONTINUOUS
 62
     6
100
AcDbVertex
100
AcDb2dVertex
 10
1557.014989
 20
1417.397988
 30
0.0
  0
VERTEX
  5
576
100
AcDbEntity
  8
図
  6
CONTINUOUS
 62
     6
100
AcDbVertex
100
AcDb2dVertex
 10
1557.014613
 20
1417.3762
 30
0.0
  0
VERTEX
  5
577
100
AcDbEntity
  8
図
  6
CONTINUOUS
 62
     6
100
AcDbVertex
100
AcDb2dVertex
 10
1557.014217
 20
1417.354366
 30
0.0
  0
VERTEX
  5
578
100
AcDbEntity
  8
図
  6
CONTINUOUS
 62
     6
100
AcDbVertex
100
AcDb2dVertex
 10
1557.013801
 20
1417.332262
 30
0.0
  0
VERTEX
  5
579
100
AcDbEntity
  8
図
  6
CONTINUOUS
 62
     6
100
AcDbVertex
100
AcDb2dVertex
 10
1557.013429
 20
1417.312867
 30
0.0
  0
VERTEX
  5
57A
100
AcDbEntity
  8
図
  6
CONTINUOUS
 62
     6
100
AcDbVertex
100
AcDb2dVertex
 10
1557.013042
 20
1417.293127
 30
0.0
  0
VERTEX
  5
57B
100
AcDbEntity
  8
図
  6
CONTINUOUS
 62
     6
100
AcDbVertex
100
AcDb2dVertex
 10
1557.01264
 20
1417.273063
 30
0.0
  0
VERTEX
  5
57C
100
AcDbEntity
  8
図
  6
CONTINUOUS
 62
     6
100
AcDbVertex
100
AcDb2dVertex
 10
1557.01222
 20
1417.252701
 30
0.0
  0
VERTEX
  5
57D
100
AcDbEntity
  8
図
  6
CONTINUOUS
 62
     6
100
AcDbVertex
100
AcDb2dVertex
 10
1557.011783
 20
1417.232061
 30
0.0
  0
VERTEX
  5
57E
100
AcDbEntity
  8
図
  6
CONTINUOUS
 62
     6
100
AcDbVertex
100
AcDb2dVertex
 10
1557.011325
 20
1417.211167
 30
0.0
  0
VERTEX
  5
57F
100
AcDbEntity
  8
図
  6
CONTINUOUS
 62
     6
100
AcDbVertex
100
AcDb2dVertex
 10
1557.010846
 20
1417.190043
 30
0.0
  0
VERTEX
  5
580
100
AcDbEntity
  8
図
  6
CONTINUOUS
 62
     6
100
AcDbVertex
100
AcDb2dVertex
 10
1557.010345
 20
1417.168711
 30
0.0
  0
VERTEX
  5
581
100
AcDbEntity
  8
図
  6
CONTINUOUS
 62
     6
100
AcDbVertex
100
AcDb2dVertex
 10
1557.009821
 20
1417.147194
 30
0.0
  0
VERTEX
  5
582
100
AcDbEntity
  8
図
  6
CONTINUOUS
 62
     6
100
AcDbVertex
100
AcDb2dVertex
 10
1557.009271
 20
1417.125516
 30
0.0
  0
VERTEX
  5
583
100
AcDbEntity
  8
図
  6
CONTINUOUS
 62
     6
100
AcDbVertex
100
AcDb2dVertex
 10
1557.008695
 20
1417.103698
 30
0.0
  0
VERTEX
  5
584
100
AcDbEntity
  8
図
  6
CONTINUOUS
 62
     6
100
AcDbVertex
100
AcDb2dVertex
 10
1557.008227
 20
1417.086595
 30
0.0
  0
VERTEX
  5
585
100
AcDbEntity
  8
図
  6
CONTINUOUS
 62
     6
100
AcDbVertex
100
AcDb2dVertex
 10
1557.007745
 20
1417.069482
 30
0.0
  0
VERTEX
  5
586
100
AcDbEntity
  8
図
  6
CONTINUOUS
 62
     6
100
AcDbVertex
100
AcDb2dVertex
 10
1557.007252
 20
1417.052423
 30
0.0
  0
VERTEX
  5
587
100
AcDbEntity
  8
図
  6
CONTINUOUS
 62
     6
100
AcDbVertex
100
AcDb2dVertex
 10
1557.00675
 20
1417.03548
 30
0.0
  0
VERTEX
  5
588
100
AcDbEntity
  8
図
  6
CONTINUOUS
 62
     6
100
AcDbVertex
100
AcDb2dVertex
 10
1557.006244
 20
1417.018714
 30
0.0
  0
VERTEX
  5
589
100
AcDbEntity
  8
図
  6
CONTINUOUS
 62
     6
100
AcDbVertex
100
AcDb2dVertex
 10
1557.005735
 20
1417.002188
 30
0.0
  0
VERTEX
  5
58A
100
AcDbEntity
  8
図
  6
CONTINUOUS
 62
     6
100
AcDbVertex
100
AcDb2dVertex
 10
1557.005227
 20
1416.985963
 30
0.0
  0
VERTEX
  5
58B
100
AcDbEntity
  8
図
  6
CONTINUOUS
 62
     6
100
AcDbVertex
100
AcDb2dVertex
 10
1557.004722
 20
1416.970102
 30
0.0
  0
VERTEX
  5
58C
100
AcDbEntity
  8
図
  6
CONTINUOUS
 62
     6
100
AcDbVertex
100
AcDb2dVertex
 10
1557.004224
 20
1416.954666
 30
0.0
  0
VERTEX
  5
58D
100
AcDbEntity
  8
図
  6
CONTINUOUS
 62
     6
100
AcDbVertex
100
AcDb2dVertex
 10
1557.003735
 20
1416.939718
 30
0.0
  0
VERTEX
  5
58E
100
AcDbEntity
  8
図
  6
CONTINUOUS
 62
     6
100
AcDbVertex
100
AcDb2dVertex
 10
1557.003259
 20
1416.925319
 30
0.0
  0
VERTEX
  5
58F
100
AcDbEntity
  8
図
  6
CONTINUOUS
 62
     6
100
AcDbVertex
100
AcDb2dVertex
 10
1557.002967
 20
1416.916605
 30
0.0
  0
VERTEX
  5
590
100
AcDbEntity
  8
図
  6
CONTINUOUS
 62
     6
100
AcDbVertex
100
AcDb2dVertex
 10
1557.002676
 20
1416.907998
 30
0.0
  0
VERTEX
  5
591
100
AcDbEntity
  8
図
  6
CONTINUOUS
 62
     6
100
AcDbVertex
100
AcDb2dVertex
 10
1557.002381
 20
1416.89937
 30
0.0
  0
VERTEX
  5
592
100
AcDbEntity
  8
図
  6
CONTINUOUS
 62
     6
100
AcDbVertex
100
AcDb2dVertex
 10
1557.002076
 20
1416.890589
 30
0.0
  0
VERTEX
  5
593
100
AcDbEntity
  8
図
  6
CONTINUOUS
 62
     6
100
AcDbVertex
100
AcDb2dVertex
 10
1557.001755
 20
1416.881524
 30
0.0
  0
VERTEX
  5
594
100
AcDbEntity
  8
図
  6
CONTINUOUS
 62
     6
100
AcDbVertex
100
AcDb2dVertex
 10
1557.001414
 20
1416.872046
 30
0.0
  0
VERTEX
  5
595
100
AcDbEntity
  8
図
  6
CONTINUOUS
 62
     6
100
AcDbVertex
100
AcDb2dVertex
 10
1557.001047
 20
1416.862024
 30
0.0
  0
VERTEX
  5
596
100
AcDbEntity
  8
図
  6
CONTINUOUS
 62
     6
100
AcDbVertex
100
AcDb2dVertex
 10
1557.000649
 20
1416.851327
 30
0.0
  0
VERTEX
  5
597
100
AcDbEntity
  8
図
  6
CONTINUOUS
 62
     6
100
AcDbVertex
100
AcDb2dVertex
 10
1557.000215
 20
1416.839824
 30
0.0
  0
VERTEX
  5
598
100
AcDbEntity
  8
図
  6
CONTINUOUS
 62
     6
100
AcDbVertex
100
AcDb2dVertex
 10
1556.99974
 20
1416.827386
 30
0.0
  0
VERTEX
  5
599
100
AcDbEntity
  8
図
  6
CONTINUOUS
 62
     6
100
AcDbVertex
100
AcDb2dVertex
 10
1556.999217
 20
1416.813882
 30
0.0
  0
VERTEX
  5
59A
100
AcDbEntity
  8
図
  6
CONTINUOUS
 62
     6
100
AcDbVertex
100
AcDb2dVertex
 10
1556.999029
 20
1416.809067
 30
0.0
  0
VERTEX
  5
59B
100
AcDbEntity
  8
図
  6
CONTINUOUS
 62
     6
100
AcDbVertex
100
AcDb2dVertex
 10
1556.99884
 20
1416.804219
 30
0.0
  0
VERTEX
  5
59C
100
AcDbEntity
  8
図
  6
CONTINUOUS
 62
     6
100
AcDbVertex
100
AcDb2dVertex
 10
1556.998653
 20
1416.799441
 30
0.0
  0
VERTEX
  5
59D
100
AcDbEntity
  8
図
  6
CONTINUOUS
 62
     6
100
AcDbVertex
100
AcDb2dVertex
 10
1556.998472
 20
1416.794837
 30
0.0
  0
VERTEX
  5
59E
100
AcDbEntity
  8
図
  6
CONTINUOUS
 62
     6
100
AcDbVertex
100
AcDb2dVertex
 10
1556.998302
 20
1416.790511
 30
0.0
  0
VERTEX
  5
59F
100
AcDbEntity
  8
図
  6
CONTINUOUS
 62
     6
100
AcDbVertex
100
AcDb2dVertex
 10
1556.998147
 20
1416.786566
 30
0.0
  0
VERTEX
  5
5A0
100
AcDbEntity
  8
図
  6
CONTINUOUS
 62
     6
100
AcDbVertex
100
AcDb2dVertex
 10
1556.99801
 20
1416.783105
 30
0.0
  0
VERTEX
  5
5A1
100
AcDbEntity
  8
図
  6
CONTINUOUS
 62
     6
100
AcDbVertex
100
AcDb2dVertex
 10
1556.997897
 20
1416.780234
 30
0.0
  0
VERTEX
  5
5A2
100
AcDbEntity
  8
図
  6
CONTINUOUS
 62
     6
100
AcDbVertex
100
AcDb2dVertex
 10
1556.997811
 20
1416.778054
 30
0.0
  0
VERTEX
  5
5A3
100
AcDbEntity
  8
図
  6
CONTINUOUS
 62
     6
100
AcDbVertex
100
AcDb2dVertex
 10
1556.997757
 20
1416.77667
 30
0.0
  0
VERTEX
  5
5A4
100
AcDbEntity
  8
図
  6
CONTINUOUS
 62
     6
100
AcDbVertex
100
AcDb2dVertex
 10
1556.997737
 20
1416.776186
 30
0.0
  0
SEQEND
  5
5A5
100
AcDbEntity
  8
図
  6
CONTINUOUS
 62
     6
  0
ARC
  5
5A6
100
AcDbEntity
  8
図
  6
CONTINUOUS
 62
     6
100
AcDbCircle
 10
1614.107625
 20
1336.269678
 30
0.0
 40
4.0
100
AcDbArc
 50
90.0
 51
152.0
  0
LINE
  5
5A7
100
AcDbEntity
  8
図
  6
CONTINUOUS
 62
     6
100
AcDbLine
 10
1629.168588
 20
1349.110762
 30
0.0
 11
1629.168588
 21
1337.428594
 31
0.0
  0
ARC
  5
5A8
100
AcDbEntity
  8
図
  6
CONTINUOUS
 62
     6
100
AcDbCircle
 10
1611.617503
 20
1343.269678
 30
0.0
 40
18.551084
100
AcDbArc
 50
342.298207
 51
17.701793
  0
ARC
  5
5A9
100
AcDbEntity
  8
図
  6
CONTINUOUS
 62
     6
100
AcDbCircle
 10
1614.668588
 20
1338.543454
 30
0.0
 40
0.5
100
AcDbArc
 50
180.0
 51
266.914712
  0
ARC
  5
5AA
100
AcDbEntity
  8
図
  6
CONTINUOUS
 62
     6
100
AcDbCircle
 10
1628.813904
 20
1337.781013
 30
0.0
 40
0.5
100
AcDbArc
 50
266.914712
 51
342.298207
  0
LINE
  5
5AB
100
AcDbEntity
  8
図
  6
CONTINUOUS
 62
     6
100
AcDbLine
 10
1614.641677
 20
1338.044178
 30
0.0
 11
1628.786993
 21
1337.281738
 31
0.0
  0
LINE
  5
5AC
100
AcDbEntity
  8
図
  6
CONTINUOUS
 62
     6
100
AcDbLine
 10
1550.925566
 20
1431.890644
 30
0.0
 11
1486.030877
 21
1443.333329
 31
0.0
  0
LINE
  5
5AD
100
AcDbEntity
  8
図
  6
CONTINUOUS
 62
     6
100
AcDbLine
 10
1464.196632
 20
1387.871321
 30
0.0
 11
1556.99999
 21
1371.507585
 31
0.0
  0
LINE
  5
5AE
100
AcDbEntity
  8
図
  6
CONTINUOUS
 62
     6
100
AcDbLine
 10
1493.847701
 20
1352.180239
 30
0.0
 11
1556.99999
 21
1341.044787
 31
0.0
  0
LINE
  5
5AF
100
AcDbEntity
  8
図
  6
CONTINUOUS
 62
     6
100
AcDbLine
 10
1553.3445
 20
1446.69552
 30
0.0
 11
1488.56263
 21
1458.118312
 31
0.0
  0
ARC
  5
5B0
100
AcDbEntity
  8
図
  6
CONTINUOUS
 62
     6
100
AcDbCircle
 10
1614.668588
 20
1347.995903
 30
0.0
 40
0.5
100
AcDbArc
 50
93.085288
 51
180.0
  0
ARC
  5
5B1
100
AcDbEntity
  8
図
  6
CONTINUOUS
 62
     6
100
AcDbCircle
 10
1628.813904
 20
1348.758343
 30
0.0
 40
0.5
100
AcDbArc
 50
17.701793
 51
93.085288
  0
LINE
  5
5B2
100
AcDbEntity
  8
図
  6
CONTINUOUS
 62
     6
100
AcDbLine
 10
1614.641677
 20
1348.495178
 30
0.0
 11
1628.786993
 21
1349.257618
 31
0.0
  0
ARC
  5
5B3
100
AcDbEntity
  8
図
  6
CONTINUOUS
 62
     6
100
AcDbCircle
 10
1604.99999
 20
1403.276186
 30
0.0
 40
2.0
100
AcDbArc
 50
0.0
 51
91.599643
  0
LINE
  5
5B4
100
AcDbEntity
  8
図
  6
CONTINUOUS
 62
     6
100
AcDbLine
 10
1606.49999
 20
1399.276186
 30
0.0
 11
1606.99999
 21
1398.776186
 31
0.0
  0
LINE
  5
5B5
100
AcDbEntity
  8
図
  6
CONTINUOUS
 62
     6
100
AcDbLine
 10
1606.99999
 20
1403.276186
 30
0.0
 11
1606.99999
 21
1399.276186
 31
0.0
  0
ARC
  5
5B6
100
AcDbEntity
  8
図
  6
CONTINUOUS
 62
     6
100
AcDbCircle
 10
1604.916244
 20
1406.275017
 30
0.0
 40
1.0
100
AcDbArc
 50
192.574283
 51
271.599643
  0
LINE
  5
5B7
100
AcDbEntity
  8
図
  6
CONTINUOUS
 62
     6
100
AcDbLine
 10
1557.49999
 20
1399.276186
 30
0.0
 11
1556.99999
 21
1398.776186
 31
0.0
  0
LINE
  5
5B8
100
AcDbEntity
  8
図
  6
CONTINUOUS
 62
     6
100
AcDbLine
 10
1559.083997
 20
1405.276186
 30
0.0
 11
1558.99999
 21
1405.276186
 31
0.0
  0
ARC
  5
5B9
100
AcDbEntity
  8
図
  6
CONTINUOUS
 62
     6
100
AcDbCircle
 10
1559.083997
 20
1406.276186
 30
0.0
 40
1.0
100
AcDbArc
 50
270.0
 51
347.422797
  0
LINE
  5
5BA
100
AcDbEntity
  8
図
  6
CONTINUOUS
 62
     6
100
AcDbLine
 10
1556.99999
 20
1403.276186
 30
0.0
 11
1556.99999
 21
1399.276186
 31
0.0
  0
ARC
  5
5BB
100
AcDbEntity
  8
図
  6
CONTINUOUS
 62
     6
100
AcDbCircle
 10
1558.99999
 20
1403.276186
 30
0.0
 40
2.0
100
AcDbArc
 50
90.0
 51
180.0
  0
ARC
  5
5BC
100
AcDbEntity
  8
図
  6
CONTINUOUS
 62
     6
100
AcDbCircle
 10
1581.99999
 20
1268.792187
 30
0.0
 40
179.083333
100
AcDbArc
 50
82.537206
 51
97.462794
  0
ARC
  5
5BD
100
AcDbEntity
  8
図
  6
CONTINUOUS
 62
     6
100
AcDbCircle
 10
1581.99999
 20
1268.792187
 30
0.0
 40
179.083333
100
AcDbArc
 50
82.537206
 51
97.462794
  0
ARC
  5
5BE
100
AcDbEntity
  8
図
  6
CONTINUOUS
 62
     6
100
AcDbCircle
 10
1604.99999
 20
1444.37552
 30
0.0
 40
2.0
100
AcDbArc
 50
0.0
 51
90.0
  0
ARC
  5
5BF
100
AcDbEntity
  8
図
  6
CONTINUOUS
 62
     6
100
AcDbCircle
 10
1604.99999
 20
1444.37552
 30
0.0
 40
2.0
100
AcDbArc
 50
0.0
 51
90.0
  0
LINE
  5
5C0
100
AcDbEntity
  8
図
  6
CONTINUOUS
 62
     6
100
AcDbLine
 10
1606.99999
 20
1415.510991
 30
0.0
 11
1606.99999
 21
1444.37552
 31
0.0
  0
LINE
  5
5C1
100
AcDbEntity
  8
図
  6
CONTINUOUS
 62
     6
100
AcDbLine
 10
1606.99999
 20
1415.510991
 30
0.0
 11
1606.99999
 21
1444.37552
 31
0.0
  0
LINE
  5
5C2
100
AcDbEntity
  8
図
  6
CONTINUOUS
 62
     6
100
AcDbLine
 10
1552.720331
 20
1439.189878
 30
0.0
 11
1553.935869
 21
1446.083532
 31
0.0
  0
ARC
  5
5C3
100
AcDbEntity
  8
図
  6
CONTINUOUS
 62
     6
100
AcDbCircle
 10
1553.443465
 20
1446.170357
 30
0.0
 40
0.5
100
AcDbArc
 50
350.0
 51
80.0
  0
ARC
  5
5C4
100
AcDbEntity
  8
図
  6
CONTINUOUS
 62
     6
100
AcDbCircle
 10
1553.994152
 20
1443.534689
 30
0.0
 40
0.5
100
AcDbArc
 50
170.0
 51
260.0
  0
ARC
  5
5C5
100
AcDbEntity
  8
図
  6
CONTINUOUS
 62
     6
100
AcDbCircle
 10
1551.01239
 20
1432.383048
 30
0.0
 40
0.5
100
AcDbArc
 50
260.0
 51
350.0
  0
ARC
  5
5C6
100
AcDbEntity
  8
図
  6
CONTINUOUS
 62
     6
100
AcDbCircle
 10
1552.431318
 20
1434.671419
 30
0.0
 40
0.5
100
AcDbArc
 50
80.0
 51
170.0
  0
LINE
  5
5C7
100
AcDbEntity
  8
図
  6
CONTINUOUS
 62
     6
100
AcDbLine
 10
1551.504794
 20
1432.296224
 30
0.0
 11
1552.720331
 21
1439.189878
 31
0.0
  0
ARC
  5
5C8
100
AcDbEntity
  8
図
  6
CONTINUOUS
 62
     6
100
AcDbCircle
 10
1562.06943
 20
1422.876186
 30
0.0
 40
7.550071
100
AcDbArc
 50
137.507763
 51
222.492237
  0
ARC
  5
5C9
100
AcDbEntity
  8
図
  6
CONTINUOUS
 62
     6
100
AcDbCircle
 10
1558.99999
 20
1444.37552
 30
0.0
 40
2.0
100
AcDbArc
 50
90.0
 51
180.0
  0
ARC
  5
5CA
100
AcDbEntity
  8
図
  6
CONTINUOUS
 62
     6
100
AcDbCircle
 10
1558.99999
 20
1444.37552
 30
0.0
 40
2.0
100
AcDbArc
 50
90.0
 51
180.0
  0
LINE
  5
5CB
100
AcDbEntity
  8
図
  6
CONTINUOUS
 62
     6
100
AcDbLine
 10
1556.99999
 20
1417.776186
 30
0.0
 11
1556.502243
 21
1417.776186
 31
0.0
  0
LINE
  5
5CC
100
AcDbEntity
  8
図
  6
CONTINUOUS
 62
     6
100
AcDbLine
 10
1556.99999
 20
1427.976186
 30
0.0
 11
1556.502243
 21
1427.976186
 31
0.0
  0
ARC
  5
5CD
100
AcDbEntity
  8
図
  6
CONTINUOUS
 62
     6
100
AcDbCircle
 10
1535.334219
 20
1360.096446
 30
0.0
 40
78.0
100
AcDbArc
 50
160.150973
 51
174.754975
  0
LINE
  5
5CE
100
AcDbEntity
  8
図
  6
CONTINUOUS
 62
     6
100
AcDbLine
 10
1484.070275
 20
1352.55957
 30
0.0
 11
1462.404504
 21
1356.37983
 31
0.0
  0
LINE
  5
5CF
100
AcDbEntity
  8
図
  6
CONTINUOUS
 62
     6
100
AcDbLine
 10
1462.404504
 20
1356.37983
 30
0.0
 11
1484.070275
 21
1352.55957
 31
0.0
  0
LINE
  5
5D0
100
AcDbEntity
  8
図
  6
CONTINUOUS
 62
     6
100
AcDbLine
 10
1484.070275
 20
1352.55957
 30
0.0
 11
1485.155338
 21
1352.954501
 31
0.0
  0
LINE
  5
5D1
100
AcDbEntity
  8
図
  6
CONTINUOUS
 62
     6
100
AcDbLine
 10
1484.070275
 20
1352.55957
 30
0.0
 11
1485.155338
 21
1352.954501
 31
0.0
  0
LINE
  5
5D2
100
AcDbEntity
  8
図
  6
CONTINUOUS
 62
     6
100
AcDbLine
 10
1489.402904
 20
1359.767335
 30
0.0
 11
1493.847701
 21
1352.180239
 31
0.0
  0
LINE
  5
5D3
100
AcDbEntity
  8
図
  6
CONTINUOUS
 62
     6
100
AcDbLine
 10
1462.404504
 20
1356.37983
 30
0.0
 11
1461.519952
 21
1357.122058
 31
0.0
  0
LINE
  5
5D4
100
AcDbEntity
  8
図
  6
CONTINUOUS
 62
     6
100
AcDbLine
 10
1462.404504
 20
1356.37983
 30
0.0
 11
1461.519952
 21
1357.122058
 31
0.0
  0
ARC
  5
5D5
100
AcDbEntity
  8
図
  6
CONTINUOUS
 62
     6
100
AcDbCircle
 10
1459.652441
 20
1367.043998
 30
0.0
 40
2.0
100
AcDbArc
 50
174.754975
 51
260.0
  0
ARC
  5
5D6
100
AcDbEntity
  8
図
  6
CONTINUOUS
 62
     6
100
AcDbCircle
 10
1463.849336
 20
1385.901706
 30
0.0
 40
2.0
100
AcDbArc
 50
80.0
 51
160.150973
  0
LINE
  5
5D7
100
AcDbEntity
  8
図
  6
CONTINUOUS
 62
     6
100
AcDbLine
 10
1485.146747
 20
1444.504651
 30
0.0
 11
1487.404174
 21
1457.307152
 31
0.0
  0
ARC
  5
5D8
100
AcDbEntity
  8
図
  6
CONTINUOUS
 62
     6
100
AcDbCircle
 10
1486.131555
 20
1444.331003
 30
0.0
 40
1.0
100
AcDbArc
 50
170.0
 51
260.0
  0
ARC
  5
5D9
100
AcDbEntity
  8
図
  6
CONTINUOUS
 62
     6
100
AcDbCircle
 10
1488.388982
 20
1457.133504
 30
0.0
 40
1.0
100
AcDbArc
 50
80.0
 51
170.0
  0
LINE
  5
5DA
100
AcDbEntity
  8
図
  6
CONTINUOUS
 62
     6
100
AcDbLine
 10
1556.99999
 20
1408.812261
 30
0.0
 11
1556.99999
 21
1416.776186
 31
0.0
  0
LINE
  5
5DB
100
AcDbEntity
  8
図
  6
CONTINUOUS
 62
     6
100
AcDbLine
 10
1556.99999
 20
1408.812261
 30
0.0
 11
1556.99999
 21
1422.876186
 31
0.0
  0
LINE
  5
5DC
100
AcDbEntity
  8
図
  6
CONTINUOUS
 62
     6
100
AcDbLine
 10
1553.907328
 20
1443.042285
 30
0.0
 11
1556.99999
 21
1442.496965
 31
0.0
  0
LINE
  5
5DD
100
AcDbEntity
  8
図
  6
CONTINUOUS
 62
     6
100
AcDbLine
 10
1552.518142
 20
1435.163823
 30
0.0
 11
1556.99999
 21
1434.373552
 31
0.0
  0
LINE
  5
5DE
100
AcDbEntity
  8
図
  6
CONTINUOUS
 62
     6
100
AcDbLine
 10
1581.99999
 20
1408.812261
 30
0.0
 11
1606.99999
 21
1415.510991
 31
0.0
  0
LINE
  5
5DF
100
AcDbEntity
  8
図
  6
CONTINUOUS
 62
     6
100
AcDbLine
 10
1556.99999
 20
1408.812261
 30
0.0
 11
1581.99999
 21
1408.812261
 31
0.0
  0
ARC
  5
5E0
100
AcDbEntity
  8
図
  6
CONTINUOUS
 62
     6
100
AcDbCircle
 10
1582.020079
 20
1401.158945
 30
0.0
 40
22.5
100
AcDbArc
 50
160.114148
 51
167.422797
  0
ARC
  5
5E1
100
AcDbEntity
  8
図
  6
CONTINUOUS
 62
     6
100
AcDbCircle
 10
1581.979901
 20
1401.158945
 30
0.0
 40
22.5
100
AcDbArc
 50
12.574283
 51
34.167204
  0
LINE
  5
5E2
100
AcDbEntity
  8
図
  6
CONTINUOUS
 62
     6
100
AcDbLine
 10
1614.168588
 20
1347.995903
 30
0.0
 11
1614.168588
 21
1343.269678
 31
0.0
  0
LINE
  5
5E3
100
AcDbEntity
  8
図
  6
CONTINUOUS
 62
     6
100
AcDbLine
 10
1614.168588
 20
1343.269678
 30
0.0
 11
1614.168588
 21
1338.543454
 31
0.0
  0
LINE
  5
5E4
100
AcDbEntity
  8
図
  6
CONTINUOUS
 62
     6
100
AcDbLine
 10
1606.99999
 20
1398.776186
 30
0.0
 11
1606.99999
 21
1337.812543
 31
0.0
  0
LINE
  5
5E5
100
AcDbEntity
  8
図
  6
CONTINUOUS
 62
     6
100
AcDbLine
 10
1474.630788
 20
1362.372058
 30
0.0
 11
1489.402904
 21
1359.767335
 31
0.0
  0
LINE
  5
5E6
100
AcDbEntity
  8
図
  6
CONTINUOUS
 62
     6
100
AcDbLine
 10
1459.305145
 20
1365.074382
 30
0.0
 11
1474.630788
 21
1362.372058
 31
0.0
  0
LINE
  5
5E7
100
AcDbEntity
  8
図
  6
CONTINUOUS
 62
     6
100
AcDbLine
 10
1462.813095
 20
1364.455836
 30
0.0
 11
1461.519952
 21
1357.122058
 31
0.0
  0
LINE
  5
5E8
100
AcDbEntity
  8
図
  6
CONTINUOUS
 62
     6
100
AcDbLine
 10
1486.448481
 20
1360.28828
 30
0.0
 11
1485.155338
 21
1352.954501
 31
0.0
  0
LINE
  5
5E9
100
AcDbEntity
  8
図
  6
CONTINUOUS
 62
     6
100
AcDbLine
 10
1556.99999
 20
1398.776186
 30
0.0
 11
1556.99999
 21
1371.507585
 31
0.0
  0
LINE
  5
5EA
100
AcDbEntity
  8
図
  6
CONTINUOUS
 62
     6
100
AcDbLine
 10
1556.99999
 20
1442.496965
 30
0.0
 11
1556.99999
 21
1444.37552
 31
0.0
  0
LINE
  5
5EB
100
AcDbEntity
  8
図
  6
CONTINUOUS
 62
     6
100
AcDbLine
 10
1556.99999
 20
1422.876186
 30
0.0
 11
1556.99999
 21
1434.373552
 31
0.0
  0
ARC
  5
5EC
100
AcDbEntity
  8
図
  6
CONTINUOUS
 62
     6
100
AcDbCircle
 10
1539.583217
 20
1356.276186
 30
0.0
 40
23.137405
100
AcDbArc
 50
318.8295
 51
41.1705
  0
ARC
  5
5ED
100
AcDbEntity
  8
図
  6
CONTINUOUS
 62
     6
100
AcDbCircle
 10
1552.184396
 20
1438.435259
 30
0.0
 40
6.299794
100
AcDbArc
 50
319.854088
 51
40.145912
  0
LINE
  5
5EE
100
AcDbEntity
  8
図
  6
CONTINUOUS
 62
     6
100
AcDbLine
 10
1606.99999
 20
1331.422379
 30
0.0
 11
1610.575834
 21
1338.147564
 31
0.0
  0
LINE
  5
5EF
100
AcDbEntity
  8
図
  6
CONTINUOUS
 62
     6
100
AcDbLine
 10
1581.99999
 20
1399.276186
 30
0.0
 11
1606.99999
 21
1399.276186
 31
0.0
  0
LINE
  5
5F0
100
AcDbEntity
  8
図
  6
CONTINUOUS
 62
     6
100
AcDbLine
 10
1556.99999
 20
1399.276186
 30
0.0
 11
1581.99999
 21
1399.276186
 31
0.0
  0
ARC
  5
5F1
100
AcDbEntity
  8
図
  6
CONTINUOUS
 62
     6
100
AcDbCircle
 10
1614.107625
 20
1336.269678
 30
0.0
 40
10.0
100
AcDbArc
 50
90.0
 51
135.297068
  0
LINE
  5
5F2
100
AcDbEntity
  8
図
  6
CONTINUOUS
 62
     6
100
AcDbLine
 10
1606.99999
 20
1337.812543
 30
0.0
 11
1606.99999
 21
1308.0
 31
0.0
  0
LINE
  5
5F3
100
AcDbEntity
  8
図
  6
CONTINUOUS
 62
     6
100
AcDbLine
 10
1556.99999
 20
1341.044787
 30
0.0
 11
1556.99999
 21
1308.0
 31
0.0
  0
LEADER
  5
5F4
100
AcDbEntity
  8
図
  6
CONTINUOUS
 62
     3
100
AcDbLeader
  3
STANDARD
 73
     3
 74
     1
 75
     0
 40
0.0
 76
     3
 10
1482.489034
 20
1384.645877
 30
0.0
 10
1416.0
 20
1463.0
 30
0.0
 10
1265.0
 20
1463.0
 30
0.0
 77
     3
1001
ACAD
1000
DSTYLE
1002
{
1070
    41
1040
30.0
1070
     5
1000
_EX_NORM
1070
     6
1000
_EX_NORM
1070
     7
1000
_EX_NORM
1070
   341
1005
28
1002
}
  0
LINE
  5
5F5
100
AcDbEntity
  8
図
  6
CONTINUOUS
 62
     6
100
AcDbLine
 10
574.0
 20
1444.37552
 30
0.0
 11
574.0
 21
1408.812261
 31
0.0
  0
LINE
  5
5F6
100
AcDbEntity
  8
図
  6
CONTINUOUS
 62
     6
100
AcDbLine
 10
524.0
 20
1444.37552
 30
0.0
 11
524.0
 21
1408.812261
 31
0.0
  0
ARC
  5
5F7
100
AcDbEntity
  8
図
  6
CONTINUOUS
 62
     6
100
AcDbCircle
 10
549.0
 20
1370.574335
 30
0.0
 40
15.0
100
AcDbArc
 50
322.90405
 51
217.09595
  0
ELLIPSE
  5
5F8
100
AcDbEntity
  8
図
  6
CONTINUOUS
 62
     6
100
AcDbEllipse
 10
549.0
 20
1361.104144
 30
0.0
 11
-11.999999999999998
 21
0.0000000000000015
 31
0.0
210
0.0
220
0.0
230
1.0
 40
0.22103
 41
3.1415926535897931
 42
0.0
  0
ELLIPSE
  5
5F9
100
AcDbEntity
  8
図
  6
CONTINUOUS
 62
     6
100
AcDbEllipse
 10
549.0
 20
1351.883729
 30
0.0
 11
-11.999999999999998
 21
0.0000000000000015
 31
0.0
210
0.0
220
0.0
230
1.0
 40
0.173648
 41
0.0
 42
6.2831853071796004
  0
LINE
  5
5FA
100
AcDbEntity
  8
図
  6
CONTINUOUS
 62
     6
100
AcDbLine
 10
537.0
 20
1351.883729
 30
0.0
 11
537.0
 21
1361.315734
 31
0.0
  0
LINE
  5
5FB
100
AcDbEntity
  8
図
  6
CONTINUOUS
 62
     6
100
AcDbLine
 10
561.0
 20
1351.883729
 30
0.0
 11
561.0
 21
1361.315734
 31
0.0
  0
LINE
  5
5FC
100
AcDbEntity
  8
図
  6
CONTINUOUS
 62
     6
100
AcDbLine
 10
572.0
 20
1405.276186
 30
0.0
 11
526.055831
 21
1405.275407
 31
0.0
  0
LINE
  5
5FD
100
AcDbEntity
  8
図
  6
CONTINUOUS
 62
     6
100
AcDbLine
 10
574.0
 20
1408.812261
 30
0.0
 11
524.0
 21
1408.812261
 31
0.0
  0
ARC
  5
5FE
100
AcDbEntity
  8
図
  6
CONTINUOUS
 62
     6
100
AcDbCircle
 10
526.0
 20
1403.276186
 30
0.0
 40
2.0
100
AcDbArc
 50
88.400357
 51
180.0
  0
LINE
  5
5FF
100
AcDbEntity
  8
図
  6
CONTINUOUS
 62
     6
100
AcDbLine
 10
524.5
 20
1399.276186
 30
0.0
 11
524.0
 21
1398.776186
 31
0.0
  0
LINE
  5
600
100
AcDbEntity
  8
図
  6
CONTINUOUS
 62
     6
100
AcDbLine
 10
524.0
 20
1403.276186
 30
0.0
 11
524.0
 21
1399.276186
 31
0.0
  0
ARC
  5
601
100
AcDbEntity
  8
図
  6
CONTINUOUS
 62
     6
100
AcDbCircle
 10
549.020089
 20
1401.158945
 30
0.0
 40
22.5
100
AcDbArc
 50
160.114148
 51
167.425717
  0
ARC
  5
602
100
AcDbEntity
  8
図
  6
CONTINUOUS
 62
     6
100
AcDbCircle
 10
526.083746
 20
1406.275017
 30
0.0
 40
1.0
100
AcDbArc
 50
268.400357
 51
347.425717
  0
ARC
  5
603
100
AcDbEntity
  8
図
  6
CONTINUOUS
 62
     6
100
AcDbCircle
 10
572.0
 20
1403.276186
 30
0.0
 40
2.0
100
AcDbArc
 50
0.0
 51
90.0
  0
LINE
  5
604
100
AcDbEntity
  8
図
  6
CONTINUOUS
 62
     6
100
AcDbLine
 10
573.5
 20
1399.276186
 30
0.0
 11
574.0
 21
1398.776186
 31
0.0
  0
LINE
  5
605
100
AcDbEntity
  8
図
  6
CONTINUOUS
 62
     6
100
AcDbLine
 10
574.0
 20
1403.276186
 30
0.0
 11
574.0
 21
1399.276186
 31
0.0
  0
ARC
  5
606
100
AcDbEntity
  8
図
  6
CONTINUOUS
 62
     6
100
AcDbCircle
 10
571.915993
 20
1406.276186
 30
0.0
 40
1.0
100
AcDbArc
 50
192.577203
 51
270.0
  0
LINE
  5
607
100
AcDbEntity
  8
図
  6
CONTINUOUS
 62
     6
100
AcDbLine
 10
571.915993
 20
1405.276186
 30
0.0
 11
572.0
 21
1405.276186
 31
0.0
  0
ARC
  5
608
100
AcDbEntity
  8
図
  6
CONTINUOUS
 62
     6
100
AcDbCircle
 10
548.979911
 20
1401.158945
 30
0.0
 40
22.5
100
AcDbArc
 50
12.577203
 51
19.885852
  0
ELLIPSE
  5
609
100
AcDbEntity
  8
図
  6
CONTINUOUS
 62
     6
100
AcDbEllipse
 10
549.0
 20
1450.905902
 30
0.0
 11
-7.5000000000000044
 21
0.0000000000000009
 31
0.0
210
0.0
220
0.0
230
1.0
 40
0.96368
 41
0.0
 42
6.2831853071796004
  0
LINE
  5
60A
100
AcDbEntity
  8
図
  6
CONTINUOUS
 62
     6
100
AcDbLine
 10
556.5
 20
1439.118246
 30
0.0
 11
556.5
 21
1450.905902
 31
0.0
  0
LINE
  5
60B
100
AcDbEntity
  8
図
  6
CONTINUOUS
 62
     6
100
AcDbLine
 10
541.5
 20
1439.118246
 30
0.0
 11
541.5
 21
1450.905902
 31
0.0
  0
ARC
  5
60C
100
AcDbEntity
  8
図
  6
CONTINUOUS
 62
     6
100
AcDbCircle
 10
526.0
 20
1444.37552
 30
0.0
 40
2.0
100
AcDbArc
 50
97.462794
 51
180.0
  0
ARC
  5
60D
100
AcDbEntity
  8
図
  6
CONTINUOUS
 62
     6
100
AcDbCircle
 10
572.0
 20
1444.37552
 30
0.0
 40
2.0
100
AcDbArc
 50
0.0
 51
82.537206
  0
ELLIPSE
  5
60E
100
AcDbEntity
  8
図
  6
CONTINUOUS
 62
     6
100
AcDbEllipse
 10
549.0
 20
1439.118246
 30
0.0
 11
-7.5000000000000044
 21
0.0000000000000009
 31
0.0
210
0.0
220
0.0
230
1.0
 40
0.96368
 41
0.0
 42
3.1415926535897931
  0
ARC
  5
60F
100
AcDbEntity
  8
図
  6
CONTINUOUS
 62
     6
100
AcDbCircle
 10
549.0
 20
1518.472848
 30
0.0
 40
154.622782
100
AcDbArc
 50
264.918147
 51
275.081853
  0
ARC
  5
610
100
AcDbEntity
  8
図
  6
CONTINUOUS
 62
     6
100
AcDbCircle
 10
549.0
 20
1268.792187
 30
0.0
 40
179.083333
100
AcDbArc
 50
92.400246
 51
97.462794
  0
ARC
  5
611
100
AcDbEntity
  8
図
  6
CONTINUOUS
 62
     6
100
AcDbCircle
 10
549.0
 20
1268.792187
 30
0.0
 40
179.083333
100
AcDbArc
 50
82.537206
 51
87.599754
  0
CIRCLE
  5
612
100
AcDbEntity
  8
図
  6
CONTINUOUS
 62
     6
100
AcDbCircle
 10
549.0
 20
1422.876186
 30
0.0
 40
5.1
  0
LINE
  5
613
100
AcDbEntity
  8
図
  6
CONTINUOUS
 62
     6
100
AcDbLine
 10
549.0
 20
1399.276186
 30
0.0
 11
524.0
 21
1399.276186
 31
0.0
  0
LINE
  5
614
100
AcDbEntity
  8
図
  6
CONTINUOUS
 62
     6
100
AcDbLine
 10
574.0
 20
1399.276186
 30
0.0
 11
549.0
 21
1399.276186
 31
0.0
  0
LINE
  5
615
100
AcDbEntity
  8
図
  6
CONTINUOUS
 62
     6
100
AcDbLine
 10
524.0
 20
1398.776186
 30
0.0
 11
524.0
 21
1308.0
 31
0.0
  0
LINE
  5
616
100
AcDbEntity
  8
図
  6
CONTINUOUS
 62
     6
100
AcDbLine
 10
574.0
 20
1398.776186
 30
0.0
 11
574.0
 21
1308.0
 31
0.0
  0
LINE
  5
617
100
AcDbEntity
  8
図
  6
EXLTYPE3
 62
     6
100
AcDbLine
 10
1582.001678
 20
718.0
 30
0.0
 11
1582.001678
 21
490.0
 31
0.0
  0
LINE
  5
618
100
AcDbEntity
  8
図
  6
EXLTYPE4
 62
     6
100
AcDbLine
 10
1592.501678
 20
708.0
 30
0.0
 11
1592.501678
 21
500.0
 31
0.0
  0
LINE
  5
619
100
AcDbEntity
  8
図
  6
EXLTYPE4
 62
     6
100
AcDbLine
 10
1571.501678
 20
708.0
 30
0.0
 11
1571.501678
 21
500.0
 31
0.0
  0
LINE
  5
61A
100
AcDbEntity
  8
図
  6
CONTINUOUS
 62
     6
100
AcDbLine
 10
1592.501678
 20
500.0
 30
0.0
 11
1571.501678
 21
500.0
 31
0.0
  0
LINE
  5
61B
100
AcDbEntity
  8
図
  6
CONTINUOUS
 62
     6
100
AcDbLine
 10
1566.50119
 20
845.994385
 30
0.0
 11
1572.319061
 21
845.994385
 31
0.0
  0
POLYLINE
  5
61C
100
AcDbEntity
  8
図
  6
CONTINUOUS
 62
     6
100
AcDb2dPolyline
 66
     1
 10
0.0
 20
0.0
 30
0.0
 70
   128
  0
VERTEX
  5
61D
100
AcDbEntity
  8
図
  6
CONTINUOUS
 62
     6
100
AcDbVertex
100
AcDb2dVertex
 10
1559.355194
 20
845.940064
 30
0.0
  0
VERTEX
  5
61E
100
AcDbEntity
  8
図
  6
CONTINUOUS
 62
     6
100
AcDbVertex
100
AcDb2dVertex
 10
1559.289276
 20
846.191834
 30
0.0
  0
VERTEX
  5
61F
100
AcDbEntity
  8
図
  6
CONTINUOUS
 62
     6
100
AcDbVertex
100
AcDb2dVertex
 10
1559.250213
 20
846.447723
 30
0.0
  0
VERTEX
  5
620
100
AcDbEntity
  8
図
  6
CONTINUOUS
 62
     6
100
AcDbVertex
100
AcDb2dVertex
 10
1559.235565
 20
846.705597
 30
0.0
  0
SEQEND
  5
621
100
AcDbEntity
  8
図
  6
CONTINUOUS
 62
     6
  0
POLYLINE
  5
622
100
AcDbEntity
  8
図
  6
CONTINUOUS
 62
     6
100
AcDb2dPolyline
 66
     1
 10
0.0
 20
0.0
 30
0.0
 70
   128
  0
VERTEX
  5
623
100
AcDbEntity
  8
図
  6
CONTINUOUS
 62
     6
100
AcDbVertex
100
AcDb2dVertex
 10
1561.252166
 20
844.026306
 30
0.0
  0
VERTEX
  5
624
100
AcDbEntity
  8
図
  6
CONTINUOUS
 62
     6
100
AcDbVertex
100
AcDb2dVertex
 10
1560.98117
 20
844.14502
 30
0.0
  0
VERTEX
  5
625
100
AcDbEntity
  8
図
  6
CONTINUOUS
 62
     6
100
AcDbVertex
100
AcDb2dVertex
 10
1560.724823
 20
844.283569
 30
0.0
  0
VERTEX
  5
626
100
AcDbEntity
  8
図
  6
CONTINUOUS
 62
     6
100
AcDbVertex
100
AcDb2dVertex
 10
1560.480682
 20
844.440582
 30
0.0
  0
VERTEX
  5
627
100
AcDbEntity
  8
図
  6
CONTINUOUS
 62
     6
100
AcDbVertex
100
AcDb2dVertex
 10
1560.258514
 20
844.614685
 30
0.0
  0
VERTEX
  5
628
100
AcDbEntity
  8
図
  6
CONTINUOUS
 62
     6
100
AcDbVertex
100
AcDb2dVertex
 10
1560.053436
 20
844.80481
 30
0.0
  0
VERTEX
  5
629
100
AcDbEntity
  8
図
  6
CONTINUOUS
 62
     6
100
AcDbVertex
100
AcDb2dVertex
 10
1559.867889
 20
845.00943
 30
0.0
  0
VERTEX
  5
62A
100
AcDbEntity
  8
図
  6
CONTINUOUS
 62
     6
100
AcDbVertex
100
AcDb2dVertex
 10
1559.701873
 20
845.226868
 30
0.0
  0
VERTEX
  5
62B
100
AcDbEntity
  8
図
  6
CONTINUOUS
 62
     6
100
AcDbVertex
100
AcDb2dVertex
 10
1559.560272
 20
845.455597
 30
0.0
  0
VERTEX
  5
62C
100
AcDbEntity
  8
図
  6
CONTINUOUS
 62
     6
100
AcDbVertex
100
AcDb2dVertex
 10
1559.445526
 20
845.693939
 30
0.0
  0
VERTEX
  5
62D
100
AcDbEntity
  8
図
  6
CONTINUOUS
 62
     6
100
AcDbVertex
100
AcDb2dVertex
 10
1559.355194
 20
845.940064
 30
0.0
  0
SEQEND
  5
62E
100
AcDbEntity
  8
図
  6
CONTINUOUS
 62
     6
  0
POLYLINE
  5
62F
100
AcDbEntity
  8
図
  6
CONTINUOUS
 62
     6
100
AcDb2dPolyline
 66
     1
 10
0.0
 20
0.0
 30
0.0
 70
   128
  0
VERTEX
  5
630
100
AcDbEntity
  8
図
  6
CONTINUOUS
 62
     6
100
AcDbVertex
100
AcDb2dVertex
 10
1559.235565
 20
846.704987
 30
0.0
  0
VERTEX
  5
631
100
AcDbEntity
  8
図
  6
CONTINUOUS
 62
     6
100
AcDbVertex
100
AcDb2dVertex
 10
1559.250213
 20
846.962708
 30
0.0
  0
VERTEX
  5
632
100
AcDbEntity
  8
図
  6
CONTINUOUS
 62
     6
100
AcDbVertex
100
AcDb2dVertex
 10
1559.289276
 20
847.218292
 30
0.0
  0
VERTEX
  5
633
100
AcDbEntity
  8
図
  6
CONTINUOUS
 62
     6
100
AcDbVertex
100
AcDb2dVertex
 10
1559.355194
 20
847.470062
 30
0.0
  0
VERTEX
  5
634
100
AcDbEntity
  8
図
  6
CONTINUOUS
 62
     6
100
AcDbVertex
100
AcDb2dVertex
 10
1559.447967
 20
847.715881
 30
0.0
  0
VERTEX
  5
635
100
AcDbEntity
  8
図
  6
CONTINUOUS
 62
     6
100
AcDbVertex
100
AcDb2dVertex
 10
1559.562713
 20
847.954071
 30
0.0
  0
VERTEX
  5
636
100
AcDbEntity
  8
図
  6
CONTINUOUS
 62
     6
100
AcDbVertex
100
AcDb2dVertex
 10
1559.701873
 20
848.182953
 30
0.0
  0
VERTEX
  5
637
100
AcDbEntity
  8
図
  6
CONTINUOUS
 62
     6
100
AcDbVertex
100
AcDb2dVertex
 10
1559.865448
 20
848.400391
 30
0.0
  0
VERTEX
  5
638
100
AcDbEntity
  8
図
  6
CONTINUOUS
 62
     6
100
AcDbVertex
100
AcDb2dVertex
 10
1560.050994
 20
848.605011
 30
0.0
  0
VERTEX
  5
639
100
AcDbEntity
  8
図
  6
CONTINUOUS
 62
     6
100
AcDbVertex
100
AcDb2dVertex
 10
1560.258514
 20
848.795288
 30
0.0
  0
VERTEX
  5
63A
100
AcDbEntity
  8
図
  6
CONTINUOUS
 62
     6
100
AcDbVertex
100
AcDb2dVertex
 10
1560.483123
 20
848.969543
 30
0.0
  0
VERTEX
  5
63B
100
AcDbEntity
  8
図
  6
CONTINUOUS
 62
     6
100
AcDbVertex
100
AcDb2dVertex
 10
1560.724823
 20
849.126404
 30
0.0
  0
VERTEX
  5
63C
100
AcDbEntity
  8
図
  6
CONTINUOUS
 62
     6
100
AcDbVertex
100
AcDb2dVertex
 10
1560.98117
 20
849.265106
 30
0.0
  0
VERTEX
  5
63D
100
AcDbEntity
  8
図
  6
CONTINUOUS
 62
     6
100
AcDbVertex
100
AcDb2dVertex
 10
1561.252166
 20
849.384125
 30
0.0
  0
VERTEX
  5
63E
100
AcDbEntity
  8
図
  6
CONTINUOUS
 62
     6
100
AcDbVertex
100
AcDb2dVertex
 10
1561.532928
 20
849.482849
 30
0.0
  0
VERTEX
  5
63F
100
AcDbEntity
  8
図
  6
CONTINUOUS
 62
     6
100
AcDbVertex
100
AcDb2dVertex
 10
1561.823455
 20
849.560211
 30
0.0
  0
VERTEX
  5
640
100
AcDbEntity
  8
図
  6
CONTINUOUS
 62
     6
100
AcDbVertex
100
AcDb2dVertex
 10
1562.121307
 20
849.615906
 30
0.0
  0
VERTEX
  5
641
100
AcDbEntity
  8
図
  6
CONTINUOUS
 62
     6
100
AcDbVertex
100
AcDb2dVertex
 10
1562.424041
 20
849.649475
 30
0.0
  0
VERTEX
  5
642
100
AcDbEntity
  8
図
  6
CONTINUOUS
 62
     6
100
AcDbVertex
100
AcDb2dVertex
 10
1562.726776
 20
849.661072
 30
0.0
  0
VERTEX
  5
643
100
AcDbEntity
  8
図
  6
CONTINUOUS
 62
     6
100
AcDbVertex
100
AcDb2dVertex
 10
1563.031951
 20
849.64978
 30
0.0
  0
VERTEX
  5
644
100
AcDbEntity
  8
図
  6
CONTINUOUS
 62
     6
100
AcDbVertex
100
AcDb2dVertex
 10
1563.332244
 20
849.616058
 30
0.0
  0
VERTEX
  5
645
100
AcDbEntity
  8
図
  6
CONTINUOUS
 62
     6
100
AcDbVertex
100
AcDb2dVertex
 10
1563.630096
 20
849.560211
 30
0.0
  0
VERTEX
  5
646
100
AcDbEntity
  8
図
  6
CONTINUOUS
 62
     6
100
AcDbVertex
100
AcDb2dVertex
 10
1563.920623
 20
849.482544
 30
0.0
  0
VERTEX
  5
647
100
AcDbEntity
  8
図
  6
CONTINUOUS
 62
     6
100
AcDbVertex
100
AcDb2dVertex
 10
1564.201385
 20
849.383667
 30
0.0
  0
VERTEX
  5
648
100
AcDbEntity
  8
図
  6
CONTINUOUS
 62
     6
100
AcDbVertex
100
AcDb2dVertex
 10
1564.472381
 20
849.265106
 30
0.0
  0
VERTEX
  5
649
100
AcDbEntity
  8
図
  6
CONTINUOUS
 62
     6
100
AcDbVertex
100
AcDb2dVertex
 10
1564.728729
 20
849.126556
 30
0.0
  0
VERTEX
  5
64A
100
AcDbEntity
  8
図
  6
CONTINUOUS
 62
     6
100
AcDbVertex
100
AcDb2dVertex
 10
1564.972869
 20
848.969543
 30
0.0
  0
VERTEX
  5
64B
100
AcDbEntity
  8
図
  6
CONTINUOUS
 62
     6
100
AcDbVertex
100
AcDb2dVertex
 10
1565.195037
 20
848.795288
 30
0.0
  0
VERTEX
  5
64C
100
AcDbEntity
  8
図
  6
CONTINUOUS
 62
     6
100
AcDbVertex
100
AcDb2dVertex
 10
1565.400116
 20
848.605164
 30
0.0
  0
VERTEX
  5
64D
100
AcDbEntity
  8
図
  6
CONTINUOUS
 62
     6
100
AcDbVertex
100
AcDb2dVertex
 10
1565.585662
 20
848.400543
 30
0.0
  0
VERTEX
  5
64E
100
AcDbEntity
  8
図
  6
CONTINUOUS
 62
     6
100
AcDbVertex
100
AcDb2dVertex
 10
1565.751678
 20
848.182953
 30
0.0
  0
VERTEX
  5
64F
100
AcDbEntity
  8
図
  6
CONTINUOUS
 62
     6
100
AcDbVertex
100
AcDb2dVertex
 10
1565.89328
 20
847.954224
 30
0.0
  0
VERTEX
  5
650
100
AcDbEntity
  8
図
  6
CONTINUOUS
 62
     6
100
AcDbVertex
100
AcDb2dVertex
 10
1566.008026
 20
847.715881
 30
0.0
  0
VERTEX
  5
651
100
AcDbEntity
  8
図
  6
CONTINUOUS
 62
     6
100
AcDbVertex
100
AcDb2dVertex
 10
1566.098358
 20
847.470062
 30
0.0
  0
VERTEX
  5
652
100
AcDbEntity
  8
図
  6
CONTINUOUS
 62
     6
100
AcDbVertex
100
AcDb2dVertex
 10
1566.164276
 20
847.218292
 30
0.0
  0
VERTEX
  5
653
100
AcDbEntity
  8
図
  6
CONTINUOUS
 62
     6
100
AcDbVertex
100
AcDb2dVertex
 10
1566.203338
 20
846.962402
 30
0.0
  0
VERTEX
  5
654
100
AcDbEntity
  8
図
  6
CONTINUOUS
 62
     6
100
AcDbVertex
100
AcDb2dVertex
 10
1566.217987
 20
846.704987
 30
0.0
  0
VERTEX
  5
655
100
AcDbEntity
  8
図
  6
CONTINUOUS
 62
     6
100
AcDbVertex
100
AcDb2dVertex
 10
1566.203338
 20
846.447266
 30
0.0
  0
VERTEX
  5
656
100
AcDbEntity
  8
図
  6
CONTINUOUS
 62
     6
100
AcDbVertex
100
AcDb2dVertex
 10
1566.164276
 20
846.191681
 30
0.0
  0
VERTEX
  5
657
100
AcDbEntity
  8
図
  6
CONTINUOUS
 62
     6
100
AcDbVertex
100
AcDb2dVertex
 10
1566.098358
 20
845.940064
 30
0.0
  0
VERTEX
  5
658
100
AcDbEntity
  8
図
  6
CONTINUOUS
 62
     6
100
AcDbVertex
100
AcDb2dVertex
 10
1566.005584
 20
845.694244
 30
0.0
  0
VERTEX
  5
659
100
AcDbEntity
  8
図
  6
CONTINUOUS
 62
     6
100
AcDbVertex
100
AcDb2dVertex
 10
1565.890838
 20
845.456055
 30
0.0
  0
VERTEX
  5
65A
100
AcDbEntity
  8
図
  6
CONTINUOUS
 62
     6
100
AcDbVertex
100
AcDb2dVertex
 10
1565.751678
 20
845.226868
 30
0.0
  0
VERTEX
  5
65B
100
AcDbEntity
  8
図
  6
CONTINUOUS
 62
     6
100
AcDbVertex
100
AcDb2dVertex
 10
1565.588104
 20
845.00943
 30
0.0
  0
VERTEX
  5
65C
100
AcDbEntity
  8
図
  6
CONTINUOUS
 62
     6
100
AcDbVertex
100
AcDb2dVertex
 10
1565.402557
 20
844.80481
 30
0.0
  0
VERTEX
  5
65D
100
AcDbEntity
  8
図
  6
CONTINUOUS
 62
     6
100
AcDbVertex
100
AcDb2dVertex
 10
1565.195037
 20
844.614685
 30
0.0
  0
VERTEX
  5
65E
100
AcDbEntity
  8
図
  6
CONTINUOUS
 62
     6
100
AcDbVertex
100
AcDb2dVertex
 10
1564.970428
 20
844.44043
 30
0.0
  0
VERTEX
  5
65F
100
AcDbEntity
  8
図
  6
CONTINUOUS
 62
     6
100
AcDbVertex
100
AcDb2dVertex
 10
1564.728729
 20
844.283569
 30
0.0
  0
VERTEX
  5
660
100
AcDbEntity
  8
図
  6
CONTINUOUS
 62
     6
100
AcDbVertex
100
AcDb2dVertex
 10
1564.472381
 20
844.14502
 30
0.0
  0
VERTEX
  5
661
100
AcDbEntity
  8
図
  6
CONTINUOUS
 62
     6
100
AcDbVertex
100
AcDb2dVertex
 10
1564.201385
 20
844.026001
 30
0.0
  0
VERTEX
  5
662
100
AcDbEntity
  8
図
  6
CONTINUOUS
 62
     6
100
AcDbVertex
100
AcDb2dVertex
 10
1563.920623
 20
843.927277
 30
0.0
  0
VERTEX
  5
663
100
AcDbEntity
  8
図
  6
CONTINUOUS
 62
     6
100
AcDbVertex
100
AcDb2dVertex
 10
1563.630096
 20
843.849762
 30
0.0
  0
VERTEX
  5
664
100
AcDbEntity
  8
図
  6
CONTINUOUS
 62
     6
100
AcDbVertex
100
AcDb2dVertex
 10
1563.332244
 20
843.794067
 30
0.0
  0
VERTEX
  5
665
100
AcDbEntity
  8
図
  6
CONTINUOUS
 62
     6
100
AcDbVertex
100
AcDb2dVertex
 10
1563.02951
 20
843.760498
 30
0.0
  0
VERTEX
  5
666
100
AcDbEntity
  8
図
  6
CONTINUOUS
 62
     6
100
AcDbVertex
100
AcDb2dVertex
 10
1562.726776
 20
843.748749
 30
0.0
  0
VERTEX
  5
667
100
AcDbEntity
  8
図
  6
CONTINUOUS
 62
     6
100
AcDbVertex
100
AcDb2dVertex
 10
1562.4216
 20
843.76004
 30
0.0
  0
VERTEX
  5
668
100
AcDbEntity
  8
図
  6
CONTINUOUS
 62
     6
100
AcDbVertex
100
AcDb2dVertex
 10
1562.121307
 20
843.793762
 30
0.0
  0
VERTEX
  5
669
100
AcDbEntity
  8
図
  6
CONTINUOUS
 62
     6
100
AcDbVertex
100
AcDb2dVertex
 10
1561.823455
 20
843.849762
 30
0.0
  0
VERTEX
  5
66A
100
AcDbEntity
  8
図
  6
CONTINUOUS
 62
     6
100
AcDbVertex
100
AcDb2dVertex
 10
1561.532928
 20
843.927429
 30
0.0
  0
VERTEX
  5
66B
100
AcDbEntity
  8
図
  6
CONTINUOUS
 62
     6
100
AcDbVertex
100
AcDb2dVertex
 10
1561.252166
 20
844.026306
 30
0.0
  0
SEQEND
  5
66C
100
AcDbEntity
  8
図
  6
CONTINUOUS
 62
     6
  0
POLYLINE
  5
66D
100
AcDbEntity
  8
図
  6
CONTINUOUS
 62
     6
100
AcDb2dPolyline
 66
     1
 10
0.0
 20
0.0
 30
0.0
 70
   128
  0
VERTEX
  5
66E
100
AcDbEntity
  8
図
  6
CONTINUOUS
 62
     6
100
AcDbVertex
100
AcDb2dVertex
 10
1559.355194
 20
856.488617
 30
0.0
  0
VERTEX
  5
66F
100
AcDbEntity
  8
図
  6
CONTINUOUS
 62
     6
100
AcDbVertex
100
AcDb2dVertex
 10
1559.289276
 20
856.985596
 30
0.0
  0
VERTEX
  5
670
100
AcDbEntity
  8
図
  6
CONTINUOUS
 62
     6
100
AcDbVertex
100
AcDb2dVertex
 10
1559.250213
 20
857.490204
 30
0.0
  0
VERTEX
  5
671
100
AcDbEntity
  8
図
  6
CONTINUOUS
 62
     6
100
AcDbVertex
100
AcDb2dVertex
 10
1559.238006
 20
857.998627
 30
0.0
  0
SEQEND
  5
672
100
AcDbEntity
  8
図
  6
CONTINUOUS
 62
     6
  0
POLYLINE
  5
673
100
AcDbEntity
  8
図
  6
CONTINUOUS
 62
     6
100
AcDb2dPolyline
 66
     1
 10
0.0
 20
0.0
 30
0.0
 70
   128
  0
VERTEX
  5
674
100
AcDbEntity
  8
図
  6
CONTINUOUS
 62
     6
100
AcDbVertex
100
AcDb2dVertex
 10
1561.252166
 20
852.710693
 30
0.0
  0
VERTEX
  5
675
100
AcDbEntity
  8
図
  6
CONTINUOUS
 62
     6
100
AcDbVertex
100
AcDb2dVertex
 10
1560.98117
 20
852.945374
 30
0.0
  0
VERTEX
  5
676
100
AcDbEntity
  8
図
  6
CONTINUOUS
 62
     6
100
AcDbVertex
100
AcDb2dVertex
 10
1560.724823
 20
853.218811
 30
0.0
  0
VERTEX
  5
677
100
AcDbEntity
  8
図
  6
CONTINUOUS
 62
     6
100
AcDbVertex
100
AcDb2dVertex
 10
1560.480682
 20
853.528717
 30
0.0
  0
VERTEX
  5
678
100
AcDbEntity
  8
図
  6
CONTINUOUS
 62
     6
100
AcDbVertex
100
AcDb2dVertex
 10
1560.258514
 20
853.872955
 30
0.0
  0
VERTEX
  5
679
100
AcDbEntity
  8
図
  6
CONTINUOUS
 62
     6
100
AcDbVertex
100
AcDb2dVertex
 10
1560.053436
 20
854.248322
 30
0.0
  0
VERTEX
  5
67A
100
AcDbEntity
  8
図
  6
CONTINUOUS
 62
     6
100
AcDbVertex
100
AcDb2dVertex
 10
1559.867889
 20
854.652374
 30
0.0
  0
VERTEX
  5
67B
100
AcDbEntity
  8
図
  6
CONTINUOUS
 62
     6
100
AcDbVertex
100
AcDb2dVertex
 10
1559.701873
 20
855.081299
 30
0.0
  0
VERTEX
  5
67C
100
AcDbEntity
  8
図
  6
CONTINUOUS
 62
     6
100
AcDbVertex
100
AcDb2dVertex
 10
1559.560272
 20
855.532959
 30
0.0
  0
VERTEX
  5
67D
100
AcDbEntity
  8
図
  6
CONTINUOUS
 62
     6
100
AcDbVertex
100
AcDb2dVertex
 10
1559.445526
 20
856.003387
 30
0.0
  0
VERTEX
  5
67E
100
AcDbEntity
  8
図
  6
CONTINUOUS
 62
     6
100
AcDbVertex
100
AcDb2dVertex
 10
1559.355194
 20
856.488617
 30
0.0
  0
SEQEND
  5
67F
100
AcDbEntity
  8
図
  6
CONTINUOUS
 62
     6
  0
POLYLINE
  5
680
100
AcDbEntity
  8
図
  6
CONTINUOUS
 62
     6
100
AcDb2dPolyline
 66
     1
 10
0.0
 20
0.0
 30
0.0
 70
   128
  0
VERTEX
  5
681
100
AcDbEntity
  8
図
  6
CONTINUOUS
 62
     6
100
AcDbVertex
100
AcDb2dVertex
 10
1559.235565
 20
857.998932
 30
0.0
  0
VERTEX
  5
682
100
AcDbEntity
  8
図
  6
CONTINUOUS
 62
     6
100
AcDbVertex
100
AcDb2dVertex
 10
1559.247772
 20
858.507507
 30
0.0
  0
VERTEX
  5
683
100
AcDbEntity
  8
図
  6
CONTINUOUS
 62
     6
100
AcDbVertex
100
AcDb2dVertex
 10
1559.289276
 20
859.012116
 30
0.0
  0
VERTEX
  5
684
100
AcDbEntity
  8
図
  6
CONTINUOUS
 62
     6
100
AcDbVertex
100
AcDb2dVertex
 10
1559.355194
 20
859.509247
 30
0.0
  0
VERTEX
  5
685
100
AcDbEntity
  8
図
  6
CONTINUOUS
 62
     6
100
AcDbVertex
100
AcDb2dVertex
 10
1559.445526
 20
859.994782
 30
0.0
  0
VERTEX
  5
686
100
AcDbEntity
  8
図
  6
CONTINUOUS
 62
     6
100
AcDbVertex
100
AcDb2dVertex
 10
1559.562713
 20
860.46521
 30
0.0
  0
VERTEX
  5
687
100
AcDbEntity
  8
図
  6
CONTINUOUS
 62
     6
100
AcDbVertex
100
AcDb2dVertex
 10
1559.701873
 20
860.916412
 30
0.0
  0
VERTEX
  5
688
100
AcDbEntity
  8
図
  6
CONTINUOUS
 62
     6
100
AcDbVertex
100
AcDb2dVertex
 10
1559.865448
 20
861.345642
 30
0.0
  0
VERTEX
  5
689
100
AcDbEntity
  8
図
  6
CONTINUOUS
 62
     6
100
AcDbVertex
100
AcDb2dVertex
 10
1560.050994
 20
861.749542
 30
0.0
  0
VERTEX
  5
68A
100
AcDbEntity
  8
図
  6
CONTINUOUS
 62
     6
100
AcDbVertex
100
AcDb2dVertex
 10
1560.258514
 20
862.124908
 30
0.0
  0
VERTEX
  5
68B
100
AcDbEntity
  8
図
  6
CONTINUOUS
 62
     6
100
AcDbVertex
100
AcDb2dVertex
 10
1560.483123
 20
862.468689
 30
0.0
  0
VERTEX
  5
68C
100
AcDbEntity
  8
図
  6
CONTINUOUS
 62
     6
100
AcDbVertex
100
AcDb2dVertex
 10
1560.724823
 20
862.778442
 30
0.0
  0
VERTEX
  5
68D
100
AcDbEntity
  8
図
  6
CONTINUOUS
 62
     6
100
AcDbVertex
100
AcDb2dVertex
 10
1560.98117
 20
863.05249
 30
0.0
  0
VERTEX
  5
68E
100
AcDbEntity
  8
図
  6
CONTINUOUS
 62
     6
100
AcDbVertex
100
AcDb2dVertex
 10
1561.252166
 20
863.287476
 30
0.0
  0
VERTEX
  5
68F
100
AcDbEntity
  8
図
  6
CONTINUOUS
 62
     6
100
AcDbVertex
100
AcDb2dVertex
 10
1561.532928
 20
863.482483
 30
0.0
  0
VERTEX
  5
690
100
AcDbEntity
  8
図
  6
CONTINUOUS
 62
     6
100
AcDbVertex
100
AcDb2dVertex
 10
1561.823455
 20
863.635223
 30
0.0
  0
VERTEX
  5
691
100
AcDbEntity
  8
図
  6
CONTINUOUS
 62
     6
100
AcDbVertex
100
AcDb2dVertex
 10
1562.121307
 20
863.745239
 30
0.0
  0
VERTEX
  5
692
100
AcDbEntity
  8
図
  6
CONTINUOUS
 62
     6
100
AcDbVertex
100
AcDb2dVertex
 10
1562.424041
 20
863.811615
 30
0.0
  0
VERTEX
  5
693
100
AcDbEntity
  8
図
  6
CONTINUOUS
 62
     6
100
AcDbVertex
100
AcDb2dVertex
 10
1562.726776
 20
863.834045
 30
0.0
  0
VERTEX
  5
694
100
AcDbEntity
  8
図
  6
CONTINUOUS
 62
     6
100
AcDbVertex
100
AcDb2dVertex
 10
1563.031951
 20
863.811768
 30
0.0
  0
VERTEX
  5
695
100
AcDbEntity
  8
図
  6
CONTINUOUS
 62
     6
100
AcDbVertex
100
AcDb2dVertex
 10
1563.332244
 20
863.745087
 30
0.0
  0
VERTEX
  5
696
100
AcDbEntity
  8
図
  6
CONTINUOUS
 62
     6
100
AcDbVertex
100
AcDb2dVertex
 10
1563.630096
 20
863.635223
 30
0.0
  0
VERTEX
  5
697
100
AcDbEntity
  8
図
  6
CONTINUOUS
 62
     6
100
AcDbVertex
100
AcDb2dVertex
 10
1563.920623
 20
863.482025
 30
0.0
  0
VERTEX
  5
698
100
AcDbEntity
  8
図
  6
CONTINUOUS
 62
     6
100
AcDbVertex
100
AcDb2dVertex
 10
1564.201385
 20
863.28717
 30
0.0
  0
VERTEX
  5
699
100
AcDbEntity
  8
図
  6
CONTINUOUS
 62
     6
100
AcDbVertex
100
AcDb2dVertex
 10
1564.472381
 20
863.05249
 30
0.0
  0
VERTEX
  5
69A
100
AcDbEntity
  8
図
  6
CONTINUOUS
 62
     6
100
AcDbVertex
100
AcDb2dVertex
 10
1564.728729
 20
862.779053
 30
0.0
  0
VERTEX
  5
69B
100
AcDbEntity
  8
図
  6
CONTINUOUS
 62
     6
100
AcDbVertex
100
AcDb2dVertex
 10
1564.972869
 20
862.469147
 30
0.0
  0
VERTEX
  5
69C
100
AcDbEntity
  8
図
  6
CONTINUOUS
 62
     6
100
AcDbVertex
100
AcDb2dVertex
 10
1565.195037
 20
862.124908
 30
0.0
  0
VERTEX
  5
69D
100
AcDbEntity
  8
図
  6
CONTINUOUS
 62
     6
100
AcDbVertex
100
AcDb2dVertex
 10
1565.400116
 20
861.749542
 30
0.0
  0
VERTEX
  5
69E
100
AcDbEntity
  8
図
  6
CONTINUOUS
 62
     6
100
AcDbVertex
100
AcDb2dVertex
 10
1565.585662
 20
861.34549
 30
0.0
  0
VERTEX
  5
69F
100
AcDbEntity
  8
図
  6
CONTINUOUS
 62
     6
100
AcDbVertex
100
AcDb2dVertex
 10
1565.751678
 20
860.916412
 30
0.0
  0
VERTEX
  5
6A0
100
AcDbEntity
  8
図
  6
CONTINUOUS
 62
     6
100
AcDbVertex
100
AcDb2dVertex
 10
1565.89328
 20
860.464752
 30
0.0
  0
VERTEX
  5
6A1
100
AcDbEntity
  8
図
  6
CONTINUOUS
 62
     6
100
AcDbVertex
100
AcDb2dVertex
 10
1566.008026
 20
859.994324
 30
0.0
  0
VERTEX
  5
6A2
100
AcDbEntity
  8
図
  6
CONTINUOUS
 62
     6
100
AcDbVertex
100
AcDb2dVertex
 10
1566.098358
 20
859.509247
 30
0.0
  0
VERTEX
  5
6A3
100
AcDbEntity
  8
図
  6
CONTINUOUS
 62
     6
100
AcDbVertex
100
AcDb2dVertex
 10
1566.164276
 20
859.012268
 30
0.0
  0
VERTEX
  5
6A4
100
AcDbEntity
  8
図
  6
CONTINUOUS
 62
     6
100
AcDbVertex
100
AcDb2dVertex
 10
1566.203338
 20
858.50766
 30
0.0
  0
VERTEX
  5
6A5
100
AcDbEntity
  8
図
  6
CONTINUOUS
 62
     6
100
AcDbVertex
100
AcDb2dVertex
 10
1566.217987
 20
857.998932
 30
0.0
  0
VERTEX
  5
6A6
100
AcDbEntity
  8
図
  6
CONTINUOUS
 62
     6
100
AcDbVertex
100
AcDb2dVertex
 10
1566.20578
 20
857.490356
 30
0.0
  0
VERTEX
  5
6A7
100
AcDbEntity
  8
図
  6
CONTINUOUS
 62
     6
100
AcDbVertex
100
AcDb2dVertex
 10
1566.164276
 20
856.985748
 30
0.0
  0
VERTEX
  5
6A8
100
AcDbEntity
  8
図
  6
CONTINUOUS
 62
     6
100
AcDbVertex
100
AcDb2dVertex
 10
1566.098358
 20
856.488617
 30
0.0
  0
VERTEX
  5
6A9
100
AcDbEntity
  8
図
  6
CONTINUOUS
 62
     6
100
AcDbVertex
100
AcDb2dVertex
 10
1566.008026
 20
856.003082
 30
0.0
  0
VERTEX
  5
6AA
100
AcDbEntity
  8
図
  6
CONTINUOUS
 62
     6
100
AcDbVertex
100
AcDb2dVertex
 10
1565.890838
 20
855.532654
 30
0.0
  0
VERTEX
  5
6AB
100
AcDbEntity
  8
図
  6
CONTINUOUS
 62
     6
100
AcDbVertex
100
AcDb2dVertex
 10
1565.751678
 20
855.081299
 30
0.0
  0
VERTEX
  5
6AC
100
AcDbEntity
  8
図
  6
CONTINUOUS
 62
     6
100
AcDbVertex
100
AcDb2dVertex
 10
1565.588104
 20
854.652069
 30
0.0
  0
VERTEX
  5
6AD
100
AcDbEntity
  8
図
  6
CONTINUOUS
 62
     6
100
AcDbVertex
100
AcDb2dVertex
 10
1565.402557
 20
854.248169
 30
0.0
  0
VERTEX
  5
6AE
100
AcDbEntity
  8
図
  6
CONTINUOUS
 62
     6
100
AcDbVertex
100
AcDb2dVertex
 10
1565.195037
 20
853.872955
 30
0.0
  0
VERTEX
  5
6AF
100
AcDbEntity
  8
図
  6
CONTINUOUS
 62
     6
100
AcDbVertex
100
AcDb2dVertex
 10
1564.970428
 20
853.529175
 30
0.0
  0
VERTEX
  5
6B0
100
AcDbEntity
  8
図
  6
CONTINUOUS
 62
     6
100
AcDbVertex
100
AcDb2dVertex
 10
1564.728729
 20
853.219421
 30
0.0
  0
VERTEX
  5
6B1
100
AcDbEntity
  8
図
  6
CONTINUOUS
 62
     6
100
AcDbVertex
100
AcDb2dVertex
 10
1564.472381
 20
852.945374
 30
0.0
  0
VERTEX
  5
6B2
100
AcDbEntity
  8
図
  6
CONTINUOUS
 62
     6
100
AcDbVertex
100
AcDb2dVertex
 10
1564.201385
 20
852.710388
 30
0.0
  0
VERTEX
  5
6B3
100
AcDbEntity
  8
図
  6
CONTINUOUS
 62
     6
100
AcDbVertex
100
AcDb2dVertex
 10
1563.920623
 20
852.515381
 30
0.0
  0
VERTEX
  5
6B4
100
AcDbEntity
  8
図
  6
CONTINUOUS
 62
     6
100
AcDbVertex
100
AcDb2dVertex
 10
1563.630096
 20
852.36264
 30
0.0
  0
VERTEX
  5
6B5
100
AcDbEntity
  8
図
  6
CONTINUOUS
 62
     6
100
AcDbVertex
100
AcDb2dVertex
 10
1563.332244
 20
852.252625
 30
0.0
  0
VERTEX
  5
6B6
100
AcDbEntity
  8
図
  6
CONTINUOUS
 62
     6
100
AcDbVertex
100
AcDb2dVertex
 10
1563.02951
 20
852.186249
 30
0.0
  0
VERTEX
  5
6B7
100
AcDbEntity
  8
図
  6
CONTINUOUS
 62
     6
100
AcDbVertex
100
AcDb2dVertex
 10
1562.726776
 20
852.163818
 30
0.0
  0
VERTEX
  5
6B8
100
AcDbEntity
  8
図
  6
CONTINUOUS
 62
     6
100
AcDbVertex
100
AcDb2dVertex
 10
1562.4216
 20
852.186096
 30
0.0
  0
VERTEX
  5
6B9
100
AcDbEntity
  8
図
  6
CONTINUOUS
 62
     6
100
AcDbVertex
100
AcDb2dVertex
 10
1562.121307
 20
852.252777
 30
0.0
  0
VERTEX
  5
6BA
100
AcDbEntity
  8
図
  6
CONTINUOUS
 62
     6
100
AcDbVertex
100
AcDb2dVertex
 10
1561.823455
 20
852.36264
 30
0.0
  0
VERTEX
  5
6BB
100
AcDbEntity
  8
図
  6
CONTINUOUS
 62
     6
100
AcDbVertex
100
AcDb2dVertex
 10
1561.532928
 20
852.515839
 30
0.0
  0
VERTEX
  5
6BC
100
AcDbEntity
  8
図
  6
CONTINUOUS
 62
     6
100
AcDbVertex
100
AcDb2dVertex
 10
1561.252166
 20
852.710693
 30
0.0
  0
SEQEND
  5
6BD
100
AcDbEntity
  8
図
  6
CONTINUOUS
 62
     6
  0
POLYLINE
  5
6BE
100
AcDbEntity
  8
図
  6
CONTINUOUS
 62
     6
100
AcDb2dPolyline
 66
     1
 10
0.0
 20
0.0
 30
0.0
 70
   128
  0
VERTEX
  5
6BF
100
AcDbEntity
  8
図
  6
CONTINUOUS
 62
     6
100
AcDbVertex
100
AcDb2dVertex
 10
1559.355194
 20
868.530396
 30
0.0
  0
VERTEX
  5
6C0
100
AcDbEntity
  8
図
  6
CONTINUOUS
 62
     6
100
AcDbVertex
100
AcDb2dVertex
 10
1559.289276
 20
868.782013
 30
0.0
  0
VERTEX
  5
6C1
100
AcDbEntity
  8
図
  6
CONTINUOUS
 62
     6
100
AcDbVertex
100
AcDb2dVertex
 10
1559.250213
 20
869.03775
 30
0.0
  0
VERTEX
  5
6C2
100
AcDbEntity
  8
図
  6
CONTINUOUS
 62
     6
100
AcDbVertex
100
AcDb2dVertex
 10
1559.235565
 20
869.295471
 30
0.0
  0
SEQEND
  5
6C3
100
AcDbEntity
  8
図
  6
CONTINUOUS
 62
     6
  0
POLYLINE
  5
6C4
100
AcDbEntity
  8
図
  6
CONTINUOUS
 62
     6
100
AcDb2dPolyline
 66
     1
 10
0.0
 20
0.0
 30
0.0
 70
   128
  0
VERTEX
  5
6C5
100
AcDbEntity
  8
図
  6
CONTINUOUS
 62
     6
100
AcDbVertex
100
AcDb2dVertex
 10
1561.252166
 20
866.617554
 30
0.0
  0
VERTEX
  5
6C6
100
AcDbEntity
  8
図
  6
CONTINUOUS
 62
     6
100
AcDbVertex
100
AcDb2dVertex
 10
1560.98117
 20
866.73642
 30
0.0
  0
VERTEX
  5
6C7
100
AcDbEntity
  8
図
  6
CONTINUOUS
 62
     6
100
AcDbVertex
100
AcDb2dVertex
 10
1560.724823
 20
866.87497
 30
0.0
  0
VERTEX
  5
6C8
100
AcDbEntity
  8
図
  6
CONTINUOUS
 62
     6
100
AcDbVertex
100
AcDb2dVertex
 10
1560.480682
 20
867.03183
 30
0.0
  0
VERTEX
  5
6C9
100
AcDbEntity
  8
図
  6
CONTINUOUS
 62
     6
100
AcDbVertex
100
AcDb2dVertex
 10
1560.258514
 20
867.205933
 30
0.0
  0
VERTEX
  5
6CA
100
AcDbEntity
  8
図
  6
CONTINUOUS
 62
     6
100
AcDbVertex
100
AcDb2dVertex
 10
1560.053436
 20
867.396057
 30
0.0
  0
VERTEX
  5
6CB
100
AcDbEntity
  8
図
  6
CONTINUOUS
 62
     6
100
AcDbVertex
100
AcDb2dVertex
 10
1559.867889
 20
867.600678
 30
0.0
  0
VERTEX
  5
6CC
100
AcDbEntity
  8
図
  6
CONTINUOUS
 62
     6
100
AcDbVertex
100
AcDb2dVertex
 10
1559.701873
 20
867.817505
 30
0.0
  0
VERTEX
  5
6CD
100
AcDbEntity
  8
図
  6
CONTINUOUS
 62
     6
100
AcDbVertex
100
AcDb2dVertex
 10
1559.560272
 20
868.046082
 30
0.0
  0
VERTEX
  5
6CE
100
AcDbEntity
  8
図
  6
CONTINUOUS
 62
     6
100
AcDbVertex
100
AcDb2dVertex
 10
1559.445526
 20
868.284119
 30
0.0
  0
VERTEX
  5
6CF
100
AcDbEntity
  8
図
  6
CONTINUOUS
 62
     6
100
AcDbVertex
100
AcDb2dVertex
 10
1559.355194
 20
868.530396
 30
0.0
  0
SEQEND
  5
6D0
100
AcDbEntity
  8
図
  6
CONTINUOUS
 62
     6
  0
POLYLINE
  5
6D1
100
AcDbEntity
  8
図
  6
CONTINUOUS
 62
     6
100
AcDb2dPolyline
 66
     1
 10
0.0
 20
0.0
 30
0.0
 70
   128
  0
VERTEX
  5
6D2
100
AcDbEntity
  8
図
  6
CONTINUOUS
 62
     6
100
AcDbVertex
100
AcDb2dVertex
 10
1559.235565
 20
869.294861
 30
0.0
  0
VERTEX
  5
6D3
100
AcDbEntity
  8
図
  6
CONTINUOUS
 62
     6
100
AcDbVertex
100
AcDb2dVertex
 10
1559.250213
 20
869.552429
 30
0.0
  0
VERTEX
  5
6D4
100
AcDbEntity
  8
図
  6
CONTINUOUS
 62
     6
100
AcDbVertex
100
AcDb2dVertex
 10
1559.289276
 20
869.808167
 30
0.0
  0
VERTEX
  5
6D5
100
AcDbEntity
  8
図
  6
CONTINUOUS
 62
     6
100
AcDbVertex
100
AcDb2dVertex
 10
1559.355194
 20
870.059631
 30
0.0
  0
VERTEX
  5
6D6
100
AcDbEntity
  8
図
  6
CONTINUOUS
 62
     6
100
AcDbVertex
100
AcDb2dVertex
 10
1559.447967
 20
870.30545
 30
0.0
  0
VERTEX
  5
6D7
100
AcDbEntity
  8
図
  6
CONTINUOUS
 62
     6
100
AcDbVertex
100
AcDb2dVertex
 10
1559.562713
 20
870.543793
 30
0.0
  0
VERTEX
  5
6D8
100
AcDbEntity
  8
図
  6
CONTINUOUS
 62
     6
100
AcDbVertex
100
AcDb2dVertex
 10
1559.701873
 20
870.771912
 30
0.0
  0
VERTEX
  5
6D9
100
AcDbEntity
  8
図
  6
CONTINUOUS
 62
     6
100
AcDbVertex
100
AcDb2dVertex
 10
1559.865448
 20
870.989349
 30
0.0
  0
VERTEX
  5
6DA
100
AcDbEntity
  8
図
  6
CONTINUOUS
 62
     6
100
AcDbVertex
100
AcDb2dVertex
 10
1560.050994
 20
871.193817
 30
0.0
  0
VERTEX
  5
6DB
100
AcDbEntity
  8
図
  6
CONTINUOUS
 62
     6
100
AcDbVertex
100
AcDb2dVertex
 10
1560.258514
 20
871.383942
 30
0.0
  0
VERTEX
  5
6DC
100
AcDbEntity
  8
図
  6
CONTINUOUS
 62
     6
100
AcDbVertex
100
AcDb2dVertex
 10
1560.483123
 20
871.558044
 30
0.0
  0
VERTEX
  5
6DD
100
AcDbEntity
  8
図
  6
CONTINUOUS
 62
     6
100
AcDbVertex
100
AcDb2dVertex
 10
1560.724823
 20
871.71521
 30
0.0
  0
VERTEX
  5
6DE
100
AcDbEntity
  8
図
  6
CONTINUOUS
 62
     6
100
AcDbVertex
100
AcDb2dVertex
 10
1560.98117
 20
871.853149
 30
0.0
  0
VERTEX
  5
6DF
100
AcDbEntity
  8
図
  6
CONTINUOUS
 62
     6
100
AcDbVertex
100
AcDb2dVertex
 10
1561.252166
 20
871.972015
 30
0.0
  0
VERTEX
  5
6E0
100
AcDbEntity
  8
図
  6
CONTINUOUS
 62
     6
100
AcDbVertex
100
AcDb2dVertex
 10
1561.532928
 20
872.070587
 30
0.0
  0
VERTEX
  5
6E1
100
AcDbEntity
  8
図
  6
CONTINUOUS
 62
     6
100
AcDbVertex
100
AcDb2dVertex
 10
1561.823455
 20
872.148102
 30
0.0
  0
VERTEX
  5
6E2
100
AcDbEntity
  8
図
  6
CONTINUOUS
 62
     6
100
AcDbVertex
100
AcDb2dVertex
 10
1562.121307
 20
872.203796
 30
0.0
  0
VERTEX
  5
6E3
100
AcDbEntity
  8
図
  6
CONTINUOUS
 62
     6
100
AcDbVertex
100
AcDb2dVertex
 10
1562.424041
 20
872.237213
 30
0.0
  0
VERTEX
  5
6E4
100
AcDbEntity
  8
図
  6
CONTINUOUS
 62
     6
100
AcDbVertex
100
AcDb2dVertex
 10
1562.726776
 20
872.248962
 30
0.0
  0
VERTEX
  5
6E5
100
AcDbEntity
  8
図
  6
CONTINUOUS
 62
     6
100
AcDbVertex
100
AcDb2dVertex
 10
1563.031951
 20
872.237671
 30
0.0
  0
VERTEX
  5
6E6
100
AcDbEntity
  8
図
  6
CONTINUOUS
 62
     6
100
AcDbVertex
100
AcDb2dVertex
 10
1563.332244
 20
872.204102
 30
0.0
  0
VERTEX
  5
6E7
100
AcDbEntity
  8
図
  6
CONTINUOUS
 62
     6
100
AcDbVertex
100
AcDb2dVertex
 10
1563.630096
 20
872.148102
 30
0.0
  0
VERTEX
  5
6E8
100
AcDbEntity
  8
図
  6
CONTINUOUS
 62
     6
100
AcDbVertex
100
AcDb2dVertex
 10
1563.920623
 20
872.070587
 30
0.0
  0
VERTEX
  5
6E9
100
AcDbEntity
  8
図
  6
CONTINUOUS
 62
     6
100
AcDbVertex
100
AcDb2dVertex
 10
1564.201385
 20
871.97171
 30
0.0
  0
VERTEX
  5
6EA
100
AcDbEntity
  8
図
  6
CONTINUOUS
 62
     6
100
AcDbVertex
100
AcDb2dVertex
 10
1564.472381
 20
871.853149
 30
0.0
  0
VERTEX
  5
6EB
100
AcDbEntity
  8
図
  6
CONTINUOUS
 62
     6
100
AcDbVertex
100
AcDb2dVertex
 10
1564.728729
 20
871.7146
 30
0.0
  0
VERTEX
  5
6EC
100
AcDbEntity
  8
図
  6
CONTINUOUS
 62
     6
100
AcDbVertex
100
AcDb2dVertex
 10
1564.972869
 20
871.557587
 30
0.0
  0
VERTEX
  5
6ED
100
AcDbEntity
  8
図
  6
CONTINUOUS
 62
     6
100
AcDbVertex
100
AcDb2dVertex
 10
1565.195037
 20
871.383942
 30
0.0
  0
VERTEX
  5
6EE
100
AcDbEntity
  8
図
  6
CONTINUOUS
 62
     6
100
AcDbVertex
100
AcDb2dVertex
 10
1565.400116
 20
871.19397
 30
0.0
  0
VERTEX
  5
6EF
100
AcDbEntity
  8
図
  6
CONTINUOUS
 62
     6
100
AcDbVertex
100
AcDb2dVertex
 10
1565.585662
 20
870.989655
 30
0.0
  0
VERTEX
  5
6F0
100
AcDbEntity
  8
図
  6
CONTINUOUS
 62
     6
100
AcDbVertex
100
AcDb2dVertex
 10
1565.751678
 20
870.771912
 30
0.0
  0
VERTEX
  5
6F1
100
AcDbEntity
  8
図
  6
CONTINUOUS
 62
     6
100
AcDbVertex
100
AcDb2dVertex
 10
1565.89328
 20
870.543335
 30
0.0
  0
VERTEX
  5
6F2
100
AcDbEntity
  8
図
  6
CONTINUOUS
 62
     6
100
AcDbVertex
100
AcDb2dVertex
 10
1566.008026
 20
870.305298
 30
0.0
  0
VERTEX
  5
6F3
100
AcDbEntity
  8
図
  6
CONTINUOUS
 62
     6
100
AcDbVertex
100
AcDb2dVertex
 10
1566.098358
 20
870.059631
 30
0.0
  0
VERTEX
  5
6F4
100
AcDbEntity
  8
図
  6
CONTINUOUS
 62
     6
100
AcDbVertex
100
AcDb2dVertex
 10
1566.164276
 20
869.808014
 30
0.0
  0
VERTEX
  5
6F5
100
AcDbEntity
  8
図
  6
CONTINUOUS
 62
     6
100
AcDbVertex
100
AcDb2dVertex
 10
1566.203338
 20
869.552734
 30
0.0
  0
VERTEX
  5
6F6
100
AcDbEntity
  8
図
  6
CONTINUOUS
 62
     6
100
AcDbVertex
100
AcDb2dVertex
 10
1566.217987
 20
869.294861
 30
0.0
  0
VERTEX
  5
6F7
100
AcDbEntity
  8
図
  6
CONTINUOUS
 62
     6
100
AcDbVertex
100
AcDb2dVertex
 10
1566.203338
 20
869.037445
 30
0.0
  0
VERTEX
  5
6F8
100
AcDbEntity
  8
図
  6
CONTINUOUS
 62
     6
100
AcDbVertex
100
AcDb2dVertex
 10
1566.164276
 20
868.782166
 30
0.0
  0
VERTEX
  5
6F9
100
AcDbEntity
  8
図
  6
CONTINUOUS
 62
     6
100
AcDbVertex
100
AcDb2dVertex
 10
1566.098358
 20
868.530396
 30
0.0
  0
VERTEX
  5
6FA
100
AcDbEntity
  8
図
  6
CONTINUOUS
 62
     6
100
AcDbVertex
100
AcDb2dVertex
 10
1566.005584
 20
868.284729
 30
0.0
  0
VERTEX
  5
6FB
100
AcDbEntity
  8
図
  6
CONTINUOUS
 62
     6
100
AcDbVertex
100
AcDb2dVertex
 10
1565.890838
 20
868.046692
 30
0.0
  0
VERTEX
  5
6FC
100
AcDbEntity
  8
図
  6
CONTINUOUS
 62
     6
100
AcDbVertex
100
AcDb2dVertex
 10
1565.751678
 20
867.817505
 30
0.0
  0
VERTEX
  5
6FD
100
AcDbEntity
  8
図
  6
CONTINUOUS
 62
     6
100
AcDbVertex
100
AcDb2dVertex
 10
1565.588104
 20
867.600067
 30
0.0
  0
VERTEX
  5
6FE
100
AcDbEntity
  8
図
  6
CONTINUOUS
 62
     6
100
AcDbVertex
100
AcDb2dVertex
 10
1565.402557
 20
867.395447
 30
0.0
  0
VERTEX
  5
6FF
100
AcDbEntity
  8
図
  6
CONTINUOUS
 62
     6
100
AcDbVertex
100
AcDb2dVertex
 10
1565.195037
 20
867.205933
 30
0.0
  0
VERTEX
  5
700
100
AcDbEntity
  8
図
  6
CONTINUOUS
 62
     6
100
AcDbVertex
100
AcDb2dVertex
 10
1564.970428
 20
867.03183
 30
0.0
  0
VERTEX
  5
701
100
AcDbEntity
  8
図
  6
CONTINUOUS
 62
     6
100
AcDbVertex
100
AcDb2dVertex
 10
1564.728729
 20
866.875122
 30
0.0
  0
VERTEX
  5
702
100
AcDbEntity
  8
図
  6
CONTINUOUS
 62
     6
100
AcDbVertex
100
AcDb2dVertex
 10
1564.472381
 20
866.73642
 30
0.0
  0
VERTEX
  5
703
100
AcDbEntity
  8
図
  6
CONTINUOUS
 62
     6
100
AcDbVertex
100
AcDb2dVertex
 10
1564.201385
 20
866.617401
 30
0.0
  0
VERTEX
  5
704
100
AcDbEntity
  8
図
  6
CONTINUOUS
 62
     6
100
AcDbVertex
100
AcDb2dVertex
 10
1563.920623
 20
866.518982
 30
0.0
  0
VERTEX
  5
705
100
AcDbEntity
  8
図
  6
CONTINUOUS
 62
     6
100
AcDbVertex
100
AcDb2dVertex
 10
1563.630096
 20
866.441315
 30
0.0
  0
VERTEX
  5
706
100
AcDbEntity
  8
図
  6
CONTINUOUS
 62
     6
100
AcDbVertex
100
AcDb2dVertex
 10
1563.332244
 20
866.38562
 30
0.0
  0
VERTEX
  5
707
100
AcDbEntity
  8
図
  6
CONTINUOUS
 62
     6
100
AcDbVertex
100
AcDb2dVertex
 10
1563.02951
 20
866.352051
 30
0.0
  0
VERTEX
  5
708
100
AcDbEntity
  8
図
  6
CONTINUOUS
 62
     6
100
AcDbVertex
100
AcDb2dVertex
 10
1562.726776
 20
866.340607
 30
0.0
  0
VERTEX
  5
709
100
AcDbEntity
  8
図
  6
CONTINUOUS
 62
     6
100
AcDbVertex
100
AcDb2dVertex
 10
1562.4216
 20
866.351898
 30
0.0
  0
VERTEX
  5
70A
100
AcDbEntity
  8
図
  6
CONTINUOUS
 62
     6
100
AcDbVertex
100
AcDb2dVertex
 10
1562.121307
 20
866.385468
 30
0.0
  0
VERTEX
  5
70B
100
AcDbEntity
  8
図
  6
CONTINUOUS
 62
     6
100
AcDbVertex
100
AcDb2dVertex
 10
1561.823455
 20
866.441315
 30
0.0
  0
VERTEX
  5
70C
100
AcDbEntity
  8
図
  6
CONTINUOUS
 62
     6
100
AcDbVertex
100
AcDb2dVertex
 10
1561.532928
 20
866.518829
 30
0.0
  0
VERTEX
  5
70D
100
AcDbEntity
  8
図
  6
CONTINUOUS
 62
     6
100
AcDbVertex
100
AcDb2dVertex
 10
1561.252166
 20
866.617554
 30
0.0
  0
SEQEND
  5
70E
100
AcDbEntity
  8
図
  6
CONTINUOUS
 62
     6
  0
LINE
  5
70F
100
AcDbEntity
  8
図
  6
CONTINUOUS
 62
     6
100
AcDbLine
 10
1558.114959
 20
846.251953
 30
0.0
 11
1558.114959
 21
869.744843
 31
0.0
  0
LINE
  5
710
100
AcDbEntity
  8
図
  6
CONTINUOUS
 62
     6
100
AcDbLine
 10
1553.600799
 20
863.298004
 30
0.0
 11
1558.114959
 21
869.744843
 31
0.0
  0
LINE
  5
711
100
AcDbEntity
  8
図
  6
CONTINUOUS
 62
     6
100
AcDbLine
 10
1553.600799
 20
852.698792
 30
0.0
 11
1553.600799
 21
863.298004
 31
0.0
  0
LINE
  5
712
100
AcDbEntity
  8
図
  6
CONTINUOUS
 62
     6
100
AcDbLine
 10
1558.114959
 20
846.251953
 30
0.0
 11
1553.600799
 21
852.698792
 31
0.0
  0
ARC
  5
713
100
AcDbEntity
  8
図
  6
CONTINUOUS
 62
     6
100
AcDbCircle
 10
1562.726776
 20
849.248779
 30
0.0
 40
5.500042
100
AcDbArc
 50
213.016403
 51
313.338501
  0
LINE
  5
714
100
AcDbEntity
  8
図
  6
CONTINUOUS
 62
     6
100
AcDbLine
 10
1566.50119
 20
845.24823
 30
0.0
 11
1566.50119
 21
870.749329
 31
0.0
  0
ARC
  5
715
100
AcDbEntity
  8
図
  6
CONTINUOUS
 62
     6
100
AcDbCircle
 10
1562.726776
 20
866.748779
 30
0.0
 40
5.49999
100
AcDbArc
 50
46.661499
 51
146.989334
  0
LINE
  5
716
100
AcDbEntity
  8
図
  6
CONTINUOUS
 62
     6
100
AcDbLine
 10
1553.600799
 20
862.749756
 30
0.0
 11
1550.592987
 21
862.749756
 31
0.0
  0
LINE
  5
717
100
AcDbEntity
  8
図
  6
CONTINUOUS
 62
     6
100
AcDbLine
 10
1550.592987
 20
853.247803
 30
0.0
 11
1553.600799
 21
853.247803
 31
0.0
  0
LINE
  5
718
100
AcDbEntity
  8
図
  6
CONTINUOUS
 62
     6
100
AcDbLine
 10
1566.50119
 20
869.998291
 30
0.0
 11
1566.989471
 21
869.998291
 31
0.0
  0
ARC
  5
719
100
AcDbEntity
  8
図
  6
CONTINUOUS
 62
     6
100
AcDbCircle
 10
1604.711639
 20
852.998779
 30
0.0
 40
9.000411
100
AcDbArc
 50
247.075455
 51
306.019775
  0
LINE
  5
71A
100
AcDbEntity
  8
図
  6
CONTINUOUS
 62
     6
100
AcDbLine
 10
1610.004608
 20
845.718964
 30
0.0
 11
1609.975311
 21
870.298584
 31
0.0
  0
POLYLINE
  5
71B
100
AcDbEntity
  8
図
  6
CONTINUOUS
 62
     6
100
AcDb2dPolyline
 66
     1
 10
0.0
 20
0.0
 30
0.0
 70
   128
  0
VERTEX
  5
71C
100
AcDbEntity
  8
図
  6
CONTINUOUS
 62
     6
100
AcDbVertex
100
AcDb2dVertex
 10
1604.484588
 20
844.143799
 30
0.0
  0
VERTEX
  5
71D
100
AcDbEntity
  8
図
  6
CONTINUOUS
 62
     6
100
AcDbVertex
100
AcDb2dVertex
 10
1604.030487
 20
844.156006
 30
0.0
  0
VERTEX
  5
71E
100
AcDbEntity
  8
図
  6
CONTINUOUS
 62
     6
100
AcDbVertex
100
AcDb2dVertex
 10
1603.578826
 20
844.190186
 30
0.0
  0
VERTEX
  5
71F
100
AcDbEntity
  8
図
  6
CONTINUOUS
 62
     6
100
AcDbVertex
100
AcDb2dVertex
 10
1603.132049
 20
844.246338
 30
0.0
  0
VERTEX
  5
720
100
AcDbEntity
  8
図
  6
CONTINUOUS
 62
     6
100
AcDbVertex
100
AcDb2dVertex
 10
1602.697479
 20
844.326904
 30
0.0
  0
VERTEX
  5
721
100
AcDbEntity
  8
図
  6
CONTINUOUS
 62
     6
100
AcDbVertex
100
AcDb2dVertex
 10
1602.275116
 20
844.427002
 30
0.0
  0
VERTEX
  5
722
100
AcDbEntity
  8
図
  6
CONTINUOUS
 62
     6
100
AcDbVertex
100
AcDb2dVertex
 10
1601.872283
 20
844.546631
 30
0.0
  0
VERTEX
  5
723
100
AcDbEntity
  8
図
  6
CONTINUOUS
 62
     6
100
AcDbVertex
100
AcDb2dVertex
 10
1601.486541
 20
844.688232
 30
0.0
  0
VERTEX
  5
724
100
AcDbEntity
  8
図
  6
CONTINUOUS
 62
     6
100
AcDbVertex
100
AcDb2dVertex
 10
1601.125213
 20
844.846924
 30
0.0
  0
VERTEX
  5
725
100
AcDbEntity
  8
図
  6
CONTINUOUS
 62
     6
100
AcDbVertex
100
AcDb2dVertex
 10
1600.790741
 20
845.022705
 30
0.0
  0
VERTEX
  5
726
100
AcDbEntity
  8
図
  6
CONTINUOUS
 62
     6
100
AcDbVertex
100
AcDb2dVertex
 10
1600.480682
 20
845.215576
 30
0.0
  0
VERTEX
  5
727
100
AcDbEntity
  8
図
  6
CONTINUOUS
 62
     6
100
AcDbVertex
100
AcDb2dVertex
 10
1600.204803
 20
845.425537
 30
0.0
  0
VERTEX
  5
728
100
AcDbEntity
  8
図
  6
CONTINUOUS
 62
     6
100
AcDbVertex
100
AcDb2dVertex
 10
1599.958221
 20
845.645264
 30
0.0
  0
VERTEX
  5
729
100
AcDbEntity
  8
図
  6
CONTINUOUS
 62
     6
100
AcDbVertex
100
AcDb2dVertex
 10
1599.74826
 20
845.877197
 30
0.0
  0
VERTEX
  5
72A
100
AcDbEntity
  8
図
  6
CONTINUOUS
 62
     6
100
AcDbVertex
100
AcDb2dVertex
 10
1599.572479
 20
846.118897
 30
0.0
  0
VERTEX
  5
72B
100
AcDbEntity
  8
図
  6
CONTINUOUS
 62
     6
100
AcDbVertex
100
AcDb2dVertex
 10
1599.43576
 20
846.36792
 30
0.0
  0
VERTEX
  5
72C
100
AcDbEntity
  8
図
  6
CONTINUOUS
 62
     6
100
AcDbVertex
100
AcDb2dVertex
 10
1599.338104
 20
846.624268
 30
0.0
  0
VERTEX
  5
72D
100
AcDbEntity
  8
図
  6
CONTINUOUS
 62
     6
100
AcDbVertex
100
AcDb2dVertex
 10
1599.277069
 20
846.883057
 30
0.0
  0
VERTEX
  5
72E
100
AcDbEntity
  8
図
  6
CONTINUOUS
 62
     6
100
AcDbVertex
100
AcDb2dVertex
 10
1599.257537
 20
847.144287
 30
0.0
  0
VERTEX
  5
72F
100
AcDbEntity
  8
図
  6
CONTINUOUS
 62
     6
100
AcDbVertex
100
AcDb2dVertex
 10
1599.272186
 20
847.356689
 30
0.0
  0
VERTEX
  5
730
100
AcDbEntity
  8
図
  6
CONTINUOUS
 62
     6
100
AcDbVertex
100
AcDb2dVertex
 10
1599.311248
 20
847.569092
 30
0.0
  0
VERTEX
  5
731
100
AcDbEntity
  8
図
  6
CONTINUOUS
 62
     6
100
AcDbVertex
100
AcDb2dVertex
 10
1599.374725
 20
847.779053
 30
0.0
  0
SEQEND
  5
732
100
AcDbEntity
  8
図
  6
CONTINUOUS
 62
     6
  0
POLYLINE
  5
733
100
AcDbEntity
  8
図
  6
CONTINUOUS
 62
     6
100
AcDb2dPolyline
 66
     1
 10
0.0
 20
0.0
 30
0.0
 70
   128
  0
VERTEX
  5
734
100
AcDbEntity
  8
図
  6
CONTINUOUS
 62
     6
100
AcDbVertex
100
AcDb2dVertex
 10
1599.374725
 20
847.779053
 30
0.0
  0
VERTEX
  5
735
100
AcDbEntity
  8
図
  6
CONTINUOUS
 62
     6
100
AcDbVertex
100
AcDb2dVertex
 10
1599.394256
 20
847.825439
 30
0.0
  0
VERTEX
  5
736
100
AcDbEntity
  8
図
  6
CONTINUOUS
 62
     6
100
AcDbVertex
100
AcDb2dVertex
 10
1599.413787
 20
847.874268
 30
0.0
  0
VERTEX
  5
737
100
AcDbEntity
  8
図
  6
CONTINUOUS
 62
     6
100
AcDbVertex
100
AcDb2dVertex
 10
1599.43576
 20
847.920654
 30
0.0
  0
VERTEX
  5
738
100
AcDbEntity
  8
図
  6
CONTINUOUS
 62
     6
100
AcDbVertex
100
AcDb2dVertex
 10
1599.572479
 20
848.169678
 30
0.0
  0
VERTEX
  5
739
100
AcDbEntity
  8
図
  6
CONTINUOUS
 62
     6
100
AcDbVertex
100
AcDb2dVertex
 10
1599.74826
 20
848.411377
 30
0.0
  0
VERTEX
  5
73A
100
AcDbEntity
  8
図
  6
CONTINUOUS
 62
     6
100
AcDbVertex
100
AcDb2dVertex
 10
1599.958221
 20
848.643311
 30
0.0
  0
VERTEX
  5
73B
100
AcDbEntity
  8
図
  6
CONTINUOUS
 62
     6
100
AcDbVertex
100
AcDb2dVertex
 10
1600.202362
 20
848.865479
 30
0.0
  0
VERTEX
  5
73C
100
AcDbEntity
  8
図
  6
CONTINUOUS
 62
     6
100
AcDbVertex
100
AcDb2dVertex
 10
1600.480682
 20
849.072998
 30
0.0
  0
VERTEX
  5
73D
100
AcDbEntity
  8
図
  6
CONTINUOUS
 62
     6
100
AcDbVertex
100
AcDb2dVertex
 10
1600.788299
 20
849.265869
 30
0.0
  0
VERTEX
  5
73E
100
AcDbEntity
  8
図
  6
CONTINUOUS
 62
     6
100
AcDbVertex
100
AcDb2dVertex
 10
1601.125213
 20
849.44165
 30
0.0
  0
VERTEX
  5
73F
100
AcDbEntity
  8
図
  6
CONTINUOUS
 62
     6
100
AcDbVertex
100
AcDb2dVertex
 10
1601.486541
 20
849.602783
 30
0.0
  0
VERTEX
  5
740
100
AcDbEntity
  8
図
  6
CONTINUOUS
 62
     6
100
AcDbVertex
100
AcDb2dVertex
 10
1601.872283
 20
849.741943
 30
0.0
  0
VERTEX
  5
741
100
AcDbEntity
  8
図
  6
CONTINUOUS
 62
     6
100
AcDbVertex
100
AcDb2dVertex
 10
1602.275116
 20
849.864014
 30
0.0
  0
VERTEX
  5
742
100
AcDbEntity
  8
図
  6
CONTINUOUS
 62
     6
100
AcDbVertex
100
AcDb2dVertex
 10
1602.697479
 20
849.964111
 30
0.0
  0
VERTEX
  5
743
100
AcDbEntity
  8
図
  6
CONTINUOUS
 62
     6
100
AcDbVertex
100
AcDb2dVertex
 10
1603.132049
 20
850.042236
 30
0.0
  0
VERTEX
  5
744
100
AcDbEntity
  8
図
  6
CONTINUOUS
 62
     6
100
AcDbVertex
100
AcDb2dVertex
 10
1603.578826
 20
850.098389
 30
0.0
  0
VERTEX
  5
745
100
AcDbEntity
  8
図
  6
CONTINUOUS
 62
     6
100
AcDbVertex
100
AcDb2dVertex
 10
1604.030487
 20
850.132568
 30
0.0
  0
VERTEX
  5
746
100
AcDbEntity
  8
図
  6
CONTINUOUS
 62
     6
100
AcDbVertex
100
AcDb2dVertex
 10
1604.484588
 20
850.144775
 30
0.0
  0
VERTEX
  5
747
100
AcDbEntity
  8
図
  6
CONTINUOUS
 62
     6
100
AcDbVertex
100
AcDb2dVertex
 10
1604.941131
 20
850.132568
 30
0.0
  0
VERTEX
  5
748
100
AcDbEntity
  8
図
  6
CONTINUOUS
 62
     6
100
AcDbVertex
100
AcDb2dVertex
 10
1605.392791
 20
850.098389
 30
0.0
  0
VERTEX
  5
749
100
AcDbEntity
  8
図
  6
CONTINUOUS
 62
     6
100
AcDbVertex
100
AcDb2dVertex
 10
1605.839569
 20
850.042236
 30
0.0
  0
VERTEX
  5
74A
100
AcDbEntity
  8
図
  6
CONTINUOUS
 62
     6
100
AcDbVertex
100
AcDb2dVertex
 10
1606.274139
 20
849.964111
 30
0.0
  0
VERTEX
  5
74B
100
AcDbEntity
  8
図
  6
CONTINUOUS
 62
     6
100
AcDbVertex
100
AcDb2dVertex
 10
1606.694061
 20
849.864014
 30
0.0
  0
VERTEX
  5
74C
100
AcDbEntity
  8
図
  6
CONTINUOUS
 62
     6
100
AcDbVertex
100
AcDb2dVertex
 10
1607.099334
 20
849.741943
 30
0.0
  0
VERTEX
  5
74D
100
AcDbEntity
  8
図
  6
CONTINUOUS
 62
     6
100
AcDbVertex
100
AcDb2dVertex
 10
1607.485076
 20
849.602783
 30
0.0
  0
VERTEX
  5
74E
100
AcDbEntity
  8
図
  6
CONTINUOUS
 62
     6
100
AcDbVertex
100
AcDb2dVertex
 10
1607.846405
 20
849.444092
 30
0.0
  0
VERTEX
  5
74F
100
AcDbEntity
  8
図
  6
CONTINUOUS
 62
     6
100
AcDbVertex
100
AcDb2dVertex
 10
1608.180877
 20
849.265869
 30
0.0
  0
VERTEX
  5
750
100
AcDbEntity
  8
図
  6
CONTINUOUS
 62
     6
100
AcDbVertex
100
AcDb2dVertex
 10
1608.490936
 20
849.072998
 30
0.0
  0
VERTEX
  5
751
100
AcDbEntity
  8
図
  6
CONTINUOUS
 62
     6
100
AcDbVertex
100
AcDb2dVertex
 10
1608.766815
 20
848.865479
 30
0.0
  0
VERTEX
  5
752
100
AcDbEntity
  8
図
  6
CONTINUOUS
 62
     6
100
AcDbVertex
100
AcDb2dVertex
 10
1609.013397
 20
848.645752
 30
0.0
  0
VERTEX
  5
753
100
AcDbEntity
  8
図
  6
CONTINUOUS
 62
     6
100
AcDbVertex
100
AcDb2dVertex
 10
1609.223358
 20
848.413818
 30
0.0
  0
VERTEX
  5
754
100
AcDbEntity
  8
図
  6
CONTINUOUS
 62
     6
100
AcDbVertex
100
AcDb2dVertex
 10
1609.396698
 20
848.169678
 30
0.0
  0
VERTEX
  5
755
100
AcDbEntity
  8
図
  6
CONTINUOUS
 62
     6
100
AcDbVertex
100
AcDb2dVertex
 10
1609.535858
 20
847.920654
 30
0.0
  0
VERTEX
  5
756
100
AcDbEntity
  8
図
  6
CONTINUOUS
 62
     6
100
AcDbVertex
100
AcDb2dVertex
 10
1609.633514
 20
847.666748
 30
0.0
  0
VERTEX
  5
757
100
AcDbEntity
  8
図
  6
CONTINUOUS
 62
     6
100
AcDbVertex
100
AcDb2dVertex
 10
1609.694549
 20
847.405518
 30
0.0
  0
VERTEX
  5
758
100
AcDbEntity
  8
図
  6
CONTINUOUS
 62
     6
100
AcDbVertex
100
AcDb2dVertex
 10
1609.71408
 20
847.144287
 30
0.0
  0
VERTEX
  5
759
100
AcDbEntity
  8
図
  6
CONTINUOUS
 62
     6
100
AcDbVertex
100
AcDb2dVertex
 10
1609.692108
 20
846.883057
 30
0.0
  0
VERTEX
  5
75A
100
AcDbEntity
  8
図
  6
CONTINUOUS
 62
     6
100
AcDbVertex
100
AcDb2dVertex
 10
1609.633514
 20
846.624268
 30
0.0
  0
VERTEX
  5
75B
100
AcDbEntity
  8
図
  6
CONTINUOUS
 62
     6
100
AcDbVertex
100
AcDb2dVertex
 10
1609.535858
 20
846.36792
 30
0.0
  0
VERTEX
  5
75C
100
AcDbEntity
  8
図
  6
CONTINUOUS
 62
     6
100
AcDbVertex
100
AcDb2dVertex
 10
1609.399139
 20
846.118897
 30
0.0
  0
VERTEX
  5
75D
100
AcDbEntity
  8
図
  6
CONTINUOUS
 62
     6
100
AcDbVertex
100
AcDb2dVertex
 10
1609.223358
 20
845.877197
 30
0.0
  0
VERTEX
  5
75E
100
AcDbEntity
  8
図
  6
CONTINUOUS
 62
     6
100
AcDbVertex
100
AcDb2dVertex
 10
1609.013397
 20
845.645264
 30
0.0
  0
VERTEX
  5
75F
100
AcDbEntity
  8
図
  6
CONTINUOUS
 62
     6
100
AcDbVertex
100
AcDb2dVertex
 10
1608.766815
 20
845.425537
 30
0.0
  0
VERTEX
  5
760
100
AcDbEntity
  8
図
  6
CONTINUOUS
 62
     6
100
AcDbVertex
100
AcDb2dVertex
 10
1608.488494
 20
845.215576
 30
0.0
  0
VERTEX
  5
761
100
AcDbEntity
  8
図
  6
CONTINUOUS
 62
     6
100
AcDbVertex
100
AcDb2dVertex
 10
1608.180877
 20
845.022705
 30
0.0
  0
VERTEX
  5
762
100
AcDbEntity
  8
図
  6
CONTINUOUS
 62
     6
100
AcDbVertex
100
AcDb2dVertex
 10
1607.846405
 20
844.846924
 30
0.0
  0
VERTEX
  5
763
100
AcDbEntity
  8
図
  6
CONTINUOUS
 62
     6
100
AcDbVertex
100
AcDb2dVertex
 10
1607.485076
 20
844.688232
 30
0.0
  0
VERTEX
  5
764
100
AcDbEntity
  8
図
  6
CONTINUOUS
 62
     6
100
AcDbVertex
100
AcDb2dVertex
 10
1607.099334
 20
844.546631
 30
0.0
  0
VERTEX
  5
765
100
AcDbEntity
  8
図
  6
CONTINUOUS
 62
     6
100
AcDbVertex
100
AcDb2dVertex
 10
1606.694061
 20
844.424561
 30
0.0
  0
VERTEX
  5
766
100
AcDbEntity
  8
図
  6
CONTINUOUS
 62
     6
100
AcDbVertex
100
AcDb2dVertex
 10
1606.274139
 20
844.326904
 30
0.0
  0
VERTEX
  5
767
100
AcDbEntity
  8
図
  6
CONTINUOUS
 62
     6
100
AcDbVertex
100
AcDb2dVertex
 10
1605.839569
 20
844.246338
 30
0.0
  0
VERTEX
  5
768
100
AcDbEntity
  8
図
  6
CONTINUOUS
 62
     6
100
AcDbVertex
100
AcDb2dVertex
 10
1605.392791
 20
844.190186
 30
0.0
  0
VERTEX
  5
769
100
AcDbEntity
  8
図
  6
CONTINUOUS
 62
     6
100
AcDbVertex
100
AcDb2dVertex
 10
1604.941131
 20
844.156006
 30
0.0
  0
VERTEX
  5
76A
100
AcDbEntity
  8
図
  6
CONTINUOUS
 62
     6
100
AcDbVertex
100
AcDb2dVertex
 10
1604.48703
 20
844.143799
 30
0.0
  0
SEQEND
  5
76B
100
AcDbEntity
  8
図
  6
CONTINUOUS
 62
     6
  0
POLYLINE
  5
76C
100
AcDbEntity
  8
図
  6
CONTINUOUS
 62
     6
100
AcDb2dPolyline
 66
     1
 10
0.0
 20
0.0
 30
0.0
 70
   128
  0
VERTEX
  5
76D
100
AcDbEntity
  8
図
  6
CONTINUOUS
 62
     6
100
AcDbVertex
100
AcDb2dVertex
 10
1609.511444
 20
857.945068
 30
0.0
  0
VERTEX
  5
76E
100
AcDbEntity
  8
図
  6
CONTINUOUS
 62
     6
100
AcDbVertex
100
AcDb2dVertex
 10
1609.489471
 20
857.464111
 30
0.0
  0
VERTEX
  5
76F
100
AcDbEntity
  8
図
  6
CONTINUOUS
 62
     6
100
AcDbVertex
100
AcDb2dVertex
 10
1609.433319
 20
856.988037
 30
0.0
  0
VERTEX
  5
770
100
AcDbEntity
  8
図
  6
CONTINUOUS
 62
     6
100
AcDbVertex
100
AcDb2dVertex
 10
1609.340545
 20
856.519287
 30
0.0
  0
VERTEX
  5
771
100
AcDbEntity
  8
図
  6
CONTINUOUS
 62
     6
100
AcDbVertex
100
AcDb2dVertex
 10
1609.211151
 20
856.040772
 30
0.0
  0
VERTEX
  5
772
100
AcDbEntity
  8
図
  6
CONTINUOUS
 62
     6
100
AcDbVertex
100
AcDb2dVertex
 10
1609.042694
 20
855.576904
 30
0.0
  0
VERTEX
  5
773
100
AcDbEntity
  8
図
  6
CONTINUOUS
 62
     6
100
AcDbVertex
100
AcDb2dVertex
 10
1608.842498
 20
855.132568
 30
0.0
  0
VERTEX
  5
774
100
AcDbEntity
  8
図
  6
CONTINUOUS
 62
     6
100
AcDbVertex
100
AcDb2dVertex
 10
1608.608123
 20
854.710205
 30
0.0
  0
VERTEX
  5
775
100
AcDbEntity
  8
図
  6
CONTINUOUS
 62
     6
100
AcDbVertex
100
AcDb2dVertex
 10
1608.34201
 20
854.312256
 30
0.0
  0
VERTEX
  5
776
100
AcDbEntity
  8
図
  6
CONTINUOUS
 62
     6
100
AcDbVertex
100
AcDb2dVertex
 10
1608.0466
 20
853.943604
 30
0.0
  0
VERTEX
  5
777
100
AcDbEntity
  8
図
  6
CONTINUOUS
 62
     6
100
AcDbVertex
100
AcDb2dVertex
 10
1607.726776
 20
853.604248
 30
0.0
  0
VERTEX
  5
778
100
AcDbEntity
  8
図
  6
CONTINUOUS
 62
     6
100
AcDbVertex
100
AcDb2dVertex
 10
1607.380096
 20
853.299072
 30
0.0
  0
VERTEX
  5
779
100
AcDbEntity
  8
図
  6
CONTINUOUS
 62
     6
100
AcDbVertex
100
AcDb2dVertex
 10
1607.011444
 20
853.030518
 30
0.0
  0
VERTEX
  5
77A
100
AcDbEntity
  8
図
  6
CONTINUOUS
 62
     6
100
AcDbVertex
100
AcDb2dVertex
 10
1606.625701
 20
852.798584
 30
0.0
  0
VERTEX
  5
77B
100
AcDbEntity
  8
図
  6
CONTINUOUS
 62
     6
100
AcDbVertex
100
AcDb2dVertex
 10
1606.222869
 20
852.608154
 30
0.0
  0
VERTEX
  5
77C
100
AcDbEntity
  8
図
  6
CONTINUOUS
 62
     6
100
AcDbVertex
100
AcDb2dVertex
 10
1605.805389
 20
852.456787
 30
0.0
  0
VERTEX
  5
77D
100
AcDbEntity
  8
図
  6
CONTINUOUS
 62
     6
100
AcDbVertex
100
AcDb2dVertex
 10
1605.380584
 20
852.349365
 30
0.0
  0
VERTEX
  5
77E
100
AcDbEntity
  8
図
  6
CONTINUOUS
 62
     6
100
AcDbVertex
100
AcDb2dVertex
 10
1604.948455
 20
852.283447
 30
0.0
  0
VERTEX
  5
77F
100
AcDbEntity
  8
図
  6
CONTINUOUS
 62
     6
100
AcDbVertex
100
AcDb2dVertex
 10
1604.511444
 20
852.261475
 30
0.0
  0
SEQEND
  5
780
100
AcDbEntity
  8
図
  6
CONTINUOUS
 62
     6
  0
POLYLINE
  5
781
100
AcDbEntity
  8
図
  6
CONTINUOUS
 62
     6
100
AcDb2dPolyline
 66
     1
 10
0.0
 20
0.0
 30
0.0
 70
   128
  0
VERTEX
  5
782
100
AcDbEntity
  8
図
  6
CONTINUOUS
 62
     6
100
AcDbVertex
100
AcDb2dVertex
 10
1604.513885
 20
852.261475
 30
0.0
  0
VERTEX
  5
783
100
AcDbEntity
  8
図
  6
CONTINUOUS
 62
     6
100
AcDbVertex
100
AcDb2dVertex
 10
1604.076873
 20
852.283447
 30
0.0
  0
VERTEX
  5
784
100
AcDbEntity
  8
図
  6
CONTINUOUS
 62
     6
100
AcDbVertex
100
AcDb2dVertex
 10
1603.644744
 20
852.349365
 30
0.0
  0
VERTEX
  5
785
100
AcDbEntity
  8
図
  6
CONTINUOUS
 62
     6
100
AcDbVertex
100
AcDb2dVertex
 10
1603.21994
 20
852.456787
 30
0.0
  0
VERTEX
  5
786
100
AcDbEntity
  8
図
  6
CONTINUOUS
 62
     6
100
AcDbVertex
100
AcDb2dVertex
 10
1602.802459
 20
852.608154
 30
0.0
  0
VERTEX
  5
787
100
AcDbEntity
  8
図
  6
CONTINUOUS
 62
     6
100
AcDbVertex
100
AcDb2dVertex
 10
1602.399627
 20
852.798584
 30
0.0
  0
VERTEX
  5
788
100
AcDbEntity
  8
図
  6
CONTINUOUS
 62
     6
100
AcDbVertex
100
AcDb2dVertex
 10
1602.013885
 20
853.030518
 30
0.0
  0
VERTEX
  5
789
100
AcDbEntity
  8
図
  6
CONTINUOUS
 62
     6
100
AcDbVertex
100
AcDb2dVertex
 10
1601.645233
 20
853.299072
 30
0.0
  0
VERTEX
  5
78A
100
AcDbEntity
  8
図
  6
CONTINUOUS
 62
     6
100
AcDbVertex
100
AcDb2dVertex
 10
1601.300994
 20
853.604248
 30
0.0
  0
VERTEX
  5
78B
100
AcDbEntity
  8
図
  6
CONTINUOUS
 62
     6
100
AcDbVertex
100
AcDb2dVertex
 10
1600.978729
 20
853.943604
 30
0.0
  0
VERTEX
  5
78C
100
AcDbEntity
  8
図
  6
CONTINUOUS
 62
     6
100
AcDbVertex
100
AcDb2dVertex
 10
1600.683319
 20
854.312256
 30
0.0
  0
VERTEX
  5
78D
100
AcDbEntity
  8
図
  6
CONTINUOUS
 62
     6
100
AcDbVertex
100
AcDb2dVertex
 10
1600.417205
 20
854.710205
 30
0.0
  0
VERTEX
  5
78E
100
AcDbEntity
  8
図
  6
CONTINUOUS
 62
     6
100
AcDbVertex
100
AcDb2dVertex
 10
1600.18283
 20
855.132568
 30
0.0
  0
VERTEX
  5
78F
100
AcDbEntity
  8
図
  6
CONTINUOUS
 62
     6
100
AcDbVertex
100
AcDb2dVertex
 10
1599.982635
 20
855.576904
 30
0.0
  0
VERTEX
  5
790
100
AcDbEntity
  8
図
  6
CONTINUOUS
 62
     6
100
AcDbVertex
100
AcDb2dVertex
 10
1599.814178
 20
856.040772
 30
0.0
  0
VERTEX
  5
791
100
AcDbEntity
  8
図
  6
CONTINUOUS
 62
     6
100
AcDbVertex
100
AcDb2dVertex
 10
1599.684783
 20
856.519287
 30
0.0
  0
VERTEX
  5
792
100
AcDbEntity
  8
図
  6
CONTINUOUS
 62
     6
100
AcDbVertex
100
AcDb2dVertex
 10
1599.59201
 20
856.988037
 30
0.0
  0
VERTEX
  5
793
100
AcDbEntity
  8
図
  6
CONTINUOUS
 62
     6
100
AcDbVertex
100
AcDb2dVertex
 10
1599.535858
 20
857.464111
 30
0.0
  0
VERTEX
  5
794
100
AcDbEntity
  8
図
  6
CONTINUOUS
 62
     6
100
AcDbVertex
100
AcDb2dVertex
 10
1599.513885
 20
857.945068
 30
0.0
  0
SEQEND
  5
795
100
AcDbEntity
  8
図
  6
CONTINUOUS
 62
     6
  0
POLYLINE
  5
796
100
AcDbEntity
  8
図
  6
CONTINUOUS
 62
     6
100
AcDb2dPolyline
 66
     1
 10
0.0
 20
0.0
 30
0.0
 70
   128
  0
VERTEX
  5
797
100
AcDbEntity
  8
図
  6
CONTINUOUS
 62
     6
100
AcDbVertex
100
AcDb2dVertex
 10
1599.513885
 20
857.998779
 30
0.0
  0
VERTEX
  5
798
100
AcDbEntity
  8
図
  6
CONTINUOUS
 62
     6
100
AcDbVertex
100
AcDb2dVertex
 10
1599.513885
 20
858.001221
 30
0.0
  0
VERTEX
  5
799
100
AcDbEntity
  8
図
  6
CONTINUOUS
 62
     6
100
AcDbVertex
100
AcDb2dVertex
 10
1599.513885
 20
858.003662
 30
0.0
  0
VERTEX
  5
79A
100
AcDbEntity
  8
図
  6
CONTINUOUS
 62
     6
100
AcDbVertex
100
AcDb2dVertex
 10
1599.513885
 20
858.006104
 30
0.0
  0
VERTEX
  5
79B
100
AcDbEntity
  8
図
  6
CONTINUOUS
 62
     6
100
AcDbVertex
100
AcDb2dVertex
 10
1599.533416
 20
858.506592
 30
0.0
  0
VERTEX
  5
79C
100
AcDbEntity
  8
図
  6
CONTINUOUS
 62
     6
100
AcDbVertex
100
AcDb2dVertex
 10
1599.589569
 20
859.002197
 30
0.0
  0
VERTEX
  5
79D
100
AcDbEntity
  8
図
  6
CONTINUOUS
 62
     6
100
AcDbVertex
100
AcDb2dVertex
 10
1599.684783
 20
859.49292
 30
0.0
  0
VERTEX
  5
79E
100
AcDbEntity
  8
図
  6
CONTINUOUS
 62
     6
100
AcDbVertex
100
AcDb2dVertex
 10
1599.814178
 20
859.971436
 30
0.0
  0
VERTEX
  5
79F
100
AcDbEntity
  8
図
  6
CONTINUOUS
 62
     6
100
AcDbVertex
100
AcDb2dVertex
 10
1599.982635
 20
860.432861
 30
0.0
  0
VERTEX
  5
7A0
100
AcDbEntity
  8
図
  6
CONTINUOUS
 62
     6
100
AcDbVertex
100
AcDb2dVertex
 10
1600.18283
 20
860.877197
 30
0.0
  0
VERTEX
  5
7A1
100
AcDbEntity
  8
図
  6
CONTINUOUS
 62
     6
100
AcDbVertex
100
AcDb2dVertex
 10
1600.417205
 20
861.299561
 30
0.0
  0
VERTEX
  5
7A2
100
AcDbEntity
  8
図
  6
CONTINUOUS
 62
     6
100
AcDbVertex
100
AcDb2dVertex
 10
1600.683319
 20
861.69751
 30
0.0
  0
VERTEX
  5
7A3
100
AcDbEntity
  8
図
  6
CONTINUOUS
 62
     6
100
AcDbVertex
100
AcDb2dVertex
 10
1600.978729
 20
862.068604
 30
0.0
  0
VERTEX
  5
7A4
100
AcDbEntity
  8
図
  6
CONTINUOUS
 62
     6
100
AcDbVertex
100
AcDb2dVertex
 10
1601.298553
 20
862.405518
 30
0.0
  0
VERTEX
  5
7A5
100
AcDbEntity
  8
図
  6
CONTINUOUS
 62
     6
100
AcDbVertex
100
AcDb2dVertex
 10
1601.645233
 20
862.710693
 30
0.0
  0
VERTEX
  5
7A6
100
AcDbEntity
  8
図
  6
CONTINUOUS
 62
     6
100
AcDbVertex
100
AcDb2dVertex
 10
1602.013885
 20
862.979248
 30
0.0
  0
VERTEX
  5
7A7
100
AcDbEntity
  8
図
  6
CONTINUOUS
 62
     6
100
AcDbVertex
100
AcDb2dVertex
 10
1602.399627
 20
863.211182
 30
0.0
  0
VERTEX
  5
7A8
100
AcDbEntity
  8
図
  6
CONTINUOUS
 62
     6
100
AcDbVertex
100
AcDb2dVertex
 10
1602.802459
 20
863.404053
 30
0.0
  0
VERTEX
  5
7A9
100
AcDbEntity
  8
図
  6
CONTINUOUS
 62
     6
100
AcDbVertex
100
AcDb2dVertex
 10
1603.217498
 20
863.55542
 30
0.0
  0
VERTEX
  5
7AA
100
AcDbEntity
  8
図
  6
CONTINUOUS
 62
     6
100
AcDbVertex
100
AcDb2dVertex
 10
1603.644744
 20
863.662842
 30
0.0
  0
VERTEX
  5
7AB
100
AcDbEntity
  8
図
  6
CONTINUOUS
 62
     6
100
AcDbVertex
100
AcDb2dVertex
 10
1604.076873
 20
863.72876
 30
0.0
  0
VERTEX
  5
7AC
100
AcDbEntity
  8
図
  6
CONTINUOUS
 62
     6
100
AcDbVertex
100
AcDb2dVertex
 10
1604.511444
 20
863.750732
 30
0.0
  0
VERTEX
  5
7AD
100
AcDbEntity
  8
図
  6
CONTINUOUS
 62
     6
100
AcDbVertex
100
AcDb2dVertex
 10
1604.948455
 20
863.72876
 30
0.0
  0
VERTEX
  5
7AE
100
AcDbEntity
  8
図
  6
CONTINUOUS
 62
     6
100
AcDbVertex
100
AcDb2dVertex
 10
1605.380584
 20
863.662842
 30
0.0
  0
VERTEX
  5
7AF
100
AcDbEntity
  8
図
  6
CONTINUOUS
 62
     6
100
AcDbVertex
100
AcDb2dVertex
 10
1605.805389
 20
863.55542
 30
0.0
  0
VERTEX
  5
7B0
100
AcDbEntity
  8
図
  6
CONTINUOUS
 62
     6
100
AcDbVertex
100
AcDb2dVertex
 10
1606.222869
 20
863.404053
 30
0.0
  0
VERTEX
  5
7B1
100
AcDbEntity
  8
図
  6
CONTINUOUS
 62
     6
100
AcDbVertex
100
AcDb2dVertex
 10
1606.625701
 20
863.211182
 30
0.0
  0
VERTEX
  5
7B2
100
AcDbEntity
  8
図
  6
CONTINUOUS
 62
     6
100
AcDbVertex
100
AcDb2dVertex
 10
1607.011444
 20
862.979248
 30
0.0
  0
VERTEX
  5
7B3
100
AcDbEntity
  8
図
  6
CONTINUOUS
 62
     6
100
AcDbVertex
100
AcDb2dVertex
 10
1607.380096
 20
862.710693
 30
0.0
  0
VERTEX
  5
7B4
100
AcDbEntity
  8
図
  6
CONTINUOUS
 62
     6
100
AcDbVertex
100
AcDb2dVertex
 10
1607.726776
 20
862.405518
 30
0.0
  0
VERTEX
  5
7B5
100
AcDbEntity
  8
図
  6
CONTINUOUS
 62
     6
100
AcDbVertex
100
AcDb2dVertex
 10
1608.0466
 20
862.068604
 30
0.0
  0
VERTEX
  5
7B6
100
AcDbEntity
  8
図
  6
CONTINUOUS
 62
     6
100
AcDbVertex
100
AcDb2dVertex
 10
1608.34201
 20
861.69751
 30
0.0
  0
VERTEX
  5
7B7
100
AcDbEntity
  8
図
  6
CONTINUOUS
 62
     6
100
AcDbVertex
100
AcDb2dVertex
 10
1608.608123
 20
861.299561
 30
0.0
  0
VERTEX
  5
7B8
100
AcDbEntity
  8
図
  6
CONTINUOUS
 62
     6
100
AcDbVertex
100
AcDb2dVertex
 10
1608.842498
 20
860.877197
 30
0.0
  0
VERTEX
  5
7B9
100
AcDbEntity
  8
図
  6
CONTINUOUS
 62
     6
100
AcDbVertex
100
AcDb2dVertex
 10
1609.042694
 20
860.432861
 30
0.0
  0
VERTEX
  5
7BA
100
AcDbEntity
  8
図
  6
CONTINUOUS
 62
     6
100
AcDbVertex
100
AcDb2dVertex
 10
1609.211151
 20
859.971436
 30
0.0
  0
VERTEX
  5
7BB
100
AcDbEntity
  8
図
  6
CONTINUOUS
 62
     6
100
AcDbVertex
100
AcDb2dVertex
 10
1609.340545
 20
859.49292
 30
0.0
  0
VERTEX
  5
7BC
100
AcDbEntity
  8
図
  6
CONTINUOUS
 62
     6
100
AcDbVertex
100
AcDb2dVertex
 10
1609.43576
 20
859.002197
 30
0.0
  0
VERTEX
  5
7BD
100
AcDbEntity
  8
図
  6
CONTINUOUS
 62
     6
100
AcDbVertex
100
AcDb2dVertex
 10
1609.491912
 20
858.506592
 30
0.0
  0
VERTEX
  5
7BE
100
AcDbEntity
  8
図
  6
CONTINUOUS
 62
     6
100
AcDbVertex
100
AcDb2dVertex
 10
1609.511444
 20
858.006104
 30
0.0
  0
VERTEX
  5
7BF
100
AcDbEntity
  8
図
  6
CONTINUOUS
 62
     6
100
AcDbVertex
100
AcDb2dVertex
 10
1609.511444
 20
858.003662
 30
0.0
  0
VERTEX
  5
7C0
100
AcDbEntity
  8
図
  6
CONTINUOUS
 62
     6
100
AcDbVertex
100
AcDb2dVertex
 10
1609.511444
 20
858.001221
 30
0.0
  0
VERTEX
  5
7C1
100
AcDbEntity
  8
図
  6
CONTINUOUS
 62
     6
100
AcDbVertex
100
AcDb2dVertex
 10
1609.511444
 20
857.998779
 30
0.0
  0
SEQEND
  5
7C2
100
AcDbEntity
  8
図
  6
CONTINUOUS
 62
     6
  0
POLYLINE
  5
7C3
100
AcDbEntity
  8
図
  6
CONTINUOUS
 62
     6
100
AcDb2dPolyline
 66
     1
 10
0.0
 20
0.0
 30
0.0
 70
   128
  0
VERTEX
  5
7C4
100
AcDbEntity
  8
図
  6
CONTINUOUS
 62
     6
100
AcDbVertex
100
AcDb2dVertex
 10
1604.528533
 20
865.8479
 30
0.0
  0
VERTEX
  5
7C5
100
AcDbEntity
  8
図
  6
CONTINUOUS
 62
     6
100
AcDbVertex
100
AcDb2dVertex
 10
1604.069549
 20
865.857666
 30
0.0
  0
VERTEX
  5
7C6
100
AcDbEntity
  8
図
  6
CONTINUOUS
 62
     6
100
AcDbVertex
100
AcDb2dVertex
 10
1603.610565
 20
865.891846
 30
0.0
  0
VERTEX
  5
7C7
100
AcDbEntity
  8
図
  6
CONTINUOUS
 62
     6
100
AcDbVertex
100
AcDb2dVertex
 10
1603.161346
 20
865.947998
 30
0.0
  0
VERTEX
  5
7C8
100
AcDbEntity
  8
図
  6
CONTINUOUS
 62
     6
100
AcDbVertex
100
AcDb2dVertex
 10
1602.721893
 20
866.028564
 30
0.0
  0
VERTEX
  5
7C9
100
AcDbEntity
  8
図
  6
CONTINUOUS
 62
     6
100
AcDbVertex
100
AcDb2dVertex
 10
1602.294647
 20
866.128662
 30
0.0
  0
VERTEX
  5
7CA
100
AcDbEntity
  8
図
  6
CONTINUOUS
 62
     6
100
AcDbVertex
100
AcDb2dVertex
 10
1601.886932
 20
866.248291
 30
0.0
  0
VERTEX
  5
7CB
100
AcDbEntity
  8
図
  6
CONTINUOUS
 62
     6
100
AcDbVertex
100
AcDb2dVertex
 10
1601.496307
 20
866.389893
 30
0.0
  0
VERTEX
  5
7CC
100
AcDbEntity
  8
図
  6
CONTINUOUS
 62
     6
100
AcDbVertex
100
AcDb2dVertex
 10
1601.132537
 20
866.548584
 30
0.0
  0
VERTEX
  5
7CD
100
AcDbEntity
  8
図
  6
CONTINUOUS
 62
     6
100
AcDbVertex
100
AcDb2dVertex
 10
1600.790741
 20
866.724365
 30
0.0
  0
VERTEX
  5
7CE
100
AcDbEntity
  8
図
  6
CONTINUOUS
 62
     6
100
AcDbVertex
100
AcDb2dVertex
 10
1600.480682
 20
866.919678
 30
0.0
  0
VERTEX
  5
7CF
100
AcDbEntity
  8
図
  6
CONTINUOUS
 62
     6
100
AcDbVertex
100
AcDb2dVertex
 10
1600.19992
 20
867.127197
 30
0.0
  0
VERTEX
  5
7D0
100
AcDbEntity
  8
図
  6
CONTINUOUS
 62
     6
100
AcDbVertex
100
AcDb2dVertex
 10
1599.950897
 20
867.346924
 30
0.0
  0
VERTEX
  5
7D1
100
AcDbEntity
  8
図
  6
CONTINUOUS
 62
     6
100
AcDbVertex
100
AcDb2dVertex
 10
1599.738494
 20
867.578857
 30
0.0
  0
VERTEX
  5
7D2
100
AcDbEntity
  8
図
  6
CONTINUOUS
 62
     6
100
AcDbVertex
100
AcDb2dVertex
 10
1599.560272
 20
867.820557
 30
0.0
  0
VERTEX
  5
7D3
100
AcDbEntity
  8
図
  6
CONTINUOUS
 62
     6
100
AcDbVertex
100
AcDb2dVertex
 10
1599.423553
 20
868.06958
 30
0.0
  0
VERTEX
  5
7D4
100
AcDbEntity
  8
図
  6
CONTINUOUS
 62
     6
100
AcDbVertex
100
AcDb2dVertex
 10
1599.323455
 20
868.325928
 30
0.0
  0
VERTEX
  5
7D5
100
AcDbEntity
  8
図
  6
CONTINUOUS
 62
     6
100
AcDbVertex
100
AcDb2dVertex
 10
1599.26242
 20
868.584717
 30
0.0
  0
VERTEX
  5
7D6
100
AcDbEntity
  8
図
  6
CONTINUOUS
 62
     6
100
AcDbVertex
100
AcDb2dVertex
 10
1599.242889
 20
868.845947
 30
0.0
  0
VERTEX
  5
7D7
100
AcDbEntity
  8
図
  6
CONTINUOUS
 62
     6
100
AcDbVertex
100
AcDb2dVertex
 10
1599.26242
 20
869.107178
 30
0.0
  0
VERTEX
  5
7D8
100
AcDbEntity
  8
図
  6
CONTINUOUS
 62
     6
100
AcDbVertex
100
AcDb2dVertex
 10
1599.323455
 20
869.368408
 30
0.0
  0
VERTEX
  5
7D9
100
AcDbEntity
  8
図
  6
CONTINUOUS
 62
     6
100
AcDbVertex
100
AcDb2dVertex
 10
1599.423553
 20
869.622314
 30
0.0
  0
VERTEX
  5
7DA
100
AcDbEntity
  8
図
  6
CONTINUOUS
 62
     6
100
AcDbVertex
100
AcDb2dVertex
 10
1599.562713
 20
869.873779
 30
0.0
  0
VERTEX
  5
7DB
100
AcDbEntity
  8
図
  6
CONTINUOUS
 62
     6
100
AcDbVertex
100
AcDb2dVertex
 10
1599.738494
 20
870.115479
 30
0.0
  0
VERTEX
  5
7DC
100
AcDbEntity
  8
図
  6
CONTINUOUS
 62
     6
100
AcDbVertex
100
AcDb2dVertex
 10
1599.950897
 20
870.347412
 30
0.0
  0
VERTEX
  5
7DD
100
AcDbEntity
  8
図
  6
CONTINUOUS
 62
     6
100
AcDbVertex
100
AcDb2dVertex
 10
1600.19992
 20
870.567139
 30
0.0
  0
VERTEX
  5
7DE
100
AcDbEntity
  8
図
  6
CONTINUOUS
 62
     6
100
AcDbVertex
100
AcDb2dVertex
 10
1600.480682
 20
870.774658
 30
0.0
  0
VERTEX
  5
7DF
100
AcDbEntity
  8
図
  6
CONTINUOUS
 62
     6
100
AcDbVertex
100
AcDb2dVertex
 10
1600.790741
 20
870.967529
 30
0.0
  0
VERTEX
  5
7E0
100
AcDbEntity
  8
図
  6
CONTINUOUS
 62
     6
100
AcDbVertex
100
AcDb2dVertex
 10
1601.132537
 20
871.145752
 30
0.0
  0
VERTEX
  5
7E1
100
AcDbEntity
  8
図
  6
CONTINUOUS
 62
     6
100
AcDbVertex
100
AcDb2dVertex
 10
1601.496307
 20
871.304443
 30
0.0
  0
VERTEX
  5
7E2
100
AcDbEntity
  8
図
  6
CONTINUOUS
 62
     6
100
AcDbVertex
100
AcDb2dVertex
 10
1601.886932
 20
871.446045
 30
0.0
  0
VERTEX
  5
7E3
100
AcDbEntity
  8
図
  6
CONTINUOUS
 62
     6
100
AcDbVertex
100
AcDb2dVertex
 10
1602.294647
 20
871.565674
 30
0.0
  0
VERTEX
  5
7E4
100
AcDbEntity
  8
図
  6
CONTINUOUS
 62
     6
100
AcDbVertex
100
AcDb2dVertex
 10
1602.721893
 20
871.665772
 30
0.0
  0
VERTEX
  5
7E5
100
AcDbEntity
  8
図
  6
CONTINUOUS
 62
     6
100
AcDbVertex
100
AcDb2dVertex
 10
1603.161346
 20
871.743897
 30
0.0
  0
VERTEX
  5
7E6
100
AcDbEntity
  8
図
  6
CONTINUOUS
 62
     6
100
AcDbVertex
100
AcDb2dVertex
 10
1603.610565
 20
871.80249
 30
0.0
  0
VERTEX
  5
7E7
100
AcDbEntity
  8
図
  6
CONTINUOUS
 62
     6
100
AcDbVertex
100
AcDb2dVertex
 10
1604.069549
 20
871.83667
 30
0.0
  0
VERTEX
  5
7E8
100
AcDbEntity
  8
図
  6
CONTINUOUS
 62
     6
100
AcDbVertex
100
AcDb2dVertex
 10
1604.528533
 20
871.846436
 30
0.0
  0
VERTEX
  5
7E9
100
AcDbEntity
  8
図
  6
CONTINUOUS
 62
     6
100
AcDbVertex
100
AcDb2dVertex
 10
1604.989959
 20
871.83667
 30
0.0
  0
VERTEX
  5
7EA
100
AcDbEntity
  8
図
  6
CONTINUOUS
 62
     6
100
AcDbVertex
100
AcDb2dVertex
 10
1605.446502
 20
871.80249
 30
0.0
  0
VERTEX
  5
7EB
100
AcDbEntity
  8
図
  6
CONTINUOUS
 62
     6
100
AcDbVertex
100
AcDb2dVertex
 10
1605.898162
 20
871.743897
 30
0.0
  0
VERTEX
  5
7EC
100
AcDbEntity
  8
図
  6
CONTINUOUS
 62
     6
100
AcDbVertex
100
AcDb2dVertex
 10
1606.337616
 20
871.665772
 30
0.0
  0
VERTEX
  5
7ED
100
AcDbEntity
  8
図
  6
CONTINUOUS
 62
     6
100
AcDbVertex
100
AcDb2dVertex
 10
1606.76242
 20
871.565674
 30
0.0
  0
VERTEX
  5
7EE
100
AcDbEntity
  8
図
  6
CONTINUOUS
 62
     6
100
AcDbVertex
100
AcDb2dVertex
 10
1607.172576
 20
871.446045
 30
0.0
  0
VERTEX
  5
7EF
100
AcDbEntity
  8
図
  6
CONTINUOUS
 62
     6
100
AcDbVertex
100
AcDb2dVertex
 10
1607.56076
 20
871.304443
 30
0.0
  0
VERTEX
  5
7F0
100
AcDbEntity
  8
図
  6
CONTINUOUS
 62
     6
100
AcDbVertex
100
AcDb2dVertex
 10
1607.926971
 20
871.145752
 30
0.0
  0
VERTEX
  5
7F1
100
AcDbEntity
  8
図
  6
CONTINUOUS
 62
     6
100
AcDbVertex
100
AcDb2dVertex
 10
1608.266326
 20
870.967529
 30
0.0
  0
VERTEX
  5
7F2
100
AcDbEntity
  8
図
  6
CONTINUOUS
 62
     6
100
AcDbVertex
100
AcDb2dVertex
 10
1608.578826
 20
870.774658
 30
0.0
  0
VERTEX
  5
7F3
100
AcDbEntity
  8
図
  6
CONTINUOUS
 62
     6
100
AcDbVertex
100
AcDb2dVertex
 10
1608.859588
 20
870.567139
 30
0.0
  0
VERTEX
  5
7F4
100
AcDbEntity
  8
図
  6
CONTINUOUS
 62
     6
100
AcDbVertex
100
AcDb2dVertex
 10
1609.10617
 20
870.347412
 30
0.0
  0
VERTEX
  5
7F5
100
AcDbEntity
  8
図
  6
CONTINUOUS
 62
     6
100
AcDbVertex
100
AcDb2dVertex
 10
1609.321014
 20
870.115479
 30
0.0
  0
VERTEX
  5
7F6
100
AcDbEntity
  8
図
  6
CONTINUOUS
 62
     6
100
AcDbVertex
100
AcDb2dVertex
 10
1609.496795
 20
869.873779
 30
0.0
  0
VERTEX
  5
7F7
100
AcDbEntity
  8
図
  6
CONTINUOUS
 62
     6
100
AcDbVertex
100
AcDb2dVertex
 10
1609.635955
 20
869.622314
 30
0.0
  0
VERTEX
  5
7F8
100
AcDbEntity
  8
図
  6
CONTINUOUS
 62
     6
100
AcDbVertex
100
AcDb2dVertex
 10
1609.736053
 20
869.368408
 30
0.0
  0
VERTEX
  5
7F9
100
AcDbEntity
  8
図
  6
CONTINUOUS
 62
     6
100
AcDbVertex
100
AcDb2dVertex
 10
1609.797088
 20
869.107178
 30
0.0
  0
VERTEX
  5
7FA
100
AcDbEntity
  8
図
  6
CONTINUOUS
 62
     6
100
AcDbVertex
100
AcDb2dVertex
 10
1609.814178
 20
868.845947
 30
0.0
  0
VERTEX
  5
7FB
100
AcDbEntity
  8
図
  6
CONTINUOUS
 62
     6
100
AcDbVertex
100
AcDb2dVertex
 10
1609.811737
 20
868.731201
 30
0.0
  0
VERTEX
  5
7FC
100
AcDbEntity
  8
図
  6
CONTINUOUS
 62
     6
100
AcDbVertex
100
AcDb2dVertex
 10
1609.79953
 20
868.616455
 30
0.0
  0
VERTEX
  5
7FD
100
AcDbEntity
  8
図
  6
CONTINUOUS
 62
     6
100
AcDbVertex
100
AcDb2dVertex
 10
1609.779998
 20
868.50415
 30
0.0
  0
SEQEND
  5
7FE
100
AcDbEntity
  8
図
  6
CONTINUOUS
 62
     6
  0
POLYLINE
  5
7FF
100
AcDbEntity
  8
図
  6
CONTINUOUS
 62
     6
100
AcDb2dPolyline
 66
     1
 10
0.0
 20
0.0
 30
0.0
 70
   128
  0
VERTEX
  5
800
100
AcDbEntity
  8
図
  6
CONTINUOUS
 62
     6
100
AcDbVertex
100
AcDb2dVertex
 10
1609.779998
 20
868.50415
 30
0.0
  0
VERTEX
  5
801
100
AcDbEntity
  8
図
  6
CONTINUOUS
 62
     6
100
AcDbVertex
100
AcDb2dVertex
 10
1609.743377
 20
868.357666
 30
0.0
  0
VERTEX
  5
802
100
AcDbEntity
  8
図
  6
CONTINUOUS
 62
     6
100
AcDbVertex
100
AcDb2dVertex
 10
1609.694549
 20
868.213623
 30
0.0
  0
VERTEX
  5
803
100
AcDbEntity
  8
図
  6
CONTINUOUS
 62
     6
100
AcDbVertex
100
AcDb2dVertex
 10
1609.635955
 20
868.072022
 30
0.0
  0
VERTEX
  5
804
100
AcDbEntity
  8
図
  6
CONTINUOUS
 62
     6
100
AcDbVertex
100
AcDb2dVertex
 10
1609.496795
 20
867.820557
 30
0.0
  0
VERTEX
  5
805
100
AcDbEntity
  8
図
  6
CONTINUOUS
 62
     6
100
AcDbVertex
100
AcDb2dVertex
 10
1609.321014
 20
867.578857
 30
0.0
  0
VERTEX
  5
806
100
AcDbEntity
  8
図
  6
CONTINUOUS
 62
     6
100
AcDbVertex
100
AcDb2dVertex
 10
1609.10617
 20
867.346924
 30
0.0
  0
VERTEX
  5
807
100
AcDbEntity
  8
図
  6
CONTINUOUS
 62
     6
100
AcDbVertex
100
AcDb2dVertex
 10
1608.859588
 20
867.127197
 30
0.0
  0
VERTEX
  5
808
100
AcDbEntity
  8
図
  6
CONTINUOUS
 62
     6
100
AcDbVertex
100
AcDb2dVertex
 10
1608.578826
 20
866.919678
 30
0.0
  0
VERTEX
  5
809
100
AcDbEntity
  8
図
  6
CONTINUOUS
 62
     6
100
AcDbVertex
100
AcDb2dVertex
 10
1608.266326
 20
866.724365
 30
0.0
  0
VERTEX
  5
80A
100
AcDbEntity
  8
図
  6
CONTINUOUS
 62
     6
100
AcDbVertex
100
AcDb2dVertex
 10
1607.926971
 20
866.548584
 30
0.0
  0
VERTEX
  5
80B
100
AcDbEntity
  8
図
  6
CONTINUOUS
 62
     6
100
AcDbVertex
100
AcDb2dVertex
 10
1607.56076
 20
866.389893
 30
0.0
  0
VERTEX
  5
80C
100
AcDbEntity
  8
図
  6
CONTINUOUS
 62
     6
100
AcDbVertex
100
AcDb2dVertex
 10
1607.172576
 20
866.248291
 30
0.0
  0
VERTEX
  5
80D
100
AcDbEntity
  8
図
  6
CONTINUOUS
 62
     6
100
AcDbVertex
100
AcDb2dVertex
 10
1606.76242
 20
866.128662
 30
0.0
  0
VERTEX
  5
80E
100
AcDbEntity
  8
図
  6
CONTINUOUS
 62
     6
100
AcDbVertex
100
AcDb2dVertex
 10
1606.337616
 20
866.028564
 30
0.0
  0
VERTEX
  5
80F
100
AcDbEntity
  8
図
  6
CONTINUOUS
 62
     6
100
AcDbVertex
100
AcDb2dVertex
 10
1605.898162
 20
865.947998
 30
0.0
  0
VERTEX
  5
810
100
AcDbEntity
  8
図
  6
CONTINUOUS
 62
     6
100
AcDbVertex
100
AcDb2dVertex
 10
1605.446502
 20
865.891846
 30
0.0
  0
VERTEX
  5
811
100
AcDbEntity
  8
図
  6
CONTINUOUS
 62
     6
100
AcDbVertex
100
AcDb2dVertex
 10
1604.989959
 20
865.857666
 30
0.0
  0
VERTEX
  5
812
100
AcDbEntity
  8
図
  6
CONTINUOUS
 62
     6
100
AcDbVertex
100
AcDb2dVertex
 10
1604.530975
 20
865.845459
 30
0.0
  0
SEQEND
  5
813
100
AcDbEntity
  8
図
  6
CONTINUOUS
 62
     6
  0
ARC
  5
814
100
AcDbEntity
  8
図
  6
CONTINUOUS
 62
     6
100
AcDbCircle
 10
1597.311737
 20
835.498779
 30
0.0
 40
10.0
100
AcDbArc
 50
67.082504
 51
90.000031
  0
LINE
  5
815
100
AcDbEntity
  8
図
  6
CONTINUOUS
 62
     6
100
AcDbLine
 10
1587.900116
 20
845.498779
 30
0.0
 11
1597.311737
 21
845.498779
 31
0.0
  0
ARC
  5
816
100
AcDbEntity
  8
図
  6
CONTINUOUS
 62
     6
100
AcDbCircle
 10
1582.001678
 20
905.208252
 30
0.0
 40
60.000095
100
AcDbArc
 50
260.713165
 51
275.641708
  0
LINE
  5
817
100
AcDbEntity
  8
図
  6
CONTINUOUS
 62
     6
100
AcDbLine
 10
1567.502166
 20
869.998291
 30
0.0
 11
1567.502166
 21
845.999268
 31
0.0
  0
LINE
  5
818
100
AcDbEntity
  8
図
  6
CONTINUOUS
 62
     6
100
AcDbLine
 10
1566.50119
 20
869.998291
 30
0.0
 11
1566.989471
 21
869.998291
 31
0.0
  0
LINE
  5
819
100
AcDbEntity
  8
図
  6
CONTINUOUS
 62
     6
100
AcDbLine
 10
1568.002655
 20
869.998291
 30
0.0
 11
1566.989471
 21
869.998291
 31
0.0
  0
ARC
  5
81A
100
AcDbEntity
  8
図
  6
CONTINUOUS
 62
     6
100
AcDbCircle
 10
1568.002655
 20
873.499268
 30
0.0
 40
3.498535
100
AcDbArc
 50
270.0
 51
0.0
  0
ARC
  5
81B
100
AcDbEntity
  8
図
  6
CONTINUOUS
 62
     6
100
AcDbCircle
 10
1597.502166
 20
875.498779
 30
0.0
 40
5.000649
100
AcDbArc
 50
180.0
 51
269.076813
  0
ARC
  5
81C
100
AcDbEntity
  8
図
  6
CONTINUOUS
 62
     6
100
AcDbCircle
 10
1597.311737
 20
880.498779
 30
0.0
 40
10.000696
100
AcDbArc
 50
270.643494
 51
292.915802
  0
ARC
  5
81D
100
AcDbEntity
  8
図
  6
CONTINUOUS
 62
     6
100
AcDbCircle
 10
1604.711639
 20
862.998779
 30
0.0
 40
8.999529
100
AcDbArc
 50
54.205185
 51
112.92717
  0
LINE
  5
81E
100
AcDbEntity
  8
図
  6
CONTINUOUS
 62
     6
100
AcDbLine
 10
1592.496349
 20
876.953711
 30
0.0
 11
1591.312267
 21
878.053711
 31
0.0
  0
LINE
  5
81F
100
AcDbEntity
  8
図
  6
CONTINUOUS
 62
     6
100
AcDbLine
 10
1571.500255
 20
876.955979
 30
0.0
 11
1572.684337
 21
878.055979
 31
0.0
  0
LINE
  5
820
100
AcDbEntity
  8
図
  6
CONTINUOUS
 62
     6
100
AcDbLine
 10
1572.681896
 20
878.053711
 30
0.0
 11
1571.497814
 21
878.053711
 31
0.0
  0
LINE
  5
821
100
AcDbEntity
  8
図
  6
CONTINUOUS
 62
     6
100
AcDbLine
 10
1592.502166
 20
878.053711
 30
0.0
 11
1571.50119
 21
878.053711
 31
0.0
  0
LINE
  5
822
100
AcDbEntity
  8
図
  6
CONTINUOUS
 62
     6
100
AcDbLine
 10
1571.50119
 20
880.35
 30
0.0
 11
1571.50119
 21
873.499268
 31
0.0
  0
LINE
  5
823
100
AcDbEntity
  8
図
  6
CONTINUOUS
 62
     6
100
AcDbLine
 10
1572.681896
 20
878.053711
 30
0.0
 11
1572.681896
 21
880.35
 31
0.0
  0
LINE
  5
824
100
AcDbEntity
  8
図
  6
CONTINUOUS
 62
     6
100
AcDbLine
 10
1591.312267
 20
878.053711
 30
0.0
 11
1591.312267
 21
880.35
 31
0.0
  0
LINE
  5
825
100
AcDbEntity
  8
図
  6
CONTINUOUS
 62
     6
100
AcDbLine
 10
1592.502166
 20
875.498779
 30
0.0
 11
1592.502166
 21
880.35
 31
0.0
  0
LINE
  5
826
100
AcDbEntity
  8
図
  6
CONTINUOUS
 62
     6
100
AcDbLine
 10
1572.685272
 20
878.053711
 30
0.0
 11
1572.685272
 21
880.35
 31
0.0
  0
LINE
  5
827
100
AcDbEntity
  8
図
  6
CONTINUOUS
 62
     6
100
AcDbLine
 10
1591.315643
 20
878.053711
 30
0.0
 11
1591.315643
 21
880.35
 31
0.0
  0
LINE
  5
828
100
AcDbEntity
  8
図
  6
CONTINUOUS
 62
     6
100
AcDbLine
 10
1550.592987
 20
862.749756
 30
0.0
 11
1550.592987
 21
853.247803
 31
0.0
  0
LINE
  5
829
100
AcDbEntity
  8
図
  6
CONTINUOUS
 62
     6
100
AcDbLine
 10
1650.999013
 20
847.498291
 30
0.0
 11
1610.002487
 21
847.498291
 31
0.0
  0
LINE
  5
82A
100
AcDbEntity
  8
図
  6
CONTINUOUS
 62
     6
100
AcDbLine
 10
1650.999013
 20
868.499268
 30
0.0
 11
1609.977455
 21
868.499268
 31
0.0
  0
ARC
  5
82B
100
AcDbEntity
  8
図
  6
CONTINUOUS
 62
     6
100
AcDbCircle
 10
1665.000478
 20
843.499268
 30
0.0
 40
13.001356
100
AcDbArc
 50
203.141373
 51
270.661958
  0
LINE
  5
82C
100
AcDbEntity
  8
図
  6
CONTINUOUS
 62
     6
100
AcDbLine
 10
1666.99999
 20
830.498779
 30
0.0
 11
1665.000478
 21
830.498779
 31
0.0
  0
LINE
  5
82D
100
AcDbEntity
  8
図
  6
CONTINUOUS
 62
     6
100
AcDbLine
 10
1673.779775
 20
868.269775
 30
0.0
 11
1673.737508
 21
847.7052
 31
0.0
  0
LINE
  5
82E
100
AcDbEntity
  8
図
  6
CONTINUOUS
 62
     6
100
AcDbLine
 10
1675.300771
 20
849.251221
 30
0.0
 11
1675.300771
 21
866.748779
 31
0.0
  0
ARC
  5
82F
100
AcDbEntity
  8
図
  6
CONTINUOUS
 62
     6
100
AcDbCircle
 10
1676.299306
 20
848.357666
 30
0.0
 40
25.298605
100
AcDbArc
 50
180.0
 51
203.205124
  0
LINE
  5
830
100
AcDbEntity
  8
図
  6
CONTINUOUS
 62
     6
100
AcDbLine
 10
1673.757803
 20
848.860596
 30
0.0
 11
1674.941885
 21
848.892334
 31
0.0
  0
LINE
  5
831
100
AcDbEntity
  8
図
  6
CONTINUOUS
 62
     6
100
AcDbLine
 10
1673.777334
 20
867.083252
 30
0.0
 11
1675.00292
 21
867.046631
 31
0.0
  0
LINE
  5
832
100
AcDbEntity
  8
図
  6
CONTINUOUS
 62
     6
100
AcDbLine
 10
1673.757803
 20
848.860596
 30
0.0
 11
1666.99999
 21
848.679932
 31
0.0
  0
LINE
  5
833
100
AcDbEntity
  8
図
  6
CONTINUOUS
 62
     6
100
AcDbLine
 10
1666.99999
 20
867.295654
 30
0.0
 11
1673.777334
 21
867.083252
 31
0.0
  0
LINE
  5
834
100
AcDbEntity
  8
図
  6
CONTINUOUS
 62
     6
100
AcDbLine
 10
1673.779775
 20
868.269775
 30
0.0
 11
1666.99999
 21
868.482178
 31
0.0
  0
LINE
  5
835
100
AcDbEntity
  8
図
  6
CONTINUOUS
 62
     6
100
AcDbLine
 10
1675.300771
 20
866.748779
 30
0.0
 11
1673.779775
 21
868.269775
 31
0.0
  0
LINE
  5
836
100
AcDbEntity
  8
図
  6
CONTINUOUS
 62
     6
100
AcDbLine
 10
1674.941885
 20
848.892334
 30
0.0
 11
1675.300771
 21
849.248779
 31
0.0
  0
LINE
  5
837
100
AcDbEntity
  8
図
  6
CONTINUOUS
 62
     6
100
AcDbLine
 10
1673.755361
 20
847.705811
 30
0.0
 11
1674.941885
 21
848.892334
 31
0.0
  0
LINE
  5
838
100
AcDbEntity
  8
図
  6
CONTINUOUS
 62
     6
100
AcDbLine
 10
1666.99999
 20
847.493408
 30
0.0
 11
1673.755361
 21
847.705811
 31
0.0
  0
ARC
  5
839
100
AcDbEntity
  8
図
  6
CONTINUOUS
 62
     6
100
AcDbCircle
 10
1676.299306
 20
867.639893
 30
0.0
 40
25.300293
100
AcDbArc
 50
156.797287
 51
180.0
  0
ARC
  5
83A
100
AcDbEntity
  8
図
  6
CONTINUOUS
 62
     6
100
AcDbCircle
 10
1665.000478
 20
872.498291
 30
0.0
 40
12.999535
100
AcDbArc
 50
90.000031
 51
156.853699
  0
LINE
  5
83B
100
AcDbEntity
  8
図
  6
CONTINUOUS
 62
     6
100
AcDbLine
 10
1666.99999
 20
885.498779
 30
0.0
 11
1665.000478
 21
885.498779
 31
0.0
  0
LINE
  5
83C
100
AcDbEntity
  8
図
  6
CONTINUOUS
 62
     6
100
AcDbLine
 10
1650.999013
 20
867.639893
 30
0.0
 11
1650.999013
 21
848.357666
 31
0.0
  0
LINE
  5
83D
100
AcDbEntity
  8
図
  6
EXLTYPE3
 62
     6
100
AcDbLine
 10
1682.776966
 20
858.0
 30
0.0
 11
1543.776966
 21
858.0
 31
0.0
  0
LINE
  5
83E
100
AcDbEntity
  8
図
  6
CONTINUOUS
 62
     2
100
AcDbLine
 10
1626.99999
 20
924.997008
 30
0.0
 11
1626.99999
 21
880.996358
 31
0.0
  0
ARC
  5
83F
100
AcDbEntity
  8
図
  6
CONTINUOUS
 62
     2
100
AcDbCircle
 10
1638.00298
 20
881.002992
 30
0.0
 40
11.002992
100
AcDbArc
 50
180.0
 51
270.0
  0
LINE
  5
840
100
AcDbEntity
  8
図
  6
EXLTYPE2
 62
     6
100
AcDbLine
 10
1651.109334
 20
870.0
 30
0.0
 11
1666.99999
 21
870.0
 31
0.0
  0
LINE
  5
841
100
AcDbEntity
  8
図
  6
CONTINUOUS
 62
     2
100
AcDbLine
 10
1638.00298
 20
870.0
 30
0.0
 11
1651.109334
 21
870.0
 31
0.0
  0
LINE
  5
842
100
AcDbEntity
  8
図
  6
EXLTYPE4
 62
     6
100
AcDbLine
 10
1552.87499
 20
508.0
 30
0.0
 11
1552.87499
 21
478.0
 31
0.0
  0
LINE
  5
843
100
AcDbEntity
  8
図
  6
EXLTYPE4
 62
     6
100
AcDbLine
 10
1552.99999
 20
668.0
 30
0.0
 11
1552.99999
 21
508.0
 31
0.0
  0
LINE
  5
844
100
AcDbEntity
  8
図
  6
EXLTYPE4
 62
     6
100
AcDbLine
 10
1520.99999
 20
668.0
 30
0.0
 11
1520.99999
 21
478.0
 31
0.0
  0
LINE
  5
845
100
AcDbEntity
  8
図
  6
EXLTYPE4
 62
     6
100
AcDbLine
 10
1520.99999
 20
478.0
 30
0.0
 11
1552.87499
 21
478.0
 31
0.0
  0
LINE
  5
846
100
AcDbEntity
  8
図
  6
EXLTYPE3
 62
     6
100
AcDbLine
 10
1536.99999
 20
678.0
 30
0.0
 11
1536.99999
 21
468.9
 31
0.0
  0
LINE
  5
847
100
AcDbEntity
  8
図
  6
CONTINUOUS
 62
     6
100
AcDbLine
 10
1576.501678
 20
909.902573
 30
0.0
 11
1576.501678
 21
912.731
 31
0.0
  0
LINE
  5
848
100
AcDbEntity
  8
図
  6
CONTINUOUS
 62
     6
100
AcDbLine
 10
1587.501678
 20
909.902573
 30
0.0
 11
1587.501678
 21
912.731
 31
0.0
  0
LINE
  5
849
100
AcDbEntity
  8
図
  6
CONTINUOUS
 62
     6
100
AcDbLine
 10
1577.001678
 20
896.816786
 30
0.0
 11
1577.001678
 21
899.402573
 31
0.0
  0
LINE
  5
84A
100
AcDbEntity
  8
図
  6
CONTINUOUS
 62
     6
100
AcDbLine
 10
1587.001678
 20
896.816786
 30
0.0
 11
1587.001678
 21
899.402573
 31
0.0
  0
LINE
  5
84B
100
AcDbEntity
  8
図
  6
CONTINUOUS
 62
     6
100
AcDbLine
 10
1582.001678
 20
896.816786
 30
0.0
 11
1576.251678
 21
896.816786
 31
0.0
  0
LINE
  5
84C
100
AcDbEntity
  8
図
  6
CONTINUOUS
 62
     6
100
AcDbLine
 10
1582.001678
 20
896.816786
 30
0.0
 11
1587.751678
 21
896.816786
 31
0.0
  0
LINE
  5
84D
100
AcDbEntity
  8
図
  6
CONTINUOUS
 62
     6
100
AcDbLine
 10
1576.501678
 20
904.902573
 30
0.0
 11
1576.501678
 21
906.731
 31
0.0
  0
LINE
  5
84E
100
AcDbEntity
  8
図
  6
CONTINUOUS
 62
     6
100
AcDbLine
 10
1577.001678
 20
902.231
 30
0.0
 11
1576.501678
 21
901.731
 31
0.0
  0
LINE
  5
84F
100
AcDbEntity
  8
図
  6
CONTINUOUS
 62
     6
100
AcDbLine
 10
1577.001678
 20
904.402573
 30
0.0
 11
1576.501678
 21
904.902573
 31
0.0
  0
LINE
  5
850
100
AcDbEntity
  8
図
  6
CONTINUOUS
 62
     6
100
AcDbLine
 10
1577.001678
 20
902.231
 30
0.0
 11
1577.001678
 21
904.402573
 31
0.0
  0
LINE
  5
851
100
AcDbEntity
  8
図
  6
CONTINUOUS
 62
     6
100
AcDbLine
 10
1577.001678
 20
899.402573
 30
0.0
 11
1576.501678
 21
899.902573
 31
0.0
  0
LINE
  5
852
100
AcDbEntity
  8
図
  6
CONTINUOUS
 62
     6
100
AcDbLine
 10
1576.501678
 20
899.902573
 30
0.0
 11
1576.501678
 21
901.731
 31
0.0
  0
LINE
  5
853
100
AcDbEntity
  8
図
  6
CONTINUOUS
 62
     6
100
AcDbLine
 10
1577.001678
 20
907.231
 30
0.0
 11
1576.501678
 21
906.731
 31
0.0
  0
LINE
  5
854
100
AcDbEntity
  8
図
  6
CONTINUOUS
 62
     6
100
AcDbLine
 10
1577.001678
 20
909.402573
 30
0.0
 11
1576.501678
 21
909.902573
 31
0.0
  0
LINE
  5
855
100
AcDbEntity
  8
図
  6
CONTINUOUS
 62
     6
100
AcDbLine
 10
1577.001678
 20
907.231
 30
0.0
 11
1577.001678
 21
909.402573
 31
0.0
  0
LINE
  5
856
100
AcDbEntity
  8
図
  6
CONTINUOUS
 62
     6
100
AcDbLine
 10
1587.001678
 20
907.231
 30
0.0
 11
1587.001678
 21
909.402573
 31
0.0
  0
LINE
  5
857
100
AcDbEntity
  8
図
  6
CONTINUOUS
 62
     6
100
AcDbLine
 10
1587.001678
 20
909.402573
 30
0.0
 11
1587.501678
 21
909.902573
 31
0.0
  0
LINE
  5
858
100
AcDbEntity
  8
図
  6
CONTINUOUS
 62
     6
100
AcDbLine
 10
1587.001678
 20
907.231
 30
0.0
 11
1587.501678
 21
906.731
 31
0.0
  0
LINE
  5
859
100
AcDbEntity
  8
図
  6
CONTINUOUS
 62
     6
100
AcDbLine
 10
1587.501678
 20
899.902573
 30
0.0
 11
1587.501678
 21
901.731
 31
0.0
  0
LINE
  5
85A
100
AcDbEntity
  8
図
  6
CONTINUOUS
 62
     6
100
AcDbLine
 10
1587.001678
 20
899.402573
 30
0.0
 11
1587.501678
 21
899.902573
 31
0.0
  0
LINE
  5
85B
100
AcDbEntity
  8
図
  6
CONTINUOUS
 62
     6
100
AcDbLine
 10
1587.001678
 20
902.231
 30
0.0
 11
1587.001678
 21
904.402573
 31
0.0
  0
LINE
  5
85C
100
AcDbEntity
  8
図
  6
CONTINUOUS
 62
     6
100
AcDbLine
 10
1587.001678
 20
904.402573
 30
0.0
 11
1587.501678
 21
904.902573
 31
0.0
  0
LINE
  5
85D
100
AcDbEntity
  8
図
  6
CONTINUOUS
 62
     6
100
AcDbLine
 10
1587.001678
 20
902.231
 30
0.0
 11
1587.501678
 21
901.731
 31
0.0
  0
LINE
  5
85E
100
AcDbEntity
  8
図
  6
CONTINUOUS
 62
     6
100
AcDbLine
 10
1587.501678
 20
904.902573
 30
0.0
 11
1587.501678
 21
906.731
 31
0.0
  0
ARC
  5
85F
100
AcDbEntity
  8
図
  6
CONTINUOUS
 62
     6
100
AcDbCircle
 10
1584.501678
 20
885.85
 30
0.0
 40
10.0
100
AcDbArc
 50
326.632987
 51
36.869898
  0
ARC
  5
860
100
AcDbEntity
  8
図
  6
CONTINUOUS
 62
     6
100
AcDbCircle
 10
1579.501678
 20
885.85
 30
0.0
 40
10.0
100
AcDbArc
 50
143.130102
 51
213.367013
  0
LINE
  5
861
100
AcDbEntity
  8
図
  6
CONTINUOUS
 62
     6
100
AcDbLine
 10
1576.501678
 20
891.85
 30
0.0
 11
1576.501678
 21
893.85
 31
0.0
  0
LINE
  5
862
100
AcDbEntity
  8
図
  6
CONTINUOUS
 62
     6
100
AcDbLine
 10
1578.001678
 20
894.316786
 30
0.0
 11
1578.001678
 21
893.85
 31
0.0
  0
LINE
  5
863
100
AcDbEntity
  8
図
  6
CONTINUOUS
 62
     6
100
AcDbLine
 10
1576.501678
 20
893.85
 30
0.0
 11
1582.001678
 21
893.85
 31
0.0
  0
LINE
  5
864
100
AcDbEntity
  8
図
  6
CONTINUOUS
 62
     6
100
AcDbLine
 10
1582.001678
 20
894.316786
 30
0.0
 11
1587.751678
 21
894.316786
 31
0.0
  0
LINE
  5
865
100
AcDbEntity
  8
図
  6
CONTINUOUS
 62
     6
100
AcDbLine
 10
1587.501678
 20
893.85
 30
0.0
 11
1582.001678
 21
893.85
 31
0.0
  0
LINE
  5
866
100
AcDbEntity
  8
図
  6
CONTINUOUS
 62
     6
100
AcDbLine
 10
1586.001678
 20
894.316786
 30
0.0
 11
1586.001678
 21
893.85
 31
0.0
  0
LINE
  5
867
100
AcDbEntity
  8
図
  6
CONTINUOUS
 62
     6
100
AcDbLine
 10
1587.501678
 20
891.85
 30
0.0
 11
1587.501678
 21
893.85
 31
0.0
  0
LINE
  5
868
100
AcDbEntity
  8
図
  6
CONTINUOUS
 62
     6
100
AcDbLine
 10
1592.853325
 20
880.35
 30
0.0
 11
1582.001678
 21
880.35
 31
0.0
  0
LINE
  5
869
100
AcDbEntity
  8
図
  6
CONTINUOUS
 62
     6
100
AcDbLine
 10
1592.501678
 20
891.85
 30
0.0
 11
1582.001678
 21
891.85
 31
0.0
  0
LINE
  5
86A
100
AcDbEntity
  8
図
  6
CONTINUOUS
 62
     6
100
AcDbLine
 10
1576.251678
 20
894.316786
 30
0.0
 11
1576.251678
 21
896.816786
 31
0.0
  0
LINE
  5
86B
100
AcDbEntity
  8
図
  6
CONTINUOUS
 62
     6
100
AcDbLine
 10
1587.751678
 20
894.316786
 30
0.0
 11
1587.751678
 21
896.816786
 31
0.0
  0
LINE
  5
86C
100
AcDbEntity
  8
図
  6
CONTINUOUS
 62
     6
100
AcDbLine
 10
1576.751678
 20
912.981
 30
0.0
 11
1576.501678
 21
912.731
 31
0.0
  0
LINE
  5
86D
100
AcDbEntity
  8
図
  6
CONTINUOUS
 62
     6
100
AcDbLine
 10
1587.251678
 20
912.981
 30
0.0
 11
1587.501678
 21
912.731
 31
0.0
  0
LINE
  5
86E
100
AcDbEntity
  8
図
  6
CONTINUOUS
 62
     6
100
AcDbLine
 10
1577.001678
 20
904.402573
 30
0.0
 11
1582.001678
 21
904.402573
 31
0.0
  0
LINE
  5
86F
100
AcDbEntity
  8
図
  6
CONTINUOUS
 62
     6
100
AcDbLine
 10
1576.501678
 20
904.902573
 30
0.0
 11
1582.001678
 21
904.902573
 31
0.0
  0
LINE
  5
870
100
AcDbEntity
  8
図
  6
CONTINUOUS
 62
     6
100
AcDbLine
 10
1576.501678
 20
906.731
 30
0.0
 11
1582.001678
 21
906.731
 31
0.0
  0
LINE
  5
871
100
AcDbEntity
  8
図
  6
CONTINUOUS
 62
     6
100
AcDbLine
 10
1577.001678
 20
907.231
 30
0.0
 11
1582.001678
 21
907.231
 31
0.0
  0
LINE
  5
872
100
AcDbEntity
  8
図
  6
CONTINUOUS
 62
     6
100
AcDbLine
 10
1577.001678
 20
909.402573
 30
0.0
 11
1582.001678
 21
909.402573
 31
0.0
  0
LINE
  5
873
100
AcDbEntity
  8
図
  6
CONTINUOUS
 62
     6
100
AcDbLine
 10
1576.501678
 20
909.902573
 30
0.0
 11
1582.001678
 21
909.902573
 31
0.0
  0
LINE
  5
874
100
AcDbEntity
  8
図
  6
CONTINUOUS
 62
     6
100
AcDbLine
 10
1576.501678
 20
912.731
 30
0.0
 11
1582.001678
 21
912.731
 31
0.0
  0
LINE
  5
875
100
AcDbEntity
  8
図
  6
CONTINUOUS
 62
     6
100
AcDbLine
 10
1576.751678
 20
912.981
 30
0.0
 11
1582.001678
 21
912.981
 31
0.0
  0
LINE
  5
876
100
AcDbEntity
  8
図
  6
CONTINUOUS
 62
     6
100
AcDbLine
 10
1587.251678
 20
912.981
 30
0.0
 11
1582.001678
 21
912.981
 31
0.0
  0
LINE
  5
877
100
AcDbEntity
  8
図
  6
CONTINUOUS
 62
     6
100
AcDbLine
 10
1587.501678
 20
912.731
 30
0.0
 11
1582.001678
 21
912.731
 31
0.0
  0
LINE
  5
878
100
AcDbEntity
  8
図
  6
CONTINUOUS
 62
     6
100
AcDbLine
 10
1587.501678
 20
909.902573
 30
0.0
 11
1582.001678
 21
909.902573
 31
0.0
  0
LINE
  5
879
100
AcDbEntity
  8
図
  6
CONTINUOUS
 62
     6
100
AcDbLine
 10
1587.001678
 20
909.402573
 30
0.0
 11
1582.001678
 21
909.402573
 31
0.0
  0
LINE
  5
87A
100
AcDbEntity
  8
図
  6
CONTINUOUS
 62
     6
100
AcDbLine
 10
1587.001678
 20
907.231
 30
0.0
 11
1582.001678
 21
907.231
 31
0.0
  0
LINE
  5
87B
100
AcDbEntity
  8
図
  6
CONTINUOUS
 62
     6
100
AcDbLine
 10
1587.501678
 20
906.731
 30
0.0
 11
1582.001678
 21
906.731
 31
0.0
  0
LINE
  5
87C
100
AcDbEntity
  8
図
  6
CONTINUOUS
 62
     6
100
AcDbLine
 10
1587.501678
 20
904.902573
 30
0.0
 11
1582.001678
 21
904.902573
 31
0.0
  0
LINE
  5
87D
100
AcDbEntity
  8
図
  6
CONTINUOUS
 62
     6
100
AcDbLine
 10
1587.001678
 20
904.402573
 30
0.0
 11
1582.001678
 21
904.402573
 31
0.0
  0
LINE
  5
87E
100
AcDbEntity
  8
図
  6
CONTINUOUS
 62
     6
100
AcDbLine
 10
1576.501678
 20
901.731
 30
0.0
 11
1582.001678
 21
901.731
 31
0.0
  0
LINE
  5
87F
100
AcDbEntity
  8
図
  6
CONTINUOUS
 62
     6
100
AcDbLine
 10
1577.001678
 20
902.231
 30
0.0
 11
1582.001678
 21
902.231
 31
0.0
  0
LINE
  5
880
100
AcDbEntity
  8
図
  6
CONTINUOUS
 62
     6
100
AcDbLine
 10
1587.001678
 20
902.231
 30
0.0
 11
1582.001678
 21
902.231
 31
0.0
  0
LINE
  5
881
100
AcDbEntity
  8
図
  6
CONTINUOUS
 62
     6
100
AcDbLine
 10
1587.501678
 20
901.731
 30
0.0
 11
1582.001678
 21
901.731
 31
0.0
  0
LINE
  5
882
100
AcDbEntity
  8
図
  6
CONTINUOUS
 62
     6
100
AcDbLine
 10
1587.501678
 20
899.902573
 30
0.0
 11
1582.001678
 21
899.902573
 31
0.0
  0
LINE
  5
883
100
AcDbEntity
  8
図
  6
CONTINUOUS
 62
     6
100
AcDbLine
 10
1587.001678
 20
899.402573
 30
0.0
 11
1582.001678
 21
899.402573
 31
0.0
  0
LINE
  5
884
100
AcDbEntity
  8
図
  6
CONTINUOUS
 62
     6
100
AcDbLine
 10
1577.001678
 20
899.402573
 30
0.0
 11
1582.001678
 21
899.402573
 31
0.0
  0
LINE
  5
885
100
AcDbEntity
  8
図
  6
CONTINUOUS
 62
     6
100
AcDbLine
 10
1576.501678
 20
899.902573
 30
0.0
 11
1582.001678
 21
899.902573
 31
0.0
  0
ELLIPSE
  5
886
100
AcDbEntity
  8
図
  6
CONTINUOUS
 62
     6
100
AcDbEllipse
 10
1572.042386
 20
886.35
 30
0.0
 11
-0.0000000000000024
 21
4.0
 31
0.0
210
0.0
220
0.0
230
1.0
 40
0.612372
 41
0.0
 42
6.2831853071796004
  0
ELLIPSE
  5
887
100
AcDbEntity
  8
図
  6
CONTINUOUS
 62
     6
100
AcDbEllipse
 10
1582.001678
 20
886.35
 30
0.0
 11
4.898979663848869
 21
0.0000007644268222
 31
0.0
210
0.0
220
0.0
230
1.0
 40
0.816497
 41
1.5707962113152714
 42
4.7123887139092631
  0
ELLIPSE
  5
888
100
AcDbEntity
  8
図
  6
CONTINUOUS
 62
     6
100
AcDbEllipse
 10
1582.001678
 20
886.35
 30
0.0
 11
-4.898979663848869
 21
0.0000007644268125
 31
0.0
210
0.0
220
0.0
230
1.0
 40
0.816497
 41
1.5707965932703232
 42
4.7123890958643173
  0
ELLIPSE
  5
889
100
AcDbEntity
  8
図
  6
CONTINUOUS
 62
     6
100
AcDbEllipse
 10
1591.96097
 20
886.35
 30
0.0
 11
-0.0000000000000024
 21
4.0
 31
0.0
210
0.0
220
0.0
230
1.0
 40
0.612372
 41
0.0
 42
6.2831853071796004
  0
LINE
  5
88A
100
AcDbEntity
  8
図
  6
CONTINUOUS
 62
     6
100
AcDbLine
 10
1582.001678
 20
894.316786
 30
0.0
 11
1576.251678
 21
894.316786
 31
0.0
  0
LINE
  5
88B
100
AcDbEntity
  8
図
  6
CONTINUOUS
 62
     6
100
AcDbLine
 10
1571.501678
 20
891.85
 30
0.0
 11
1582.001678
 21
891.85
 31
0.0
  0
LINE
  5
88C
100
AcDbEntity
  8
図
  6
CONTINUOUS
 62
     6
100
AcDbLine
 10
1571.150031
 20
880.35
 30
0.0
 11
1582.001678
 21
880.35
 31
0.0
  0
LINE
  5
88D
100
AcDbEntity
  8
図
  6
CONTINUOUS
 62
     2
100
AcDbLine
 10
1545.99999
 20
887.0
 30
0.0
 11
1569.568023
 21
887.0
 31
0.0
  0
LINE
  5
88E
100
AcDbEntity
  8
図
  6
CONTINUOUS
 62
     2
100
AcDbLine
 10
1594.435333
 20
887.0
 30
0.0
 11
1626.99999
 21
887.0
 31
0.0
  0
LINE
  5
88F
100
AcDbEntity
  8
図
  6
CONTINUOUS
 62
     2
100
AcDbLine
 10
1545.99999
 20
919.0
 30
0.0
 11
1576.751678
 21
919.0
 31
0.0
  0
LINE
  5
890
100
AcDbEntity
  8
図
  6
CONTINUOUS
 62
     2
100
AcDbLine
 10
1587.251678
 20
919.0
 30
0.0
 11
1626.99999
 21
919.0
 31
0.0
  0
LINE
  5
891
100
AcDbEntity
  8
図
  6
CONTINUOUS
 62
     6
100
AcDbLine
 10
1576.751678
 20
1143.0
 30
0.0
 11
1576.751678
 21
912.981
 31
0.0
  0
LINE
  5
892
100
AcDbEntity
  8
図
  6
CONTINUOUS
 62
     6
100
AcDbLine
 10
1587.251678
 20
1143.0
 30
0.0
 11
1587.251678
 21
912.981
 31
0.0
  0
LINE
  5
893
100
AcDbEntity
  8
図
  6
CONTINUOUS
 62
     2
100
AcDbLine
 10
1576.751678
 20
1087.1
 30
0.0
 11
1506.047602
 21
1087.1
 31
0.0
  0
LINE
  5
894
100
AcDbEntity
  8
図
  6
CONTINUOUS
 62
     2
100
AcDbLine
 10
1576.751678
 20
1093.1
 30
0.0
 11
1506.047602
 21
1093.1
 31
0.0
  0
LINE
  5
895
100
AcDbEntity
  8
図
  6
CONTINUOUS
 62
     2
100
AcDbLine
 10
1627.047602
 20
1087.1
 30
0.0
 11
1587.251678
 21
1087.1
 31
0.0
  0
LINE
  5
896
100
AcDbEntity
  8
図
  6
CONTINUOUS
 62
     2
100
AcDbLine
 10
1627.047602
 20
1093.1
 30
0.0
 11
1587.251678
 21
1093.1
 31
0.0
  0
LINE
  5
897
100
AcDbEntity
  8
図
  6
CONTINUOUS
 62
     6
100
AcDbLine
 10
485.557617
 20
866.390961
 30
0.0
 11
475.445313
 21
872.230957
 31
0.0
  0
LINE
  5
898
100
AcDbEntity
  8
図
  6
CONTINUOUS
 62
     6
100
AcDbLine
 10
462.447266
 20
849.713867
 30
0.0
 11
472.55957
 21
843.876007
 31
0.0
  0
LINE
  5
899
100
AcDbEntity
  8
図
  6
CONTINUOUS
 62
     6
100
AcDbLine
 10
461.001953
 20
863.890656
 30
0.0
 11
461.001953
 21
852.216309
 31
0.0
  0
CIRCLE
  5
89A
100
AcDbEntity
  8
図
  6
CONTINUOUS
 62
     6
100
AcDbCircle
 10
474.0
 20
858.053711
 30
0.0
 40
11.750031
  0
LINE
  5
89B
100
AcDbEntity
  8
図
  6
CONTINUOUS
 62
     6
100
AcDbLine
 10
473.001465
 20
853.410156
 30
0.0
 11
473.001465
 21
862.697266
 31
0.0
  0
LINE
  5
89C
100
AcDbEntity
  8
図
  6
CONTINUOUS
 62
     6
100
AcDbLine
 10
475.000977
 20
862.697266
 30
0.0
 11
475.000977
 21
853.410156
 31
0.0
  0
LINE
  5
89D
100
AcDbEntity
  8
図
  6
CONTINUOUS
 62
     6
100
AcDbLine
 10
472.554688
 20
872.230957
 30
0.0
 11
462.55957
 21
866.54538
 31
0.0
  0
LINE
  5
89E
100
AcDbEntity
  8
図
  6
CONTINUOUS
 62
     6
100
AcDbLine
 10
487.000488
 20
852.216309
 30
0.0
 11
487.000488
 21
863.891113
 31
0.0
  0
LINE
  5
89F
100
AcDbEntity
  8
図
  6
CONTINUOUS
 62
     6
100
AcDbLine
 10
475.445313
 20
843.876465
 30
0.0
 11
485.555176
 21
849.713867
 31
0.0
  0
ARC
  5
8A0
100
AcDbEntity
  8
図
  6
CONTINUOUS
 62
     6
100
AcDbCircle
 10
474.0
 20
858.053711
 30
0.0
 40
14.248667
100
AcDbArc
 50
204.184753
 51
215.825424
  0
ARC
  5
8A1
100
AcDbEntity
  8
図
  6
CONTINUOUS
 62
     6
100
AcDbCircle
 10
474.0
 20
858.053711
 30
0.0
 40
14.248495
100
AcDbArc
 50
143.415161
 51
155.815567
  0
LINE
  5
8A2
100
AcDbEntity
  8
図
  6
CONTINUOUS
 62
     6
100
AcDbLine
 10
484.500488
 20
867.6875
 30
0.0
 11
484.500488
 21
867.001465
 31
0.0
  0
LINE
  5
8A3
100
AcDbEntity
  8
図
  6
CONTINUOUS
 62
     6
100
AcDbLine
 10
463.501953
 20
867.6875
 30
0.0
 11
463.501953
 21
867.082031
 31
0.0
  0
LINE
  5
8A4
100
AcDbEntity
  8
図
  6
CONTINUOUS
 62
     6
100
AcDbLine
 10
463.501953
 20
867.082031
 30
0.0
 11
462.557129
 21
866.544922
 31
0.0
  0
ARC
  5
8A5
100
AcDbEntity
  8
図
  6
CONTINUOUS
 62
     6
100
AcDbCircle
 10
474.0
 20
858.053711
 30
0.0
 40
4.748839
100
AcDbArc
 50
180.648041
 51
180.000092
  0
ARC
  5
8A6
100
AcDbEntity
  8
図
  6
CONTINUOUS
 62
     6
100
AcDbCircle
 10
474.0
 20
858.053711
 30
0.0
 40
5.798589
100
AcDbArc
 50
180.530731
 51
179.999969
  0
ARC
  5
8A7
100
AcDbEntity
  8
図
  6
CONTINUOUS
 62
     6
100
AcDbCircle
 10
474.0
 20
858.053711
 30
0.0
 40
14.250727
100
AcDbArc
 50
264.179016
 51
275.820984
  0
ARC
  5
8A8
100
AcDbEntity
  8
図
  6
CONTINUOUS
 62
     6
100
AcDbCircle
 10
474.0
 20
858.053711
 30
0.0
 40
14.250441
100
AcDbArc
 50
324.180481
 51
335.81987
  0
ARC
  5
8A9
100
AcDbEntity
  8
図
  6
CONTINUOUS
 62
     6
100
AcDbCircle
 10
474.0
 20
858.053711
 30
0.0
 40
14.250898
100
AcDbArc
 50
24.18074
 51
35.820297
  0
LINE
  5
8AA
100
AcDbEntity
  8
図
  6
CONTINUOUS
 62
     6
100
AcDbLine
 10
483.316406
 20
878.053711
 30
0.0
 11
463.501953
 21
878.053711
 31
0.0
  0
LINE
  5
8AB
100
AcDbEntity
  8
図
  6
CONTINUOUS
 62
     6
100
AcDbLine
 10
483.316406
 20
878.053711
 30
0.0
 11
484.500488
 21
878.053711
 31
0.0
  0
ARC
  5
8AC
100
AcDbEntity
  8
図
  6
CONTINUOUS
 62
     6
100
AcDbCircle
 10
474.0
 20
858.053711
 30
0.0
 40
14.250727
100
AcDbArc
 50
84.179016
 51
95.820984
  0
LINE
  5
8AD
100
AcDbEntity
  8
図
  6
CONTINUOUS
 62
     6
100
AcDbLine
 10
463.501953
 20
876.953711
 30
0.0
 11
464.686035
 21
878.053711
 31
0.0
  0
LINE
  5
8AE
100
AcDbEntity
  8
図
  6
CONTINUOUS
 62
     6
100
AcDbLine
 10
484.498047
 20
876.955979
 30
0.0
 11
483.313965
 21
878.055979
 31
0.0
  0
LINE
  5
8AF
100
AcDbEntity
  8
図
  6
CONTINUOUS
 62
     6
100
AcDbLine
 10
463.501953
 20
880.35
 30
0.0
 11
463.501953
 21
867.6875
 31
0.0
  0
LINE
  5
8B0
100
AcDbEntity
  8
図
  6
CONTINUOUS
 62
     6
100
AcDbLine
 10
484.500488
 20
880.35
 30
0.0
 11
484.500488
 21
867.6875
 31
0.0
  0
LINE
  5
8B1
100
AcDbEntity
  8
図
  6
CONTINUOUS
 62
     6
100
AcDbLine
 10
464.686035
 20
878.053711
 30
0.0
 11
464.686035
 21
880.35
 31
0.0
  0
LINE
  5
8B2
100
AcDbEntity
  8
図
  6
CONTINUOUS
 62
     6
100
AcDbLine
 10
483.316406
 20
878.053711
 30
0.0
 11
483.316406
 21
880.35
 31
0.0
  0
LINE
  5
8B3
100
AcDbEntity
  8
図
  6
EXLTYPE3
 62
     6
100
AcDbLine
 10
474.0
 20
904.5
 30
0.0
 11
474.0
 21
809.5
 31
0.0
  0
LINE
  5
8B4
100
AcDbEntity
  8
図
  6
EXLTYPE3
 62
     6
100
AcDbLine
 10
521.5
 20
858.0
 30
0.0
 11
426.5
 21
858.0
 31
0.0
  0
LINE
  5
8B5
100
AcDbEntity
  8
図
  6
CONTINUOUS
 62
     6
100
AcDbLine
 10
468.501221
 20
909.902573
 30
0.0
 11
468.501221
 21
912.731
 31
0.0
  0
LINE
  5
8B6
100
AcDbEntity
  8
図
  6
CONTINUOUS
 62
     6
100
AcDbLine
 10
479.501221
 20
909.902573
 30
0.0
 11
479.501221
 21
912.731
 31
0.0
  0
LINE
  5
8B7
100
AcDbEntity
  8
図
  6
CONTINUOUS
 62
     6
100
AcDbLine
 10
469.001221
 20
896.816786
 30
0.0
 11
469.001221
 21
899.402573
 31
0.0
  0
LINE
  5
8B8
100
AcDbEntity
  8
図
  6
CONTINUOUS
 62
     6
100
AcDbLine
 10
479.001221
 20
896.816786
 30
0.0
 11
479.001221
 21
899.402573
 31
0.0
  0
LINE
  5
8B9
100
AcDbEntity
  8
図
  6
CONTINUOUS
 62
     6
100
AcDbLine
 10
474.001221
 20
896.816786
 30
0.0
 11
468.251221
 21
896.816786
 31
0.0
  0
LINE
  5
8BA
100
AcDbEntity
  8
図
  6
CONTINUOUS
 62
     6
100
AcDbLine
 10
474.001221
 20
896.816786
 30
0.0
 11
479.751221
 21
896.816786
 31
0.0
  0
LINE
  5
8BB
100
AcDbEntity
  8
図
  6
CONTINUOUS
 62
     6
100
AcDbLine
 10
468.501221
 20
904.902573
 30
0.0
 11
468.501221
 21
906.731
 31
0.0
  0
LINE
  5
8BC
100
AcDbEntity
  8
図
  6
CONTINUOUS
 62
     6
100
AcDbLine
 10
469.001221
 20
902.231
 30
0.0
 11
468.501221
 21
901.731
 31
0.0
  0
LINE
  5
8BD
100
AcDbEntity
  8
図
  6
CONTINUOUS
 62
     6
100
AcDbLine
 10
469.001221
 20
904.402573
 30
0.0
 11
468.501221
 21
904.902573
 31
0.0
  0
LINE
  5
8BE
100
AcDbEntity
  8
図
  6
CONTINUOUS
 62
     6
100
AcDbLine
 10
469.001221
 20
902.231
 30
0.0
 11
469.001221
 21
904.402573
 31
0.0
  0
LINE
  5
8BF
100
AcDbEntity
  8
図
  6
CONTINUOUS
 62
     6
100
AcDbLine
 10
469.001221
 20
899.402573
 30
0.0
 11
468.501221
 21
899.902573
 31
0.0
  0
LINE
  5
8C0
100
AcDbEntity
  8
図
  6
CONTINUOUS
 62
     6
100
AcDbLine
 10
468.501221
 20
899.902573
 30
0.0
 11
468.501221
 21
901.731
 31
0.0
  0
LINE
  5
8C1
100
AcDbEntity
  8
図
  6
CONTINUOUS
 62
     6
100
AcDbLine
 10
469.001221
 20
907.231
 30
0.0
 11
468.501221
 21
906.731
 31
0.0
  0
LINE
  5
8C2
100
AcDbEntity
  8
図
  6
CONTINUOUS
 62
     6
100
AcDbLine
 10
469.001221
 20
909.402573
 30
0.0
 11
468.501221
 21
909.902573
 31
0.0
  0
LINE
  5
8C3
100
AcDbEntity
  8
図
  6
CONTINUOUS
 62
     6
100
AcDbLine
 10
469.001221
 20
907.231
 30
0.0
 11
469.001221
 21
909.402573
 31
0.0
  0
LINE
  5
8C4
100
AcDbEntity
  8
図
  6
CONTINUOUS
 62
     6
100
AcDbLine
 10
479.001221
 20
907.231
 30
0.0
 11
479.001221
 21
909.402573
 31
0.0
  0
LINE
  5
8C5
100
AcDbEntity
  8
図
  6
CONTINUOUS
 62
     6
100
AcDbLine
 10
479.001221
 20
909.402573
 30
0.0
 11
479.501221
 21
909.902573
 31
0.0
  0
LINE
  5
8C6
100
AcDbEntity
  8
図
  6
CONTINUOUS
 62
     6
100
AcDbLine
 10
479.001221
 20
907.231
 30
0.0
 11
479.501221
 21
906.731
 31
0.0
  0
LINE
  5
8C7
100
AcDbEntity
  8
図
  6
CONTINUOUS
 62
     6
100
AcDbLine
 10
479.501221
 20
899.902573
 30
0.0
 11
479.501221
 21
901.731
 31
0.0
  0
LINE
  5
8C8
100
AcDbEntity
  8
図
  6
CONTINUOUS
 62
     6
100
AcDbLine
 10
479.001221
 20
899.402573
 30
0.0
 11
479.501221
 21
899.902573
 31
0.0
  0
LINE
  5
8C9
100
AcDbEntity
  8
図
  6
CONTINUOUS
 62
     6
100
AcDbLine
 10
479.001221
 20
902.231
 30
0.0
 11
479.001221
 21
904.402573
 31
0.0
  0
LINE
  5
8CA
100
AcDbEntity
  8
図
  6
CONTINUOUS
 62
     6
100
AcDbLine
 10
479.001221
 20
904.402573
 30
0.0
 11
479.501221
 21
904.902573
 31
0.0
  0
LINE
  5
8CB
100
AcDbEntity
  8
図
  6
CONTINUOUS
 62
     6
100
AcDbLine
 10
479.001221
 20
902.231
 30
0.0
 11
479.501221
 21
901.731
 31
0.0
  0
LINE
  5
8CC
100
AcDbEntity
  8
図
  6
CONTINUOUS
 62
     6
100
AcDbLine
 10
479.501221
 20
904.902573
 30
0.0
 11
479.501221
 21
906.731
 31
0.0
  0
ARC
  5
8CD
100
AcDbEntity
  8
図
  6
CONTINUOUS
 62
     6
100
AcDbCircle
 10
476.501221
 20
885.85
 30
0.0
 40
10.0
100
AcDbArc
 50
326.632987
 51
36.869898
  0
ARC
  5
8CE
100
AcDbEntity
  8
図
  6
CONTINUOUS
 62
     6
100
AcDbCircle
 10
471.501221
 20
885.85
 30
0.0
 40
10.0
100
AcDbArc
 50
143.130102
 51
213.367013
  0
LINE
  5
8CF
100
AcDbEntity
  8
図
  6
CONTINUOUS
 62
     6
100
AcDbLine
 10
468.501221
 20
891.85
 30
0.0
 11
468.501221
 21
893.85
 31
0.0
  0
LINE
  5
8D0
100
AcDbEntity
  8
図
  6
CONTINUOUS
 62
     6
100
AcDbLine
 10
470.001221
 20
894.316786
 30
0.0
 11
470.001221
 21
893.85
 31
0.0
  0
LINE
  5
8D1
100
AcDbEntity
  8
図
  6
CONTINUOUS
 62
     6
100
AcDbLine
 10
468.501221
 20
893.85
 30
0.0
 11
474.001221
 21
893.85
 31
0.0
  0
LINE
  5
8D2
100
AcDbEntity
  8
図
  6
CONTINUOUS
 62
     6
100
AcDbLine
 10
474.001221
 20
894.316786
 30
0.0
 11
479.751221
 21
894.316786
 31
0.0
  0
LINE
  5
8D3
100
AcDbEntity
  8
図
  6
CONTINUOUS
 62
     6
100
AcDbLine
 10
479.501221
 20
893.85
 30
0.0
 11
474.001221
 21
893.85
 31
0.0
  0
LINE
  5
8D4
100
AcDbEntity
  8
図
  6
CONTINUOUS
 62
     6
100
AcDbLine
 10
478.001221
 20
894.316786
 30
0.0
 11
478.001221
 21
893.85
 31
0.0
  0
LINE
  5
8D5
100
AcDbEntity
  8
図
  6
CONTINUOUS
 62
     6
100
AcDbLine
 10
479.501221
 20
891.85
 30
0.0
 11
479.501221
 21
893.85
 31
0.0
  0
LINE
  5
8D6
100
AcDbEntity
  8
図
  6
CONTINUOUS
 62
     6
100
AcDbLine
 10
484.852867
 20
880.35
 30
0.0
 11
474.001221
 21
880.35
 31
0.0
  0
LINE
  5
8D7
100
AcDbEntity
  8
図
  6
CONTINUOUS
 62
     6
100
AcDbLine
 10
484.501221
 20
891.85
 30
0.0
 11
474.001221
 21
891.85
 31
0.0
  0
LINE
  5
8D8
100
AcDbEntity
  8
図
  6
CONTINUOUS
 62
     6
100
AcDbLine
 10
468.251221
 20
894.316786
 30
0.0
 11
468.251221
 21
896.816786
 31
0.0
  0
LINE
  5
8D9
100
AcDbEntity
  8
図
  6
CONTINUOUS
 62
     6
100
AcDbLine
 10
479.751221
 20
894.316786
 30
0.0
 11
479.751221
 21
896.816786
 31
0.0
  0
LINE
  5
8DA
100
AcDbEntity
  8
図
  6
CONTINUOUS
 62
     6
100
AcDbLine
 10
468.751221
 20
912.981
 30
0.0
 11
468.501221
 21
912.731
 31
0.0
  0
LINE
  5
8DB
100
AcDbEntity
  8
図
  6
CONTINUOUS
 62
     6
100
AcDbLine
 10
479.251221
 20
912.981
 30
0.0
 11
479.501221
 21
912.731
 31
0.0
  0
LINE
  5
8DC
100
AcDbEntity
  8
図
  6
CONTINUOUS
 62
     6
100
AcDbLine
 10
469.001221
 20
904.402573
 30
0.0
 11
474.001221
 21
904.402573
 31
0.0
  0
LINE
  5
8DD
100
AcDbEntity
  8
図
  6
CONTINUOUS
 62
     6
100
AcDbLine
 10
468.501221
 20
904.902573
 30
0.0
 11
474.001221
 21
904.902573
 31
0.0
  0
LINE
  5
8DE
100
AcDbEntity
  8
図
  6
CONTINUOUS
 62
     6
100
AcDbLine
 10
468.501221
 20
906.731
 30
0.0
 11
474.001221
 21
906.731
 31
0.0
  0
LINE
  5
8DF
100
AcDbEntity
  8
図
  6
CONTINUOUS
 62
     6
100
AcDbLine
 10
469.001221
 20
907.231
 30
0.0
 11
474.001221
 21
907.231
 31
0.0
  0
LINE
  5
8E0
100
AcDbEntity
  8
図
  6
CONTINUOUS
 62
     6
100
AcDbLine
 10
469.001221
 20
909.402573
 30
0.0
 11
474.001221
 21
909.402573
 31
0.0
  0
LINE
  5
8E1
100
AcDbEntity
  8
図
  6
CONTINUOUS
 62
     6
100
AcDbLine
 10
468.501221
 20
909.902573
 30
0.0
 11
474.001221
 21
909.902573
 31
0.0
  0
LINE
  5
8E2
100
AcDbEntity
  8
図
  6
CONTINUOUS
 62
     6
100
AcDbLine
 10
468.501221
 20
912.731
 30
0.0
 11
474.001221
 21
912.731
 31
0.0
  0
LINE
  5
8E3
100
AcDbEntity
  8
図
  6
CONTINUOUS
 62
     6
100
AcDbLine
 10
468.751221
 20
912.981
 30
0.0
 11
474.001221
 21
912.981
 31
0.0
  0
LINE
  5
8E4
100
AcDbEntity
  8
図
  6
CONTINUOUS
 62
     6
100
AcDbLine
 10
479.251221
 20
912.981
 30
0.0
 11
474.001221
 21
912.981
 31
0.0
  0
LINE
  5
8E5
100
AcDbEntity
  8
図
  6
CONTINUOUS
 62
     6
100
AcDbLine
 10
479.501221
 20
912.731
 30
0.0
 11
474.001221
 21
912.731
 31
0.0
  0
LINE
  5
8E6
100
AcDbEntity
  8
図
  6
CONTINUOUS
 62
     6
100
AcDbLine
 10
479.501221
 20
909.902573
 30
0.0
 11
474.001221
 21
909.902573
 31
0.0
  0
LINE
  5
8E7
100
AcDbEntity
  8
図
  6
CONTINUOUS
 62
     6
100
AcDbLine
 10
479.001221
 20
909.402573
 30
0.0
 11
474.001221
 21
909.402573
 31
0.0
  0
LINE
  5
8E8
100
AcDbEntity
  8
図
  6
CONTINUOUS
 62
     6
100
AcDbLine
 10
479.001221
 20
907.231
 30
0.0
 11
474.001221
 21
907.231
 31
0.0
  0
LINE
  5
8E9
100
AcDbEntity
  8
図
  6
CONTINUOUS
 62
     6
100
AcDbLine
 10
479.501221
 20
906.731
 30
0.0
 11
474.001221
 21
906.731
 31
0.0
  0
LINE
  5
8EA
100
AcDbEntity
  8
図
  6
CONTINUOUS
 62
     6
100
AcDbLine
 10
479.501221
 20
904.902573
 30
0.0
 11
474.001221
 21
904.902573
 31
0.0
  0
LINE
  5
8EB
100
AcDbEntity
  8
図
  6
CONTINUOUS
 62
     6
100
AcDbLine
 10
479.001221
 20
904.402573
 30
0.0
 11
474.001221
 21
904.402573
 31
0.0
  0
LINE
  5
8EC
100
AcDbEntity
  8
図
  6
CONTINUOUS
 62
     6
100
AcDbLine
 10
468.501221
 20
901.731
 30
0.0
 11
474.001221
 21
901.731
 31
0.0
  0
LINE
  5
8ED
100
AcDbEntity
  8
図
  6
CONTINUOUS
 62
     6
100
AcDbLine
 10
469.001221
 20
902.231
 30
0.0
 11
474.001221
 21
902.231
 31
0.0
  0
LINE
  5
8EE
100
AcDbEntity
  8
図
  6
CONTINUOUS
 62
     6
100
AcDbLine
 10
479.001221
 20
902.231
 30
0.0
 11
474.001221
 21
902.231
 31
0.0
  0
LINE
  5
8EF
100
AcDbEntity
  8
図
  6
CONTINUOUS
 62
     6
100
AcDbLine
 10
479.501221
 20
901.731
 30
0.0
 11
474.001221
 21
901.731
 31
0.0
  0
LINE
  5
8F0
100
AcDbEntity
  8
図
  6
CONTINUOUS
 62
     6
100
AcDbLine
 10
479.501221
 20
899.902573
 30
0.0
 11
474.001221
 21
899.902573
 31
0.0
  0
LINE
  5
8F1
100
AcDbEntity
  8
図
  6
CONTINUOUS
 62
     6
100
AcDbLine
 10
479.001221
 20
899.402573
 30
0.0
 11
474.001221
 21
899.402573
 31
0.0
  0
LINE
  5
8F2
100
AcDbEntity
  8
図
  6
CONTINUOUS
 62
     6
100
AcDbLine
 10
469.001221
 20
899.402573
 30
0.0
 11
474.001221
 21
899.402573
 31
0.0
  0
LINE
  5
8F3
100
AcDbEntity
  8
図
  6
CONTINUOUS
 62
     6
100
AcDbLine
 10
468.501221
 20
899.902573
 30
0.0
 11
474.001221
 21
899.902573
 31
0.0
  0
ELLIPSE
  5
8F4
100
AcDbEntity
  8
図
  6
CONTINUOUS
 62
     6
100
AcDbEllipse
 10
464.041929
 20
886.35
 30
0.0
 11
-0.0000000000000024
 21
4.0
 31
0.0
210
0.0
220
0.0
230
1.0
 40
0.612372
 41
0.0
 42
6.2831853071796004
  0
ELLIPSE
  5
8F5
100
AcDbEntity
  8
図
  6
CONTINUOUS
 62
     6
100
AcDbEllipse
 10
474.001221
 20
886.35
 30
0.0
 11
4.898979663848869
 21
0.0000007644268222
 31
0.0
210
0.0
220
0.0
230
1.0
 40
0.816497
 41
1.5707962113152714
 42
4.7123887139092631
  0
ELLIPSE
  5
8F6
100
AcDbEntity
  8
図
  6
CONTINUOUS
 62
     6
100
AcDbEllipse
 10
474.001221
 20
886.35
 30
0.0
 11
-4.898979663848869
 21
0.0000007644268125
 31
0.0
210
0.0
220
0.0
230
1.0
 40
0.816497
 41
1.5707965932703232
 42
4.7123890958643173
  0
ELLIPSE
  5
8F7
100
AcDbEntity
  8
図
  6
CONTINUOUS
 62
     6
100
AcDbEllipse
 10
483.960513
 20
886.35
 30
0.0
 11
-0.0000000000000024
 21
4.0
 31
0.0
210
0.0
220
0.0
230
1.0
 40
0.612372
 41
0.0
 42
6.2831853071796004
  0
LINE
  5
8F8
100
AcDbEntity
  8
図
  6
CONTINUOUS
 62
     6
100
AcDbLine
 10
474.001221
 20
894.316786
 30
0.0
 11
468.251221
 21
894.316786
 31
0.0
  0
LINE
  5
8F9
100
AcDbEntity
  8
図
  6
CONTINUOUS
 62
     6
100
AcDbLine
 10
463.501221
 20
891.85
 30
0.0
 11
474.001221
 21
891.85
 31
0.0
  0
LINE
  5
8FA
100
AcDbEntity
  8
図
  6
CONTINUOUS
 62
     6
100
AcDbLine
 10
463.149574
 20
880.35
 30
0.0
 11
474.001221
 21
880.35
 31
0.0
  0
ARC
  5
8FB
100
AcDbEntity
  8
図
  6
CONTINUOUS
 62
     6
100
AcDbCircle
 10
474.0
 20
858.0
 30
0.0
 40
27.499275
100
AcDbArc
 50
115.880464
 51
64.127172
  0
LINE
  5
8FC
100
AcDbEntity
  8
図
  6
CONTINUOUS
 62
     6
100
AcDbLine
 10
468.751221
 20
1072.964388
 30
0.0
 11
468.751221
 21
912.981
 31
0.0
  0
LINE
  5
8FD
100
AcDbEntity
  8
図
  6
CONTINUOUS
 62
     6
100
AcDbLine
 10
498.998188
 20
1143.0
 30
0.0
 11
484.648731
 21
1103.575191
 31
0.0
  0
LINE
  5
8FE
100
AcDbEntity
  8
図
  6
CONTINUOUS
 62
     6
100
AcDbLine
 10
479.251221
 20
1072.964388
 30
0.0
 11
479.251221
 21
912.981
 31
0.0
  0
LINE
  5
8FF
100
AcDbEntity
  8
図
  6
CONTINUOUS
 62
     6
100
AcDbLine
 10
487.824322
 20
1143.0
 30
0.0
 11
474.781959
 21
1107.166402
 31
0.0
  0
ARC
  5
900
100
AcDbEntity
  8
図
  6
CONTINUOUS
 62
     6
100
AcDbCircle
 10
568.751221
 20
1072.964388
 30
0.0
 40
100.0
100
AcDbArc
 50
160.0
 51
180.0
  0
ARC
  5
901
100
AcDbEntity
  8
図
  6
CONTINUOUS
 62
     6
100
AcDbCircle
 10
568.751221
 20
1072.964388
 30
0.0
 40
89.5
100
AcDbArc
 50
160.0
 51
180.0
  0
LINE
  5
902
100
AcDbEntity
  8
図
  6
CONTINUOUS
 62
     6
100
AcDbLine
 10
612.442383
 20
866.390961
 30
0.0
 11
622.554688
 21
872.230957
 31
0.0
  0
LINE
  5
903
100
AcDbEntity
  8
図
  6
CONTINUOUS
 62
     6
100
AcDbLine
 10
635.552734
 20
849.713867
 30
0.0
 11
625.44043
 21
843.876007
 31
0.0
  0
LINE
  5
904
100
AcDbEntity
  8
図
  6
CONTINUOUS
 62
     6
100
AcDbLine
 10
636.998047
 20
863.890656
 30
0.0
 11
636.998047
 21
852.216309
 31
0.0
  0
CIRCLE
  5
905
100
AcDbEntity
  8
図
  6
CONTINUOUS
 62
     6
100
AcDbCircle
 10
624.0
 20
858.053711
 30
0.0
 40
11.750031
  0
LINE
  5
906
100
AcDbEntity
  8
図
  6
CONTINUOUS
 62
     6
100
AcDbLine
 10
624.998535
 20
853.410156
 30
0.0
 11
624.998535
 21
862.697266
 31
0.0
  0
LINE
  5
907
100
AcDbEntity
  8
図
  6
CONTINUOUS
 62
     6
100
AcDbLine
 10
622.999023
 20
862.697266
 30
0.0
 11
622.999023
 21
853.410156
 31
0.0
  0
LINE
  5
908
100
AcDbEntity
  8
図
  6
CONTINUOUS
 62
     6
100
AcDbLine
 10
625.445313
 20
872.230957
 30
0.0
 11
635.44043
 21
866.54538
 31
0.0
  0
LINE
  5
909
100
AcDbEntity
  8
図
  6
CONTINUOUS
 62
     6
100
AcDbLine
 10
610.999512
 20
852.216309
 30
0.0
 11
610.999512
 21
863.891113
 31
0.0
  0
LINE
  5
90A
100
AcDbEntity
  8
図
  6
CONTINUOUS
 62
     6
100
AcDbLine
 10
622.554688
 20
843.876465
 30
0.0
 11
612.444824
 21
849.713867
 31
0.0
  0
ARC
  5
90B
100
AcDbEntity
  8
図
  6
CONTINUOUS
 62
     6
100
AcDbCircle
 10
624.0
 20
858.053711
 30
0.0
 40
14.248667
100
AcDbArc
 50
324.174576
 51
335.815247
  0
ARC
  5
90C
100
AcDbEntity
  8
図
  6
CONTINUOUS
 62
     6
100
AcDbCircle
 10
624.0
 20
858.053711
 30
0.0
 40
14.248495
100
AcDbArc
 50
24.184433
 51
36.584839
  0
LINE
  5
90D
100
AcDbEntity
  8
図
  6
CONTINUOUS
 62
     6
100
AcDbLine
 10
613.499512
 20
867.6875
 30
0.0
 11
613.499512
 21
867.001465
 31
0.0
  0
LINE
  5
90E
100
AcDbEntity
  8
図
  6
CONTINUOUS
 62
     6
100
AcDbLine
 10
634.498047
 20
867.6875
 30
0.0
 11
634.498047
 21
867.082031
 31
0.0
  0
LINE
  5
90F
100
AcDbEntity
  8
図
  6
CONTINUOUS
 62
     6
100
AcDbLine
 10
634.498047
 20
867.082031
 30
0.0
 11
635.442871
 21
866.544922
 31
0.0
  0
ARC
  5
910
100
AcDbEntity
  8
図
  6
CONTINUOUS
 62
     6
100
AcDbCircle
 10
624.0
 20
858.053711
 30
0.0
 40
4.748839
100
AcDbArc
 50
359.999908
 51
359.351959
  0
ARC
  5
911
100
AcDbEntity
  8
図
  6
CONTINUOUS
 62
     6
100
AcDbCircle
 10
624.0
 20
858.053711
 30
0.0
 40
5.798589
100
AcDbArc
 50
0.000031
 51
359.469269
  0
ARC
  5
912
100
AcDbEntity
  8
図
  6
CONTINUOUS
 62
     6
100
AcDbCircle
 10
624.0
 20
858.053711
 30
0.0
 40
14.250727
100
AcDbArc
 50
264.179016
 51
275.820984
  0
ARC
  5
913
100
AcDbEntity
  8
図
  6
CONTINUOUS
 62
     6
100
AcDbCircle
 10
624.0
 20
858.053711
 30
0.0
 40
14.250441
100
AcDbArc
 50
204.18013
 51
215.819519
  0
ARC
  5
914
100
AcDbEntity
  8
図
  6
CONTINUOUS
 62
     6
100
AcDbCircle
 10
624.0
 20
858.053711
 30
0.0
 40
14.250898
100
AcDbArc
 50
144.179703
 51
155.81926
  0
LINE
  5
915
100
AcDbEntity
  8
図
  6
CONTINUOUS
 62
     6
100
AcDbLine
 10
614.683594
 20
878.053711
 30
0.0
 11
634.498047
 21
878.053711
 31
0.0
  0
LINE
  5
916
100
AcDbEntity
  8
図
  6
CONTINUOUS
 62
     6
100
AcDbLine
 10
614.683594
 20
878.053711
 30
0.0
 11
613.499512
 21
878.053711
 31
0.0
  0
ARC
  5
917
100
AcDbEntity
  8
図
  6
CONTINUOUS
 62
     6
100
AcDbCircle
 10
624.0
 20
858.053711
 30
0.0
 40
14.250727
100
AcDbArc
 50
84.179016
 51
95.820984
  0
LINE
  5
918
100
AcDbEntity
  8
図
  6
CONTINUOUS
 62
     6
100
AcDbLine
 10
634.498047
 20
876.953711
 30
0.0
 11
633.313965
 21
878.053711
 31
0.0
  0
LINE
  5
919
100
AcDbEntity
  8
図
  6
CONTINUOUS
 62
     6
100
AcDbLine
 10
613.501953
 20
876.955979
 30
0.0
 11
614.686035
 21
878.055979
 31
0.0
  0
LINE
  5
91A
100
AcDbEntity
  8
図
  6
CONTINUOUS
 62
     6
100
AcDbLine
 10
634.498047
 20
880.35
 30
0.0
 11
634.498047
 21
867.6875
 31
0.0
  0
LINE
  5
91B
100
AcDbEntity
  8
図
  6
CONTINUOUS
 62
     6
100
AcDbLine
 10
613.499512
 20
880.35
 30
0.0
 11
613.499512
 21
867.6875
 31
0.0
  0
LINE
  5
91C
100
AcDbEntity
  8
図
  6
CONTINUOUS
 62
     6
100
AcDbLine
 10
633.313965
 20
878.053711
 30
0.0
 11
633.313965
 21
880.35
 31
0.0
  0
LINE
  5
91D
100
AcDbEntity
  8
図
  6
CONTINUOUS
 62
     6
100
AcDbLine
 10
614.683594
 20
878.053711
 30
0.0
 11
614.683594
 21
880.35
 31
0.0
  0
LINE
  5
91E
100
AcDbEntity
  8
図
  6
CONTINUOUS
 62
     6
100
AcDbLine
 10
629.498779
 20
909.902573
 30
0.0
 11
629.498779
 21
912.731
 31
0.0
  0
LINE
  5
91F
100
AcDbEntity
  8
図
  6
CONTINUOUS
 62
     6
100
AcDbLine
 10
618.498779
 20
909.902573
 30
0.0
 11
618.498779
 21
912.731
 31
0.0
  0
LINE
  5
920
100
AcDbEntity
  8
図
  6
CONTINUOUS
 62
     6
100
AcDbLine
 10
628.998779
 20
896.816786
 30
0.0
 11
628.998779
 21
899.402573
 31
0.0
  0
LINE
  5
921
100
AcDbEntity
  8
図
  6
CONTINUOUS
 62
     6
100
AcDbLine
 10
618.998779
 20
896.816786
 30
0.0
 11
618.998779
 21
899.402573
 31
0.0
  0
LINE
  5
922
100
AcDbEntity
  8
図
  6
CONTINUOUS
 62
     6
100
AcDbLine
 10
623.998779
 20
896.816786
 30
0.0
 11
629.748779
 21
896.816786
 31
0.0
  0
LINE
  5
923
100
AcDbEntity
  8
図
  6
CONTINUOUS
 62
     6
100
AcDbLine
 10
623.998779
 20
896.816786
 30
0.0
 11
618.248779
 21
896.816786
 31
0.0
  0
LINE
  5
924
100
AcDbEntity
  8
図
  6
CONTINUOUS
 62
     6
100
AcDbLine
 10
629.498779
 20
904.902573
 30
0.0
 11
629.498779
 21
906.731
 31
0.0
  0
LINE
  5
925
100
AcDbEntity
  8
図
  6
CONTINUOUS
 62
     6
100
AcDbLine
 10
628.998779
 20
902.231
 30
0.0
 11
629.498779
 21
901.731
 31
0.0
  0
LINE
  5
926
100
AcDbEntity
  8
図
  6
CONTINUOUS
 62
     6
100
AcDbLine
 10
628.998779
 20
904.402573
 30
0.0
 11
629.498779
 21
904.902573
 31
0.0
  0
LINE
  5
927
100
AcDbEntity
  8
図
  6
CONTINUOUS
 62
     6
100
AcDbLine
 10
628.998779
 20
902.231
 30
0.0
 11
628.998779
 21
904.402573
 31
0.0
  0
LINE
  5
928
100
AcDbEntity
  8
図
  6
CONTINUOUS
 62
     6
100
AcDbLine
 10
628.998779
 20
899.402573
 30
0.0
 11
629.498779
 21
899.902573
 31
0.0
  0
LINE
  5
929
100
AcDbEntity
  8
図
  6
CONTINUOUS
 62
     6
100
AcDbLine
 10
629.498779
 20
899.902573
 30
0.0
 11
629.498779
 21
901.731
 31
0.0
  0
LINE
  5
92A
100
AcDbEntity
  8
図
  6
CONTINUOUS
 62
     6
100
AcDbLine
 10
628.998779
 20
907.231
 30
0.0
 11
629.498779
 21
906.731
 31
0.0
  0
LINE
  5
92B
100
AcDbEntity
  8
図
  6
CONTINUOUS
 62
     6
100
AcDbLine
 10
628.998779
 20
909.402573
 30
0.0
 11
629.498779
 21
909.902573
 31
0.0
  0
LINE
  5
92C
100
AcDbEntity
  8
図
  6
CONTINUOUS
 62
     6
100
AcDbLine
 10
628.998779
 20
907.231
 30
0.0
 11
628.998779
 21
909.402573
 31
0.0
  0
LINE
  5
92D
100
AcDbEntity
  8
図
  6
CONTINUOUS
 62
     6
100
AcDbLine
 10
618.998779
 20
907.231
 30
0.0
 11
618.998779
 21
909.402573
 31
0.0
  0
LINE
  5
92E
100
AcDbEntity
  8
図
  6
CONTINUOUS
 62
     6
100
AcDbLine
 10
618.998779
 20
909.402573
 30
0.0
 11
618.498779
 21
909.902573
 31
0.0
  0
LINE
  5
92F
100
AcDbEntity
  8
図
  6
CONTINUOUS
 62
     6
100
AcDbLine
 10
618.998779
 20
907.231
 30
0.0
 11
618.498779
 21
906.731
 31
0.0
  0
LINE
  5
930
100
AcDbEntity
  8
図
  6
CONTINUOUS
 62
     6
100
AcDbLine
 10
618.498779
 20
899.902573
 30
0.0
 11
618.498779
 21
901.731
 31
0.0
  0
LINE
  5
931
100
AcDbEntity
  8
図
  6
CONTINUOUS
 62
     6
100
AcDbLine
 10
618.998779
 20
899.402573
 30
0.0
 11
618.498779
 21
899.902573
 31
0.0
  0
LINE
  5
932
100
AcDbEntity
  8
図
  6
CONTINUOUS
 62
     6
100
AcDbLine
 10
618.998779
 20
902.231
 30
0.0
 11
618.998779
 21
904.402573
 31
0.0
  0
LINE
  5
933
100
AcDbEntity
  8
図
  6
CONTINUOUS
 62
     6
100
AcDbLine
 10
618.998779
 20
904.402573
 30
0.0
 11
618.498779
 21
904.902573
 31
0.0
  0
LINE
  5
934
100
AcDbEntity
  8
図
  6
CONTINUOUS
 62
     6
100
AcDbLine
 10
618.998779
 20
902.231
 30
0.0
 11
618.498779
 21
901.731
 31
0.0
  0
LINE
  5
935
100
AcDbEntity
  8
図
  6
CONTINUOUS
 62
     6
100
AcDbLine
 10
618.498779
 20
904.902573
 30
0.0
 11
618.498779
 21
906.731
 31
0.0
  0
ARC
  5
936
100
AcDbEntity
  8
図
  6
CONTINUOUS
 62
     6
100
AcDbCircle
 10
621.498779
 20
885.85
 30
0.0
 40
10.0
100
AcDbArc
 50
143.130102
 51
213.367013
  0
ARC
  5
937
100
AcDbEntity
  8
図
  6
CONTINUOUS
 62
     6
100
AcDbCircle
 10
626.498779
 20
885.85
 30
0.0
 40
10.0
100
AcDbArc
 50
326.632987
 51
36.869898
  0
LINE
  5
938
100
AcDbEntity
  8
図
  6
CONTINUOUS
 62
     6
100
AcDbLine
 10
629.498779
 20
891.85
 30
0.0
 11
629.498779
 21
893.85
 31
0.0
  0
LINE
  5
939
100
AcDbEntity
  8
図
  6
CONTINUOUS
 62
     6
100
AcDbLine
 10
627.998779
 20
894.316786
 30
0.0
 11
627.998779
 21
893.85
 31
0.0
  0
LINE
  5
93A
100
AcDbEntity
  8
図
  6
CONTINUOUS
 62
     6
100
AcDbLine
 10
629.498779
 20
893.85
 30
0.0
 11
623.998779
 21
893.85
 31
0.0
  0
LINE
  5
93B
100
AcDbEntity
  8
図
  6
CONTINUOUS
 62
     6
100
AcDbLine
 10
623.998779
 20
894.316786
 30
0.0
 11
618.248779
 21
894.316786
 31
0.0
  0
LINE
  5
93C
100
AcDbEntity
  8
図
  6
CONTINUOUS
 62
     6
100
AcDbLine
 10
618.498779
 20
893.85
 30
0.0
 11
623.998779
 21
893.85
 31
0.0
  0
LINE
  5
93D
100
AcDbEntity
  8
図
  6
CONTINUOUS
 62
     6
100
AcDbLine
 10
619.998779
 20
894.316786
 30
0.0
 11
619.998779
 21
893.85
 31
0.0
  0
LINE
  5
93E
100
AcDbEntity
  8
図
  6
CONTINUOUS
 62
     6
100
AcDbLine
 10
618.498779
 20
891.85
 30
0.0
 11
618.498779
 21
893.85
 31
0.0
  0
LINE
  5
93F
100
AcDbEntity
  8
図
  6
CONTINUOUS
 62
     6
100
AcDbLine
 10
613.147133
 20
880.35
 30
0.0
 11
623.998779
 21
880.35
 31
0.0
  0
LINE
  5
940
100
AcDbEntity
  8
図
  6
CONTINUOUS
 62
     6
100
AcDbLine
 10
613.498779
 20
891.85
 30
0.0
 11
623.998779
 21
891.85
 31
0.0
  0
LINE
  5
941
100
AcDbEntity
  8
図
  6
CONTINUOUS
 62
     6
100
AcDbLine
 10
629.748779
 20
894.316786
 30
0.0
 11
629.748779
 21
896.816786
 31
0.0
  0
LINE
  5
942
100
AcDbEntity
  8
図
  6
CONTINUOUS
 62
     6
100
AcDbLine
 10
618.248779
 20
894.316786
 30
0.0
 11
618.248779
 21
896.816786
 31
0.0
  0
LINE
  5
943
100
AcDbEntity
  8
図
  6
CONTINUOUS
 62
     6
100
AcDbLine
 10
629.248779
 20
912.981
 30
0.0
 11
629.498779
 21
912.731
 31
0.0
  0
LINE
  5
944
100
AcDbEntity
  8
図
  6
CONTINUOUS
 62
     6
100
AcDbLine
 10
618.748779
 20
912.981
 30
0.0
 11
618.498779
 21
912.731
 31
0.0
  0
LINE
  5
945
100
AcDbEntity
  8
図
  6
CONTINUOUS
 62
     6
100
AcDbLine
 10
628.998779
 20
904.402573
 30
0.0
 11
623.998779
 21
904.402573
 31
0.0
  0
LINE
  5
946
100
AcDbEntity
  8
図
  6
CONTINUOUS
 62
     6
100
AcDbLine
 10
629.498779
 20
904.902573
 30
0.0
 11
623.998779
 21
904.902573
 31
0.0
  0
LINE
  5
947
100
AcDbEntity
  8
図
  6
CONTINUOUS
 62
     6
100
AcDbLine
 10
629.498779
 20
906.731
 30
0.0
 11
623.998779
 21
906.731
 31
0.0
  0
LINE
  5
948
100
AcDbEntity
  8
図
  6
CONTINUOUS
 62
     6
100
AcDbLine
 10
628.998779
 20
907.231
 30
0.0
 11
623.998779
 21
907.231
 31
0.0
  0
LINE
  5
949
100
AcDbEntity
  8
図
  6
CONTINUOUS
 62
     6
100
AcDbLine
 10
628.998779
 20
909.402573
 30
0.0
 11
623.998779
 21
909.402573
 31
0.0
  0
LINE
  5
94A
100
AcDbEntity
  8
図
  6
CONTINUOUS
 62
     6
100
AcDbLine
 10
629.498779
 20
909.902573
 30
0.0
 11
623.998779
 21
909.902573
 31
0.0
  0
LINE
  5
94B
100
AcDbEntity
  8
図
  6
CONTINUOUS
 62
     6
100
AcDbLine
 10
629.498779
 20
912.731
 30
0.0
 11
623.998779
 21
912.731
 31
0.0
  0
LINE
  5
94C
100
AcDbEntity
  8
図
  6
CONTINUOUS
 62
     6
100
AcDbLine
 10
629.248779
 20
912.981
 30
0.0
 11
623.998779
 21
912.981
 31
0.0
  0
LINE
  5
94D
100
AcDbEntity
  8
図
  6
CONTINUOUS
 62
     6
100
AcDbLine
 10
618.748779
 20
912.981
 30
0.0
 11
623.998779
 21
912.981
 31
0.0
  0
LINE
  5
94E
100
AcDbEntity
  8
図
  6
CONTINUOUS
 62
     6
100
AcDbLine
 10
618.498779
 20
912.731
 30
0.0
 11
623.998779
 21
912.731
 31
0.0
  0
LINE
  5
94F
100
AcDbEntity
  8
図
  6
CONTINUOUS
 62
     6
100
AcDbLine
 10
618.498779
 20
909.902573
 30
0.0
 11
623.998779
 21
909.902573
 31
0.0
  0
LINE
  5
950
100
AcDbEntity
  8
図
  6
CONTINUOUS
 62
     6
100
AcDbLine
 10
618.998779
 20
909.402573
 30
0.0
 11
623.998779
 21
909.402573
 31
0.0
  0
LINE
  5
951
100
AcDbEntity
  8
図
  6
CONTINUOUS
 62
     6
100
AcDbLine
 10
618.998779
 20
907.231
 30
0.0
 11
623.998779
 21
907.231
 31
0.0
  0
LINE
  5
952
100
AcDbEntity
  8
図
  6
CONTINUOUS
 62
     6
100
AcDbLine
 10
618.498779
 20
906.731
 30
0.0
 11
623.998779
 21
906.731
 31
0.0
  0
LINE
  5
953
100
AcDbEntity
  8
図
  6
CONTINUOUS
 62
     6
100
AcDbLine
 10
618.498779
 20
904.902573
 30
0.0
 11
623.998779
 21
904.902573
 31
0.0
  0
LINE
  5
954
100
AcDbEntity
  8
図
  6
CONTINUOUS
 62
     6
100
AcDbLine
 10
618.998779
 20
904.402573
 30
0.0
 11
623.998779
 21
904.402573
 31
0.0
  0
LINE
  5
955
100
AcDbEntity
  8
図
  6
CONTINUOUS
 62
     6
100
AcDbLine
 10
629.498779
 20
901.731
 30
0.0
 11
623.998779
 21
901.731
 31
0.0
  0
LINE
  5
956
100
AcDbEntity
  8
図
  6
CONTINUOUS
 62
     6
100
AcDbLine
 10
628.998779
 20
902.231
 30
0.0
 11
623.998779
 21
902.231
 31
0.0
  0
LINE
  5
957
100
AcDbEntity
  8
図
  6
CONTINUOUS
 62
     6
100
AcDbLine
 10
618.998779
 20
902.231
 30
0.0
 11
623.998779
 21
902.231
 31
0.0
  0
LINE
  5
958
100
AcDbEntity
  8
図
  6
CONTINUOUS
 62
     6
100
AcDbLine
 10
618.498779
 20
901.731
 30
0.0
 11
623.998779
 21
901.731
 31
0.0
  0
LINE
  5
959
100
AcDbEntity
  8
図
  6
CONTINUOUS
 62
     6
100
AcDbLine
 10
618.498779
 20
899.902573
 30
0.0
 11
623.998779
 21
899.902573
 31
0.0
  0
LINE
  5
95A
100
AcDbEntity
  8
図
  6
CONTINUOUS
 62
     6
100
AcDbLine
 10
618.998779
 20
899.402573
 30
0.0
 11
623.998779
 21
899.402573
 31
0.0
  0
LINE
  5
95B
100
AcDbEntity
  8
図
  6
CONTINUOUS
 62
     6
100
AcDbLine
 10
628.998779
 20
899.402573
 30
0.0
 11
623.998779
 21
899.402573
 31
0.0
  0
LINE
  5
95C
100
AcDbEntity
  8
図
  6
CONTINUOUS
 62
     6
100
AcDbLine
 10
629.498779
 20
899.902573
 30
0.0
 11
623.998779
 21
899.902573
 31
0.0
  0
ELLIPSE
  5
95D
100
AcDbEntity
  8
図
  6
CONTINUOUS
 62
     6
100
AcDbEllipse
 10
633.958071
 20
886.35
 30
0.0
 11
-0.0000000000000024
 21
4.0
 31
0.0
210
0.0
220
0.0
230
1.0
 40
0.612372
 41
0.0
 42
6.2831853071796004
  0
ELLIPSE
  5
95E
100
AcDbEntity
  8
図
  6
CONTINUOUS
 62
     6
100
AcDbEllipse
 10
623.998779
 20
886.35
 30
0.0
 11
-4.898979663848869
 21
0.0000007644268212
 31
0.0
210
0.0
220
0.0
230
1.0
 40
0.816497
 41
1.5707965932703223
 42
4.7123890958643146
  0
ELLIPSE
  5
95F
100
AcDbEntity
  8
図
  6
CONTINUOUS
 62
     6
100
AcDbEllipse
 10
623.998779
 20
886.35
 30
0.0
 11
-4.898979663848869
 21
-0.0000007644268156
 31
0.0
210
0.0
220
0.0
230
1.0
 40
0.816497
 41
4.7123888649050691
 42
1.5707960603194506
  0
ELLIPSE
  5
960
100
AcDbEntity
  8
図
  6
CONTINUOUS
 62
     6
100
AcDbEllipse
 10
614.039487
 20
886.35
 30
0.0
 11
-0.0000000000000024
 21
4.0
 31
0.0
210
0.0
220
0.0
230
1.0
 40
0.612372
 41
0.0
 42
6.2831853071796004
  0
LINE
  5
961
100
AcDbEntity
  8
図
  6
CONTINUOUS
 62
     6
100
AcDbLine
 10
623.998779
 20
894.316786
 30
0.0
 11
629.748779
 21
894.316786
 31
0.0
  0
LINE
  5
962
100
AcDbEntity
  8
図
  6
CONTINUOUS
 62
     6
100
AcDbLine
 10
634.498779
 20
891.85
 30
0.0
 11
623.998779
 21
891.85
 31
0.0
  0
LINE
  5
963
100
AcDbEntity
  8
図
  6
CONTINUOUS
 62
     6
100
AcDbLine
 10
634.850426
 20
880.35
 30
0.0
 11
623.998779
 21
880.35
 31
0.0
  0
ARC
  5
964
100
AcDbEntity
  8
図
  6
CONTINUOUS
 62
     6
100
AcDbCircle
 10
624.0
 20
858.0
 30
0.0
 40
27.499275
100
AcDbArc
 50
115.872828
 51
64.119536
  0
LINE
  5
965
100
AcDbEntity
  8
図
  6
EXLTYPE3
 62
     6
100
AcDbLine
 10
576.5
 20
858.0
 30
0.0
 11
671.5
 21
858.0
 31
0.0
  0
LINE
  5
966
100
AcDbEntity
  8
図
  6
EXLTYPE3
 62
     6
100
AcDbLine
 10
624.0
 20
904.5
 30
0.0
 11
624.0
 21
809.5
 31
0.0
  0
LINE
  5
967
100
AcDbEntity
  8
図
  6
CONTINUOUS
 62
     6
100
AcDbLine
 10
618.748779
 20
1072.964388
 30
0.0
 11
618.748779
 21
912.981
 31
0.0
  0
LINE
  5
968
100
AcDbEntity
  8
図
  6
CONTINUOUS
 62
     6
100
AcDbLine
 10
629.248779
 20
1072.964388
 30
0.0
 11
629.248779
 21
912.981
 31
0.0
  0
ARC
  5
969
100
AcDbEntity
  8
図
  6
CONTINUOUS
 62
     6
100
AcDbCircle
 10
529.248779
 20
1072.964388
 30
0.0
 40
100.0
100
AcDbArc
 50
0.0
 51
20.0
  0
ARC
  5
96A
100
AcDbEntity
  8
図
  6
CONTINUOUS
 62
     6
100
AcDbCircle
 10
529.248779
 20
1072.964388
 30
0.0
 40
89.5
100
AcDbArc
 50
0.0
 51
20.0
  0
LINE
  5
96B
100
AcDbEntity
  8
図
  6
CONTINUOUS
 62
     6
100
AcDbLine
 10
599.001812
 20
1143.0
 30
0.0
 11
613.351269
 21
1103.575191
 31
0.0
  0
LINE
  5
96C
100
AcDbEntity
  8
図
  6
CONTINUOUS
 62
     6
100
AcDbLine
 10
610.175678
 20
1143.0
 30
0.0
 11
623.218041
 21
1107.166402
 31
0.0
  0
LINE
  5
96D
100
AcDbEntity
  8
図
  6
EXLTYPE3
 62
     6
100
AcDbLine
 10
474.0
 20
731.7
 30
0.0
 11
474.0
 21
490.0
 31
0.0
  0
LINE
  5
96E
100
AcDbEntity
  8
図
  6
EXLTYPE3
 62
     6
100
AcDbLine
 10
624.0
 20
726.8
 30
0.0
 11
624.0
 21
490.0
 31
0.0
  0
LINE
  5
96F
100
AcDbEntity
  8
図
  6
EXLTYPE4
 62
     6
100
AcDbLine
 10
220.0
 20
508.0
 30
0.0
 11
1113.0
 21
508.0
 31
0.0
  0
TEXT
  5
970
100
AcDbEntity
  8
図
  6
CONTINUOUS
 62
     2
100
AcDbText
 10
1191.5
 20
508.0
 30
0.0
 40
40.0
  1
F.L.
 41
0.4125
  7
EXCADSTD
 72
     5
 11
1251.9956
 21
508.0
 31
0.0
100
AcDbText
  0
LINE
  5
971
100
AcDbEntity
  8
図
  6
EXLTYPE4
 62
     6
100
AcDbLine
 10
1165.0
 20
508.0
 30
0.0
 11
1666.99999
 21
508.0
 31
0.0
  0
TEXT
  5
972
100
AcDbEntity
  8
図
  6
CONTINUOUS
 62
     2
100
AcDbText
 10
1666.99999
 20
1605.00001
 30
0.0
 40
40.0
  1
W.L.
 50
90.0
 41
0.4125
  7
EXCADSTD
 72
     5
 11
1666.99999
 21
1665.49561
 31
0.0
100
AcDbText
  0
LINE
  5
973
100
AcDbEntity
  8
図
  6
EXLTYPE4
 62
     6
100
AcDbLine
 10
1666.99999
 20
508.0
 30
0.0
 11
1666.99999
 21
1683.0
 31
0.0
  0
LINE
  5
974
100
AcDbEntity
  8
図
  6
EXLTYPE3
 62
     6
100
AcDbLine
 10
549.0
 20
1465.0
 30
0.0
 11
549.0
 21
788.4
 31
0.0
  0
TEXT
  5
975
100
AcDbEntity
  8
図
  6
CONTINUOUS
 62
     2
100
AcDbText
 10
1132.50293
 20
1856.0
 30
0.0
 40
60.0
  1
参考図
 41
0.84
  7
EXCADSTD
 72
     5
 11
1312.50293
 21
1856.0
 31
0.0
100
AcDbText
  0
POLYLINE
  5
976
100
AcDbEntity
  8
図
  6
CONTINUOUS
 62
     6
100
AcDb2dPolyline
 66
     1
 10
0.0
 20
0.0
 30
0.0
 70
   128
  0
VERTEX
  5
977
100
AcDbEntity
  8
図
  6
CONTINUOUS
 62
     6
100
AcDbVertex
100
AcDb2dVertex
 10
1124.0
 20
1926.0
 30
0.0
  0
VERTEX
  5
978
100
AcDbEntity
  8
図
  6
CONTINUOUS
 62
     6
100
AcDbVertex
100
AcDb2dVertex
 10
1308.0
 20
1926.0
 30
0.0
  0
VERTEX
  5
979
100
AcDbEntity
  8
図
  6
CONTINUOUS
 62
     6
100
AcDbVertex
100
AcDb2dVertex
 10
1308.0
 20
1851.0
 30
0.0
  0
VERTEX
  5
97A
100
AcDbEntity
  8
図
  6
CONTINUOUS
 62
     6
100
AcDbVertex
100
AcDb2dVertex
 10
1124.0
 20
1851.0
 30
0.0
  0
VERTEX
  5
97B
100
AcDbEntity
  8
図
  6
CONTINUOUS
 62
     6
100
AcDbVertex
100
AcDb2dVertex
 10
1124.0
 20
1926.0
 30
0.0
  0
SEQEND
  5
97C
100
AcDbEntity
  8
図
  6
CONTINUOUS
 62
     6
  0
LINE
  5
97D
100
AcDbEntity
  8
図
  6
EXLTYPE4
 62
     6
100
AcDbLine
 10
533.0
 20
707.0
 30
0.0
 11
533.0
 21
478.0
 31
0.0
  0
LINE
  5
97E
100
AcDbEntity
  8
図
  6
EXLTYPE4
 62
     6
100
AcDbLine
 10
533.0
 20
478.0
 30
0.0
 11
565.0
 21
478.0
 31
0.0
  0
LINE
  5
97F
100
AcDbEntity
  8
図
  6
EXLTYPE4
 62
     6
100
AcDbLine
 10
565.0
 20
707.0
 30
0.0
 11
565.0
 21
478.0
 31
0.0
  0
DIMENSION
  5
98B
100
AcDbEntity
  8
寸法
  6
CONTINUOUS
 62
     3
100
AcDbDimension
  2
*D25
 10
624.0
 20
741.7
 30
0.0
 11
549.0
 21
765.2
 31
0.0
 70
   160
  3
STANDARD
100
AcDbAlignedDimension
 13
474.0
 23
849.5
 33
0.0
 14
624.0
 24
849.5
 34
0.0
100
AcDbRotatedDimension
1001
ACAD
1000
DSTYLE
1002
{
1070
     6
1000
_EX_NORM
1070
     7
1000
_EX_NORM
1070
    41
1040
30.0
1070
    42
1040
43.000002
1070
    44
1040
10.0
1070
    73
1070
     0
1070
    74
1070
     0
1070
    75
1070
     0
1070
    76
1070
     0
1070
    77
1070
     1
1070
    78
1070
     8
1070
   140
1040
40.0
1070
   147
1040
3.5
1070
   173
1070
     1
1070
   176
1070
     3
1070
   177
1070
     3
1070
   178
1070
     2
1070
   271
1070
     2
1070
   279
1070
     2
1070
   280
1070
     0
1070
   287
1070
     5
1070
   340
1005
14F
1002
}
  0
DIMENSION
  5
997
100
AcDbEntity
  8
寸法
  6
CONTINUOUS
 62
     3
100
AcDbDimension
  2
*D26
 10
824.005519
 20
1522.0
 30
0.0
 11
549.000073
 21
1545.5
 31
0.0
 70
   160
  1
550
  3
STANDARD
100
AcDbAlignedDimension
 13
273.994628
 23
1303.001246
 33
0.0
 14
824.005519
 24
1303.001246
 34
0.0
100
AcDbRotatedDimension
1001
ACAD
1000
DSTYLE
1002
{
1070
     6
1000
_EX_NORM
1070
     7
1000
_EX_NORM
1070
    41
1040
30.0
1070
    42
1040
5.0
1070
    44
1040
10.0
1070
    73
1070
     0
1070
    74
1070
     0
1070
    75
1070
     0
1070
    76
1070
     0
1070
    77
1070
     1
1070
    78
1070
     8
1070
   140
1040
40.0
1070
   147
1040
3.5
1070
   173
1070
     1
1070
   176
1070
     3
1070
   177
1070
     3
1070
   178
1070
     2
1070
   271
1070
     2
1070
   279
1070
     2
1070
   280
1070
     0
1070
   287
1070
     5
1070
   340
1005
14F
1002
}
  0
DIMENSION
  5
9A2
100
AcDbEntity
  8
寸法
  6
CONTINUOUS
 62
     3
100
AcDbDimension
  2
*D27
 10
1666.99999
 20
1522.0
 30
0.0
 11
1417.18157
 21
1545.5
 31
0.0
 70
   160
  1
500
  3
STANDARD
100
AcDbAlignedDimension
 13
1167.36315
 23
1303.0
 33
0.0
 14
1666.99999
 24
1568.0
 34
0.0
100
AcDbRotatedDimension
1001
ACAD
1000
DSTYLE
1002
{
1070
     6
1000
_EX_NORM
1070
     7
1000
_EX_NORM
1070
    41
1040
30.0
1070
    42
1040
5.0
1070
    44
1040
10.0
1070
    73
1070
     0
1070
    74
1070
     0
1070
    75
1070
     0
1070
    76
1070
     1
1070
    77
1070
     1
1070
    78
1070
     8
1070
   140
1040
40.0
1070
   147
1040
3.5
1070
   173
1070
     1
1070
   176
1070
     3
1070
   177
1070
     3
1070
   178
1070
     2
1070
   271
1070
     2
1070
   279
1070
     2
1070
   280
1070
     0
1070
   287
1070
     5
1070
   340
1005
14F
1002
}
  0
DIMENSION
  5
9AD
100
AcDbEntity
  8
寸法
  6
CONTINUOUS
 62
     3
100
AcDbDimension
  2
*D28
 10
1809.0
 20
1168.0
 30
0.0
 11
1785.5
 21
1353.0
 31
0.0
 70
   160
  1
265（Ｐトラップ）
  3
STANDARD
100
AcDbAlignedDimension
 13
1809.0
 23
903.0
 33
0.0
 14
1747.0
 24
1168.0
 34
0.0
 50
90.0
100
AcDbRotatedDimension
1001
ACAD
1000
DSTYLE
1002
{
1070
     6
1000
_EX_NORM
1070
     7
1000
_EX_NORM
1070
    41
1040
30.0
1070
    42
1040
5.0
1070
    44
1040
10.0
1070
    73
1070
     0
1070
    74
1070
     0
1070
    75
1070
     1
1070
    76
1070
     0
1070
    77
1070
     1
1070
    78
1070
     8
1070
   140
1040
40.0
1070
   147
1040
3.5
1070
   173
1070
     1
1070
   176
1070
     3
1070
   177
1070
     3
1070
   178
1070
     2
1070
   271
1070
     2
1070
   279
1070
     2
1070
   280
1070
     2
1070
   287
1070
     5
1070
   340
1005
14F
1002
}
  0
DIMENSION
  5
9B9
100
AcDbEntity
  8
寸法
  6
CONTINUOUS
 62
     3
100
AcDbDimension
  2
*D29
 10
1747.0
 20
1168.0
 30
0.0
 11
1723.5
 21
1383.0
 31
0.0
 70
   160
  1
195（ボトルトラップ）
  3
STANDARD
100
AcDbAlignedDimension
 13
1706.99999
 23
973.0
 33
0.0
 14
1809.0
 24
1168.0
 34
0.0
 50
90.0
100
AcDbRotatedDimension
1001
ACAD
1000
DSTYLE
1002
{
1070
     6
1000
_EX_NORM
1070
     7
1000
_EX_NORM
1070
    41
1040
30.0
1070
    42
1040
5.0
1070
    44
1040
10.0
1070
    73
1070
     0
1070
    74
1070
     0
1070
    75
1070
     0
1070
    76
1070
     0
1070
    77
1070
     1
1070
    78
1070
     8
1070
   140
1040
40.0
1070
   147
1040
3.5
1070
   173
1070
     1
1070
   176
1070
     3
1070
   177
1070
     3
1070
   178
1070
     2
1070
   271
1070
     2
1070
   279
1070
     2
1070
   280
1070
     2
1070
   287
1070
     5
1070
   340
1005
14F
1002
}
  0
LINE
  5
9BA
100
AcDbEntity
  8
寸法
  6
CONTINUOUS
 62
     3
100
AcDbLine
 10
1706.6
 20
903.0
 30
0.0
 11
1819.0
 21
903.0
 31
0.0
  0
DIMENSION
  5
9C6
100
AcDbEntity
  8
寸法
  6
CONTINUOUS
 62
     3
100
AcDbDimension
  2
*D30
 10
1864.0
 20
858.0
 30
0.0
 11
1840.5
 21
1013.0
 31
0.0
 70
   160
  3
STANDARD
100
AcDbAlignedDimension
 13
1671.99999
 23
1168.0
 33
0.0
 14
1682.776966
 24
858.0
 34
0.0
 50
90.0
100
AcDbRotatedDimension
1001
ACAD
1000
DSTYLE
1002
{
1070
     6
1000
_EX_NORM
1070
     7
1000
_EX_NORM
1070
    41
1040
30.0
1070
    42
1040
5.0
1070
    44
1040
10.0
1070
    73
1070
     0
1070
    74
1070
     0
1070
    75
1070
     0
1070
    76
1070
     0
1070
    77
1070
     1
1070
    78
1070
     8
1070
   140
1040
40.0
1070
   147
1040
3.5
1070
   173
1070
     1
1070
   176
1070
     3
1070
   177
1070
     3
1070
   178
1070
     2
1070
   271
1070
     2
1070
   279
1070
     2
1070
   280
1070
     0
1070
   287
1070
     5
1070
   340
1005
14F
1002
}
  0
DIMENSION
  5
9D2
100
AcDbEntity
  8
寸法
  6
CONTINUOUS
 62
     3
100
AcDbDimension
  2
*D31
 10
1666.99999
 20
454.0
 30
0.0
 11
1806.99999
 21
477.5
 31
0.0
 70
   160
  1
85（床給水）
  3
STANDARD
100
AcDbAlignedDimension
 13
1582.001678
 23
490.0
 33
0.0
 14
1666.99999
 24
508.0
 34
0.0
100
AcDbRotatedDimension
1001
ACAD
1000
DSTYLE
1002
{
1070
     6
1000
_EX_NORM
1070
     7
1000
_EX_NORM
1070
    41
1040
30.0
1070
    42
1040
5.0
1070
    44
1040
10.0
1070
    73
1070
     0
1070
    74
1070
     0
1070
    75
1070
     0
1070
    76
1070
     0
1070
    77
1070
     1
1070
    78
1070
     8
1070
   140
1040
40.0
1070
   147
1040
3.5
1070
   173
1070
     1
1070
   176
1070
     3
1070
   177
1070
     3
1070
   178
1070
     2
1070
   271
1070
     2
1070
   279
1070
     2
1070
   280
1070
     2
1070
   287
1070
     5
1070
   340
1005
14F
1002
}
  0
ENDSEC
  0
SECTION
  2
OBJECTS
  0
DICTIONARY
  5
19
100
AcDbDictionary
  3
ACAD_GROUP
350
1A
  3
ACAD_MLINESTYLE
350
1B
  0
DICTIONARY
  5
1A
102
{ACAD_REACTORS
330
19
102
}
100
AcDbDictionary
  0
DICTIONARY
  5
1B
102
{ACAD_REACTORS
330
19
102
}
100
AcDbDictionary
  3
STANDARD
350
1C
  0
MLINESTYLE
  5
1C
102
{ACAD_REACTORS
330
1B
102
}
100
AcDbMlineStyle
  2
Standard
 70
     0
  3

 62
     0
 51
90.0
 52
90.0
 71
     2
 49
0.5
 62
   256
  6
ByLayer
 49
-0.5
 62
   256
  6
ByLayer
  0
ENDSEC
  0
EOF
