  0
SECTION
  2
HEADER
  9
$ACADVER
  1
AC1014
  9
$ACADMAINTVER
 70
     0
  9
$DWGCODEPAGE
  3
ANSI_932
  9
$INSBASE
 10
0.0
 20
0.0
 30
0.0
  9
$EXTMIN
 10
-2.1
 20
11.5
 30
0.0
  9
$EXTMAX
 10
199.9
 20
291.5
 30
0.0
  9
$LIMMIN
 10
0.0
 20
0.0
  9
$LIMMAX
 10
210.0
 20
297.0
  9
$ORTHOMODE
 70
     0
  9
$REGENMODE
 70
     1
  9
$FILLMODE
 70
     1
  9
$QTEXTMODE
 70
     0
  9
$MIRRTEXT
 70
     1
  9
$DRAGMODE
 70
     2
  9
$LTSCALE
 40
1.0
  9
$OSMODE
 70
     0
  9
$ATTMODE
 70
     1
  9
$TEXTSIZE
 40
0.2
  9
$TRACEWID
 40
0.05
  9
$TEXTSTYLE
  7
STANDARD
  9
$CLAYER
  8
枠_
  9
$CELTYPE
  6
CONTINUOUS
  9
$CECOLOR
 62
   256
  9
$CELTSCALE
 40
1.0
  9
$DELOBJ
 70
     1
  9
$DISPSILH
 70
     0
  9
$DIMSCALE
 40
1.0
  9
$DIMASZ
 40
0.18
  9
$DIMEXO
 40
0.0625
  9
$DIMDLI
 40
0.38
  9
$DIMRND
 40
0.0
  9
$DIMDLE
 40
0.0
  9
$DIMEXE
 40
0.18
  9
$DIMTP
 40
0.0
  9
$DIMTM
 40
0.0
  9
$DIMTXT
 40
0.18
  9
$DIMCEN
 40
0.09
  9
$DIMTSZ
 40
0.0
  9
$DIMTOL
 70
     0
  9
$DIMLIM
 70
     0
  9
$DIMTIH
 70
     1
  9
$DIMTOH
 70
     1
  9
$DIMSE1
 70
     0
  9
$DIMSE2
 70
     0
  9
$DIMTAD
 70
     0
  9
$DIMZIN
 70
     0
  9
$DIMBLK
  1

  9
$DIMASO
 70
     1
  9
$DIMSHO
 70
     1
  9
$DIMPOST
  1

  9
$DIMAPOST
  1

  9
$DIMALT
 70
     0
  9
$DIMALTD
 70
     2
  9
$DIMALTF
 40
25.4
  9
$DIMLFAC
 40
1.0
  9
$DIMTOFL
 70
     0
  9
$DIMTVP
 40
0.0
  9
$DIMTIX
 70
     0
  9
$DIMSOXD
 70
     0
  9
$DIMSAH
 70
     0
  9
$DIMBLK1
  1

  9
$DIMBLK2
  1

  9
$DIMSTYLE
  2
STANDARD
  9
$DIMCLRD
 70
     0
  9
$DIMCLRE
 70
     0
  9
$DIMCLRT
 70
     0
  9
$DIMTFAC
 40
1.0
  9
$DIMGAP
 40
0.09
  9
$DIMJUST
 70
     0
  9
$DIMSD1
 70
     0
  9
$DIMSD2
 70
     0
  9
$DIMTOLJ
 70
     1
  9
$DIMTZIN
 70
     0
  9
$DIMALTZ
 70
     0
  9
$DIMALTTZ
 70
     0
  9
$DIMFIT
 70
     3
  9
$DIMUPT
 70
     0
  9
$DIMUNIT
 70
     2
  9
$DIMDEC
 70
     4
  9
$DIMTDEC
 70
     4
  9
$DIMALTU
 70
     2
  9
$DIMALTTD
 70
     2
  9
$DIMTXSTY
  7
STANDARD
  9
$DIMAUNIT
 70
     0
  9
$LUNITS
 70
     2
  9
$LUPREC
 70
     4
  9
$SKETCHINC
 40
0.1
  9
$FILLETRAD
 40
0.0
  9
$AUNITS
 70
     0
  9
$AUPREC
 70
     0
  9
$MENU
  1
acad
  9
$ELEVATION
 40
0.0
  9
$PELEVATION
 40
0.0
  9
$THICKNESS
 40
0.0
  9
$LIMCHECK
 70
     0
  9
$BLIPMODE
 70
     1
  9
$CHAMFERA
 40
0.0
  9
$CHAMFERB
 40
0.0
  9
$CHAMFERC
 40
0.0
  9
$CHAMFERD
 40
0.0
  9
$SKPOLY
 70
     0
  9
$TDCREATE
 40
2454512.722137245
  9
$TDUPDATE
 40
2454512.722137245
  9
$TDINDWG
 40
0.0000000000
  9
$TDUSRTIMER
 40
0.0000000000
  9
$USRTIMER
 70
     1
  9
$ANGBASE
 50
0.0
  9
$ANGDIR
 70
     0
  9
$PDMODE
 70
     0
  9
$PDSIZE
 40
0.0
  9
$PLINEWID
 40
0.0
  9
$COORDS
 70
     1
  9
$SPLFRAME
 70
     0
  9
$SPLINETYPE
 70
     6
  9
$SPLINESEGS
 70
     8
  9
$ATTDIA
 70
     0
  9
$ATTREQ
 70
     1
  9
$HANDLING
 70
     1
  9
$HANDSEED
  5
842
  9
$SURFTAB1
 70
     6
  9
$SURFTAB2
 70
     6
  9
$SURFTYPE
 70
     6
  9
$SURFU
 70
     6
  9
$SURFV
 70
     6
  9
$UCSNAME
  2

  9
$UCSORG
 10
0.0
 20
0.0
 30
0.0
  9
$UCSXDIR
 10
1.0
 20
0.0
 30
0.0
  9
$UCSYDIR
 10
0.0
 20
1.0
 30
0.0
  9
$PUCSNAME
  2

  9
$PUCSORG
 10
0.0
 20
0.0
 30
0.0
  9
$PUCSXDIR
 10
1.0
 20
0.0
 30
0.0
  9
$PUCSYDIR
 10
0.0
 20
1.0
 30
0.0
  9
$USERI1
 70
     0
  9
$USERI2
 70
     0
  9
$USERI3
 70
     0
  9
$USERI4
 70
     0
  9
$USERI5
 70
     0
  9
$USERR1
 40
0.0
  9
$USERR2
 40
0.0
  9
$USERR3
 40
0.0
  9
$USERR4
 40
0.0
  9
$USERR5
 40
0.0
  9
$WORLDVIEW
 70
     1
  9
$SHADEDGE
 70
     3
  9
$SHADEDIF
 70
    70
  9
$TILEMODE
 70
     1
  9
$MAXACTVP
 70
    16
  9
$PINSBASE
 10
0.0
 20
0.0
 30
0.0
  9
$PLIMCHECK
 70
     0
  9
$PEXTMIN
 10
1.000000E+20
 20
1.000000E+20
 30
1.000000E+20
  9
$PEXTMAX
 10
-1.000000E+20
 20
-1.000000E+20
 30
-1.000000E+20
  9
$PLIMMIN
 10
0.0
 20
0.0
  9
$PLIMMAX
 10
12.0
 20
9.0
  9
$UNITMODE
 70
     0
  9
$VISRETAIN
 70
     0
  9
$PLINEGEN
 70
     1
  9
$PSLTSCALE
 70
     0
  9
$TREEDEPTH
 70
  3020
  9
$PICKSTYLE
 70
     1
  9
$CMLSTYLE
  2
Standard
  9
$CMLJUST
 70
     0
  9
$CMLSCALE
 40
1.0
  9
$PROXYGRAPHICS
 70
     0
  9
$MEASUREMENT
 70
     0
  0
ENDSEC
  0
SECTION
  2
CLASSES
  0
CLASS
  1
LWPOLYLINE
  2
AcDbPolyline
  3
"AutoCAD"
 90
        0
280
     0
281
     1
  0
CLASS
  1
IMAGE
  2
AcDbRasterImage
  3
ISM
 90
      127
280
     0
281
     1
  0
CLASS
  1
OLE2FRAME
  2
AcDbOle2Frame
  3
""
 90
        0
280
     0
281
     1
  0
CLASS
  1
HATCH
  2
AcDbHatch
  3
"ACAD_SEDONA"
 90
        0
280
     0
281
     1
  0
CLASS
  1
DICTIONARYVAR
  2
AcDbDictionaryVar
  3
"AutoCAD"
 90
        0
280
     0
281
     0
  0
CLASS
  1
RASTERVARIABLES
  2
AcDbRasterVariables
  3
ISM
 90
        0
280
     0
281
     0
  0
CLASS
  1
IMAGEDEF
  2
AcDbRasterImageDef
  3
ISM
 90
        0
280
     0
281
     0
  0
CLASS
  1
IMAGEDEF_REACTOR
  2
AcDbRasterImageDefReactor
  3
ISM
 90
        1
280
     0
281
     0
  0
CLASS
  1
IDBUFFER
  2
AcDbIdBuffer
  3
"Acad"
 90
        0
280
     0
281
     0
  0
CLASS
  1
SPATIAL_FILTER
  2
AcDbSpatialFilter
  3
"Acad"
 90
        0
280
     0
281
     0
  0
CLASS
  1
XRECORD
  2
AcDbXrecord
  3
"<Built In>"
 90
        0
280
     0
281
     0
  0
CLASS
  1
SORTENTSTABLE
  2
AcDbSortentsTable
  3
"AutoCAD"
 90
        0
280
     0
281
     0
  0
CLASS
  1
LAYER_INDEX
  2
AcDbLayerIndex
  3
"Acad"
 90
        0
280
     0
281
     0
  0
CLASS
  1
SPATIAL_INDEX
  2
AcDbSpatialIndex
  3
"Acad"
 90
        0
280
     0
281
     0
  0
CLASS
  1
OBJECT_PTR
  2
CAseDLPNTableRecord
  3
"ASE-LPNTableRecord"
 90
        1
280
     0
281
     0
  0
CLASS
  1
LAYOUT
  2
AcDbLayout
  3
"AutoCAD 2000"
 90
        1
280
     0
281
     0
  0
CLASS
  1
PLOTSETTINGS
  2
AcDbPlotSettings
  3
"AutoCAD 2000"
 90
        1
280
     0
281
     0
  0
CLASS
  1
ACDBDICTIONARYWDFLT
  2
AcDbDictionaryWithDefault
  3
"AutoCAD 2000"
 90
        1
280
     0
281
     0
  0
CLASS
  1
ACDBPLACEHOLDER
  2
AcDbPlaceHolder
  3
"AutoCAD 2000"
 90
        1
280
     0
281
     0
  0
CLASS
  1
VBA_PROJECT
  2
AcDbVbaProject
  3
"acadvba"
 90
        1
280
     0
281
     0
  0
CLASS
  1
WIPEOUT
  2
AcDbWipeout
  3
WipeOut|AutoCAD Express Tool|expresstools@autodesk.com
 90
      127
280
     0
281
     1
  0
CLASS
  1
WIPEOUTVARIABLES
  2
AcDbWipeoutVariables
  3
WipeOut|AutoCAD Express Tool|expresstools@autodesk.com
 90
        0
280
     0
281
     0
  0
CLASS
  1
RTEXT
  2
RText
  3
RText|AutoCAD Express Tool|expresstools@autodesk.com
 90
        0
280
     0
281
     1
  0
CLASS
  1
ARCALIGNEDTEXT
  2
AcDbArcAlignedText
  3
ATEXT|AutoCAD Express Tool|expresstools@autodesk.com
 90
        0
280
     0
281
     1
  0
ENDSEC
  0
SECTION
  2
TABLES
  0
TABLE
  2
VPORT
  5
7
100
AcDbSymbolTable
 70
     1
  0
VPORT
  5
15
100
AcDbSymbolTableRecord
100
AcDbViewportTableRecord
  2
*ACTIVE
 70
     0
 10
0.0
 20
0.0
 11
1.0
 21
1.0
 12
989.0
 22
1515.0
 13
0.0
 23
0.0
 14
1.0
 24
1.0
 15
0.0
 25
0.0
 16
0.0
 26
0.0
 36
1.0
 17
0.0
 27
0.0
 37
0.0
 40
2800.0
 41
1.722533
 42
50.0
 43
0.0
 44
0.0
 50
0.0
 51
0.0
 71
     0
 72
   100
 73
     1
 74
     1
 75
     0
 76
     0
 77
     0
 78
     0
  0
ENDTAB
  0
TABLE
  2
LTYPE
  5
4
100
AcDbSymbolTable
 70
     9
  0
LTYPE
  5
11
100
AcDbSymbolTableRecord
100
AcDbLinetypeTableRecord
  2
BYBLOCK
 70
    64
  3

 72
    65
 73
     0
 40
0.0
  0
LTYPE
  5
12
100
AcDbSymbolTableRecord
100
AcDbLinetypeTableRecord
  2
BYLAYER
 70
    64
  3

 72
    65
 73
     0
 40
0.0
  0
LTYPE
  5
13
100
AcDbSymbolTableRecord
100
AcDbLinetypeTableRecord
  2
CONTINUOUS
 70
    64
  3
実線
 72
    65
 73
     0
 40
0.0
  0
LTYPE
  5
1D
100
AcDbSymbolTableRecord
100
AcDbLinetypeTableRecord
  2
EXLTYPE1
 70
    64
  3
破線
 72
    65
 73
     2
 40
3.0
 49
2.0
 74
     0
 49
-1.0
 74
     0
  0
LTYPE
  5
1E
100
AcDbSymbolTableRecord
100
AcDbLinetypeTableRecord
  2
EXLTYPE2
 70
    64
  3
点線
 72
    65
 73
     2
 40
2.0
 49
1.0
 74
     0
 49
-1.0
 74
     0
  0
LTYPE
  5
1F
100
AcDbSymbolTableRecord
100
AcDbLinetypeTableRecord
  2
EXLTYPE3
 70
    64
  3
一点鎖線
 72
    65
 73
     4
 40
10.0
 49
7.0
 74
     0
 49
-1.0
 74
     0
 49
1.0
 74
     0
 49
-1.0
 74
     0
  0
LTYPE
  5
20
100
AcDbSymbolTableRecord
100
AcDbLinetypeTableRecord
  2
EXLTYPE4
 70
    64
  3
二点鎖線
 72
    65
 73
     6
 40
12.0
 49
7.0
 74
     0
 49
-1.0
 74
     0
 49
1.0
 74
     0
 49
-1.0
 74
     0
 49
1.0
 74
     0
 49
-1.0
 74
     0
  0
LTYPE
  5
21
100
AcDbSymbolTableRecord
100
AcDbLinetypeTableRecord
  2
EXLTYPE5
 70
    64
  3
三点鎖線
 72
    65
 73
     8
 40
37.0
 49
30.0
 74
     0
 49
-1.0
 74
     0
 49
1.0
 74
     0
 49
-1.0
 74
     0
 49
1.0
 74
     0
 49
-1.0
 74
     0
 49
1.0
 74
     0
 49
-1.0
 74
     0
  0
LTYPE
  5
22
100
AcDbSymbolTableRecord
100
AcDbLinetypeTableRecord
  2
EXLTYPE6
 70
    64
  3
四点鎖線
 72
    65
 73
    10
 40
39.0
 49
30.0
 74
     0
 49
-1.0
 74
     0
 49
1.0
 74
     0
 49
-1.0
 74
     0
 49
1.0
 74
     0
 49
-1.0
 74
     0
 49
1.0
 74
     0
 49
-1.0
 74
     0
 49
1.0
 74
     0
 49
-1.0
 74
     0
  0
ENDTAB
  0
TABLE
  2
LAYER
  5
2
100
AcDbSymbolTable
 70
     6
  0
LAYER
  5
14
100
AcDbSymbolTableRecord
100
AcDbLayerTableRecord
  2
0
 70
     0
 62
     7
  6
CONTINUOUS
  0
LAYER
  5
25
100
AcDbSymbolTableRecord
100
AcDbLayerTableRecord
  2
枠_
 70
    64
 62
     7
  6
CONTINUOUS
  0
LAYER
  5
26
100
AcDbSymbolTableRecord
100
AcDbLayerTableRecord
  2
スト－ル
 70
    64
 62
     7
  6
CONTINUOUS
  0
LAYER
  5
27
100
AcDbSymbolTableRecord
100
AcDbLayerTableRecord
  2
小便器用水栓
 70
    64
 62
     7
  6
CONTINUOUS
  0
LAYER
  5
28
100
AcDbSymbolTableRecord
100
AcDbLayerTableRecord
  2
寸法
 70
    64
 62
     7
  6
CONTINUOUS
  0
LAYER
  5
29
100
AcDbSymbolTableRecord
100
AcDbLayerTableRecord
  2
器具明細表_
 70
    64
 62
     7
  6
CONTINUOUS
  0
ENDTAB
  0
TABLE
  2
STYLE
  5
3
100
AcDbSymbolTable
 70
     4
  0
STYLE
  5
17
100
AcDbSymbolTableRecord
100
AcDbTextStyleTableRecord
  2
STANDARD
 70
     0
 40
0.0
 41
1.0
 50
0.0
 71
     0
 42
0.0
  3
monotxt
  4
extfont
  0
STYLE
  5
23
100
AcDbSymbolTableRecord
100
AcDbTextStyleTableRecord
  2
EXCADSTD
 70
    64
 40
0.0
 41
1.0
 50
0.0
 71
     0
 42
0.2
  3
monotxt
  4
extfont
  0
STYLE
  5
24
100
AcDbSymbolTableRecord
100
AcDbTextStyleTableRecord
  2
EXCADVERT
 70
    68
 40
0.0
 41
1.0
 50
0.0
 71
     0
 42
0.286885
  3
monotxt
  4
extfont
  0
STYLE
  5
95
100
AcDbSymbolTableRecord
100
AcDbTextStyleTableRecord
  2
EXCADDIM1
 70
    64
 40
0.0
 41
0.95
 50
0.0
 71
     0
 42
0.2
  3
monotxt
  4
extfont
  0
ENDTAB
  0
TABLE
  2
VIEW
  5
5
100
AcDbSymbolTable
 70
     0
  0
ENDTAB
  0
TABLE
  2
UCS
  5
6
100
AcDbSymbolTable
 70
     0
  0
ENDTAB
  0
TABLE
  2
APPID
  5
8
100
AcDbSymbolTable
 70
     1
  0
APPID
  5
16
100
AcDbSymbolTableRecord
100
AcDbRegAppTableRecord
  2
ACAD
 70
     0
  0
ENDTAB
  0
TABLE
  2
DIMSTYLE
  5
9
100
AcDbSymbolTable
 70
     1
  0
DIMSTYLE
105
18
100
AcDbSymbolTableRecord
100
AcDbDimStyleTableRecord
  2
STANDARD
 70
     0
  3

  4

  5

  6

  7

 40
1.0
 41
0.18
 42
0.0625
 43
0.38
 44
0.18
 45
0.0
 46
0.0
 47
0.0
 48
0.0
 71
     0
 72
     0
 73
     1
 74
     1
 75
     0
 76
     0
 77
     0
 78
     0
140
0.18
141
0.09
142
0.0
143
25.4
144
1.0
145
0.0
146
1.0
147
0.09
170
     0
171
     2
172
     1
173
     0
174
     0
175
     0
176
     0
177
     0
178
     0
270
     2
271
     4
272
     4
273
     2
274
     2
275
     0
280
     0
281
     0
282
     0
283
     1
284
     0
285
     0
286
     0
287
     0
288
     0
340
17
  0
ENDTAB
  0
TABLE
  2
BLOCK_RECORD
  5
1
100
AcDbSymbolTable
 70
    30
  0
BLOCK_RECORD
  5
A
100
AcDbSymbolTableRecord
100
AcDbBlockTableRecord
  2
*MODEL_SPACE
  0
BLOCK_RECORD
  5
B
100
AcDbSymbolTableRecord
100
AcDbBlockTableRecord
  2
*PAPER_SPACE
  0
BLOCK_RECORD
  5
2A
100
AcDbSymbolTableRecord
100
AcDbBlockTableRecord
  2
_EX_NORM
  0
BLOCK_RECORD
  5
2B
100
AcDbSymbolTableRecord
100
AcDbBlockTableRecord
  2
_EX_BNORM
  0
BLOCK_RECORD
  5
2C
100
AcDbSymbolTableRecord
100
AcDbBlockTableRecord
  2
_EX_BCIR
  0
BLOCK_RECORD
  5
2D
100
AcDbSymbolTableRecord
100
AcDbBlockTableRecord
  2
_EX_RCIVIL
  0
BLOCK_RECORD
  5
2E
100
AcDbSymbolTableRecord
100
AcDbBlockTableRecord
  2
_EX_SLANT
  0
BLOCK_RECORD
  5
2F
100
AcDbSymbolTableRecord
100
AcDbBlockTableRecord
  2
_EX_NONE
  0
BLOCK_RECORD
  5
30
100
AcDbSymbolTableRecord
100
AcDbBlockTableRecord
  2
_EX_CIVIL
  0
BLOCK_RECORD
  5
31
100
AcDbSymbolTableRecord
100
AcDbBlockTableRecord
  2
_EX_WCIR
  0
BLOCK_RECORD
  5
32
100
AcDbSymbolTableRecord
100
AcDbBlockTableRecord
  2
_EX_WCIR2
  0
BLOCK_RECORD
  5
33
100
AcDbSymbolTableRecord
100
AcDbBlockTableRecord
  2
_EX_WNORM
  0
BLOCK_RECORD
  5
34
100
AcDbSymbolTableRecord
100
AcDbBlockTableRecord
  2
_EX_NNORM
  0
BLOCK_RECORD
  5
35
100
AcDbSymbolTableRecord
100
AcDbBlockTableRecord
  2
_EX_BBOX
  0
BLOCK_RECORD
  5
36
100
AcDbSymbolTableRecord
100
AcDbBlockTableRecord
  2
_EX_WBOX
  0
BLOCK_RECORD
  5
37
100
AcDbSymbolTableRecord
100
AcDbBlockTableRecord
  2
_EX_INTEGRAL
  0
BLOCK_RECORD
  5
38
100
AcDbSymbolTableRecord
100
AcDbBlockTableRecord
  2
NC510LSK
  0
BLOCK_RECORD
  5
8A
100
AcDbSymbolTableRecord
100
AcDbBlockTableRecord
  2
*D15
  0
BLOCK_RECORD
  5
97
100
AcDbSymbolTableRecord
100
AcDbBlockTableRecord
  2
*D16
  0
BLOCK_RECORD
  5
A3
100
AcDbSymbolTableRecord
100
AcDbBlockTableRecord
  2
*D17
  0
BLOCK_RECORD
  5
AF
100
AcDbSymbolTableRecord
100
AcDbBlockTableRecord
  2
*D18
  0
BLOCK_RECORD
  5
BB
100
AcDbSymbolTableRecord
100
AcDbBlockTableRecord
  2
*D19
  0
BLOCK_RECORD
  5
C7
100
AcDbSymbolTableRecord
100
AcDbBlockTableRecord
  2
*D20
  0
BLOCK_RECORD
  5
D3
100
AcDbSymbolTableRecord
100
AcDbBlockTableRecord
  2
*D21
  0
BLOCK_RECORD
  5
F1
100
AcDbSymbolTableRecord
100
AcDbBlockTableRecord
  2
*D22
  0
BLOCK_RECORD
  5
FB
100
AcDbSymbolTableRecord
100
AcDbBlockTableRecord
  2
*D23
  0
BLOCK_RECORD
  5
107
100
AcDbSymbolTableRecord
100
AcDbBlockTableRecord
  2
*D24
  0
BLOCK_RECORD
  5
113
100
AcDbSymbolTableRecord
100
AcDbBlockTableRecord
  2
*D25
  0
BLOCK_RECORD
  5
11F
100
AcDbSymbolTableRecord
100
AcDbBlockTableRecord
  2
*D26
  0
BLOCK_RECORD
  5
12B
100
AcDbSymbolTableRecord
100
AcDbBlockTableRecord
  2
*D27
  0
BLOCK_RECORD
  5
135
100
AcDbSymbolTableRecord
100
AcDbBlockTableRecord
  2
*D28
  0
BLOCK_RECORD
  5
141
100
AcDbSymbolTableRecord
100
AcDbBlockTableRecord
  2
*D29
  0
ENDTAB
  0
ENDSEC
  0
SECTION
  2
BLOCKS
  0
BLOCK
  5
D
100
AcDbEntity
  8
0
100
AcDbBlockBegin
  2
*MODEL_SPACE
 70
     0
 10
0.0
 20
0.0
 30
0.0
  3
*MODEL_SPACE
  1

  0
ENDBLK
  5
E
100
AcDbEntity
  8
0
100
AcDbBlockEnd
  0
BLOCK
  5
F
100
AcDbEntity
 67
     1
  8
0
100
AcDbBlockBegin
  2
*PAPER_SPACE
 70
     0
 10
0.0
 20
0.0
 30
0.0
  3
*PAPER_SPACE
  1

  0
ENDBLK
  5
10
100
AcDbEntity
 67
     1
  8
0
100
AcDbBlockEnd
  0
BLOCK
  5
39
100
AcDbEntity
  8
0
100
AcDbBlockBegin
  2
_EX_NORM
 70
     0
 10
0.0
 20
0.0
 30
0.0
  3
_EX_NORM
  1

  0
LINE
  5
3A
100
AcDbEntity
  8
0
  6
CONTINUOUS
 62
     0
100
AcDbLine
 10
0.0
 20
0.0
 30
0.0
 11
-1.0
 21
0.0
 31
0.0
  0
LINE
  5
3B
100
AcDbEntity
  8
0
  6
CONTINUOUS
 62
     0
100
AcDbLine
 10
0.0
 20
0.0
 30
0.0
 11
-1.0
 21
0.166667
 31
0.0
  0
LINE
  5
3C
100
AcDbEntity
  8
0
  6
CONTINUOUS
 62
     0
100
AcDbLine
 10
0.0
 20
0.0
 30
0.0
 11
-1.0
 21
-0.166667
 31
0.0
  0
ENDBLK
  5
3D
100
AcDbEntity
  8
0
100
AcDbBlockEnd
  0
BLOCK
  5
3E
100
AcDbEntity
  8
0
100
AcDbBlockBegin
  2
_EX_BNORM
 70
     0
 10
0.0
 20
0.0
 30
0.0
  3
_EX_BNORM
  1

  0
LINE
  5
3F
100
AcDbEntity
  8
0
  6
CONTINUOUS
 62
     0
100
AcDbLine
 10
0.0
 20
0.0
 30
0.0
 11
-1.0
 21
0.0
 31
0.0
  0
LINE
  5
40
100
AcDbEntity
  8
0
  6
CONTINUOUS
 62
     0
100
AcDbLine
 10
0.0
 20
0.0
 30
0.0
 11
-1.0
 21
0.166667
 31
0.0
  0
LINE
  5
41
100
AcDbEntity
  8
0
  6
CONTINUOUS
 62
     0
100
AcDbLine
 10
0.0
 20
0.0
 30
0.0
 11
-1.0
 21
-0.166667
 31
0.0
  0
LINE
  5
42
100
AcDbEntity
  8
0
  6
CONTINUOUS
 62
     0
100
AcDbLine
 10
0.0
 20
0.0
 30
0.0
 11
-1.0
 21
0.083333
 31
0.0
  0
LINE
  5
43
100
AcDbEntity
  8
0
  6
CONTINUOUS
 62
     0
100
AcDbLine
 10
0.0
 20
0.0
 30
0.0
 11
-1.0
 21
-0.083333
 31
0.0
  0
LINE
  5
44
100
AcDbEntity
  8
0
  6
CONTINUOUS
 62
     0
100
AcDbLine
 10
-1.0
 20
0.166667
 30
0.0
 11
-1.0
 21
-0.166667
 31
0.0
  0
ENDBLK
  5
45
100
AcDbEntity
  8
0
100
AcDbBlockEnd
  0
BLOCK
  5
46
100
AcDbEntity
  8
0
100
AcDbBlockBegin
  2
_EX_BCIR
 70
     0
 10
0.0
 20
0.0
 30
0.0
  3
_EX_BCIR
  1

  0
LINE
  5
47
100
AcDbEntity
  8
0
  6
CONTINUOUS
 62
     0
100
AcDbLine
 10
0.0
 20
0.0
 30
0.0
 11
-1.0
 21
0.0
 31
0.0
  0
CIRCLE
  5
48
100
AcDbEntity
  8
0
  6
CONTINUOUS
 62
     0
100
AcDbCircle
 10
0.0
 20
0.0
 30
0.0
 40
0.5
  0
CIRCLE
  5
49
100
AcDbEntity
  8
0
  6
CONTINUOUS
 62
     0
100
AcDbCircle
 10
0.0
 20
0.0
 30
0.0
 40
0.25
  0
ENDBLK
  5
4A
100
AcDbEntity
  8
0
100
AcDbBlockEnd
  0
BLOCK
  5
4B
100
AcDbEntity
  8
0
100
AcDbBlockBegin
  2
_EX_RCIVIL
 70
     0
 10
0.0
 20
0.0
 30
0.0
  3
_EX_RCIVIL
  1

  0
LINE
  5
4C
100
AcDbEntity
  8
0
  6
CONTINUOUS
 62
     0
100
AcDbLine
 10
0.0
 20
0.0
 30
0.0
 11
-1.0
 21
0.0
 31
0.0
  0
LINE
  5
4D
100
AcDbEntity
  8
0
  6
CONTINUOUS
 62
     0
100
AcDbLine
 10
-1.0
 20
-0.25
 30
0.0
 11
0.0
 21
-0.25
 31
0.0
  0
LINE
  5
4E
100
AcDbEntity
  8
0
  6
CONTINUOUS
 62
     0
100
AcDbLine
 10
-1.0
 20
-0.125
 30
0.0
 11
0.0
 21
-0.125
 31
0.0
  0
ENDBLK
  5
4F
100
AcDbEntity
  8
0
100
AcDbBlockEnd
  0
BLOCK
  5
50
100
AcDbEntity
  8
0
100
AcDbBlockBegin
  2
_EX_SLANT
 70
     0
 10
0.0
 20
0.0
 30
0.0
  3
_EX_SLANT
  1

  0
LINE
  5
51
100
AcDbEntity
  8
0
  6
CONTINUOUS
 62
     0
100
AcDbLine
 10
0.0
 20
0.0
 30
0.0
 11
-1.0
 21
0.0
 31
0.0
  0
LINE
  5
52
100
AcDbEntity
  8
0
  6
CONTINUOUS
 62
     0
100
AcDbLine
 10
0.707107
 20
0.707107
 30
0.0
 11
-0.707107
 21
-0.707107
 31
0.0
  0
ENDBLK
  5
53
100
AcDbEntity
  8
0
100
AcDbBlockEnd
  0
BLOCK
  5
54
100
AcDbEntity
  8
0
100
AcDbBlockBegin
  2
_EX_NONE
 70
     0
 10
0.0
 20
0.0
 30
0.0
  3
_EX_NONE
  1

  0
LINE
  5
55
100
AcDbEntity
  8
0
  6
CONTINUOUS
 62
     0
100
AcDbLine
 10
0.0
 20
0.0
 30
0.0
 11
-1.0
 21
0.0
 31
0.0
  0
ENDBLK
  5
56
100
AcDbEntity
  8
0
100
AcDbBlockEnd
  0
BLOCK
  5
57
100
AcDbEntity
  8
0
100
AcDbBlockBegin
  2
_EX_CIVIL
 70
     0
 10
0.0
 20
0.0
 30
0.0
  3
_EX_CIVIL
  1

  0
LINE
  5
58
100
AcDbEntity
  8
0
  6
CONTINUOUS
 62
     0
100
AcDbLine
 10
0.0
 20
0.0
 30
0.0
 11
-1.0
 21
0.0
 31
0.0
  0
LINE
  5
59
100
AcDbEntity
  8
0
  6
CONTINUOUS
 62
     0
100
AcDbLine
 10
-1.0
 20
0.25
 30
0.0
 11
0.0
 21
0.25
 31
0.0
  0
LINE
  5
5A
100
AcDbEntity
  8
0
  6
CONTINUOUS
 62
     0
100
AcDbLine
 10
-1.0
 20
0.125
 30
0.0
 11
0.0
 21
0.125
 31
0.0
  0
ENDBLK
  5
5B
100
AcDbEntity
  8
0
100
AcDbBlockEnd
  0
BLOCK
  5
5C
100
AcDbEntity
  8
0
100
AcDbBlockBegin
  2
_EX_WCIR
 70
     0
 10
0.0
 20
0.0
 30
0.0
  3
_EX_WCIR
  1

  0
LINE
  5
5D
100
AcDbEntity
  8
0
  6
CONTINUOUS
 62
     0
100
AcDbLine
 10
0.0
 20
0.0
 30
0.0
 11
-1.0
 21
0.0
 31
0.0
  0
CIRCLE
  5
5E
100
AcDbEntity
  8
0
  6
CONTINUOUS
 62
     0
100
AcDbCircle
 10
0.0
 20
0.0
 30
0.0
 40
0.5
  0
ENDBLK
  5
5F
100
AcDbEntity
  8
0
100
AcDbBlockEnd
  0
BLOCK
  5
60
100
AcDbEntity
  8
0
100
AcDbBlockBegin
  2
_EX_WCIR2
 70
     0
 10
0.0
 20
0.0
 30
0.0
  3
_EX_WCIR2
  1

  0
LINE
  5
61
100
AcDbEntity
  8
0
  6
CONTINUOUS
 62
     0
100
AcDbLine
 10
-0.5
 20
0.0
 30
0.0
 11
-1.0
 21
0.0
 31
0.0
  0
CIRCLE
  5
62
100
AcDbEntity
  8
0
  6
CONTINUOUS
 62
     0
100
AcDbCircle
 10
0.0
 20
0.0
 30
0.0
 40
0.5
  0
ENDBLK
  5
63
100
AcDbEntity
  8
0
100
AcDbBlockEnd
  0
BLOCK
  5
64
100
AcDbEntity
  8
0
100
AcDbBlockBegin
  2
_EX_WNORM
 70
     0
 10
0.0
 20
0.0
 30
0.0
  3
_EX_WNORM
  1

  0
LINE
  5
65
100
AcDbEntity
  8
0
  6
CONTINUOUS
 62
     0
100
AcDbLine
 10
-1.0
 20
0.0
 30
0.0
 11
-1.0
 21
0.0
 31
0.0
  0
LINE
  5
66
100
AcDbEntity
  8
0
  6
CONTINUOUS
 62
     0
100
AcDbLine
 10
0.0
 20
0.0
 30
0.0
 11
-1.0
 21
0.166667
 31
0.0
  0
LINE
  5
67
100
AcDbEntity
  8
0
  6
CONTINUOUS
 62
     0
100
AcDbLine
 10
0.0
 20
0.0
 30
0.0
 11
-1.0
 21
-0.166667
 31
0.0
  0
LINE
  5
68
100
AcDbEntity
  8
0
  6
CONTINUOUS
 62
     0
100
AcDbLine
 10
-1.0
 20
0.166667
 30
0.0
 11
-1.0
 21
-0.166667
 31
0.0
  0
ENDBLK
  5
69
100
AcDbEntity
  8
0
100
AcDbBlockEnd
  0
BLOCK
  5
6A
100
AcDbEntity
  8
0
100
AcDbBlockBegin
  2
_EX_NNORM
 70
     0
 10
0.0
 20
0.0
 30
0.0
  3
_EX_NNORM
  1

  0
LINE
  5
6B
100
AcDbEntity
  8
0
  6
CONTINUOUS
 62
     0
100
AcDbLine
 10
0.0
 20
0.0
 30
0.0
 11
-1.0
 21
0.0
 31
0.0
  0
LINE
  5
6C
100
AcDbEntity
  8
0
  6
CONTINUOUS
 62
     0
100
AcDbLine
 10
0.0
 20
0.0
 30
0.0
 11
-1.0
 21
0.166667
 31
0.0
  0
LINE
  5
6D
100
AcDbEntity
  8
0
  6
CONTINUOUS
 62
     0
100
AcDbLine
 10
0.0
 20
0.0
 30
0.0
 11
-1.0
 21
-0.166667
 31
0.0
  0
LINE
  5
6E
100
AcDbEntity
  8
0
  6
CONTINUOUS
 62
     0
100
AcDbLine
 10
-1.0
 20
0.166667
 30
0.0
 11
-1.0
 21
-0.166667
 31
0.0
  0
ENDBLK
  5
6F
100
AcDbEntity
  8
0
100
AcDbBlockEnd
  0
BLOCK
  5
70
100
AcDbEntity
  8
0
100
AcDbBlockBegin
  2
_EX_BBOX
 70
     0
 10
0.0
 20
0.0
 30
0.0
  3
_EX_BBOX
  1

  0
LINE
  5
71
100
AcDbEntity
  8
0
  6
CONTINUOUS
 62
     0
100
AcDbLine
 10
0.0
 20
0.0
 30
0.0
 11
-1.0
 21
0.0
 31
0.0
  0
LINE
  5
72
100
AcDbEntity
  8
0
  6
CONTINUOUS
 62
     0
100
AcDbLine
 10
-0.5
 20
0.5
 30
0.0
 11
0.5
 21
0.5
 31
0.0
  0
LINE
  5
73
100
AcDbEntity
  8
0
  6
CONTINUOUS
 62
     0
100
AcDbLine
 10
0.5
 20
0.5
 30
0.0
 11
0.5
 21
-0.5
 31
0.0
  0
LINE
  5
74
100
AcDbEntity
  8
0
  6
CONTINUOUS
 62
     0
100
AcDbLine
 10
0.5
 20
-0.5
 30
0.0
 11
-0.5
 21
-0.5
 31
0.0
  0
LINE
  5
75
100
AcDbEntity
  8
0
  6
CONTINUOUS
 62
     0
100
AcDbLine
 10
-0.5
 20
-0.5
 30
0.0
 11
-0.5
 21
0.5
 31
0.0
  0
LINE
  5
76
100
AcDbEntity
  8
0
  6
CONTINUOUS
 62
     0
100
AcDbLine
 10
-0.25
 20
0.25
 30
0.0
 11
0.25
 21
0.25
 31
0.0
  0
LINE
  5
77
100
AcDbEntity
  8
0
  6
CONTINUOUS
 62
     0
100
AcDbLine
 10
0.25
 20
0.25
 30
0.0
 11
0.25
 21
-0.25
 31
0.0
  0
LINE
  5
78
100
AcDbEntity
  8
0
  6
CONTINUOUS
 62
     0
100
AcDbLine
 10
0.25
 20
-0.25
 30
0.0
 11
-0.25
 21
-0.25
 31
0.0
  0
LINE
  5
79
100
AcDbEntity
  8
0
  6
CONTINUOUS
 62
     0
100
AcDbLine
 10
-0.25
 20
-0.25
 30
0.0
 11
-0.25
 21
0.25
 31
0.0
  0
ENDBLK
  5
7A
100
AcDbEntity
  8
0
100
AcDbBlockEnd
  0
BLOCK
  5
7B
100
AcDbEntity
  8
0
100
AcDbBlockBegin
  2
_EX_WBOX
 70
     0
 10
0.0
 20
0.0
 30
0.0
  3
_EX_WBOX
  1

  0
LINE
  5
7C
100
AcDbEntity
  8
0
  6
CONTINUOUS
 62
     0
100
AcDbLine
 10
-0.5
 20
0.0
 30
0.0
 11
-1.0
 21
0.0
 31
0.0
  0
LINE
  5
7D
100
AcDbEntity
  8
0
  6
CONTINUOUS
 62
     0
100
AcDbLine
 10
-0.5
 20
0.5
 30
0.0
 11
0.5
 21
0.5
 31
0.0
  0
LINE
  5
7E
100
AcDbEntity
  8
0
  6
CONTINUOUS
 62
     0
100
AcDbLine
 10
0.5
 20
0.5
 30
0.0
 11
0.5
 21
-0.5
 31
0.0
  0
LINE
  5
7F
100
AcDbEntity
  8
0
  6
CONTINUOUS
 62
     0
100
AcDbLine
 10
0.5
 20
-0.5
 30
0.0
 11
-0.5
 21
-0.5
 31
0.0
  0
LINE
  5
80
100
AcDbEntity
  8
0
  6
CONTINUOUS
 62
     0
100
AcDbLine
 10
-0.5
 20
-0.5
 30
0.0
 11
-0.5
 21
0.5
 31
0.0
  0
ENDBLK
  5
81
100
AcDbEntity
  8
0
100
AcDbBlockEnd
  0
BLOCK
  5
82
100
AcDbEntity
  8
0
100
AcDbBlockBegin
  2
_EX_INTEGRAL
 70
     0
 10
0.0
 20
0.0
 30
0.0
  3
_EX_INTEGRAL
  1

  0
LINE
  5
83
100
AcDbEntity
  8
0
  6
CONTINUOUS
 62
     0
100
AcDbLine
 10
0.0
 20
0.0
 30
0.0
 11
-1.0
 21
0.0
 31
0.0
  0
ARC
  5
84
100
AcDbEntity
  8
0
  6
CONTINUOUS
 62
     0
100
AcDbCircle
 10
0.542115
 20
0.164992
 30
0.0
 40
0.56667
100
AcDbArc
 50
73.07249
 51
196.927513
  0
ARC
  5
85
100
AcDbEntity
  8
0
  6
CONTINUOUS
 62
     0
100
AcDbCircle
 10
-0.542115
 20
-0.164992
 30
0.0
 40
0.56667
100
AcDbArc
 50
253.072487
 51
16.927513
  0
ENDBLK
  5
86
100
AcDbEntity
  8
0
100
AcDbBlockEnd
  0
BLOCK
  5
87
100
AcDbEntity
  8
0
100
AcDbBlockBegin
  2
NC510LSK
 70
     0
 10
0.0
 20
0.0
 30
0.0
  3
NC510LSK
  1

  0
POINT
  5
88
100
AcDbEntity
  8
0
  6
CONTINUOUS
 62
     7
100
AcDbPoint
 10
0.0
 20
0.0
 30
0.0
  0
ENDBLK
  5
89
100
AcDbEntity
  8
0
100
AcDbBlockEnd
  0
BLOCK
  5
8B
100
AcDbEntity
  8
0
100
AcDbBlockBegin
  2
*D15
 70
    65
 10
0.0
 20
0.0
 30
0.0
  3
*D15
  1

  0
LINE
  5
8C
100
AcDbEntity
  8
スト－ル
  6
CONTINUOUS
 62
     3
100
AcDbLine
 10
523.0
 20
2465.094522
 30
0.0
 11
523.0
 21
2533.338806
 31
0.0
  0
LINE
  5
8D
100
AcDbEntity
  8
スト－ル
  6
CONTINUOUS
 62
     3
100
AcDbLine
 10
883.0
 20
2465.094522
 30
0.0
 11
883.0
 21
2533.338806
 31
0.0
  0
TEXT
  5
8E
100
AcDbEntity
  8
スト－ル
  6
CONTINUOUS
 62
     2
100
AcDbText
 10
653.02
 20
2516.838806
 30
0.0
 40
40.0
  1
360
 41
0.945
  7
EXCADSTD
 72
     1
 11
703.0
 21
2516.838806
 31
0.0
100
AcDbText
  0
LINE
  5
8F
100
AcDbEntity
  8
スト－ル
  6
CONTINUOUS
 62
     3
100
AcDbLine
 10
523.0
 20
2513.338806
 30
0.0
 11
883.0
 21
2513.338806
 31
0.0
  0
LINE
  5
90
100
AcDbEntity
  8
スト－ル
  6
CONTINUOUS
 62
     3
100
AcDbLine
 10
558.0
 20
2519.17214
 30
0.0
 11
523.0
 21
2513.338806
 31
0.0
  0
LINE
  5
91
100
AcDbEntity
  8
スト－ル
  6
CONTINUOUS
 62
     3
100
AcDbLine
 10
523.0
 20
2513.338806
 30
0.0
 11
558.0
 21
2507.505473
 31
0.0
  0
LINE
  5
92
100
AcDbEntity
  8
スト－ル
  6
CONTINUOUS
 62
     3
100
AcDbLine
 10
848.0
 20
2507.505473
 30
0.0
 11
883.0
 21
2513.338806
 31
0.0
  0
LINE
  5
93
100
AcDbEntity
  8
スト－ル
  6
CONTINUOUS
 62
     3
100
AcDbLine
 10
883.0
 20
2513.338806
 30
0.0
 11
848.0
 21
2519.17214
 31
0.0
  0
ENDBLK
  5
94
100
AcDbEntity
  8
0
100
AcDbBlockEnd
  0
BLOCK
  5
98
100
AcDbEntity
  8
0
100
AcDbBlockBegin
  2
*D16
 70
    65
 10
0.0
 20
0.0
 30
0.0
  3
*D16
  1

  0
LINE
  5
99
100
AcDbEntity
  8
スト－ル
  6
CONTINUOUS
 62
     3
100
AcDbLine
 10
904.999847
 20
2420.0
 30
0.0
 11
984.08374
 21
2420.0
 31
0.0
  0
LINE
  5
9A
100
AcDbEntity
  8
スト－ル
  6
CONTINUOUS
 62
     3
100
AcDbLine
 10
710.0
 20
2145.0
 30
0.0
 11
984.08374
 21
2145.0
 31
0.0
  0
TEXT
  5
9B
100
AcDbEntity
  8
スト－ル
  6
CONTINUOUS
 62
     2
100
AcDbText
 10
960.58374
 20
2232.52
 30
0.0
 40
40.0
  1
275
 50
90.0
 41
0.945
  7
EXCADSTD
 72
     1
 11
960.58374
 21
2282.5
 31
0.0
100
AcDbText
  0
LINE
  5
9C
100
AcDbEntity
  8
スト－ル
  6
CONTINUOUS
 62
     3
100
AcDbLine
 10
964.08374
 20
2420.0
 30
0.0
 11
964.08374
 21
2145.0
 31
0.0
  0
LINE
  5
9D
100
AcDbEntity
  8
スト－ル
  6
CONTINUOUS
 62
     3
100
AcDbLine
 10
969.917074
 20
2385.0
 30
0.0
 11
964.08374
 21
2420.0
 31
0.0
  0
LINE
  5
9E
100
AcDbEntity
  8
スト－ル
  6
CONTINUOUS
 62
     3
100
AcDbLine
 10
964.08374
 20
2420.0
 30
0.0
 11
958.250407
 21
2385.0
 31
0.0
  0
LINE
  5
9F
100
AcDbEntity
  8
スト－ル
  6
CONTINUOUS
 62
     3
100
AcDbLine
 10
958.250407
 20
2180.0
 30
0.0
 11
964.08374
 21
2145.0
 31
0.0
  0
LINE
  5
A0
100
AcDbEntity
  8
スト－ル
  6
CONTINUOUS
 62
     3
100
AcDbLine
 10
964.08374
 20
2145.0
 30
0.0
 11
969.917074
 21
2180.0
 31
0.0
  0
ENDBLK
  5
A1
100
AcDbEntity
  8
0
100
AcDbBlockEnd
  0
BLOCK
  5
A4
100
AcDbEntity
  8
0
100
AcDbBlockBegin
  2
*D17
 70
    65
 10
0.0
 20
0.0
 30
0.0
  3
*D17
  1

  0
LINE
  5
A5
100
AcDbEntity
  8
スト－ル
  6
CONTINUOUS
 62
     3
100
AcDbLine
 10
535.620392
 20
2394.654663
 30
0.0
 11
535.620392
 21
2038.338806
 31
0.0
  0
LINE
  5
A6
100
AcDbEntity
  8
スト－ル
  6
CONTINUOUS
 62
     3
100
AcDbLine
 10
870.47999
 20
2395.675272
 30
0.0
 11
870.47999
 21
2038.338806
 31
0.0
  0
TEXT
  5
A7
100
AcDbEntity
  8
スト－ル
  6
CONTINUOUS
 62
     2
100
AcDbText
 10
653.070191
 20
2061.838806
 30
0.0
 40
40.0
  1
335
 41
0.945
  7
EXCADSTD
 72
     1
 11
703.050191
 21
2061.838806
 31
0.0
100
AcDbText
  0
LINE
  5
A8
100
AcDbEntity
  8
スト－ル
  6
CONTINUOUS
 62
     3
100
AcDbLine
 10
535.620392
 20
2058.338806
 30
0.0
 11
870.47999
 21
2058.338806
 31
0.0
  0
LINE
  5
A9
100
AcDbEntity
  8
スト－ル
  6
CONTINUOUS
 62
     3
100
AcDbLine
 10
570.620392
 20
2064.17214
 30
0.0
 11
535.620392
 21
2058.338806
 31
0.0
  0
LINE
  5
AA
100
AcDbEntity
  8
スト－ル
  6
CONTINUOUS
 62
     3
100
AcDbLine
 10
535.620392
 20
2058.338806
 30
0.0
 11
570.620392
 21
2052.505473
 31
0.0
  0
LINE
  5
AB
100
AcDbEntity
  8
スト－ル
  6
CONTINUOUS
 62
     3
100
AcDbLine
 10
835.47999
 20
2052.505473
 30
0.0
 11
870.47999
 21
2058.338806
 31
0.0
  0
LINE
  5
AC
100
AcDbEntity
  8
スト－ル
  6
CONTINUOUS
 62
     3
100
AcDbLine
 10
870.47999
 20
2058.338806
 30
0.0
 11
835.47999
 21
2064.17214
 31
0.0
  0
ENDBLK
  5
AD
100
AcDbEntity
  8
0
100
AcDbBlockEnd
  0
BLOCK
  5
B0
100
AcDbEntity
  8
0
100
AcDbBlockBegin
  2
*D18
 70
    65
 10
0.0
 20
0.0
 30
0.0
  3
*D18
  1

  0
LINE
  5
B1
100
AcDbEntity
  8
スト－ル
  6
CONTINUOUS
 62
     3
100
AcDbLine
 10
541.0
 20
1192.000122
 30
0.0
 11
428.08374
 21
1192.000122
 31
0.0
  0
LINE
  5
B2
100
AcDbEntity
  8
スト－ル
  6
CONTINUOUS
 62
     3
100
AcDbLine
 10
541.0
 20
1230.0
 30
0.0
 11
428.08374
 21
1230.0
 31
0.0
  0
TEXT
  5
B3
100
AcDbEntity
  8
スト－ル
  6
CONTINUOUS
 62
     2
100
AcDbText
 10
444.58374
 20
1269.060061
 30
0.0
 40
40.0
  1
38
 50
90.0
 41
0.945
  7
EXCADSTD
 72
     1
 11
444.58374
 21
1303.500061
 31
0.0
100
AcDbText
  0
LINE
  5
B4
100
AcDbEntity
  8
スト－ル
  6
CONTINUOUS
 62
     3
100
AcDbLine
 10
448.08374
 20
1147.000122
 30
0.0
 11
448.08374
 21
1338.000002
 31
0.0
  0
LINE
  5
B5
100
AcDbEntity
  8
スト－ル
  6
CONTINUOUS
 62
     3
100
AcDbLine
 10
453.917074
 20
1157.000122
 30
0.0
 11
448.08374
 21
1192.000122
 31
0.0
  0
LINE
  5
B6
100
AcDbEntity
  8
スト－ル
  6
CONTINUOUS
 62
     3
100
AcDbLine
 10
448.08374
 20
1192.000122
 30
0.0
 11
442.250407
 21
1157.000122
 31
0.0
  0
LINE
  5
B7
100
AcDbEntity
  8
スト－ル
  6
CONTINUOUS
 62
     3
100
AcDbLine
 10
442.250407
 20
1265.0
 30
0.0
 11
448.08374
 21
1230.0
 31
0.0
  0
LINE
  5
B8
100
AcDbEntity
  8
スト－ル
  6
CONTINUOUS
 62
     3
100
AcDbLine
 10
448.08374
 20
1230.0
 30
0.0
 11
453.917074
 21
1265.0
 31
0.0
  0
ENDBLK
  5
B9
100
AcDbEntity
  8
0
100
AcDbBlockEnd
  0
BLOCK
  5
BC
100
AcDbEntity
  8
0
100
AcDbBlockBegin
  2
*D19
 70
    65
 10
0.0
 20
0.0
 30
0.0
  3
*D19
  1

  0
LINE
  5
BD
100
AcDbEntity
  8
スト－ル
  6
CONTINUOUS
 62
     3
100
AcDbLine
 10
724.534454
 20
1445.000076
 30
0.0
 11
1064.08374
 21
1445.000076
 31
0.0
  0
LINE
  5
BE
100
AcDbEntity
  8
スト－ル
  6
CONTINUOUS
 62
     3
100
AcDbLine
 10
727.000001
 20
965.0
 30
0.0
 11
984.08374
 21
965.0
 31
0.0
  0
TEXT
  5
BF
100
AcDbEntity
  8
スト－ル
  6
CONTINUOUS
 62
     2
100
AcDbText
 10
960.58374
 20
1155.020038
 30
0.0
 40
40.0
  1
480
 50
90.0
 41
0.945
  7
EXCADSTD
 72
     1
 11
960.58374
 21
1205.000038
 31
0.0
100
AcDbText
  0
LINE
  5
C0
100
AcDbEntity
  8
スト－ル
  6
CONTINUOUS
 62
     3
100
AcDbLine
 10
964.08374
 20
1445.000076
 30
0.0
 11
964.08374
 21
965.0
 31
0.0
  0
LINE
  5
C1
100
AcDbEntity
  8
スト－ル
  6
CONTINUOUS
 62
     3
100
AcDbLine
 10
969.917074
 20
1410.000076
 30
0.0
 11
964.08374
 21
1445.000076
 31
0.0
  0
LINE
  5
C2
100
AcDbEntity
  8
スト－ル
  6
CONTINUOUS
 62
     3
100
AcDbLine
 10
964.08374
 20
1445.000076
 30
0.0
 11
958.250407
 21
1410.000076
 31
0.0
  0
LINE
  5
C3
100
AcDbEntity
  8
スト－ル
  6
CONTINUOUS
 62
     3
100
AcDbLine
 10
958.250407
 20
1000.0
 30
0.0
 11
964.08374
 21
965.0
 31
0.0
  0
LINE
  5
C4
100
AcDbEntity
  8
スト－ル
  6
CONTINUOUS
 62
     3
100
AcDbLine
 10
964.08374
 20
965.0
 30
0.0
 11
969.917074
 21
1000.0
 31
0.0
  0
ENDBLK
  5
C5
100
AcDbEntity
  8
0
100
AcDbBlockEnd
  0
BLOCK
  5
C8
100
AcDbEntity
  8
0
100
AcDbBlockBegin
  2
*D20
 70
    65
 10
0.0
 20
0.0
 30
0.0
  3
*D20
  1

  0
LINE
  5
C9
100
AcDbEntity
  8
スト－ル
  6
CONTINUOUS
 62
     3
100
AcDbLine
 10
1744.276093
 20
1445.000153
 30
0.0
 11
1442.810425
 21
1445.000153
 31
0.0
  0
LINE
  5
CA
100
AcDbEntity
  8
スト－ル
  6
CONTINUOUS
 62
     3
100
AcDbLine
 10
1528.102469
 20
1119.460678
 30
0.0
 11
1442.810425
 21
1119.460678
 31
0.0
  0
TEXT
  5
CB
100
AcDbEntity
  8
スト－ル
  6
CONTINUOUS
 62
     2
100
AcDbText
 10
1459.310425
 20
1232.250415
 30
0.0
 40
40.0
  1
325
 50
90.0
 41
0.945
  7
EXCADSTD
 72
     1
 11
1459.310425
 21
1282.230415
 31
0.0
100
AcDbText
  0
LINE
  5
CC
100
AcDbEntity
  8
スト－ル
  6
CONTINUOUS
 62
     3
100
AcDbLine
 10
1462.810425
 20
1445.000153
 30
0.0
 11
1462.810425
 21
1119.460678
 31
0.0
  0
LINE
  5
CD
100
AcDbEntity
  8
スト－ル
  6
CONTINUOUS
 62
     3
100
AcDbLine
 10
1468.643758
 20
1410.000153
 30
0.0
 11
1462.810425
 21
1445.000153
 31
0.0
  0
LINE
  5
CE
100
AcDbEntity
  8
スト－ル
  6
CONTINUOUS
 62
     3
100
AcDbLine
 10
1462.810425
 20
1445.000153
 30
0.0
 11
1456.977092
 21
1410.000153
 31
0.0
  0
LINE
  5
CF
100
AcDbEntity
  8
スト－ル
  6
CONTINUOUS
 62
     3
100
AcDbLine
 10
1456.977092
 20
1154.460678
 30
0.0
 11
1462.810425
 21
1119.460678
 31
0.0
  0
LINE
  5
D0
100
AcDbEntity
  8
スト－ル
  6
CONTINUOUS
 62
     3
100
AcDbLine
 10
1462.810425
 20
1119.460678
 30
0.0
 11
1468.643758
 21
1154.460678
 31
0.0
  0
ENDBLK
  5
D1
100
AcDbEntity
  8
0
100
AcDbBlockEnd
  0
BLOCK
  5
D4
100
AcDbEntity
  8
0
100
AcDbBlockBegin
  2
*D21
 70
    65
 10
0.0
 20
0.0
 30
0.0
  3
*D21
  1

  0
TEXT
  5
D5
100
AcDbEntity
  8
スト－ル
  6
CONTINUOUS
 62
     2
100
AcDbText
 10
1842.370394
 20
1695.5
 30
0.0
 40
40.0
  1
35
 41
0.945
  7
EXCADSTD
 72
     1
 11
1876.810394
 21
1695.5
 31
0.0
100
AcDbText
  0
LINE
  5
D6
100
AcDbEntity
  8
スト－ル
  6
CONTINUOUS
 62
     3
100
AcDbLine
 10
1720.810089
 20
1692.0
 30
0.0
 11
1908.81012
 21
1692.0
 31
0.0
  0
LINE
  5
D7
100
AcDbEntity
  8
スト－ル
  6
CONTINUOUS
 62
     3
100
AcDbLine
 10
1730.810089
 20
1686.166667
 30
0.0
 11
1765.810089
 21
1692.0
 31
0.0
  0
LINE
  5
D8
100
AcDbEntity
  8
スト－ル
  6
CONTINUOUS
 62
     3
100
AcDbLine
 10
1765.810089
 20
1692.0
 30
0.0
 11
1730.810089
 21
1697.833333
 31
0.0
  0
LINE
  5
D9
100
AcDbEntity
  8
スト－ル
  6
CONTINUOUS
 62
     3
100
AcDbLine
 10
1835.810394
 20
1697.833333
 30
0.0
 11
1800.810394
 21
1692.0
 31
0.0
  0
LINE
  5
DA
100
AcDbEntity
  8
スト－ル
  6
CONTINUOUS
 62
     3
100
AcDbLine
 10
1800.810394
 20
1692.0
 30
0.0
 11
1835.810394
 21
1686.166667
 31
0.0
  0
LINE
  5
DB
100
AcDbEntity
  8
スト－ル
  6
CONTINUOUS
 62
     3
100
AcDbLine
 10
1765.810394
 20
1444.0
 30
0.0
 11
1765.810394
 21
1712.0
 31
0.0
  0
ENDBLK
  5
DC
100
AcDbEntity
  8
0
100
AcDbBlockEnd
  0
BLOCK
  5
F2
100
AcDbEntity
  8
0
100
AcDbBlockBegin
  2
*D22
 70
    65
 10
0.0
 20
0.0
 30
0.0
  3
*D22
  1

  0
LINE
  5
F3
100
AcDbEntity
  8
寸法
  6
CONTINUOUS
 62
     3
100
AcDbLine
 10
1462.810425
 20
1119.460678
 30
0.0
 11
1462.810425
 21
590.0
 31
0.0
  0
LINE
  5
F4
100
AcDbEntity
  8
寸法
  6
CONTINUOUS
 62
     3
100
AcDbLine
 10
1468.643758
 20
1084.460678
 30
0.0
 11
1462.810425
 21
1119.460678
 31
0.0
  0
LINE
  5
F5
100
AcDbEntity
  8
寸法
  6
CONTINUOUS
 62
     3
100
AcDbLine
 10
1462.810425
 20
1119.460678
 30
0.0
 11
1456.977092
 21
1084.460678
 31
0.0
  0
LINE
  5
F6
100
AcDbEntity
  8
寸法
  6
CONTINUOUS
 62
     3
100
AcDbLine
 10
1456.977092
 20
625.0
 30
0.0
 11
1462.810425
 21
590.0
 31
0.0
  0
LINE
  5
F7
100
AcDbEntity
  8
寸法
  6
CONTINUOUS
 62
     3
100
AcDbLine
 10
1462.810425
 20
590.0
 30
0.0
 11
1468.643758
 21
625.0
 31
0.0
  0
TEXT
  5
F8
100
AcDbEntity
  8
寸法
  6
CONTINUOUS
 62
     2
100
AcDbText
 10
1459.310425
 20
804.750339
 30
0.0
 40
40.0
  1
530
 50
90.0
 41
0.945
  7
EXCADSTD
 72
     1
 11
1459.310425
 21
854.730339
 31
0.0
100
AcDbText
  0
ENDBLK
  5
F9
100
AcDbEntity
  8
0
100
AcDbBlockEnd
  0
BLOCK
  5
FC
100
AcDbEntity
  8
0
100
AcDbBlockBegin
  2
*D23
 70
    65
 10
0.0
 20
0.0
 30
0.0
  3
*D23
  1

  0
LINE
  5
FD
100
AcDbEntity
  8
寸法
  6
CONTINUOUS
 62
     3
100
AcDbLine
 10
603.0
 20
1000.0
 30
0.0
 11
603.0
 21
550.0
 31
0.0
  0
LINE
  5
FE
100
AcDbEntity
  8
寸法
  6
CONTINUOUS
 62
     3
100
AcDbLine
 10
608.833333
 20
965.0
 30
0.0
 11
603.0
 21
1000.0
 31
0.0
  0
LINE
  5
FF
100
AcDbEntity
  8
寸法
  6
CONTINUOUS
 62
     3
100
AcDbLine
 10
603.0
 20
1000.0
 30
0.0
 11
597.166667
 21
965.0
 31
0.0
  0
LINE
  5
100
100
AcDbEntity
  8
寸法
  6
CONTINUOUS
 62
     3
100
AcDbLine
 10
597.166667
 20
585.0
 30
0.0
 11
603.0
 21
550.0
 31
0.0
  0
LINE
  5
101
100
AcDbEntity
  8
寸法
  6
CONTINUOUS
 62
     3
100
AcDbLine
 10
603.0
 20
550.0
 30
0.0
 11
608.833333
 21
585.0
 31
0.0
  0
TEXT
  5
102
100
AcDbEntity
  8
寸法
  6
CONTINUOUS
 62
     2
100
AcDbText
 10
599.5
 20
725.02
 30
0.0
 40
40.0
  1
450
 50
90.0
 41
0.945
  7
EXCADSTD
 72
     1
 11
599.5
 21
775.0
 31
0.0
100
AcDbText
  0
LINE
  5
103
100
AcDbEntity
  8
寸法
  6
CONTINUOUS
 62
     3
100
AcDbLine
 10
661.0
 20
1000.0
 30
0.0
 11
583.0
 21
1000.0
 31
0.0
  0
LINE
  5
104
100
AcDbEntity
  8
寸法
  6
CONTINUOUS
 62
     3
100
AcDbLine
 10
674.5
 20
550.0
 30
0.0
 11
583.0
 21
550.0
 31
0.0
  0
ENDBLK
  5
105
100
AcDbEntity
  8
0
100
AcDbBlockEnd
  0
BLOCK
  5
108
100
AcDbEntity
  8
0
100
AcDbBlockBegin
  2
*D24
 70
    65
 10
0.0
 20
0.0
 30
0.0
  3
*D24
  1

  0
LINE
  5
109
100
AcDbEntity
  8
寸法
  6
CONTINUOUS
 62
     3
100
AcDbLine
 10
1800.810394
 20
583.0
 30
0.0
 11
1800.810394
 21
487.0
 31
0.0
  0
TEXT
  5
10A
100
AcDbEntity
  8
寸法
  6
CONTINUOUS
 62
     2
100
AcDbText
 10
1842.370394
 20
510.5
 30
0.0
 40
40.0
  1
55
 41
0.945
  7
EXCADSTD
 72
     1
 11
1876.810394
 21
510.5
 31
0.0
100
AcDbText
  0
LINE
  5
10B
100
AcDbEntity
  8
寸法
  6
CONTINUOUS
 62
     3
100
AcDbLine
 10
1700.810394
 20
507.0
 30
0.0
 11
1921.310396
 21
507.0
 31
0.0
  0
LINE
  5
10C
100
AcDbEntity
  8
寸法
  6
CONTINUOUS
 62
     3
100
AcDbLine
 10
1710.810394
 20
501.166667
 30
0.0
 11
1745.810394
 21
507.0
 31
0.0
  0
LINE
  5
10D
100
AcDbEntity
  8
寸法
  6
CONTINUOUS
 62
     3
100
AcDbLine
 10
1745.810394
 20
507.0
 30
0.0
 11
1710.810394
 21
512.833333
 31
0.0
  0
LINE
  5
10E
100
AcDbEntity
  8
寸法
  6
CONTINUOUS
 62
     3
100
AcDbLine
 10
1835.810394
 20
512.833333
 30
0.0
 11
1800.810394
 21
507.0
 31
0.0
  0
LINE
  5
10F
100
AcDbEntity
  8
寸法
  6
CONTINUOUS
 62
     3
100
AcDbLine
 10
1800.810394
 20
507.0
 30
0.0
 11
1835.810394
 21
501.166667
 31
0.0
  0
ENDBLK
  5
111
100
AcDbEntity
  8
0
100
AcDbBlockEnd
  0
BLOCK
  5
114
100
AcDbEntity
  8
0
100
AcDbBlockBegin
  2
*D25
 70
    65
 10
0.0
 20
0.0
 30
0.0
  3
*D25
  1

  0
TEXT
  5
115
100
AcDbEntity
  8
寸法
  6
CONTINUOUS
 62
     2
100
AcDbText
 10
960.58374
 20
1445.020076
 30
0.0
 40
40.0
  1
100
 50
90.0
 41
0.945
  7
EXCADSTD
 72
     1
 11
960.58374
 21
1495.000076
 31
0.0
100
AcDbText
  0
LINE
  5
116
100
AcDbEntity
  8
寸法
  6
CONTINUOUS
 62
     3
100
AcDbLine
 10
964.08374
 20
1445.000076
 30
0.0
 11
964.08374
 21
1545.000076
 31
0.0
  0
LINE
  5
117
100
AcDbEntity
  8
寸法
  6
CONTINUOUS
 62
     3
100
AcDbLine
 10
958.250407
 20
1480.000076
 30
0.0
 11
964.08374
 21
1445.000076
 31
0.0
  0
LINE
  5
118
100
AcDbEntity
  8
寸法
  6
CONTINUOUS
 62
     3
100
AcDbLine
 10
964.08374
 20
1445.000076
 30
0.0
 11
969.917074
 21
1480.000076
 31
0.0
  0
LINE
  5
119
100
AcDbEntity
  8
寸法
  6
CONTINUOUS
 62
     3
100
AcDbLine
 10
969.917074
 20
1510.000076
 30
0.0
 11
964.08374
 21
1545.000076
 31
0.0
  0
LINE
  5
11A
100
AcDbEntity
  8
寸法
  6
CONTINUOUS
 62
     3
100
AcDbLine
 10
964.08374
 20
1545.000076
 30
0.0
 11
958.250407
 21
1510.000076
 31
0.0
  0
ENDBLK
  5
11B
100
AcDbEntity
  8
0
100
AcDbBlockEnd
  0
BLOCK
  5
120
100
AcDbEntity
  8
0
100
AcDbBlockBegin
  2
*D26
 70
    65
 10
0.0
 20
0.0
 30
0.0
  3
*D26
  1

  0
TEXT
  5
121
100
AcDbEntity
  8
寸法
  6
CONTINUOUS
 62
     2
100
AcDbText
 10
766.06
 20
508.5
 30
0.0
 40
40.0
  1
43
 41
0.945
  7
EXCADSTD
 72
     1
 11
800.5
 21
508.5
 31
0.0
100
AcDbText
  0
LINE
  5
122
100
AcDbEntity
  8
寸法
  6
CONTINUOUS
 62
     3
100
AcDbLine
 10
636.5
 20
505.0
 30
0.0
 11
845.000002
 21
505.0
 31
0.0
  0
LINE
  5
123
100
AcDbEntity
  8
寸法
  6
CONTINUOUS
 62
     3
100
AcDbLine
 10
646.5
 20
499.166667
 30
0.0
 11
681.5
 21
505.0
 31
0.0
  0
LINE
  5
124
100
AcDbEntity
  8
寸法
  6
CONTINUOUS
 62
     3
100
AcDbLine
 10
681.5
 20
505.0
 30
0.0
 11
646.5
 21
510.833333
 31
0.0
  0
LINE
  5
125
100
AcDbEntity
  8
寸法
  6
CONTINUOUS
 62
     3
100
AcDbLine
 10
759.5
 20
510.833333
 30
0.0
 11
724.5
 21
505.0
 31
0.0
  0
LINE
  5
126
100
AcDbEntity
  8
寸法
  6
CONTINUOUS
 62
     3
100
AcDbLine
 10
724.5
 20
505.0
 30
0.0
 11
759.5
 21
499.166667
 31
0.0
  0
LINE
  5
127
100
AcDbEntity
  8
寸法
  6
CONTINUOUS
 62
     3
100
AcDbLine
 10
681.5
 20
542.474182
 30
0.0
 11
681.5
 21
485.0
 31
0.0
  0
LINE
  5
128
100
AcDbEntity
  8
寸法
  6
CONTINUOUS
 62
     3
100
AcDbLine
 10
724.5
 20
542.474182
 30
0.0
 11
724.5
 21
485.0
 31
0.0
  0
ENDBLK
  5
129
100
AcDbEntity
  8
0
100
AcDbBlockEnd
  0
BLOCK
  5
12C
100
AcDbEntity
  8
0
100
AcDbBlockBegin
  2
*D27
 70
    65
 10
0.0
 20
0.0
 30
0.0
  3
*D27
  1

  0
TEXT
  5
12D
100
AcDbEntity
  8
寸法
  6
CONTINUOUS
 62
     2
100
AcDbText
 10
444.58374
 20
841.020061
 30
0.0
 40
40.0
  1
602
 50
90.0
 41
0.945
  7
EXCADSTD
 72
     1
 11
444.58374
 21
891.000061
 31
0.0
100
AcDbText
  0
LINE
  5
12E
100
AcDbEntity
  8
寸法
  6
CONTINUOUS
 62
     3
100
AcDbLine
 10
448.08374
 20
1192.000122
 30
0.0
 11
448.08374
 21
590.0
 31
0.0
  0
LINE
  5
12F
100
AcDbEntity
  8
寸法
  6
CONTINUOUS
 62
     3
100
AcDbLine
 10
453.917074
 20
1157.000122
 30
0.0
 11
448.08374
 21
1192.000122
 31
0.0
  0
LINE
  5
130
100
AcDbEntity
  8
寸法
  6
CONTINUOUS
 62
     3
100
AcDbLine
 10
448.08374
 20
1192.000122
 30
0.0
 11
442.250407
 21
1157.000122
 31
0.0
  0
LINE
  5
131
100
AcDbEntity
  8
寸法
  6
CONTINUOUS
 62
     3
100
AcDbLine
 10
442.250407
 20
625.0
 30
0.0
 11
448.08374
 21
590.0
 31
0.0
  0
LINE
  5
132
100
AcDbEntity
  8
寸法
  6
CONTINUOUS
 62
     3
100
AcDbLine
 10
448.08374
 20
590.0
 30
0.0
 11
453.917074
 21
625.0
 31
0.0
  0
ENDBLK
  5
133
100
AcDbEntity
  8
0
100
AcDbBlockEnd
  0
BLOCK
  5
136
100
AcDbEntity
  8
0
100
AcDbBlockBegin
  2
*D28
 70
    65
 10
0.0
 20
0.0
 30
0.0
  3
*D28
  1

  0
LINE
  5
137
100
AcDbEntity
  8
寸法
  6
CONTINUOUS
 62
     3
100
AcDbLine
 10
884.08374
 20
1044.474182
 30
0.0
 11
884.08374
 21
844.499998
 31
0.0
  0
LINE
  5
138
100
AcDbEntity
  8
寸法
  6
CONTINUOUS
 62
     3
100
AcDbLine
 10
878.250407
 20
1034.474182
 30
0.0
 11
884.08374
 21
999.474182
 31
0.0
  0
LINE
  5
139
100
AcDbEntity
  8
寸法
  6
CONTINUOUS
 62
     3
100
AcDbLine
 10
884.08374
 20
999.474182
 30
0.0
 11
889.917074
 21
1034.474182
 31
0.0
  0
LINE
  5
13A
100
AcDbEntity
  8
寸法
  6
CONTINUOUS
 62
     3
100
AcDbLine
 10
889.917074
 20
930.0
 30
0.0
 11
884.08374
 21
965.0
 31
0.0
  0
LINE
  5
13B
100
AcDbEntity
  8
寸法
  6
CONTINUOUS
 62
     3
100
AcDbLine
 10
884.08374
 20
965.0
 30
0.0
 11
878.250407
 21
930.0
 31
0.0
  0
LINE
  5
13C
100
AcDbEntity
  8
寸法
  6
CONTINUOUS
 62
     3
100
AcDbLine
 10
750.0
 20
999.474182
 30
0.0
 11
904.08374
 21
999.474182
 31
0.0
  0
LINE
  5
13D
100
AcDbEntity
  8
寸法
  6
CONTINUOUS
 62
     3
100
AcDbLine
 10
752.5
 20
965.0
 30
0.0
 11
904.08374
 21
965.0
 31
0.0
  0
TEXT
  5
13E
100
AcDbEntity
  8
寸法
  6
CONTINUOUS
 62
     2
100
AcDbText
 10
880.58374
 20
854.56
 30
0.0
 40
40.0
  1
35
 50
90.0
 41
0.945
  7
EXCADSTD
 72
     1
 11
880.58374
 21
889.0
 31
0.0
100
AcDbText
  0
ENDBLK
  5
13F
100
AcDbEntity
  8
0
100
AcDbBlockEnd
  0
BLOCK
  5
142
100
AcDbEntity
  8
0
100
AcDbBlockBegin
  2
*D29
 70
    65
 10
0.0
 20
0.0
 30
0.0
  3
*D29
  1

  0
LINE
  5
143
100
AcDbEntity
  8
寸法
  6
CONTINUOUS
 62
     3
100
AcDbLine
 10
508.0
 20
2573.338806
 30
0.0
 11
897.999847
 21
2573.338806
 31
0.0
  0
LINE
  5
144
100
AcDbEntity
  8
寸法
  6
CONTINUOUS
 62
     3
100
AcDbLine
 10
543.0
 20
2579.17214
 30
0.0
 11
508.0
 21
2573.338806
 31
0.0
  0
LINE
  5
145
100
AcDbEntity
  8
寸法
  6
CONTINUOUS
 62
     3
100
AcDbLine
 10
508.0
 20
2573.338806
 30
0.0
 11
543.0
 21
2567.505473
 31
0.0
  0
LINE
  5
146
100
AcDbEntity
  8
寸法
  6
CONTINUOUS
 62
     3
100
AcDbLine
 10
862.999847
 20
2567.505473
 30
0.0
 11
897.999847
 21
2573.338806
 31
0.0
  0
LINE
  5
147
100
AcDbEntity
  8
寸法
  6
CONTINUOUS
 62
     3
100
AcDbLine
 10
897.999847
 20
2573.338806
 30
0.0
 11
862.999847
 21
2579.17214
 31
0.0
  0
TEXT
  5
148
100
AcDbEntity
  8
寸法
  6
CONTINUOUS
 62
     2
100
AcDbText
 10
653.019924
 20
2576.838806
 30
0.0
 40
40.0
  1
390
 41
0.945
  7
EXCADSTD
 72
     1
 11
702.999924
 21
2576.838806
 31
0.0
100
AcDbText
  0
LINE
  5
149
100
AcDbEntity
  8
寸法
  6
CONTINUOUS
 62
     3
100
AcDbLine
 10
508.0
 20
2427.0
 30
0.0
 11
508.0
 21
2593.338806
 31
0.0
  0
LINE
  5
14A
100
AcDbEntity
  8
寸法
  6
CONTINUOUS
 62
     3
100
AcDbLine
 10
897.999847
 20
2427.0
 30
0.0
 11
897.999847
 21
2593.338806
 31
0.0
  0
ENDBLK
  5
14B
100
AcDbEntity
  8
0
100
AcDbBlockEnd
  0
ENDSEC
  0
SECTION
  2
ENTITIES
  0
DIMENSION
  5
96
100
AcDbEntity
  8
スト－ル
  6
CONTINUOUS
 62
     3
100
AcDbDimension
  2
*D15
 10
883.0
 20
2513.338806
 30
0.0
 11
703.0
 21
2536.838806
 31
0.0
 70
   160
  1
360
  3
STANDARD
100
AcDbAlignedDimension
 13
523.0
 23
2458.094522
 33
0.0
 14
883.0
 24
2458.094522
 34
0.0
100
AcDbRotatedDimension
1001
ACAD
1000
DSTYLE
1002
{
1070
     6
1000
_EX_NORM
1070
     7
1000
_EX_NORM
1070
    41
1040
35.0
1070
    42
1040
7.0
1070
    44
1040
20.0
1070
    73
1070
     0
1070
    74
1070
     0
1070
    75
1070
     0
1070
    76
1070
     0
1070
    77
1070
     1
1070
    78
1070
     0
1070
   140
1040
40.0
1070
   147
1040
3.5
1070
   173
1070
     1
1070
   176
1070
     3
1070
   177
1070
     3
1070
   178
1070
     2
1070
   271
1070
     0
1070
   279
1070
     2
1070
   280
1070
     0
1070
   287
1070
     5
1070
   340
1005
95
1002
}
  0
DIMENSION
  5
A2
100
AcDbEntity
  8
スト－ル
  6
CONTINUOUS
 62
     3
100
AcDbDimension
  2
*D16
 10
964.08374
 20
2145.0
 30
0.0
 11
940.58374
 21
2282.5
 31
0.0
 70
   160
  1
275
  3
STANDARD
100
AcDbAlignedDimension
 13
897.999847
 23
2420.0
 33
0.0
 14
703.0
 24
2145.0
 34
0.0
 50
90.0
100
AcDbRotatedDimension
1001
ACAD
1000
DSTYLE
1002
{
1070
     6
1000
_EX_NORM
1070
     7
1000
_EX_NORM
1070
    41
1040
35.0
1070
    42
1040
7.0
1070
    44
1040
20.0
1070
    73
1070
     0
1070
    74
1070
     0
1070
    75
1070
     0
1070
    76
1070
     0
1070
    77
1070
     1
1070
    78
1070
     0
1070
   140
1040
40.0
1070
   147
1040
3.5
1070
   173
1070
     1
1070
   176
1070
     3
1070
   177
1070
     3
1070
   178
1070
     2
1070
   271
1070
     0
1070
   279
1070
     2
1070
   280
1070
     0
1070
   287
1070
     5
1070
   340
1005
95
1002
}
  0
DIMENSION
  5
AE
100
AcDbEntity
  8
スト－ル
  6
CONTINUOUS
 62
     3
100
AcDbDimension
  2
*D17
 10
870.47999
 20
2058.338806
 30
0.0
 11
703.050191
 21
2081.838806
 31
0.0
 70
   160
  1
335
  3
STANDARD
100
AcDbAlignedDimension
 13
535.620392
 23
2401.654663
 33
0.0
 14
870.47999
 24
2402.675272
 34
0.0
100
AcDbRotatedDimension
1001
ACAD
1000
DSTYLE
1002
{
1070
     6
1000
_EX_NORM
1070
     7
1000
_EX_NORM
1070
    41
1040
35.0
1070
    42
1040
7.0
1070
    44
1040
20.0
1070
    73
1070
     0
1070
    74
1070
     0
1070
    75
1070
     0
1070
    76
1070
     0
1070
    77
1070
     1
1070
    78
1070
     0
1070
   140
1040
40.0
1070
   147
1040
3.5
1070
   173
1070
     1
1070
   176
1070
     3
1070
   177
1070
     3
1070
   178
1070
     2
1070
   271
1070
     0
1070
   279
1070
     2
1070
   280
1070
     0
1070
   287
1070
     5
1070
   340
1005
95
1002
}
  0
DIMENSION
  5
BA
100
AcDbEntity
  8
スト－ル
  6
CONTINUOUS
 62
     3
100
AcDbDimension
  2
*D18
 10
448.08374
 20
1230.0
 30
0.0
 11
424.58374
 21
1303.500061
 31
0.0
 70
   160
  1
38
  3
STANDARD
100
AcDbAlignedDimension
 13
523.0
 23
1192.000122
 33
0.0
 14
523.0
 24
1230.0
 34
0.0
 50
90.0
100
AcDbRotatedDimension
1001
ACAD
1000
DSTYLE
1002
{
1070
     6
1000
_EX_NORM
1070
     7
1000
_EX_NORM
1070
    41
1040
35.0
1070
    42
1040
0.0
1070
    44
1040
0.0
1070
    73
1070
     0
1070
    74
1070
     0
1070
    75
1070
     0
1070
    76
1070
     0
1070
    77
1070
     1
1070
    78
1070
     0
1070
   140
1040
40.0
1070
   147
1040
3.5
1070
   173
1070
     1
1070
   176
1070
     3
1070
   177
1070
     3
1070
   178
1070
     2
1070
   271
1070
     0
1070
   279
1070
     2
1070
   280
1070
     0
1070
   287
1070
     5
1070
   340
1005
95
1002
}
  0
DIMENSION
  5
C6
100
AcDbEntity
  8
スト－ル
  6
CONTINUOUS
 62
     3
100
AcDbDimension
  2
*D19
 10
964.08374
 20
965.0
 30
0.0
 11
940.58374
 21
1205.000038
 31
0.0
 70
   160
  1
480
  3
STANDARD
100
AcDbAlignedDimension
 13
717.534454
 23
1445.000076
 33
0.0
 14
715.98374
 24
965.0
 34
0.0
 50
90.0
100
AcDbRotatedDimension
1001
ACAD
1000
DSTYLE
1002
{
1070
     6
1000
_EX_NORM
1070
     7
1000
_EX_NORM
1070
    41
1040
35.0
1070
    42
1040
7.0
1070
    44
1040
100.0
1070
    73
1070
     0
1070
    74
1070
     0
1070
    75
1070
     0
1070
    76
1070
     0
1070
    77
1070
     1
1070
    78
1070
     0
1070
   140
1040
40.0
1070
   147
1040
3.5
1070
   173
1070
     1
1070
   176
1070
     3
1070
   177
1070
     3
1070
   178
1070
     2
1070
   271
1070
     0
1070
   279
1070
     2
1070
   280
1070
     0
1070
   287
1070
     5
1070
   340
1005
95
1002
}
  0
DIMENSION
  5
D2
100
AcDbEntity
  8
スト－ル
  6
CONTINUOUS
 62
     3
100
AcDbDimension
  2
*D20
 10
1462.810425
 20
1119.460678
 30
0.0
 11
1439.310425
 21
1282.230415
 31
0.0
 70
   160
  1
325
  3
STANDARD
100
AcDbAlignedDimension
 13
1751.276093
 23
1445.000153
 33
0.0
 14
1535.102469
 24
1119.460678
 34
0.0
 50
90.0
100
AcDbRotatedDimension
1001
ACAD
1000
DSTYLE
1002
{
1070
     6
1000
_EX_NORM
1070
     7
1000
_EX_NORM
1070
    41
1040
35.0
1070
    42
1040
7.0
1070
    44
1040
20.0
1070
    73
1070
     0
1070
    74
1070
     0
1070
    75
1070
     0
1070
    76
1070
     0
1070
    77
1070
     1
1070
    78
1070
     0
1070
   140
1040
40.0
1070
   147
1040
3.5
1070
   173
1070
     1
1070
   176
1070
     3
1070
   177
1070
     3
1070
   178
1070
     2
1070
   271
1070
     0
1070
   279
1070
     2
1070
   280
1070
     0
1070
   287
1070
     5
1070
   340
1005
95
1002
}
  0
DIMENSION
  5
DD
100
AcDbEntity
  8
スト－ル
  6
CONTINUOUS
 62
     3
100
AcDbDimension
  2
*D21
 10
1800.810394
 20
1692.0
 30
0.0
 11
1876.810394
 21
1715.5
 31
0.0
 70
   160
  1
35
  3
STANDARD
100
AcDbAlignedDimension
 13
1765.810089
 23
1545.038757
 33
0.0
 14
1800.810394
 24
1690.0
 34
0.0
100
AcDbRotatedDimension
1001
ACAD
1000
DSTYLE
1002
{
1070
     6
1000
_EX_NORM
1070
     7
1000
_EX_NORM
1070
    41
1040
35.0
1070
    42
1040
0.0
1070
    44
1040
0.0
1070
    73
1070
     0
1070
    74
1070
     0
1070
    75
1070
     0
1070
    76
1070
     1
1070
    77
1070
     1
1070
    78
1070
     0
1070
   140
1040
40.0
1070
   147
1040
3.5
1070
   173
1070
     1
1070
   176
1070
     3
1070
   177
1070
     3
1070
   178
1070
     2
1070
   271
1070
     0
1070
   279
1070
     2
1070
   280
1070
     0
1070
   287
1070
     5
1070
   340
1005
95
1002
}
  0
TEXT
  5
DE
100
AcDbEntity
  8
スト－ル
  6
CONTINUOUS
 62
     2
100
AcDbText
 10
960.58374
 20
718.0
 30
0.0
 40
40.0
  1
３７５
 50
90.0
 41
0.833
  7
EXCADSTD
 72
     5
 11
960.58374
 21
837.0
 31
0.0
100
AcDbText
  0
LINE
  5
DF
100
AcDbEntity
  8
スト－ル
  6
CONTINUOUS
 62
     3
100
AcDbLine
 10
964.08374
 20
965.0
 30
0.0
 11
964.08374
 21
590.0
 31
0.0
  0
LINE
  5
E0
100
AcDbEntity
  8
スト－ル
  6
CONTINUOUS
 62
     3
100
AcDbLine
 10
969.917074
 20
930.0
 30
0.0
 11
964.08374
 21
965.0
 31
0.0
  0
LINE
  5
E1
100
AcDbEntity
  8
スト－ル
  6
CONTINUOUS
 62
     3
100
AcDbLine
 10
964.08374
 20
965.0
 30
0.0
 11
958.250407
 21
930.0
 31
0.0
  0
LINE
  5
E2
100
AcDbEntity
  8
スト－ル
  6
CONTINUOUS
 62
     3
100
AcDbLine
 10
958.250407
 20
625.0
 30
0.0
 11
964.08374
 21
590.0
 31
0.0
  0
LINE
  5
E3
100
AcDbEntity
  8
スト－ル
  6
CONTINUOUS
 62
     3
100
AcDbLine
 10
964.08374
 20
590.0
 30
0.0
 11
969.917074
 21
625.0
 31
0.0
  0
LEADER
  5
E4
100
AcDbEntity
  8
小便器用水栓
  6
CONTINUOUS
 62
     6
100
AcDbLeader
  3
STANDARD
 73
     3
 74
     1
 75
     0
 40
0.0
 76
     2
 10
1710.371094
 20
1546.812134
 30
0.0
 10
1611.004791
 20
1604.181366
 30
0.0
 77
     6
1001
ACAD
1000
DSTYLE
1002
{
1070
    41
1040
35.0
1070
     5
1000
_EX_NORM
1070
     6
1000
_EX_NORM
1070
     7
1000
_EX_NORM
1070
   341
1005
2A
1002
}
  0
POLYLINE
  5
E5
100
AcDbEntity
  8
小便器用水栓
  6
CONTINUOUS
 62
     6
100
AcDb2dPolyline
 66
     1
 10
0.0
 20
0.0
 30
0.0
 70
   128
  0
VERTEX
  5
E6
100
AcDbEntity
  8
小便器用水栓
  6
CONTINUOUS
 62
     6
100
AcDbVertex
100
AcDb2dVertex
 10
1804.37851
 20
1555.509186
 30
0.0
  0
VERTEX
  5
E7
100
AcDbEntity
  8
小便器用水栓
  6
CONTINUOUS
 62
     6
100
AcDbVertex
100
AcDb2dVertex
 10
1832.31842
 20
1603.902588
 30
0.0
  0
SEQEND
  5
E8
100
AcDbEntity
  8
小便器用水栓
  6
CONTINUOUS
 62
     6
  0
LINE
  5
E9
100
AcDbEntity
  8
小便器用水栓
  6
CONTINUOUS
 62
     6
100
AcDbLine
 10
1816.826678
 20
1588.736748
 30
0.0
 11
1804.37851
 21
1555.509186
 31
0.0
  0
LINE
  5
EA
100
AcDbEntity
  8
小便器用水栓
  6
CONTINUOUS
 62
     6
100
AcDbLine
 10
1804.37851
 20
1555.509186
 30
0.0
 11
1826.93031
 21
1582.90342
 31
0.0
  0
TEXT
  5
EB
100
AcDbEntity
  8
寸法
  6
CONTINUOUS
 62
     2
100
AcDbText
 10
1040.58374
 20
958.000038
 30
0.0
 40
40.0
  1
８５５
 50
90.0
 41
0.833
  7
EXCADSTD
 72
     5
 11
1040.58374
 21
1077.000038
 31
0.0
100
AcDbText
  0
LINE
  5
EC
100
AcDbEntity
  8
寸法
  6
CONTINUOUS
 62
     3
100
AcDbLine
 10
1044.08374
 20
1445.000076
 30
0.0
 11
1044.08374
 21
590.0
 31
0.0
  0
LINE
  5
ED
100
AcDbEntity
  8
寸法
  6
CONTINUOUS
 62
     3
100
AcDbLine
 10
1049.917074
 20
1410.000076
 30
0.0
 11
1044.08374
 21
1445.000076
 31
0.0
  0
LINE
  5
EE
100
AcDbEntity
  8
寸法
  6
CONTINUOUS
 62
     3
100
AcDbLine
 10
1044.08374
 20
1445.000076
 30
0.0
 11
1038.250407
 21
1410.000076
 31
0.0
  0
LINE
  5
EF
100
AcDbEntity
  8
寸法
  6
CONTINUOUS
 62
     3
100
AcDbLine
 10
1038.250407
 20
625.0
 30
0.0
 11
1044.08374
 21
590.0
 31
0.0
  0
LINE
  5
F0
100
AcDbEntity
  8
寸法
  6
CONTINUOUS
 62
     3
100
AcDbLine
 10
1044.08374
 20
590.0
 30
0.0
 11
1049.917074
 21
625.0
 31
0.0
  0
DIMENSION
  5
FA
100
AcDbEntity
  8
寸法
  6
CONTINUOUS
 62
     2
100
AcDbDimension
  2
*D22
 10
1462.810425
 20
590.0
 30
0.0
 11
1439.310425
 21
854.730339
 31
0.0
 70
   160
  1
530
  3
STANDARD
100
AcDbAlignedDimension
 13
1482.810425
 23
1119.460678
 33
0.0
 14
1489.0
 24
590.0
 34
0.0
 50
90.0
100
AcDbRotatedDimension
1001
ACAD
1000
DSTYLE
1002
{
1070
     6
1000
_EX_NORM
1070
     7
1000
_EX_NORM
1070
    41
1040
35.0
1070
    42
1040
0.0
1070
    44
1040
0.0
1070
    73
1070
     0
1070
    74
1070
     0
1070
    75
1070
     1
1070
    76
1070
     1
1070
    77
1070
     1
1070
    78
1070
     0
1070
   140
1040
40.0
1070
   147
1040
3.5
1070
   173
1070
     1
1070
   176
1070
     3
1070
   177
1070
     3
1070
   178
1070
     2
1070
   271
1070
     0
1070
   279
1070
     2
1070
   280
1070
     0
1070
   287
1070
     5
1070
   340
1005
95
1002
}
  0
DIMENSION
  5
106
100
AcDbEntity
  8
寸法
  6
CONTINUOUS
 62
     3
100
AcDbDimension
  2
*D23
 10
603.0
 20
550.0
 30
0.0
 11
579.5
 21
775.0
 31
0.0
 70
   160
  3
STANDARD
100
AcDbAlignedDimension
 13
668.0
 23
1000.0
 33
0.0
 14
668.0
 24
550.0
 34
0.0
 50
90.0
100
AcDbRotatedDimension
1001
ACAD
1000
DSTYLE
1002
{
1070
     6
1000
_EX_NORM
1070
     7
1000
_EX_NORM
1070
    41
1040
35.0
1070
    42
1040
7.0
1070
    44
1040
20.0
1070
    73
1070
     0
1070
    74
1070
     0
1070
    75
1070
     0
1070
    76
1070
     0
1070
    77
1070
     1
1070
    78
1070
     0
1070
   140
1040
40.0
1070
   147
1040
3.5
1070
   173
1070
     1
1070
   176
1070
     3
1070
   177
1070
     3
1070
   178
1070
     2
1070
   271
1070
     0
1070
   279
1070
     2
1070
   280
1070
     0
1070
   287
1070
     5
1070
   340
1005
95
1002
}
  0
LINE
  5
110
100
AcDbEntity
  8
寸法
  6
CONTINUOUS
 62
     3
100
AcDbLine
 10
1745.810394
 20
669.0
 30
0.0
 11
1745.810394
 21
655.0
 31
0.0
  0
DIMENSION
  5
112
100
AcDbEntity
  8
寸法
  6
CONTINUOUS
 62
     3
100
AcDbDimension
  2
*D24
 10
1800.810394
 20
507.0
 30
0.0
 11
1876.810394
 21
530.5
 31
0.0
 70
   160
  3
STANDARD
100
AcDbAlignedDimension
 13
1745.810394
 23
590.0
 33
0.0
 14
1800.810394
 24
590.0
 34
0.0
100
AcDbRotatedDimension
1001
ACAD
1000
DSTYLE
1002
{
1070
     6
1000
_EX_NORM
1070
     7
1000
_EX_NORM
1070
    41
1040
35.0
1070
    42
1040
7.0
1070
    44
1040
20.0
1070
    73
1070
     0
1070
    74
1070
     0
1070
    75
1070
     1
1070
    76
1070
     0
1070
    77
1070
     1
1070
    78
1070
     0
1070
   140
1040
40.0
1070
   147
1040
3.5
1070
   173
1070
     1
1070
   176
1070
     3
1070
   177
1070
     3
1070
   178
1070
     2
1070
   271
1070
     0
1070
   279
1070
     2
1070
   280
1070
     2
1070
   287
1070
     5
1070
   340
1005
95
1002
}
  0
DIMENSION
  5
11C
100
AcDbEntity
  8
寸法
  6
CONTINUOUS
 62
     3
100
AcDbDimension
  2
*D25
 10
964.08374
 20
1545.000076
 30
0.0
 11
940.58374
 21
1495.000076
 31
0.0
 70
   160
  3
STANDARD
100
AcDbAlignedDimension
 13
964.08374
 23
1445.000076
 33
0.0
 14
745.999983
 24
1545.000076
 34
0.0
 50
90.0
100
AcDbRotatedDimension
1001
ACAD
1000
DSTYLE
1002
{
1070
     6
1000
_EX_NORM
1070
     7
1000
_EX_NORM
1070
    41
1040
35.0
1070
    42
1040
0.0
1070
    44
1040
0.0
1070
    73
1070
     0
1070
    74
1070
     0
1070
    75
1070
     1
1070
    76
1070
     1
1070
    77
1070
     1
1070
    78
1070
     0
1070
   140
1040
40.0
1070
   147
1040
3.5
1070
   173
1070
     1
1070
   176
1070
     3
1070
   177
1070
     3
1070
   178
1070
     2
1070
   271
1070
     0
1070
   279
1070
     2
1070
   280
1070
     0
1070
   287
1070
     5
1070
   340
1005
95
1002
}
  0
LINE
  5
11D
100
AcDbEntity
  8
寸法
  6
CONTINUOUS
 62
     3
100
AcDbLine
 10
1745.810394
 20
643.0
 30
0.0
 11
1745.810394
 21
635.0
 31
0.0
  0
LINE
  5
11E
100
AcDbEntity
  8
寸法
  6
CONTINUOUS
 62
     3
100
AcDbLine
 10
1745.810394
 20
623.0
 30
0.0
 11
1745.810394
 21
487.0
 31
0.0
  0
DIMENSION
  5
12A
100
AcDbEntity
  8
寸法
  6
CONTINUOUS
 62
     3
100
AcDbDimension
  2
*D26
 10
724.5
 20
505.0
 30
0.0
 11
800.5
 21
528.5
 31
0.0
 70
   160
  3
STANDARD
100
AcDbAlignedDimension
 13
681.5
 23
564.474182
 33
0.0
 14
724.5
 24
564.474182
 34
0.0
100
AcDbRotatedDimension
1001
ACAD
1000
DSTYLE
1002
{
1070
     6
1000
_EX_NORM
1070
     7
1000
_EX_NORM
1070
    41
1040
35.0
1070
    42
1040
22.0
1070
    44
1040
20.0
1070
    73
1070
     0
1070
    74
1070
     0
1070
    75
1070
     0
1070
    76
1070
     0
1070
    77
1070
     1
1070
    78
1070
     0
1070
   140
1040
40.0
1070
   147
1040
3.5
1070
   173
1070
     1
1070
   176
1070
     3
1070
   177
1070
     3
1070
   178
1070
     2
1070
   271
1070
     0
1070
   279
1070
     2
1070
   280
1070
     2
1070
   287
1070
     5
1070
   340
1005
95
1002
}
  0
DIMENSION
  5
134
100
AcDbEntity
  8
寸法
  6
CONTINUOUS
 62
     3
100
AcDbDimension
  2
*D27
 10
448.08374
 20
590.0
 30
0.0
 11
424.58374
 21
891.000061
 31
0.0
 70
   160
  3
STANDARD
100
AcDbAlignedDimension
 13
448.08374
 23
1192.000122
 33
0.0
 14
450.0
 24
590.0
 34
0.0
 50
90.0
100
AcDbRotatedDimension
1001
ACAD
1000
DSTYLE
1002
{
1070
     6
1000
_EX_NORM
1070
     7
1000
_EX_NORM
1070
    41
1040
35.0
1070
    42
1040
0.0
1070
    44
1040
0.0
1070
    73
1070
     0
1070
    74
1070
     0
1070
    75
1070
     1
1070
    76
1070
     1
1070
    77
1070
     1
1070
    78
1070
     0
1070
   140
1040
40.0
1070
   147
1040
3.5
1070
   173
1070
     1
1070
   176
1070
     3
1070
   177
1070
     3
1070
   178
1070
     2
1070
   271
1070
     0
1070
   279
1070
     2
1070
   280
1070
     0
1070
   287
1070
     5
1070
   340
1005
95
1002
}
  0
DIMENSION
  5
140
100
AcDbEntity
  8
寸法
  6
CONTINUOUS
 62
     2
100
AcDbDimension
  2
*D28
 10
884.08374
 20
965.0
 30
0.0
 11
860.58374
 21
889.0
 31
0.0
 70
   160
  1
35
  3
STANDARD
100
AcDbAlignedDimension
 13
743.0
 23
999.474182
 33
0.0
 14
745.5
 24
965.0
 34
0.0
 50
90.0
100
AcDbRotatedDimension
1001
ACAD
1000
DSTYLE
1002
{
1070
     6
1000
_EX_NORM
1070
     7
1000
_EX_NORM
1070
    41
1040
35.0
1070
    42
1040
7.0
1070
    44
1040
20.0
1070
    73
1070
     0
1070
    74
1070
     0
1070
    75
1070
     0
1070
    76
1070
     0
1070
    77
1070
     1
1070
    78
1070
     0
1070
   140
1040
40.0
1070
   147
1040
3.5
1070
   173
1070
     1
1070
   176
1070
     3
1070
   177
1070
     3
1070
   178
1070
     2
1070
   271
1070
     0
1070
   279
1070
     2
1070
   280
1070
     2
1070
   287
1070
     5
1070
   340
1005
95
1002
}
  0
DIMENSION
  5
14C
100
AcDbEntity
  8
寸法
  6
CONTINUOUS
 62
     3
100
AcDbDimension
  2
*D29
 10
897.999847
 20
2573.338806
 30
0.0
 11
702.999924
 21
2596.838806
 31
0.0
 70
   160
  3
STANDARD
100
AcDbAlignedDimension
 13
508.0
 23
2420.0
 33
0.0
 14
897.999847
 24
2420.0
 34
0.0
100
AcDbRotatedDimension
1001
ACAD
1000
DSTYLE
1002
{
1070
     6
1000
_EX_NORM
1070
     7
1000
_EX_NORM
1070
    41
1040
35.0
1070
    42
1040
7.0
1070
    44
1040
20.0
1070
    73
1070
     0
1070
    74
1070
     0
1070
    75
1070
     0
1070
    76
1070
     0
1070
    77
1070
     1
1070
    78
1070
     0
1070
   140
1040
40.0
1070
   147
1040
3.5
1070
   173
1070
     1
1070
   176
1070
     3
1070
   177
1070
     3
1070
   178
1070
     2
1070
   271
1070
     0
1070
   279
1070
     2
1070
   280
1070
     0
1070
   287
1070
     5
1070
   340
1005
95
1002
}
  0
LINE
  5
14D
100
AcDbEntity
  8
枠_
  6
EXLTYPE2
 62
     6
100
AcDbLine
 10
169.0
 20
1515.0
 30
0.0
 11
-21.0
 21
1515.0
 31
0.0
  0
LINE
  5
14E
100
AcDbEntity
  8
枠_
  6
CONTINUOUS
 62
     7
100
AcDbLine
 10
179.0
 20
115.0
 30
0.0
 11
1999.0
 21
115.0
 31
0.0
  0
LINE
  5
14F
100
AcDbEntity
  8
枠_
  6
CONTINUOUS
 62
     7
100
AcDbLine
 10
1999.0
 20
115.0
 30
0.0
 11
1999.0
 21
2915.0
 31
0.0
  0
LINE
  5
150
100
AcDbEntity
  8
枠_
  6
CONTINUOUS
 62
     7
100
AcDbLine
 10
179.0
 20
115.0
 30
0.0
 11
179.0
 21
2915.0
 31
0.0
  0
LINE
  5
151
100
AcDbEntity
  8
枠_
  6
CONTINUOUS
 62
     7
100
AcDbLine
 10
179.0
 20
2915.0
 30
0.0
 11
1999.0
 21
2915.0
 31
0.0
  0
LINE
  5
152
100
AcDbEntity
  8
枠_
  6
CONTINUOUS
 62
     7
100
AcDbLine
 10
179.0
 20
335.0
 30
0.0
 11
1999.0
 21
335.0
 31
0.0
  0
LINE
  5
153
100
AcDbEntity
  8
枠_
  6
CONTINUOUS
 62
     6
100
AcDbLine
 10
1999.0
 20
215.0
 30
0.0
 11
749.0
 21
215.0
 31
0.0
  0
LINE
  5
154
100
AcDbEntity
  8
枠_
  6
CONTINUOUS
 62
     6
100
AcDbLine
 10
1859.0
 20
335.0
 30
0.0
 11
1859.0
 21
215.0
 31
0.0
  0
LINE
  5
155
100
AcDbEntity
  8
枠_
  6
CONTINUOUS
 62
     6
100
AcDbLine
 10
1809.0
 20
335.0
 30
0.0
 11
1809.0
 21
215.0
 31
0.0
  0
LINE
  5
156
100
AcDbEntity
  8
枠_
  6
CONTINUOUS
 62
     6
100
AcDbLine
 10
1439.0
 20
335.0
 30
0.0
 11
1439.0
 21
115.0
 31
0.0
  0
LINE
  5
157
100
AcDbEntity
  8
枠_
  6
CONTINUOUS
 62
     6
100
AcDbLine
 10
1389.0
 20
335.0
 30
0.0
 11
1389.0
 21
115.0
 31
0.0
  0
LINE
  5
158
100
AcDbEntity
  8
枠_
  6
CONTINUOUS
 62
     6
100
AcDbLine
 10
799.0
 20
335.0
 30
0.0
 11
799.0
 21
215.0
 31
0.0
  0
LINE
  5
159
100
AcDbEntity
  8
枠_
  6
CONTINUOUS
 62
     6
100
AcDbLine
 10
749.0
 20
335.0
 30
0.0
 11
749.0
 21
115.0
 31
0.0
  0
LINE
  5
15A
100
AcDbEntity
  8
枠_
  6
CONTINUOUS
 62
     6
100
AcDbLine
 10
619.0
 20
335.0
 30
0.0
 11
619.0
 21
115.0
 31
0.0
  0
LINE
  5
15B
100
AcDbEntity
  8
枠_
  6
CONTINUOUS
 62
     6
100
AcDbLine
 10
489.0
 20
335.0
 30
0.0
 11
489.0
 21
115.0
 31
0.0
  0
LINE
  5
15C
100
AcDbEntity
  8
枠_
  6
CONTINUOUS
 62
     6
100
AcDbLine
 10
334.0
 20
335.0
 30
0.0
 11
334.0
 21
115.0
 31
0.0
  0
LINE
  5
15D
100
AcDbEntity
  8
枠_
  6
CONTINUOUS
 62
     6
100
AcDbLine
 10
179.0
 20
285.0
 30
0.0
 11
749.0
 21
285.0
 31
0.0
  0
LINE
  5
15E
100
AcDbEntity
  8
枠_
  6
CONTINUOUS
 62
     6
100
AcDbLine
 10
1891.653809
 20
238.00293
 30
0.0
 11
1968.993897
 21
316.699829
 31
0.0
  0
LINE
  5
15F
100
AcDbEntity
  8
枠_
  6
EXLTYPE2
 62
     6
100
AcDbLine
 10
179.0
 20
165.0
 30
0.0
 11
489.0
 21
165.0
 31
0.0
  0
CIRCLE
  5
160
100
AcDbEntity
  8
枠_
  6
CONTINUOUS
 62
     6
100
AcDbCircle
 10
229.0
 20
140.0
 30
0.0
 40
1.0
  0
CIRCLE
  5
161
100
AcDbEntity
  8
枠_
  6
CONTINUOUS
 62
     6
100
AcDbCircle
 10
279.0
 20
140.0
 30
0.0
 40
1.0
  0
CIRCLE
  5
162
100
AcDbEntity
  8
枠_
  6
CONTINUOUS
 62
     6
100
AcDbCircle
 10
384.0
 20
140.0
 30
0.0
 40
1.0
  0
CIRCLE
  5
163
100
AcDbEntity
  8
枠_
  6
CONTINUOUS
 62
     6
100
AcDbCircle
 10
434.0
 20
140.0
 30
0.0
 40
1.0
  0
LINE
  5
164
100
AcDbEntity
  8
枠_
  6
EXLTYPE2
 62
     6
100
AcDbLine
 10
169.0
 20
1515.0
 30
0.0
 11
-21.0
 21
1515.0
 31
0.0
  0
TEXT
  5
165
100
AcDbEntity
  8
枠_
  6
CONTINUOUS
 62
     2
100
AcDbText
 10
1889.537109
 20
282.722778
 30
0.0
 40
30.0
  1
１
 41
0.826
  7
EXCADSTD
 72
     5
 11
1913.13711
 21
282.722778
 31
0.0
100
AcDbText
  0
TEXT
  5
166
100
AcDbEntity
  8
枠_
  6
CONTINUOUS
 62
     2
100
AcDbText
 10
1930.279297
 20
238.348846
 30
0.0
 40
30.0
  1
１０
 41
0.791
  7
EXCADSTD
 72
     5
 11
1982.067198
 21
238.348846
 31
0.0
100
AcDbText
  0
TEXT
  5
167
100
AcDbEntity
  8
枠_
  6
CONTINUOUS
 62
     2
100
AcDbText
 10
201.5
 20
288.75
 30
0.0
 40
42.5
  1
製図
 41
1.087059
  7
EXCADSTD
 72
     5
 11
302.326
 21
288.75
 31
0.0
100
AcDbText
  0
TEXT
  5
168
100
AcDbEntity
  8
枠_
  6
CONTINUOUS
 62
     2
100
AcDbText
 10
356.5
 20
288.75
 30
0.0
 40
42.5
  1
写図
 41
1.087059
  7
EXCADSTD
 72
     5
 11
457.326
 21
288.75
 31
0.0
100
AcDbText
  0
TEXT
  5
169
100
AcDbEntity
  8
枠_
  6
CONTINUOUS
 62
     2
100
AcDbText
 10
506.5
 20
288.75
 30
0.0
 40
42.5
  1
検図
 41
0.938824
  7
EXCADSTD
 72
     5
 11
593.577
 21
288.75
 31
0.0
100
AcDbText
  0
TEXT
  5
16A
100
AcDbEntity
  8
枠_
  6
CONTINUOUS
 62
     2
100
AcDbText
 10
636.5
 20
288.75
 30
0.0
 40
42.5
  1
承認
 41
0.938824
  7
EXCADSTD
 72
     5
 11
723.577
 21
288.75
 31
0.0
100
AcDbText
  0
TEXT
  5
16B
100
AcDbEntity
  8
枠_
  6
CONTINUOUS
 62
     2
100
AcDbText
 10
752.75
 20
278.75
 30
0.0
 40
42.5
  1
品
 41
0.84
  7
EXCADSTD
 72
     5
 11
786.75
 21
278.75
 31
0.0
100
AcDbText
  0
TEXT
  5
16C
100
AcDbEntity
  8
枠_
  6
CONTINUOUS
 62
     2
100
AcDbText
 10
752.75
 20
228.75
 30
0.0
 40
42.5
  1
名
 41
0.84
  7
EXCADSTD
 72
     5
 11
786.75
 21
228.75
 31
0.0
100
AcDbText
  0
TEXT
  5
16D
100
AcDbEntity
  8
枠_
  6
CONTINUOUS
 62
     2
100
AcDbText
 10
1392.75
 20
278.75
 30
0.0
 40
42.5
  1
品
 41
0.84
  7
EXCADSTD
 72
     5
 11
1426.75
 21
278.75
 31
0.0
100
AcDbText
  0
TEXT
  5
16E
100
AcDbEntity
  8
枠_
  6
CONTINUOUS
 62
     2
100
AcDbText
 10
1392.75
 20
228.75
 30
0.0
 40
42.5
  1
番
 41
0.84
  7
EXCADSTD
 72
     5
 11
1426.75
 21
228.75
 31
0.0
100
AcDbText
  0
TEXT
  5
16F
100
AcDbEntity
  8
枠_
  6
CONTINUOUS
 62
     2
100
AcDbText
 10
1812.75
 20
278.75
 30
0.0
 40
42.5
  1
尺
 41
0.84
  7
EXCADSTD
 72
     5
 11
1846.75
 21
278.75
 31
0.0
100
AcDbText
  0
TEXT
  5
170
100
AcDbEntity
  8
枠_
  6
CONTINUOUS
 62
     2
100
AcDbText
 10
1812.75
 20
228.75
 30
0.0
 40
42.5
  1
度
 41
0.84
  7
EXCADSTD
 72
     5
 11
1846.75
 21
228.75
 31
0.0
100
AcDbText
  0
TEXT
  5
171
100
AcDbEntity
  8
枠_
  6
CONTINUOUS
 62
     2
100
AcDbText
 10
1392.75
 20
165.75
 30
0.0
 40
42.5
  1
図
 41
0.84
  7
EXCADSTD
 72
     5
 11
1426.75
 21
165.75
 31
0.0
100
AcDbText
  0
TEXT
  5
172
100
AcDbEntity
  8
枠_
  6
CONTINUOUS
 62
     2
100
AcDbText
 10
1392.75
 20
122.75
 30
0.0
 40
42.5
  1
番
 41
0.84
  7
EXCADSTD
 72
     5
 11
1426.75
 21
122.75
 31
0.0
100
AcDbText
  0
LINE
  5
173
100
AcDbEntity
  8
枠_
  6
CONTINUOUS
 62
     3
100
AcDbLine
 10
826.447754
 20
180.287994
 30
0.0
 11
818.384094
 21
180.287994
 31
0.0
  0
LINE
  5
174
100
AcDbEntity
  8
枠_
  6
CONTINUOUS
 62
     3
100
AcDbLine
 10
826.447754
 20
188.351959
 30
0.0
 11
826.447754
 21
180.287994
 31
0.0
  0
LINE
  5
175
100
AcDbEntity
  8
枠_
  6
CONTINUOUS
 62
     3
100
AcDbLine
 10
818.384094
 20
188.351959
 30
0.0
 11
826.447754
 21
188.351959
 31
0.0
  0
LINE
  5
176
100
AcDbEntity
  8
枠_
  6
CONTINUOUS
 62
     3
100
AcDbLine
 10
818.384094
 20
188.351959
 30
0.0
 11
818.384094
 21
180.287994
 31
0.0
  0
LINE
  5
177
100
AcDbEntity
  8
枠_
  6
CONTINUOUS
 62
     3
100
AcDbLine
 10
815.359192
 20
180.287994
 30
0.0
 11
807.295532
 21
180.287994
 31
0.0
  0
LINE
  5
178
100
AcDbEntity
  8
枠_
  6
CONTINUOUS
 62
     3
100
AcDbLine
 10
815.359192
 20
188.351959
 30
0.0
 11
815.359192
 21
180.287994
 31
0.0
  0
LINE
  5
179
100
AcDbEntity
  8
枠_
  6
CONTINUOUS
 62
     3
100
AcDbLine
 10
807.295532
 20
188.351959
 30
0.0
 11
815.359192
 21
188.351959
 31
0.0
  0
LINE
  5
17A
100
AcDbEntity
  8
枠_
  6
CONTINUOUS
 62
     3
100
AcDbLine
 10
807.295532
 20
188.351959
 30
0.0
 11
807.295532
 21
180.287994
 31
0.0
  0
LINE
  5
17B
100
AcDbEntity
  8
枠_
  6
CONTINUOUS
 62
     3
100
AcDbLine
 10
798.887329
 20
144.0
 30
0.0
 11
770.0
 21
144.0
 31
0.0
  0
ARC
  5
17C
100
AcDbEntity
  8
枠_
  6
CONTINUOUS
 62
     3
100
AcDbCircle
 10
798.887329
 20
162.144074
 30
0.0
 40
18.143997
100
AcDbArc
 50
270.000031
 51
334.000137
  0
LINE
  5
17D
100
AcDbEntity
  8
枠_
  6
CONTINUOUS
 62
     3
100
AcDbLine
 10
826.447754
 20
177.264008
 30
0.0
 11
815.193024
 21
154.190125
 31
0.0
  0
LINE
  5
17E
100
AcDbEntity
  8
枠_
  6
CONTINUOUS
 62
     3
100
AcDbLine
 10
814.112244
 20
177.264008
 30
0.0
 11
826.447754
 21
177.264008
 31
0.0
  0
LINE
  5
17F
100
AcDbEntity
  8
枠_
  6
CONTINUOUS
 62
     3
100
AcDbLine
 10
805.01297
 20
158.60907
 30
0.0
 11
814.112244
 21
177.264008
 31
0.0
  0
ARC
  5
180
100
AcDbEntity
  8
枠_
  6
CONTINUOUS
 62
     3
100
AcDbCircle
 10
797.765503
 20
162.144074
 30
0.0
 40
8.064
100
AcDbArc
 50
270.000031
 51
333.99855
  0
LINE
  5
181
100
AcDbEntity
  8
枠_
  6
CONTINUOUS
 62
     3
100
AcDbLine
 10
770.0
 20
154.079956
 30
0.0
 11
797.765503
 21
154.079956
 31
0.0
  0
LINE
  5
182
100
AcDbEntity
  8
枠_
  6
CONTINUOUS
 62
     3
100
AcDbLine
 10
770.0
 20
154.079956
 30
0.0
 11
770.0
 21
144.0
 31
0.0
  0
LINE
  5
183
100
AcDbEntity
  8
枠_
  6
CONTINUOUS
 62
     3
100
AcDbLine
 10
798.224945
 20
167.183899
 30
0.0
 11
770.0
 21
167.183899
 31
0.0
  0
LINE
  5
184
100
AcDbEntity
  8
枠_
  6
CONTINUOUS
 62
     3
100
AcDbLine
 10
798.224945
 20
176.256012
 30
0.0
 11
798.224945
 21
167.183899
 31
0.0
  0
LINE
  5
185
100
AcDbEntity
  8
枠_
  6
CONTINUOUS
 62
     3
100
AcDbLine
 10
770.0
 20
176.256012
 30
0.0
 11
798.224945
 21
176.256012
 31
0.0
  0
LINE
  5
186
100
AcDbEntity
  8
枠_
  6
CONTINUOUS
 62
     3
100
AcDbLine
 10
770.0
 20
176.256012
 30
0.0
 11
770.0
 21
167.183899
 31
0.0
  0
LINE
  5
187
100
AcDbEntity
  8
枠_
  6
CONTINUOUS
 62
     3
100
AcDbLine
 10
798.224945
 20
179.279999
 30
0.0
 11
770.0
 21
179.279999
 31
0.0
  0
LINE
  5
188
100
AcDbEntity
  8
枠_
  6
CONTINUOUS
 62
     3
100
AcDbLine
 10
798.224945
 20
188.351959
 30
0.0
 11
798.224945
 21
179.279999
 31
0.0
  0
LINE
  5
189
100
AcDbEntity
  8
枠_
  6
CONTINUOUS
 62
     3
100
AcDbLine
 10
770.0
 20
188.351959
 30
0.0
 11
798.224945
 21
188.351959
 31
0.0
  0
LINE
  5
18A
100
AcDbEntity
  8
枠_
  6
CONTINUOUS
 62
     3
100
AcDbLine
 10
770.0
 20
188.351959
 30
0.0
 11
770.0
 21
179.279999
 31
0.0
  0
LINE
  5
18B
100
AcDbEntity
  8
枠_
  6
CONTINUOUS
 62
     3
100
AcDbLine
 10
829.472656
 20
177.264008
 30
0.0
 11
829.472656
 21
170.207886
 31
0.0
  0
LINE
  5
18C
100
AcDbEntity
  8
枠_
  6
CONTINUOUS
 62
     3
100
AcDbLine
 10
829.472656
 20
177.264008
 30
0.0
 11
838.654022
 21
177.264008
 31
0.0
  0
LINE
  5
18D
100
AcDbEntity
  8
枠_
  6
CONTINUOUS
 62
     3
100
AcDbLine
 10
837.536316
 20
184.319977
 30
0.0
 11
838.654022
 21
177.264008
 31
0.0
  0
LINE
  5
18E
100
AcDbEntity
  8
枠_
  6
CONTINUOUS
 62
     3
100
AcDbLine
 10
837.536316
 20
184.319977
 30
0.0
 11
848.76236
 21
184.319977
 31
0.0
  0
LINE
  5
18F
100
AcDbEntity
  8
枠_
  6
CONTINUOUS
 62
     3
100
AcDbLine
 10
848.76236
 20
184.319977
 30
0.0
 11
849.879913
 21
177.264008
 31
0.0
  0
LINE
  5
190
100
AcDbEntity
  8
枠_
  6
CONTINUOUS
 62
     3
100
AcDbLine
 10
849.879913
 20
177.264008
 30
0.0
 11
877.856751
 21
177.264008
 31
0.0
  0
LINE
  5
191
100
AcDbEntity
  8
枠_
  6
CONTINUOUS
 62
     3
100
AcDbLine
 10
877.856751
 20
177.264008
 30
0.0
 11
871.973114
 21
164.050507
 31
0.0
  0
ARC
  5
192
100
AcDbEntity
  8
枠_
  6
CONTINUOUS
 62
     3
100
AcDbCircle
 10
858.161011
 20
170.200409
 30
0.0
 40
15.120106
100
AcDbArc
 50
263.465775
 51
335.998779
  0
LINE
  5
193
100
AcDbEntity
  8
枠_
  6
CONTINUOUS
 62
     3
100
AcDbLine
 10
856.438446
 20
155.178589
 30
0.0
 11
855.337067
 21
162.144074
 31
0.0
  0
ARC
  5
194
100
AcDbEntity
  8
枠_
  6
CONTINUOUS
 62
     3
100
AcDbCircle
 10
855.058136
 20
168.192047
 30
0.0
 40
6.048006
100
AcDbArc
 50
272.623749
 51
336.006531
  0
LINE
  5
195
100
AcDbEntity
  8
枠_
  6
CONTINUOUS
 62
     3
100
AcDbLine
 10
860.585022
 20
165.732025
 30
0.0
 11
862.576294
 21
170.207886
 31
0.0
  0
LINE
  5
196
100
AcDbEntity
  8
枠_
  6
CONTINUOUS
 62
     3
100
AcDbLine
 10
862.576294
 20
170.207886
 30
0.0
 11
850.99762
 21
170.207886
 31
0.0
  0
LINE
  5
197
100
AcDbEntity
  8
枠_
  6
CONTINUOUS
 62
     3
100
AcDbLine
 10
850.99762
 20
170.207886
 30
0.0
 11
855.148468
 21
144.0
 31
0.0
  0
LINE
  5
198
100
AcDbEntity
  8
枠_
  6
CONTINUOUS
 62
     3
100
AcDbLine
 10
855.148468
 20
144.0
 30
0.0
 11
843.922424
 21
144.0
 31
0.0
  0
LINE
  5
199
100
AcDbEntity
  8
枠_
  6
CONTINUOUS
 62
     2
100
AcDbLine
 10
843.922424
 20
144.0
 30
0.0
 11
839.771729
 21
170.207886
 31
0.0
  0
LINE
  5
19A
100
AcDbEntity
  8
枠_
  6
CONTINUOUS
 62
     2
100
AcDbLine
 10
839.771729
 20
170.207886
 30
0.0
 11
829.472656
 21
170.207886
 31
0.0
  0
LINE
  5
19B
100
AcDbEntity
  8
枠_
  6
CONTINUOUS
 62
     3
100
AcDbLine
 10
876.847687
 20
144.0
 30
0.0
 11
876.847687
 21
154.079956
 31
0.0
  0
LINE
  5
19C
100
AcDbEntity
  8
枠_
  6
CONTINUOUS
 62
     3
100
AcDbLine
 10
876.847687
 20
154.079956
 30
0.0
 11
933.295441
 21
154.079956
 31
0.0
  0
LINE
  5
19D
100
AcDbEntity
  8
枠_
  6
CONTINUOUS
 62
     3
100
AcDbLine
 10
933.295441
 20
154.079956
 30
0.0
 11
933.295441
 21
144.0
 31
0.0
  0
LINE
  5
19E
100
AcDbEntity
  8
枠_
  6
CONTINUOUS
 62
     3
100
AcDbLine
 10
933.295441
 20
144.0
 30
0.0
 11
876.847687
 21
144.0
 31
0.0
  0
LINE
  5
19F
100
AcDbEntity
  8
枠_
  6
CONTINUOUS
 62
     3
100
AcDbLine
 10
880.879517
 20
188.351959
 30
0.0
 11
880.879517
 21
178.272003
 31
0.0
  0
LINE
  5
1A0
100
AcDbEntity
  8
枠_
  6
CONTINUOUS
 62
     3
100
AcDbLine
 10
880.879517
 20
188.351959
 30
0.0
 11
929.263611
 21
188.351959
 31
0.0
  0
LINE
  5
1A1
100
AcDbEntity
  8
枠_
  6
CONTINUOUS
 62
     3
100
AcDbLine
 10
929.263611
 20
188.351959
 30
0.0
 11
929.263611
 21
178.272003
 31
0.0
  0
LINE
  5
1A2
100
AcDbEntity
  8
枠_
  6
CONTINUOUS
 62
     3
100
AcDbLine
 10
929.263611
 20
178.272003
 30
0.0
 11
880.879517
 21
178.272003
 31
0.0
  0
LINE
  5
1A3
100
AcDbEntity
  8
枠_
  6
CONTINUOUS
 62
     3
100
AcDbLine
 10
940.352173
 20
188.351959
 30
0.0
 11
940.352173
 21
178.272003
 31
0.0
  0
LINE
  5
1A4
100
AcDbEntity
  8
枠_
  6
CONTINUOUS
 62
     3
100
AcDbLine
 10
940.352173
 20
188.351959
 30
0.0
 11
992.768097
 21
188.351959
 31
0.0
  0
LINE
  5
1A5
100
AcDbEntity
  8
枠_
  6
CONTINUOUS
 62
     3
100
AcDbLine
 10
992.768097
 20
188.351959
 30
0.0
 11
977.050934
 21
166.718964
 31
0.0
  0
LINE
  5
1A6
100
AcDbEntity
  8
枠_
  6
CONTINUOUS
 62
     3
100
AcDbLine
 10
977.050934
 20
166.718964
 30
0.0
 11
996.799927
 21
144.0
 31
0.0
  0
LINE
  5
1A7
100
AcDbEntity
  8
枠_
  6
CONTINUOUS
 62
     3
100
AcDbLine
 10
996.799927
 20
144.0
 30
0.0
 11
982.108154
 21
144.0
 31
0.0
  0
LINE
  5
1A8
100
AcDbEntity
  8
枠_
  6
CONTINUOUS
 62
     3
100
AcDbLine
 10
982.108154
 20
144.0
 30
0.0
 11
970.361328
 21
157.512726
 31
0.0
  0
LINE
  5
1A9
100
AcDbEntity
  8
枠_
  6
CONTINUOUS
 62
     3
100
AcDbLine
 10
970.361328
 20
157.512726
 30
0.0
 11
965.978851
 21
151.479248
 31
0.0
  0
ARC
  5
1AA
100
AcDbEntity
  8
枠_
  6
CONTINUOUS
 62
     3
100
AcDbCircle
 10
951.299286
 20
162.144074
 30
0.0
 40
18.143997
100
AcDbArc
 50
270.000031
 51
324.00116
  0
LINE
  5
1AB
100
AcDbEntity
  8
枠_
  6
CONTINUOUS
 62
     3
100
AcDbLine
 10
951.299286
 20
144.0
 30
0.0
 11
936.320343
 21
144.0
 31
0.0
  0
LINE
  5
1AC
100
AcDbEntity
  8
枠_
  6
CONTINUOUS
 62
     3
100
AcDbLine
 10
936.320343
 20
144.0
 30
0.0
 11
936.320343
 21
154.079956
 31
0.0
  0
LINE
  5
1AD
100
AcDbEntity
  8
枠_
  6
CONTINUOUS
 62
     3
100
AcDbLine
 10
936.320343
 20
154.079956
 30
0.0
 11
949.0271
 21
154.079956
 31
0.0
  0
ARC
  5
1AE
100
AcDbEntity
  8
枠_
  6
CONTINUOUS
 62
     3
100
AcDbCircle
 10
949.0271
 20
164.159912
 30
0.0
 40
10.079994
100
AcDbArc
 50
270.000031
 51
323.996597
  0
LINE
  5
1AF
100
AcDbEntity
  8
枠_
  6
CONTINUOUS
 62
     3
100
AcDbLine
 10
957.180939
 20
158.235077
 30
0.0
 11
971.739502
 21
178.272003
 31
0.0
  0
LINE
  5
1B0
100
AcDbEntity
  8
枠_
  6
CONTINUOUS
 62
     3
100
AcDbLine
 10
971.739502
 20
178.272003
 30
0.0
 11
940.352173
 21
178.272003
 31
0.0
  0
LINE
  5
1B1
100
AcDbEntity
  8
枠_
  6
CONTINUOUS
 62
     3
100
AcDbLine
 10
1008.895569
 20
188.351959
 30
0.0
 11
1008.895569
 21
181.29599
 31
0.0
  0
LINE
  5
1B2
100
AcDbEntity
  8
枠_
  6
CONTINUOUS
 62
     3
100
AcDbLine
 10
1008.895569
 20
188.351959
 30
0.0
 11
1061.31134
 21
188.351959
 31
0.0
  0
LINE
  5
1B3
100
AcDbEntity
  8
枠_
  6
CONTINUOUS
 62
     3
100
AcDbLine
 10
1061.31134
 20
188.351959
 30
0.0
 11
1061.31134
 21
181.29599
 31
0.0
  0
LINE
  5
1B4
100
AcDbEntity
  8
枠_
  6
CONTINUOUS
 62
     3
100
AcDbLine
 10
1061.31134
 20
181.29599
 30
0.0
 11
1040.647736
 21
181.29599
 31
0.0
  0
LINE
  5
1B5
100
AcDbEntity
  8
枠_
  6
CONTINUOUS
 62
     3
100
AcDbLine
 10
1040.647736
 20
181.29599
 30
0.0
 11
1040.647736
 21
152.064117
 31
0.0
  0
LINE
  5
1B6
100
AcDbEntity
  8
枠_
  6
CONTINUOUS
 62
     3
100
AcDbLine
 10
1040.647736
 20
152.064117
 30
0.0
 11
1063.327332
 21
152.064117
 31
0.0
  0
LINE
  5
1B7
100
AcDbEntity
  8
枠_
  6
CONTINUOUS
 62
     3
100
AcDbLine
 10
1063.327332
 20
152.064117
 30
0.0
 11
1063.327332
 21
144.0
 31
0.0
  0
LINE
  5
1B8
100
AcDbEntity
  8
枠_
  6
CONTINUOUS
 62
     3
100
AcDbLine
 10
1063.327332
 20
144.0
 30
0.0
 11
1006.879578
 21
144.0
 31
0.0
  0
LINE
  5
1B9
100
AcDbEntity
  8
枠_
  6
CONTINUOUS
 62
     3
100
AcDbLine
 10
1006.879578
 20
144.0
 30
0.0
 11
1006.879578
 21
152.064117
 31
0.0
  0
LINE
  5
1BA
100
AcDbEntity
  8
枠_
  6
CONTINUOUS
 62
     3
100
AcDbLine
 10
1006.879578
 20
152.064117
 30
0.0
 11
1029.559174
 21
152.064117
 31
0.0
  0
LINE
  5
1BB
100
AcDbEntity
  8
枠_
  6
CONTINUOUS
 62
     3
100
AcDbLine
 10
1029.559174
 20
152.064117
 30
0.0
 11
1029.559174
 21
181.29599
 31
0.0
  0
LINE
  5
1BC
100
AcDbEntity
  8
枠_
  6
CONTINUOUS
 62
     3
100
AcDbLine
 10
1029.559174
 20
181.29599
 30
0.0
 11
1008.895569
 21
181.29599
 31
0.0
  0
LINE
  5
1BD
100
AcDbEntity
  8
枠_
  6
CONTINUOUS
 62
     3
100
AcDbLine
 10
1064.336243
 20
182.303986
 30
0.0
 11
1064.336243
 21
177.667145
 31
0.0
  0
LINE
  5
1BE
100
AcDbEntity
  8
枠_
  6
CONTINUOUS
 62
     3
100
AcDbLine
 10
1064.336243
 20
182.303986
 30
0.0
 11
1073.093109
 21
182.303986
 31
0.0
  0
LINE
  5
1BF
100
AcDbEntity
  8
枠_
  6
CONTINUOUS
 62
     3
100
AcDbLine
 10
1073.093109
 20
182.303986
 30
0.0
 11
1068.368225
 21
188.351959
 31
0.0
  0
LINE
  5
1C0
100
AcDbEntity
  8
枠_
  6
CONTINUOUS
 62
     3
100
AcDbLine
 10
1068.368225
 20
188.351959
 30
0.0
 11
1077.32193
 21
188.351959
 31
0.0
  0
LINE
  5
1C1
100
AcDbEntity
  8
枠_
  6
CONTINUOUS
 62
     3
100
AcDbLine
 10
1077.32193
 20
188.351959
 30
0.0
 11
1082.046814
 21
182.303986
 31
0.0
  0
LINE
  5
1C2
100
AcDbEntity
  8
枠_
  6
CONTINUOUS
 62
     3
100
AcDbLine
 10
1082.046814
 20
182.303986
 30
0.0
 11
1083.993073
 21
182.303986
 31
0.0
  0
LINE
  5
1C3
100
AcDbEntity
  8
枠_
  6
CONTINUOUS
 62
     3
100
AcDbLine
 10
1083.993073
 20
182.303986
 30
0.0
 11
1083.993073
 21
188.351959
 31
0.0
  0
LINE
  5
1C4
100
AcDbEntity
  8
枠_
  6
CONTINUOUS
 62
     3
100
AcDbLine
 10
1083.993073
 20
188.351959
 30
0.0
 11
1091.047669
 21
188.351959
 31
0.0
  0
LINE
  5
1C5
100
AcDbEntity
  8
枠_
  6
CONTINUOUS
 62
     3
100
AcDbLine
 10
1091.047669
 20
188.351959
 30
0.0
 11
1091.047669
 21
182.303986
 31
0.0
  0
LINE
  5
1C6
100
AcDbEntity
  8
枠_
  6
CONTINUOUS
 62
     3
100
AcDbLine
 10
1091.047669
 20
182.303986
 30
0.0
 11
1094.072571
 21
182.303986
 31
0.0
  0
LINE
  5
1C7
100
AcDbEntity
  8
枠_
  6
CONTINUOUS
 62
     3
100
AcDbLine
 10
1094.072571
 20
182.303986
 30
0.0
 11
1094.072571
 21
188.351959
 31
0.0
  0
LINE
  5
1C8
100
AcDbEntity
  8
枠_
  6
CONTINUOUS
 62
     3
100
AcDbLine
 10
1094.072571
 20
188.351959
 30
0.0
 11
1101.127319
 21
188.351959
 31
0.0
  0
LINE
  5
1C9
100
AcDbEntity
  8
枠_
  6
CONTINUOUS
 62
     3
100
AcDbLine
 10
1101.127319
 20
188.351959
 30
0.0
 11
1101.127319
 21
182.303986
 31
0.0
  0
LINE
  5
1CA
100
AcDbEntity
  8
枠_
  6
CONTINUOUS
 62
     3
100
AcDbLine
 10
1101.127319
 20
182.303986
 30
0.0
 11
1103.073578
 21
182.303986
 31
0.0
  0
LINE
  5
1CB
100
AcDbEntity
  8
枠_
  6
CONTINUOUS
 62
     3
100
AcDbLine
 10
1103.073578
 20
182.303986
 30
0.0
 11
1107.798462
 21
188.351959
 31
0.0
  0
LINE
  5
1CC
100
AcDbEntity
  8
枠_
  6
CONTINUOUS
 62
     3
100
AcDbLine
 10
1107.798462
 20
188.351959
 30
0.0
 11
1116.752167
 21
188.351959
 31
0.0
  0
LINE
  5
1CD
100
AcDbEntity
  8
枠_
  6
CONTINUOUS
 62
     3
100
AcDbLine
 10
1116.752167
 20
188.351959
 30
0.0
 11
1112.027283
 21
182.303986
 31
0.0
  0
LINE
  5
1CE
100
AcDbEntity
  8
枠_
  6
CONTINUOUS
 62
     3
100
AcDbLine
 10
1112.027283
 20
182.303986
 30
0.0
 11
1120.783997
 21
182.303986
 31
0.0
  0
LINE
  5
1CF
100
AcDbEntity
  8
枠_
  6
CONTINUOUS
 62
     3
100
AcDbLine
 10
1120.783997
 20
182.303986
 30
0.0
 11
1120.783997
 21
177.667145
 31
0.0
  0
LINE
  5
1D0
100
AcDbEntity
  8
枠_
  6
CONTINUOUS
 62
     3
100
AcDbLine
 10
1120.783997
 20
177.667145
 30
0.0
 11
1110.16098
 21
177.667145
 31
0.0
  0
LINE
  5
1D1
100
AcDbEntity
  8
枠_
  6
CONTINUOUS
 62
     3
100
AcDbLine
 10
1110.16098
 20
177.667145
 30
0.0
 11
1108.327637
 21
172.627319
 31
0.0
  0
LINE
  5
1D2
100
AcDbEntity
  8
枠_
  6
CONTINUOUS
 62
     3
100
AcDbLine
 10
1108.327637
 20
172.627319
 30
0.0
 11
1120.783997
 21
172.627319
 31
0.0
  0
LINE
  5
1D3
100
AcDbEntity
  8
枠_
  6
CONTINUOUS
 62
     3
100
AcDbLine
 10
1120.783997
 20
172.627319
 30
0.0
 11
1120.783997
 21
167.990478
 31
0.0
  0
LINE
  5
1D4
100
AcDbEntity
  8
枠_
  6
CONTINUOUS
 62
     3
100
AcDbLine
 10
1120.783997
 20
167.990478
 30
0.0
 11
1097.599945
 21
167.990478
 31
0.0
  0
LINE
  5
1D5
100
AcDbEntity
  8
枠_
  6
CONTINUOUS
 62
     3
100
AcDbLine
 10
1097.599945
 20
167.990478
 30
0.0
 11
1097.599945
 21
165.672058
 31
0.0
  0
LINE
  5
1D6
100
AcDbEntity
  8
枠_
  6
CONTINUOUS
 62
     3
100
AcDbLine
 10
1097.599945
 20
165.672058
 30
0.0
 11
1120.783997
 21
165.672058
 31
0.0
  0
LINE
  5
1D7
100
AcDbEntity
  8
枠_
  6
CONTINUOUS
 62
     3
100
AcDbLine
 10
1120.783997
 20
165.672058
 30
0.0
 11
1120.783997
 21
161.035217
 31
0.0
  0
LINE
  5
1D8
100
AcDbEntity
  8
枠_
  6
CONTINUOUS
 62
     3
100
AcDbLine
 10
1120.783997
 20
161.035217
 30
0.0
 11
1097.599945
 21
161.035217
 31
0.0
  0
LINE
  5
1D9
100
AcDbEntity
  8
枠_
  6
CONTINUOUS
 62
     3
100
AcDbLine
 10
1097.599945
 20
161.035217
 30
0.0
 11
1097.599945
 21
158.716797
 31
0.0
  0
LINE
  5
1DA
100
AcDbEntity
  8
枠_
  6
CONTINUOUS
 62
     3
100
AcDbLine
 10
1097.599945
 20
158.716797
 30
0.0
 11
1120.783997
 21
158.716797
 31
0.0
  0
LINE
  5
1DB
100
AcDbEntity
  8
枠_
  6
CONTINUOUS
 62
     3
100
AcDbLine
 10
1120.783997
 20
158.716797
 30
0.0
 11
1120.783997
 21
154.079956
 31
0.0
  0
LINE
  5
1DC
100
AcDbEntity
  8
枠_
  6
CONTINUOUS
 62
     3
100
AcDbLine
 10
1120.783997
 20
154.079956
 30
0.0
 11
1109.627838
 21
154.079956
 31
0.0
  0
LINE
  5
1DD
100
AcDbEntity
  8
枠_
  6
CONTINUOUS
 62
     3
100
AcDbLine
 10
1109.627838
 20
154.079956
 30
0.0
 11
1120.783997
 21
144.0
 31
0.0
  0
LINE
  5
1DE
100
AcDbEntity
  8
枠_
  6
CONTINUOUS
 62
     3
100
AcDbLine
 10
1120.783997
 20
144.0
 30
0.0
 11
1108.756256
 21
144.0
 31
0.0
  0
LINE
  5
1DF
100
AcDbEntity
  8
枠_
  6
CONTINUOUS
 62
     3
100
AcDbLine
 10
1108.756256
 20
144.0
 30
0.0
 11
1097.599945
 21
154.079956
 31
0.0
  0
LINE
  5
1E0
100
AcDbEntity
  8
枠_
  6
CONTINUOUS
 62
     3
100
AcDbLine
 10
1097.599945
 20
154.079956
 30
0.0
 11
1097.599945
 21
144.0
 31
0.0
  0
LINE
  5
1E1
100
AcDbEntity
  8
枠_
  6
CONTINUOUS
 62
     3
100
AcDbLine
 10
1097.599945
 20
144.0
 30
0.0
 11
1087.520447
 21
144.0
 31
0.0
  0
LINE
  5
1E2
100
AcDbEntity
  8
枠_
  6
CONTINUOUS
 62
     3
100
AcDbLine
 10
1087.520447
 20
144.0
 30
0.0
 11
1087.520447
 21
154.079956
 31
0.0
  0
LINE
  5
1E3
100
AcDbEntity
  8
枠_
  6
CONTINUOUS
 62
     3
100
AcDbLine
 10
1087.520447
 20
154.079956
 30
0.0
 11
1076.364136
 21
144.0
 31
0.0
  0
LINE
  5
1E4
100
AcDbEntity
  8
枠_
  6
CONTINUOUS
 62
     3
100
AcDbLine
 10
1076.364136
 20
144.0
 30
0.0
 11
1064.336243
 21
144.0
 31
0.0
  0
LINE
  5
1E5
100
AcDbEntity
  8
枠_
  6
CONTINUOUS
 62
     3
100
AcDbLine
 10
1064.336243
 20
144.0
 30
0.0
 11
1075.492554
 21
154.079956
 31
0.0
  0
LINE
  5
1E6
100
AcDbEntity
  8
枠_
  6
CONTINUOUS
 62
     3
100
AcDbLine
 10
1075.492554
 20
154.079956
 30
0.0
 11
1064.336243
 21
154.079956
 31
0.0
  0
LINE
  5
1E7
100
AcDbEntity
  8
枠_
  6
CONTINUOUS
 62
     3
100
AcDbLine
 10
1064.336243
 20
154.079956
 30
0.0
 11
1064.336243
 21
158.716797
 31
0.0
  0
LINE
  5
1E8
100
AcDbEntity
  8
枠_
  6
CONTINUOUS
 62
     3
100
AcDbLine
 10
1064.336243
 20
158.716797
 30
0.0
 11
1087.520447
 21
158.716797
 31
0.0
  0
LINE
  5
1E9
100
AcDbEntity
  8
枠_
  6
CONTINUOUS
 62
     3
100
AcDbLine
 10
1087.520447
 20
158.716797
 30
0.0
 11
1087.520447
 21
161.035217
 31
0.0
  0
LINE
  5
1EA
100
AcDbEntity
  8
枠_
  6
CONTINUOUS
 62
     3
100
AcDbLine
 10
1087.520447
 20
161.035217
 30
0.0
 11
1064.336243
 21
161.035217
 31
0.0
  0
LINE
  5
1EB
100
AcDbEntity
  8
枠_
  6
CONTINUOUS
 62
     3
100
AcDbLine
 10
1064.336243
 20
161.035217
 30
0.0
 11
1064.336243
 21
165.672058
 31
0.0
  0
LINE
  5
1EC
100
AcDbEntity
  8
枠_
  6
CONTINUOUS
 62
     3
100
AcDbLine
 10
1064.336243
 20
165.672058
 30
0.0
 11
1087.520447
 21
165.672058
 31
0.0
  0
LINE
  5
1ED
100
AcDbEntity
  8
枠_
  6
CONTINUOUS
 62
     3
100
AcDbLine
 10
1087.520447
 20
165.672058
 30
0.0
 11
1087.520447
 21
167.990478
 31
0.0
  0
LINE
  5
1EE
100
AcDbEntity
  8
枠_
  6
CONTINUOUS
 62
     3
100
AcDbLine
 10
1087.520447
 20
167.990478
 30
0.0
 11
1064.336243
 21
167.990478
 31
0.0
  0
LINE
  5
1EF
100
AcDbEntity
  8
枠_
  6
CONTINUOUS
 62
     3
100
AcDbLine
 10
1064.336243
 20
167.990478
 30
0.0
 11
1064.336243
 21
172.627319
 31
0.0
  0
LINE
  5
1F0
100
AcDbEntity
  8
枠_
  6
CONTINUOUS
 62
     3
100
AcDbLine
 10
1064.336243
 20
172.627319
 30
0.0
 11
1076.792755
 21
172.627319
 31
0.0
  0
LINE
  5
1F1
100
AcDbEntity
  8
枠_
  6
CONTINUOUS
 62
     3
100
AcDbLine
 10
1076.792755
 20
172.627319
 30
0.0
 11
1074.959412
 21
177.667145
 31
0.0
  0
LINE
  5
1F2
100
AcDbEntity
  8
枠_
  6
CONTINUOUS
 62
     3
100
AcDbLine
 10
1074.959412
 20
177.667145
 30
0.0
 11
1064.336243
 21
177.667145
 31
0.0
  0
LINE
  5
1F3
100
AcDbEntity
  8
枠_
  6
CONTINUOUS
 62
     3
100
AcDbLine
 10
1085.684967
 20
177.667145
 30
0.0
 11
1099.435425
 21
177.667145
 31
0.0
  0
LINE
  5
1F4
100
AcDbEntity
  8
枠_
  6
CONTINUOUS
 62
     3
100
AcDbLine
 10
1099.435425
 20
177.667145
 30
0.0
 11
1097.599945
 21
172.627319
 31
0.0
  0
LINE
  5
1F5
100
AcDbEntity
  8
枠_
  6
CONTINUOUS
 62
     3
100
AcDbLine
 10
1097.599945
 20
172.627319
 30
0.0
 11
1087.520447
 21
172.627319
 31
0.0
  0
LINE
  5
1F6
100
AcDbEntity
  8
枠_
  6
CONTINUOUS
 62
     3
100
AcDbLine
 10
1087.520447
 20
172.627319
 30
0.0
 11
1085.684967
 21
177.667145
 31
0.0
  0
LINE
  5
1F7
100
AcDbEntity
  8
枠_
  6
CONTINUOUS
 62
     3
100
AcDbLine
 10
1148.256378
 20
188.351959
 30
0.0
 11
1144.989472
 21
175.248016
 31
0.0
  0
LINE
  5
1F8
100
AcDbEntity
  8
枠_
  6
CONTINUOUS
 62
     3
100
AcDbLine
 10
1148.256378
 20
188.351959
 30
0.0
 11
1156.568146
 21
188.351959
 31
0.0
  0
LINE
  5
1F9
100
AcDbEntity
  8
枠_
  6
CONTINUOUS
 62
     3
100
AcDbLine
 10
1156.568146
 20
188.351959
 30
0.0
 11
1155.310974
 21
183.311981
 31
0.0
  0
LINE
  5
1FA
100
AcDbEntity
  8
枠_
  6
CONTINUOUS
 62
     3
100
AcDbLine
 10
1155.310974
 20
183.311981
 30
0.0
 11
1158.584137
 21
183.311981
 31
0.0
  0
LINE
  5
1FB
100
AcDbEntity
  8
枠_
  6
CONTINUOUS
 62
     3
100
AcDbLine
 10
1158.584137
 20
183.311981
 30
0.0
 11
1158.584137
 21
188.351959
 31
0.0
  0
LINE
  5
1FC
100
AcDbEntity
  8
枠_
  6
CONTINUOUS
 62
     3
100
AcDbLine
 10
1158.584137
 20
188.351959
 30
0.0
 11
1167.656708
 21
188.351959
 31
0.0
  0
LINE
  5
1FD
100
AcDbEntity
  8
枠_
  6
CONTINUOUS
 62
     3
100
AcDbLine
 10
1167.656708
 20
188.351959
 30
0.0
 11
1167.656708
 21
183.311981
 31
0.0
  0
LINE
  5
1FE
100
AcDbEntity
  8
枠_
  6
CONTINUOUS
 62
     3
100
AcDbLine
 10
1167.656708
 20
183.311981
 30
0.0
 11
1179.247742
 21
183.311981
 31
0.0
  0
LINE
  5
1FF
100
AcDbEntity
  8
枠_
  6
CONTINUOUS
 62
     3
100
AcDbLine
 10
1179.247742
 20
183.311981
 30
0.0
 11
1179.247742
 21
178.272003
 31
0.0
  0
LINE
  5
200
100
AcDbEntity
  8
枠_
  6
CONTINUOUS
 62
     3
100
AcDbLine
 10
1167.656708
 20
178.272003
 30
0.0
 11
1179.247742
 21
178.272003
 31
0.0
  0
LINE
  5
201
100
AcDbEntity
  8
枠_
  6
CONTINUOUS
 62
     3
100
AcDbLine
 10
1167.656708
 20
178.272003
 30
0.0
 11
1167.656708
 21
173.232025
 31
0.0
  0
LINE
  5
202
100
AcDbEntity
  8
枠_
  6
CONTINUOUS
 62
     3
100
AcDbLine
 10
1167.656708
 20
173.232025
 30
0.0
 11
1180.256653
 21
173.232025
 31
0.0
  0
LINE
  5
203
100
AcDbEntity
  8
枠_
  6
CONTINUOUS
 62
     3
100
AcDbLine
 10
1180.256653
 20
173.232025
 30
0.0
 11
1180.256653
 21
168.192047
 31
0.0
  0
LINE
  5
204
100
AcDbEntity
  8
枠_
  6
CONTINUOUS
 62
     3
100
AcDbLine
 10
1180.256653
 20
168.192047
 30
0.0
 11
1175.851593
 21
168.192047
 31
0.0
  0
LINE
  5
205
100
AcDbEntity
  8
枠_
  6
CONTINUOUS
 62
     3
100
AcDbLine
 10
1175.851593
 20
168.192047
 30
0.0
 11
1180.256653
 21
144.0
 31
0.0
  0
LINE
  5
206
100
AcDbEntity
  8
枠_
  6
CONTINUOUS
 62
     3
100
AcDbLine
 10
1180.256653
 20
144.0
 30
0.0
 11
1172.059784
 21
144.0
 31
0.0
  0
LINE
  5
207
100
AcDbEntity
  8
枠_
  6
CONTINUOUS
 62
     3
100
AcDbLine
 10
1172.059784
 20
144.0
 30
0.0
 11
1167.656708
 21
168.191742
 31
0.0
  0
LINE
  5
208
100
AcDbEntity
  8
枠_
  6
CONTINUOUS
 62
     3
100
AcDbLine
 10
1167.656708
 20
168.191742
 30
0.0
 11
1167.656708
 21
144.0
 31
0.0
  0
LINE
  5
209
100
AcDbEntity
  8
枠_
  6
CONTINUOUS
 62
     3
100
AcDbLine
 10
1167.656708
 20
144.0
 30
0.0
 11
1158.584137
 21
144.0
 31
0.0
  0
LINE
  5
20A
100
AcDbEntity
  8
枠_
  6
CONTINUOUS
 62
     3
100
AcDbLine
 10
1158.584137
 20
144.0
 30
0.0
 11
1158.584137
 21
168.192047
 31
0.0
  0
LINE
  5
20B
100
AcDbEntity
  8
枠_
  6
CONTINUOUS
 62
     3
100
AcDbLine
 10
1158.584137
 20
168.192047
 30
0.0
 11
1154.181061
 21
144.0
 31
0.0
  0
LINE
  5
20C
100
AcDbEntity
  8
枠_
  6
CONTINUOUS
 62
     3
100
AcDbLine
 10
1154.181061
 20
144.0
 30
0.0
 11
1145.984039
 21
144.0
 31
0.0
  0
LINE
  5
20D
100
AcDbEntity
  8
枠_
  6
CONTINUOUS
 62
     3
100
AcDbLine
 10
1145.984039
 20
144.0
 30
0.0
 11
1150.387115
 21
168.192047
 31
0.0
  0
LINE
  5
20E
100
AcDbEntity
  8
枠_
  6
CONTINUOUS
 62
     3
100
AcDbLine
 10
1150.387115
 20
168.192047
 30
0.0
 11
1145.984039
 21
168.192047
 31
0.0
  0
LINE
  5
20F
100
AcDbEntity
  8
枠_
  6
CONTINUOUS
 62
     3
100
AcDbLine
 10
1145.984039
 20
168.192047
 30
0.0
 11
1145.984039
 21
173.232025
 31
0.0
  0
LINE
  5
210
100
AcDbEntity
  8
枠_
  6
CONTINUOUS
 62
     3
100
AcDbLine
 10
1145.984039
 20
173.232025
 30
0.0
 11
1158.584137
 21
173.232025
 31
0.0
  0
LINE
  5
211
100
AcDbEntity
  8
枠_
  6
CONTINUOUS
 62
     3
100
AcDbLine
 10
1158.584137
 20
173.232025
 30
0.0
 11
1158.584137
 21
178.272003
 31
0.0
  0
LINE
  5
212
100
AcDbEntity
  8
枠_
  6
CONTINUOUS
 62
     3
100
AcDbLine
 10
1158.584137
 20
178.272003
 30
0.0
 11
1154.053955
 21
178.272003
 31
0.0
  0
LINE
  5
213
100
AcDbEntity
  8
枠_
  6
CONTINUOUS
 62
     3
100
AcDbLine
 10
1154.053955
 20
178.272003
 30
0.0
 11
1153.301239
 21
175.248016
 31
0.0
  0
LINE
  5
214
100
AcDbEntity
  8
枠_
  6
CONTINUOUS
 62
     3
100
AcDbLine
 10
1153.301239
 20
175.248016
 30
0.0
 11
1144.989472
 21
175.248016
 31
0.0
  0
LINE
  5
215
100
AcDbEntity
  8
枠_
  6
CONTINUOUS
 62
     3
100
AcDbLine
 10
1122.799988
 20
183.311981
 30
0.0
 11
1122.799988
 21
178.272003
 31
0.0
  0
LINE
  5
216
100
AcDbEntity
  8
枠_
  6
CONTINUOUS
 62
     3
100
AcDbLine
 10
1122.799988
 20
183.311981
 30
0.0
 11
1132.879639
 21
183.311981
 31
0.0
  0
LINE
  5
217
100
AcDbEntity
  8
枠_
  6
CONTINUOUS
 62
     3
100
AcDbLine
 10
1132.879639
 20
183.311981
 30
0.0
 11
1132.879639
 21
188.351959
 31
0.0
  0
LINE
  5
218
100
AcDbEntity
  8
枠_
  6
CONTINUOUS
 62
     3
100
AcDbLine
 10
1132.879639
 20
188.351959
 30
0.0
 11
1141.95221
 21
188.351959
 31
0.0
  0
LINE
  5
219
100
AcDbEntity
  8
枠_
  6
CONTINUOUS
 62
     3
100
AcDbLine
 10
1141.95221
 20
188.351959
 30
0.0
 11
1141.95221
 21
183.311981
 31
0.0
  0
LINE
  5
21A
100
AcDbEntity
  8
枠_
  6
CONTINUOUS
 62
     3
100
AcDbLine
 10
1141.95221
 20
183.311981
 30
0.0
 11
1144.975128
 21
183.311981
 31
0.0
  0
LINE
  5
21B
100
AcDbEntity
  8
枠_
  6
CONTINUOUS
 62
     3
100
AcDbLine
 10
1144.975128
 20
183.311981
 30
0.0
 11
1144.975128
 21
178.272003
 31
0.0
  0
LINE
  5
21C
100
AcDbEntity
  8
枠_
  6
CONTINUOUS
 62
     3
100
AcDbLine
 10
1144.975128
 20
178.272003
 30
0.0
 11
1141.95221
 21
178.272003
 31
0.0
  0
LINE
  5
21D
100
AcDbEntity
  8
枠_
  6
CONTINUOUS
 62
     3
100
AcDbLine
 10
1141.95221
 20
178.272003
 30
0.0
 11
1144.975128
 21
174.110016
 31
0.0
  0
LINE
  5
21E
100
AcDbEntity
  8
枠_
  6
CONTINUOUS
 62
     3
100
AcDbLine
 10
1144.975128
 20
174.110016
 30
0.0
 11
1144.975128
 21
163.820709
 31
0.0
  0
LINE
  5
21F
100
AcDbEntity
  8
枠_
  6
CONTINUOUS
 62
     3
100
AcDbLine
 10
1144.975128
 20
163.820709
 30
0.0
 11
1141.95221
 21
167.982849
 31
0.0
  0
LINE
  5
220
100
AcDbEntity
  8
枠_
  6
CONTINUOUS
 62
     3
100
AcDbLine
 10
1141.95221
 20
167.982849
 30
0.0
 11
1141.95221
 21
144.0
 31
0.0
  0
LINE
  5
221
100
AcDbEntity
  8
枠_
  6
CONTINUOUS
 62
     3
100
AcDbLine
 10
1141.95221
 20
144.0
 30
0.0
 11
1132.879639
 21
144.0
 31
0.0
  0
LINE
  5
222
100
AcDbEntity
  8
枠_
  6
CONTINUOUS
 62
     3
100
AcDbLine
 10
1132.879639
 20
144.0
 30
0.0
 11
1132.879639
 21
178.272003
 31
0.0
  0
LINE
  5
223
100
AcDbEntity
  8
枠_
  6
CONTINUOUS
 62
     3
100
AcDbLine
 10
1132.483826
 20
178.272003
 30
0.0
 11
1128.880615
 21
144.0
 31
0.0
  0
LINE
  5
224
100
AcDbEntity
  8
枠_
  6
CONTINUOUS
 62
     3
100
AcDbLine
 10
1128.880615
 20
144.0
 30
0.0
 11
1122.799988
 21
144.0
 31
0.0
  0
LINE
  5
225
100
AcDbEntity
  8
枠_
  6
CONTINUOUS
 62
     3
100
AcDbLine
 10
1122.799988
 20
144.0
 30
0.0
 11
1126.403198
 21
178.272003
 31
0.0
  0
LINE
  5
226
100
AcDbEntity
  8
枠_
  6
CONTINUOUS
 62
     3
100
AcDbLine
 10
1126.403198
 20
178.272003
 30
0.0
 11
1122.799988
 21
178.272003
 31
0.0
  0
LINE
  5
227
100
AcDbEntity
  8
枠_
  6
CONTINUOUS
 62
     3
100
AcDbLine
 10
1185.295563
 20
172.22403
 30
0.0
 11
1185.295563
 21
166.176056
 31
0.0
  0
LINE
  5
228
100
AcDbEntity
  8
枠_
  6
CONTINUOUS
 62
     3
100
AcDbLine
 10
1185.295563
 20
172.22403
 30
0.0
 11
1215.536347
 21
172.22403
 31
0.0
  0
LINE
  5
229
100
AcDbEntity
  8
枠_
  6
CONTINUOUS
 62
     3
100
AcDbLine
 10
1215.536347
 20
172.22403
 30
0.0
 11
1215.536347
 21
166.176056
 31
0.0
  0
LINE
  5
22A
100
AcDbEntity
  8
枠_
  6
CONTINUOUS
 62
     3
100
AcDbLine
 10
1215.536347
 20
166.176056
 30
0.0
 11
1205.959167
 21
166.176056
 31
0.0
  0
LINE
  5
22B
100
AcDbEntity
  8
枠_
  6
CONTINUOUS
 62
     3
100
AcDbLine
 10
1205.959167
 20
166.176056
 30
0.0
 11
1205.959167
 21
157.774109
 31
0.0
  0
LINE
  5
22C
100
AcDbEntity
  8
枠_
  6
CONTINUOUS
 62
     3
100
AcDbLine
 10
1205.959167
 20
157.774109
 30
0.0
 11
1216.040802
 21
159.916596
 31
0.0
  0
LINE
  5
22D
100
AcDbEntity
  8
枠_
  6
CONTINUOUS
 62
     3
100
AcDbLine
 10
1216.040802
 20
159.916596
 30
0.0
 11
1216.040802
 21
150.641998
 31
0.0
  0
LINE
  5
22E
100
AcDbEntity
  8
枠_
  6
CONTINUOUS
 62
     3
100
AcDbLine
 10
1216.040802
 20
150.641998
 30
0.0
 11
1184.790955
 21
144.0
 31
0.0
  0
LINE
  5
22F
100
AcDbEntity
  8
枠_
  6
CONTINUOUS
 62
     3
100
AcDbLine
 10
1184.790955
 20
144.0
 30
0.0
 11
1184.790955
 21
153.274597
 31
0.0
  0
LINE
  5
230
100
AcDbEntity
  8
枠_
  6
CONTINUOUS
 62
     3
100
AcDbLine
 10
1184.790955
 20
153.274597
 30
0.0
 11
1194.872589
 21
155.417236
 31
0.0
  0
LINE
  5
231
100
AcDbEntity
  8
枠_
  6
CONTINUOUS
 62
     3
100
AcDbLine
 10
1194.872589
 20
155.417236
 30
0.0
 11
1194.872589
 21
166.176056
 31
0.0
  0
LINE
  5
232
100
AcDbEntity
  8
枠_
  6
CONTINUOUS
 62
     3
100
AcDbLine
 10
1194.872589
 20
166.176056
 30
0.0
 11
1185.295563
 21
166.176056
 31
0.0
  0
LINE
  5
233
100
AcDbEntity
  8
枠_
  6
CONTINUOUS
 62
     3
100
AcDbLine
 10
1182.272644
 20
184.319977
 30
0.0
 11
1182.272644
 21
178.272003
 31
0.0
  0
LINE
  5
234
100
AcDbEntity
  8
枠_
  6
CONTINUOUS
 62
     3
100
AcDbLine
 10
1182.272644
 20
184.319977
 30
0.0
 11
1212.244873
 21
184.319977
 31
0.0
  0
LINE
  5
235
100
AcDbEntity
  8
枠_
  6
CONTINUOUS
 62
     3
100
AcDbLine
 10
1212.244873
 20
184.319977
 30
0.0
 11
1210.778504
 21
188.351959
 31
0.0
  0
LINE
  5
236
100
AcDbEntity
  8
枠_
  6
CONTINUOUS
 62
     3
100
AcDbLine
 10
1210.778504
 20
188.351959
 30
0.0
 11
1222.576599
 21
188.351959
 31
0.0
  0
LINE
  5
237
100
AcDbEntity
  8
枠_
  6
CONTINUOUS
 62
     3
100
AcDbLine
 10
1222.576599
 20
188.351959
 30
0.0
 11
1224.044952
 21
184.319977
 31
0.0
  0
LINE
  5
238
100
AcDbEntity
  8
枠_
  6
CONTINUOUS
 62
     3
100
AcDbLine
 10
1224.044952
 20
184.319977
 30
0.0
 11
1226.624909
 21
184.319977
 31
0.0
  0
LINE
  5
239
100
AcDbEntity
  8
枠_
  6
CONTINUOUS
 62
     3
100
AcDbLine
 10
1226.624909
 20
184.319977
 30
0.0
 11
1226.624909
 21
188.351959
 31
0.0
  0
LINE
  5
23A
100
AcDbEntity
  8
枠_
  6
CONTINUOUS
 62
     3
100
AcDbLine
 10
1226.624909
 20
188.351959
 30
0.0
 11
1235.695496
 21
188.351959
 31
0.0
  0
LINE
  5
23B
100
AcDbEntity
  8
枠_
  6
CONTINUOUS
 62
     3
100
AcDbLine
 10
1235.695496
 20
188.351959
 30
0.0
 11
1235.695496
 21
184.319977
 31
0.0
  0
LINE
  5
23C
100
AcDbEntity
  8
枠_
  6
CONTINUOUS
 62
     3
100
AcDbLine
 10
1235.695496
 20
184.319977
 30
0.0
 11
1238.720398
 21
184.319977
 31
0.0
  0
LINE
  5
23D
100
AcDbEntity
  8
枠_
  6
CONTINUOUS
 62
     3
100
AcDbLine
 10
1238.720398
 20
184.319977
 30
0.0
 11
1238.720398
 21
178.272003
 31
0.0
  0
LINE
  5
23E
100
AcDbEntity
  8
枠_
  6
CONTINUOUS
 62
     3
100
AcDbLine
 10
1238.720398
 20
178.272003
 30
0.0
 11
1226.245422
 21
178.272003
 31
0.0
  0
LINE
  5
23F
100
AcDbEntity
  8
枠_
  6
CONTINUOUS
 62
     3
100
AcDbLine
 10
1226.245422
 20
178.272003
 30
0.0
 11
1238.720398
 21
144.0
 31
0.0
  0
LINE
  5
240
100
AcDbEntity
  8
枠_
  6
CONTINUOUS
 62
     3
100
AcDbLine
 10
1238.720398
 20
144.0
 30
0.0
 11
1226.920166
 21
144.0
 31
0.0
  0
LINE
  5
241
100
AcDbEntity
  8
枠_
  6
CONTINUOUS
 62
     3
100
AcDbLine
 10
1226.920166
 20
144.0
 30
0.0
 11
1214.447327
 21
178.272003
 31
0.0
  0
LINE
  5
242
100
AcDbEntity
  8
枠_
  6
CONTINUOUS
 62
     3
100
AcDbLine
 10
1214.447327
 20
178.272003
 30
0.0
 11
1182.272644
 21
178.272003
 31
0.0
  0
LINE
  5
243
100
AcDbEntity
  8
枠_
  6
CONTINUOUS
 62
     3
100
AcDbLine
 10
1240.736389
 20
179.747833
 30
0.0
 11
1240.736389
 21
173.369965
 31
0.0
  0
LINE
  5
244
100
AcDbEntity
  8
枠_
  6
CONTINUOUS
 62
     3
100
AcDbLine
 10
1240.736389
 20
179.747833
 30
0.0
 11
1269.463654
 21
189.359955
 31
0.0
  0
LINE
  5
245
100
AcDbEntity
  8
枠_
  6
CONTINUOUS
 62
     3
100
AcDbLine
 10
1269.463654
 20
189.359955
 30
0.0
 11
1298.191071
 21
179.747528
 31
0.0
  0
LINE
  5
246
100
AcDbEntity
  8
枠_
  6
CONTINUOUS
 62
     3
100
AcDbLine
 10
1298.191071
 20
179.747528
 30
0.0
 11
1298.191071
 21
173.369965
 31
0.0
  0
LINE
  5
247
100
AcDbEntity
  8
枠_
  6
CONTINUOUS
 62
     3
100
AcDbLine
 10
1298.191071
 20
173.369965
 30
0.0
 11
1289.624939
 21
176.236786
 31
0.0
  0
LINE
  5
248
100
AcDbEntity
  8
枠_
  6
CONTINUOUS
 62
     3
100
AcDbLine
 10
1289.624939
 20
176.236786
 30
0.0
 11
1289.624939
 21
171.216034
 31
0.0
  0
LINE
  5
249
100
AcDbEntity
  8
枠_
  6
CONTINUOUS
 62
     3
100
AcDbLine
 10
1289.624939
 20
171.216034
 30
0.0
 11
1249.304504
 21
171.216034
 31
0.0
  0
LINE
  5
24A
100
AcDbEntity
  8
枠_
  6
CONTINUOUS
 62
     3
100
AcDbLine
 10
1249.304504
 20
171.216034
 30
0.0
 11
1249.304504
 21
176.236786
 31
0.0
  0
LINE
  5
24B
100
AcDbEntity
  8
枠_
  6
CONTINUOUS
 62
     3
100
AcDbLine
 10
1249.304504
 20
176.236786
 30
0.0
 11
1240.736389
 21
173.369965
 31
0.0
  0
LINE
  5
24C
100
AcDbEntity
  8
枠_
  6
CONTINUOUS
 62
     3
100
AcDbLine
 10
1252.374573
 20
177.264008
 30
0.0
 11
1269.463654
 21
182.982239
 31
0.0
  0
LINE
  5
24D
100
AcDbEntity
  8
枠_
  6
CONTINUOUS
 62
     3
100
AcDbLine
 10
1269.463654
 20
182.982239
 30
0.0
 11
1286.554871
 21
177.264008
 31
0.0
  0
LINE
  5
24E
100
AcDbEntity
  8
枠_
  6
CONTINUOUS
 62
     3
100
AcDbLine
 10
1286.554871
 20
177.264008
 30
0.0
 11
1252.374573
 21
177.264008
 31
0.0
  0
LINE
  5
24F
100
AcDbEntity
  8
枠_
  6
CONTINUOUS
 62
     3
100
AcDbLine
 10
1240.736389
 20
167.183899
 30
0.0
 11
1240.736389
 21
161.135925
 31
0.0
  0
LINE
  5
250
100
AcDbEntity
  8
枠_
  6
CONTINUOUS
 62
     3
100
AcDbLine
 10
1240.736389
 20
167.183899
 30
0.0
 11
1298.191071
 21
167.183899
 31
0.0
  0
LINE
  5
251
100
AcDbEntity
  8
枠_
  6
CONTINUOUS
 62
     3
100
AcDbLine
 10
1298.191071
 20
167.183899
 30
0.0
 11
1298.191071
 21
161.135925
 31
0.0
  0
LINE
  5
252
100
AcDbEntity
  8
枠_
  6
CONTINUOUS
 62
     3
100
AcDbLine
 10
1298.191071
 20
161.135925
 30
0.0
 11
1290.201111
 21
161.135925
 31
0.0
  0
LINE
  5
253
100
AcDbEntity
  8
枠_
  6
CONTINUOUS
 62
     3
100
AcDbLine
 10
1290.201111
 20
161.135925
 30
0.0
 11
1298.191071
 21
144.0
 31
0.0
  0
LINE
  5
254
100
AcDbEntity
  8
枠_
  6
CONTINUOUS
 62
     3
100
AcDbLine
 10
1298.191071
 20
144.0
 30
0.0
 11
1240.736389
 21
144.0
 31
0.0
  0
LINE
  5
255
100
AcDbEntity
  8
枠_
  6
CONTINUOUS
 62
     3
100
AcDbLine
 10
1240.736389
 20
144.0
 30
0.0
 11
1248.726196
 21
161.135925
 31
0.0
  0
LINE
  5
256
100
AcDbEntity
  8
枠_
  6
CONTINUOUS
 62
     3
100
AcDbLine
 10
1248.726196
 20
161.135925
 30
0.0
 11
1240.736389
 21
161.135925
 31
0.0
  0
LINE
  5
257
100
AcDbEntity
  8
枠_
  6
CONTINUOUS
 62
     3
100
AcDbLine
 10
1259.847565
 20
161.135925
 30
0.0
 11
1279.079743
 21
161.135925
 31
0.0
  0
LINE
  5
258
100
AcDbEntity
  8
枠_
  6
CONTINUOUS
 62
     3
100
AcDbLine
 10
1279.079743
 20
161.135925
 30
0.0
 11
1284.249725
 21
150.047974
 31
0.0
  0
LINE
  5
259
100
AcDbEntity
  8
枠_
  6
CONTINUOUS
 62
     3
100
AcDbLine
 10
1284.249725
 20
150.047974
 30
0.0
 11
1254.677582
 21
150.047974
 31
0.0
  0
LINE
  5
25A
100
AcDbEntity
  8
枠_
  6
CONTINUOUS
 62
     3
100
AcDbLine
 10
1259.847565
 20
161.135925
 30
0.0
 11
1254.677582
 21
150.047974
 31
0.0
  0
LINE
  5
25B
100
AcDbEntity
  8
枠_
  6
CONTINUOUS
 62
     3
100
AcDbLine
 10
1327.424927
 20
177.264008
 30
0.0
 11
1327.424927
 21
171.216034
 31
0.0
  0
LINE
  5
25C
100
AcDbEntity
  8
枠_
  6
CONTINUOUS
 62
     3
100
AcDbLine
 10
1327.424927
 20
177.264008
 30
0.0
 11
1336.495514
 21
177.264008
 31
0.0
  0
LINE
  5
25D
100
AcDbEntity
  8
枠_
  6
CONTINUOUS
 62
     3
100
AcDbLine
 10
1336.495514
 20
177.264008
 30
0.0
 11
1336.495514
 21
188.351959
 31
0.0
  0
LINE
  5
25E
100
AcDbEntity
  8
枠_
  6
CONTINUOUS
 62
     3
100
AcDbLine
 10
1336.495514
 20
188.351959
 30
0.0
 11
1346.575012
 21
188.351959
 31
0.0
  0
LINE
  5
25F
100
AcDbEntity
  8
枠_
  6
CONTINUOUS
 62
     3
100
AcDbLine
 10
1346.575012
 20
188.351959
 30
0.0
 11
1346.575012
 21
177.264008
 31
0.0
  0
LINE
  5
260
100
AcDbEntity
  8
枠_
  6
CONTINUOUS
 62
     3
100
AcDbLine
 10
1346.575012
 20
177.264008
 30
0.0
 11
1355.647736
 21
177.264008
 31
0.0
  0
LINE
  5
261
100
AcDbEntity
  8
枠_
  6
CONTINUOUS
 62
     3
100
AcDbLine
 10
1355.647736
 20
177.264008
 30
0.0
 11
1355.647736
 21
171.216034
 31
0.0
  0
LINE
  5
262
100
AcDbEntity
  8
枠_
  6
CONTINUOUS
 62
     3
100
AcDbLine
 10
1355.647736
 20
171.216034
 30
0.0
 11
1346.575012
 21
171.216034
 31
0.0
  0
LINE
  5
263
100
AcDbEntity
  8
枠_
  6
CONTINUOUS
 62
     3
100
AcDbLine
 10
1346.575012
 20
171.216034
 30
0.0
 11
1346.575012
 21
150.047974
 31
0.0
  0
LINE
  5
264
100
AcDbEntity
  8
枠_
  6
CONTINUOUS
 62
     3
100
AcDbLine
 10
1346.575012
 20
150.047974
 30
0.0
 11
1356.656647
 21
150.047974
 31
0.0
  0
LINE
  5
265
100
AcDbEntity
  8
枠_
  6
CONTINUOUS
 62
     3
100
AcDbLine
 10
1356.656647
 20
150.047974
 30
0.0
 11
1356.656647
 21
144.0
 31
0.0
  0
LINE
  5
266
100
AcDbEntity
  8
枠_
  6
CONTINUOUS
 62
     3
100
AcDbLine
 10
1356.656647
 20
144.0
 30
0.0
 11
1323.390961
 21
144.0
 31
0.0
  0
LINE
  5
267
100
AcDbEntity
  8
枠_
  6
CONTINUOUS
 62
     3
100
AcDbLine
 10
1323.390961
 20
144.0
 30
0.0
 11
1323.390961
 21
150.047974
 31
0.0
  0
LINE
  5
268
100
AcDbEntity
  8
枠_
  6
CONTINUOUS
 62
     3
100
AcDbLine
 10
1323.390961
 20
150.047974
 30
0.0
 11
1336.495514
 21
150.047974
 31
0.0
  0
LINE
  5
269
100
AcDbEntity
  8
枠_
  6
CONTINUOUS
 62
     3
100
AcDbLine
 10
1336.495514
 20
150.047974
 30
0.0
 11
1336.495514
 21
171.216034
 31
0.0
  0
LINE
  5
26A
100
AcDbEntity
  8
枠_
  6
CONTINUOUS
 62
     3
100
AcDbLine
 10
1336.495514
 20
171.216034
 30
0.0
 11
1327.424927
 21
171.216034
 31
0.0
  0
LINE
  5
26B
100
AcDbEntity
  8
枠_
  6
CONTINUOUS
 62
     3
100
AcDbLine
 10
1300.206909
 20
184.319977
 30
0.0
 11
1300.206909
 21
178.272003
 31
0.0
  0
LINE
  5
26C
100
AcDbEntity
  8
枠_
  6
CONTINUOUS
 62
     3
100
AcDbLine
 10
1300.206909
 20
184.319977
 30
0.0
 11
1309.279633
 21
184.319977
 31
0.0
  0
LINE
  5
26D
100
AcDbEntity
  8
枠_
  6
CONTINUOUS
 62
     3
100
AcDbLine
 10
1309.279633
 20
184.319977
 30
0.0
 11
1309.279633
 21
188.351959
 31
0.0
  0
LINE
  5
26E
100
AcDbEntity
  8
枠_
  6
CONTINUOUS
 62
     3
100
AcDbLine
 10
1309.279633
 20
188.351959
 30
0.0
 11
1319.359131
 21
188.351959
 31
0.0
  0
LINE
  5
26F
100
AcDbEntity
  8
枠_
  6
CONTINUOUS
 62
     3
100
AcDbLine
 10
1319.359131
 20
188.351959
 30
0.0
 11
1319.359131
 21
184.319977
 31
0.0
  0
LINE
  5
270
100
AcDbEntity
  8
枠_
  6
CONTINUOUS
 62
     3
100
AcDbLine
 10
1319.359131
 20
184.319977
 30
0.0
 11
1328.431854
 21
184.319977
 31
0.0
  0
LINE
  5
271
100
AcDbEntity
  8
枠_
  6
CONTINUOUS
 62
     3
100
AcDbLine
 10
1328.431854
 20
184.319977
 30
0.0
 11
1318.026123
 21
169.45578
 31
0.0
  0
LINE
  5
272
100
AcDbEntity
  8
枠_
  6
CONTINUOUS
 62
     3
100
AcDbLine
 10
1318.026123
 20
169.45578
 30
0.0
 11
1327.424927
 21
162.875885
 31
0.0
  0
LINE
  5
273
100
AcDbEntity
  8
枠_
  6
CONTINUOUS
 62
     3
100
AcDbLine
 10
1327.424927
 20
162.875885
 30
0.0
 11
1327.424927
 21
151.801209
 31
0.0
  0
LINE
  5
274
100
AcDbEntity
  8
枠_
  6
CONTINUOUS
 62
     3
100
AcDbLine
 10
1327.424927
 20
151.801209
 30
0.0
 11
1319.359131
 21
157.447723
 31
0.0
  0
LINE
  5
275
100
AcDbEntity
  8
枠_
  6
CONTINUOUS
 62
     3
100
AcDbLine
 10
1319.359131
 20
157.447723
 30
0.0
 11
1319.359131
 21
144.0
 31
0.0
  0
LINE
  5
276
100
AcDbEntity
  8
枠_
  6
CONTINUOUS
 62
     3
100
AcDbLine
 10
1319.359131
 20
144.0
 30
0.0
 11
1309.279633
 21
144.0
 31
0.0
  0
LINE
  5
277
100
AcDbEntity
  8
枠_
  6
CONTINUOUS
 62
     3
100
AcDbLine
 10
1309.279633
 20
144.0
 30
0.0
 11
1309.279633
 21
156.9599
 31
0.0
  0
LINE
  5
278
100
AcDbEntity
  8
枠_
  6
CONTINUOUS
 62
     3
100
AcDbLine
 10
1309.279633
 20
156.9599
 30
0.0
 11
1300.206909
 21
144.0
 31
0.0
  0
LINE
  5
279
100
AcDbEntity
  8
枠_
  6
CONTINUOUS
 62
     3
100
AcDbLine
 10
1300.206909
 20
144.0
 30
0.0
 11
1300.206909
 21
159.819397
 31
0.0
  0
LINE
  5
27A
100
AcDbEntity
  8
枠_
  6
CONTINUOUS
 62
     3
100
AcDbLine
 10
1300.206909
 20
159.819397
 30
0.0
 11
1313.124848
 21
178.272003
 31
0.0
  0
LINE
  5
27B
100
AcDbEntity
  8
枠_
  6
CONTINUOUS
 62
     3
100
AcDbLine
 10
1313.124848
 20
178.272003
 30
0.0
 11
1300.206909
 21
178.272003
 31
0.0
  0
ARC
  5
27C
100
AcDbEntity
  8
枠_
  6
CONTINUOUS
 62
     2
100
AcDbCircle
 10
858.161011
 20
170.200409
 30
0.0
 40
6.300122
100
AcDbArc
 50
310.768311
 51
335.998779
  0
LINE
  5
27D
100
AcDbEntity
  8
枠_
  6
CONTINUOUS
 62
     2
100
AcDbLine
 10
865.400238
 20
170.964111
 30
0.0
 11
863.919678
 21
167.639069
 31
0.0
  0
LINE
  5
27E
100
AcDbEntity
  8
枠_
  6
CONTINUOUS
 62
     2
100
AcDbLine
 10
847.985077
 20
174.744019
 30
0.0
 11
871.218414
 21
174.744019
 31
0.0
  0
ARC
  5
27F
100
AcDbEntity
  8
枠_
  6
CONTINUOUS
 62
     2
100
AcDbCircle
 10
951.299286
 20
162.144074
 30
0.0
 40
15.624008
100
AcDbArc
 50
270.000031
 51
324.00116
  0
ARC
  5
280
100
AcDbEntity
  8
枠_
  6
CONTINUOUS
 62
     2
100
AcDbCircle
 10
951.299286
 20
162.144074
 30
0.0
 40
13.10401
100
AcDbArc
 50
270.000031
 51
324.00116
  0
ARC
  5
281
100
AcDbEntity
  8
枠_
  6
CONTINUOUS
 62
     2
100
AcDbCircle
 10
798.565674
 20
162.144074
 30
0.0
 40
15.62398
100
AcDbArc
 50
270.000031
 51
333.99855
  0
ARC
  5
282
100
AcDbEntity
  8
枠_
  6
CONTINUOUS
 62
     2
100
AcDbCircle
 10
797.765503
 20
162.144074
 30
0.0
 40
10.583992
100
AcDbArc
 50
270.000031
 51
333.99855
  0
ARC
  5
283
100
AcDbEntity
  8
枠_
  6
CONTINUOUS
 62
     2
100
AcDbCircle
 10
798.165588
 20
162.144074
 30
0.0
 40
13.103991
100
AcDbArc
 50
270.000031
 51
333.99855
  0
LINE
  5
284
100
AcDbEntity
  8
枠_
  6
CONTINUOUS
 62
     2
100
AcDbLine
 10
771.84082
 20
186.032127
 30
0.0
 11
796.383972
 21
186.032127
 31
0.0
  0
LINE
  5
285
100
AcDbEntity
  8
枠_
  6
CONTINUOUS
 62
     2
100
AcDbLine
 10
771.84082
 20
183.712143
 30
0.0
 11
796.383972
 21
183.712143
 31
0.0
  0
LINE
  5
286
100
AcDbEntity
  8
枠_
  6
CONTINUOUS
 62
     2
100
AcDbLine
 10
771.84082
 20
181.392311
 30
0.0
 11
796.383972
 21
181.392311
 31
0.0
  0
LINE
  5
287
100
AcDbEntity
  8
枠_
  6
CONTINUOUS
 62
     2
100
AcDbLine
 10
771.84082
 20
174.136032
 30
0.0
 11
796.383972
 21
174.136032
 31
0.0
  0
LINE
  5
288
100
AcDbEntity
  8
枠_
  6
CONTINUOUS
 62
     2
100
AcDbLine
 10
771.84082
 20
171.615891
 30
0.0
 11
796.383972
 21
171.615891
 31
0.0
  0
LINE
  5
289
100
AcDbEntity
  8
枠_
  6
CONTINUOUS
 62
     2
100
AcDbLine
 10
771.84082
 20
169.296059
 30
0.0
 11
796.383972
 21
169.296059
 31
0.0
  0
LINE
  5
28A
100
AcDbEntity
  8
枠_
  6
CONTINUOUS
 62
     2
100
AcDbLine
 10
771.84082
 20
151.559967
 30
0.0
 11
797.765503
 21
151.559967
 31
0.0
  0
LINE
  5
28B
100
AcDbEntity
  8
枠_
  6
CONTINUOUS
 62
     2
100
AcDbLine
 10
771.84082
 20
149.039978
 30
0.0
 11
797.765503
 21
149.039978
 31
0.0
  0
LINE
  5
28C
100
AcDbEntity
  8
枠_
  6
CONTINUOUS
 62
     2
100
AcDbLine
 10
771.84082
 20
146.519989
 30
0.0
 11
797.765503
 21
146.519989
 31
0.0
  0
LINE
  5
28D
100
AcDbEntity
  8
枠_
  6
CONTINUOUS
 62
     2
100
AcDbLine
 10
807.277069
 20
157.504028
 30
0.0
 11
816.108246
 21
175.610365
 31
0.0
  0
LINE
  5
28E
100
AcDbEntity
  8
枠_
  6
CONTINUOUS
 62
     2
100
AcDbLine
 10
809.941254
 20
156.399597
 30
0.0
 11
819.311676
 21
175.610375
 31
0.0
  0
LINE
  5
28F
100
AcDbEntity
  8
枠_
  6
CONTINUOUS
 62
     2
100
AcDbLine
 10
812.605286
 20
155.294251
 30
0.0
 11
822.513123
 21
175.610346
 31
0.0
  0
LINE
  5
290
100
AcDbEntity
  8
枠_
  6
CONTINUOUS
 62
     2
100
AcDbLine
 10
809.136353
 20
185.695976
 30
0.0
 11
813.518372
 21
185.695976
 31
0.0
  0
LINE
  5
291
100
AcDbEntity
  8
枠_
  6
CONTINUOUS
 62
     2
100
AcDbLine
 10
809.136353
 20
182.839989
 30
0.0
 11
813.518372
 21
182.839989
 31
0.0
  0
LINE
  5
292
100
AcDbEntity
  8
枠_
  6
CONTINUOUS
 62
     2
100
AcDbLine
 10
820.224915
 20
185.695976
 30
0.0
 11
824.606934
 21
185.695976
 31
0.0
  0
LINE
  5
293
100
AcDbEntity
  8
枠_
  6
CONTINUOUS
 62
     2
100
AcDbLine
 10
820.224915
 20
182.839989
 30
0.0
 11
824.606934
 21
182.839989
 31
0.0
  0
LINE
  5
294
100
AcDbEntity
  8
枠_
  6
CONTINUOUS
 62
     2
100
AcDbLine
 10
831.313477
 20
172.224182
 30
0.0
 11
843.28064
 21
172.224182
 31
0.0
  0
LINE
  5
295
100
AcDbEntity
  8
枠_
  6
CONTINUOUS
 62
     2
100
AcDbLine
 10
840.375366
 20
182.502684
 30
0.0
 11
841.605072
 21
174.744019
 31
0.0
  0
LINE
  5
296
100
AcDbEntity
  8
枠_
  6
CONTINUOUS
 62
     2
100
AcDbLine
 10
846.188049
 20
145.817303
 30
0.0
 11
842.449036
 21
169.419044
 31
0.0
  0
ARC
  5
297
100
AcDbEntity
  8
枠_
  6
CONTINUOUS
 62
     2
100
AcDbCircle
 10
857.960968
 20
170.200409
 30
0.0
 40
8.820121
100
AcDbArc
 50
272.671387
 51
335.998779
  0
ARC
  5
298
100
AcDbEntity
  8
枠_
  6
CONTINUOUS
 62
     2
100
AcDbCircle
 10
857.760925
 20
170.200409
 30
0.0
 40
11.340113
100
AcDbArc
 50
267.367432
 51
335.998779
  0
LINE
  5
299
100
AcDbEntity
  8
枠_
  6
CONTINUOUS
 62
     2
100
AcDbLine
 10
872.351685
 20
175.090527
 30
0.0
 11
868.12149
 21
165.588592
 31
0.0
  0
LINE
  5
29A
100
AcDbEntity
  8
枠_
  6
CONTINUOUS
 62
     2
100
AcDbLine
 10
852.090607
 20
145.817303
 30
0.0
 11
848.220367
 21
170.248817
 31
0.0
  0
LINE
  5
29B
100
AcDbEntity
  8
枠_
  6
CONTINUOUS
 62
     2
100
AcDbLine
 10
849.339294
 20
145.817303
 30
0.0
 11
843.528442
 21
182.502674
 31
0.0
  0
LINE
  5
29C
100
AcDbEntity
  8
枠_
  6
CONTINUOUS
 62
     2
100
AcDbLine
 10
846.279755
 20
182.502674
 30
0.0
 11
847.39563
 21
175.459465
 31
0.0
  0
LINE
  5
29D
100
AcDbEntity
  8
枠_
  6
CONTINUOUS
 62
     2
100
AcDbLine
 10
831.313477
 20
174.744019
 30
0.0
 11
839.605103
 21
174.744019
 31
0.0
  0
LINE
  5
29E
100
AcDbEntity
  8
枠_
  6
CONTINUOUS
 62
     2
100
AcDbLine
 10
868.669891
 20
172.570395
 30
0.0
 11
866.020508
 21
166.613525
 31
0.0
  0
LINE
  5
29F
100
AcDbEntity
  8
枠_
  6
CONTINUOUS
 62
     2
100
AcDbLine
 10
847.107391
 20
172.224182
 30
0.0
 11
866.338196
 21
172.224182
 31
0.0
  0
ARC
  5
2A0
100
AcDbEntity
  8
枠_
  6
CONTINUOUS
 62
     2
100
AcDbCircle
 10
857.560883
 20
170.200409
 30
0.0
 40
13.860111
100
AcDbArc
 50
269.611328
 51
335.998779
  0
LINE
  5
2A1
100
AcDbEntity
  8
枠_
  6
CONTINUOUS
 62
     2
100
AcDbLine
 10
874.909821
 20
175.090555
 30
0.0
 11
870.222473
 21
164.563354
 31
0.0
  0
LINE
  5
2A2
100
AcDbEntity
  8
枠_
  6
CONTINUOUS
 62
     2
100
AcDbLine
 10
982.312622
 20
183.312134
 30
0.0
 11
961.880646
 21
155.182709
 31
0.0
  0
LINE
  5
2A3
100
AcDbEntity
  8
枠_
  6
CONTINUOUS
 62
     2
100
AcDbLine
 10
976.868134
 20
180.792297
 30
0.0
 11
959.342041
 21
156.664032
 31
0.0
  0
ARC
  5
2A4
100
AcDbEntity
  8
枠_
  6
CONTINUOUS
 62
     2
100
AcDbCircle
 10
951.999359
 20
161.744064
 30
0.0
 40
9.324021
100
AcDbArc
 50
270.000031
 51
324.00116
  0
LINE
  5
2A5
100
AcDbEntity
  8
枠_
  6
CONTINUOUS
 62
     2
100
AcDbLine
 10
882.879486
 20
186.015591
 30
0.0
 11
927.263641
 21
186.015591
 31
0.0
  0
LINE
  5
2A6
100
AcDbEntity
  8
枠_
  6
CONTINUOUS
 62
     2
100
AcDbLine
 10
882.879486
 20
183.395752
 30
0.0
 11
927.263641
 21
183.395752
 31
0.0
  0
LINE
  5
2A7
100
AcDbEntity
  8
枠_
  6
CONTINUOUS
 62
     2
100
AcDbLine
 10
882.879486
 20
180.675911
 30
0.0
 11
927.263641
 21
180.675911
 31
0.0
  0
LINE
  5
2A8
100
AcDbEntity
  8
枠_
  6
CONTINUOUS
 62
     2
100
AcDbLine
 10
878.847656
 20
151.644043
 30
0.0
 11
931.295471
 21
151.644043
 31
0.0
  0
LINE
  5
2A9
100
AcDbEntity
  8
枠_
  6
CONTINUOUS
 62
     2
100
AcDbLine
 10
878.847656
 20
149.124054
 30
0.0
 11
931.295471
 21
149.124054
 31
0.0
  0
LINE
  5
2AA
100
AcDbEntity
  8
枠_
  6
CONTINUOUS
 62
     2
100
AcDbLine
 10
878.847656
 20
146.403908
 30
0.0
 11
931.295471
 21
146.403908
 31
0.0
  0
LINE
  5
2AB
100
AcDbEntity
  8
枠_
  6
CONTINUOUS
 62
     2
100
AcDbLine
 10
942.352142
 20
185.932125
 30
0.0
 11
985.256806
 21
185.932125
 31
0.0
  0
LINE
  5
2AC
100
AcDbEntity
  8
枠_
  6
CONTINUOUS
 62
     2
100
AcDbLine
 10
987.856903
 20
185.832123
 30
0.0
 11
964.519043
 21
153.700623
 31
0.0
  0
LINE
  5
2AD
100
AcDbEntity
  8
枠_
  6
CONTINUOUS
 62
     2
100
AcDbLine
 10
942.352142
 20
183.312134
 30
0.0
 11
980.3125
 21
183.312134
 31
0.0
  0
LINE
  5
2AE
100
AcDbEntity
  8
枠_
  6
CONTINUOUS
 62
     2
100
AcDbLine
 10
951.299286
 20
151.659969
 30
0.0
 11
938.320313
 21
151.659969
 31
0.0
  0
LINE
  5
2AF
100
AcDbEntity
  8
枠_
  6
CONTINUOUS
 62
     2
100
AcDbLine
 10
951.299286
 20
149.039978
 30
0.0
 11
938.320313
 21
149.039978
 31
0.0
  0
LINE
  5
2B0
100
AcDbEntity
  8
枠_
  6
CONTINUOUS
 62
     2
100
AcDbLine
 10
951.299286
 20
146.419987
 30
0.0
 11
938.320313
 21
146.419987
 31
0.0
  0
LINE
  5
2B1
100
AcDbEntity
  8
枠_
  6
CONTINUOUS
 62
     2
100
AcDbLine
 10
971.431885
 20
159.737152
 30
0.0
 11
983.371582
 21
145.999998
 31
0.0
  0
LINE
  5
2B2
100
AcDbEntity
  8
枠_
  6
CONTINUOUS
 62
     2
100
AcDbLine
 10
972.953491
 20
161.530508
 30
0.0
 11
986.451721
 21
145.999998
 31
0.0
  0
LINE
  5
2B3
100
AcDbEntity
  8
枠_
  6
CONTINUOUS
 62
     2
100
AcDbLine
 10
974.473114
 20
163.322949
 30
0.0
 11
989.529419
 21
145.999998
 31
0.0
  0
LINE
  5
2B4
100
AcDbEntity
  8
枠_
  6
CONTINUOUS
 62
     2
100
AcDbLine
 10
975.992737
 20
165.115847
 30
0.0
 11
992.609253
 21
145.999998
 31
0.0
  0
LINE
  5
2B5
100
AcDbEntity
  8
枠_
  6
CONTINUOUS
 62
     2
100
AcDbLine
 10
942.352142
 20
180.592293
 30
0.0
 11
974.367981
 21
180.592293
 31
0.0
  0
LINE
  5
2B6
100
AcDbEntity
  8
枠_
  6
CONTINUOUS
 62
     2
100
AcDbLine
 10
1010.895538
 20
186.032127
 30
0.0
 11
1059.311371
 21
186.032127
 31
0.0
  0
LINE
  5
2B7
100
AcDbEntity
  8
枠_
  6
CONTINUOUS
 62
     2
100
AcDbLine
 10
1010.895538
 20
183.512138
 30
0.0
 11
1059.311371
 21
183.512138
 31
0.0
  0
LINE
  5
2B8
100
AcDbEntity
  8
枠_
  6
CONTINUOUS
 62
     2
100
AcDbLine
 10
1031.677399
 20
151.479916
 30
0.0
 11
1031.677399
 21
181.212219
 31
0.0
  0
LINE
  5
2B9
100
AcDbEntity
  8
枠_
  6
CONTINUOUS
 62
     2
100
AcDbLine
 10
1034.195862
 20
151.479916
 30
0.0
 11
1034.195862
 21
181.212219
 31
0.0
  0
LINE
  5
2BA
100
AcDbEntity
  8
枠_
  6
CONTINUOUS
 62
     2
100
AcDbLine
 10
1036.714172
 20
151.479916
 30
0.0
 11
1036.714172
 21
181.212219
 31
0.0
  0
LINE
  5
2BB
100
AcDbEntity
  8
枠_
  6
CONTINUOUS
 62
     2
100
AcDbLine
 10
1039.03244
 20
151.479916
 30
0.0
 11
1039.03244
 21
181.212219
 31
0.0
  0
LINE
  5
2BC
100
AcDbEntity
  8
枠_
  6
CONTINUOUS
 62
     2
100
AcDbLine
 10
1008.879547
 20
149.479918
 30
0.0
 11
1061.327362
 21
149.479918
 31
0.0
  0
LINE
  5
2BD
100
AcDbEntity
  8
枠_
  6
CONTINUOUS
 62
     2
100
AcDbLine
 10
1008.879547
 20
146.459927
 30
0.0
 11
1061.327362
 21
146.459927
 31
0.0
  0
LINE
  5
2BE
100
AcDbEntity
  8
枠_
  6
CONTINUOUS
 62
     2
100
AcDbLine
 10
1073.127594
 20
186.351961
 30
0.0
 11
1076.87088
 21
181.561502
 31
0.0
  0
LINE
  5
2BF
100
AcDbEntity
  8
枠_
  6
CONTINUOUS
 62
     2
100
AcDbLine
 10
1076.324768
 20
186.351961
 30
0.0
 11
1080.068054
 21
181.561502
 31
0.0
  0
LINE
  5
2C0
100
AcDbEntity
  8
枠_
  6
CONTINUOUS
 62
     2
100
AcDbLine
 10
1086.31134
 20
186.351961
 30
0.0
 11
1086.31134
 21
181.985563
 31
0.0
  0
LINE
  5
2C1
100
AcDbEntity
  8
枠_
  6
CONTINUOUS
 62
     2
100
AcDbLine
 10
1089.029846
 20
186.351961
 30
0.0
 11
1089.029846
 21
181.985563
 31
0.0
  0
LINE
  5
2C2
100
AcDbEntity
  8
枠_
  6
CONTINUOUS
 62
     2
100
AcDbLine
 10
1096.390991
 20
186.351961
 30
0.0
 11
1096.390991
 21
181.985563
 31
0.0
  0
LINE
  5
2C3
100
AcDbEntity
  8
枠_
  6
CONTINUOUS
 62
     2
100
AcDbLine
 10
1099.309387
 20
186.351961
 30
0.0
 11
1099.309387
 21
181.985563
 31
0.0
  0
LINE
  5
2C4
100
AcDbEntity
  8
枠_
  6
CONTINUOUS
 62
     2
100
AcDbLine
 10
1108.995667
 20
186.351961
 30
0.0
 11
1105.25238
 21
181.561502
 31
0.0
  0
LINE
  5
2C5
100
AcDbEntity
  8
枠_
  6
CONTINUOUS
 62
     2
100
AcDbLine
 10
1112.392883
 20
186.351961
 30
0.0
 11
1108.649597
 21
181.561502
 31
0.0
  0
LINE
  5
2C6
100
AcDbEntity
  8
枠_
  6
CONTINUOUS
 62
     2
100
AcDbLine
 10
1066.336212
 20
179.985565
 30
0.0
 11
1118.784027
 21
179.985565
 31
0.0
  0
LINE
  5
2C7
100
AcDbEntity
  8
枠_
  6
CONTINUOUS
 62
     2
100
AcDbLine
 10
1079.431763
 20
172.188286
 30
0.0
 11
1077.277832
 21
178.106178
 31
0.0
  0
LINE
  5
2C8
100
AcDbEntity
  8
枠_
  6
CONTINUOUS
 62
     2
100
AcDbLine
 10
1082.512207
 20
172.188286
 30
0.0
 11
1080.358276
 21
178.106178
 31
0.0
  0
LINE
  5
2C9
100
AcDbEntity
  8
枠_
  6
CONTINUOUS
 62
     2
100
AcDbLine
 10
1085.392609
 20
172.188515
 30
0.0
 11
1083.241119
 21
178.105949
 31
0.0
  0
LINE
  5
2CA
100
AcDbEntity
  8
枠_
  6
CONTINUOUS
 62
     2
100
AcDbLine
 10
1099.919434
 20
172.188066
 30
0.0
 11
1102.075653
 21
178.106398
 31
0.0
  0
LINE
  5
2CB
100
AcDbEntity
  8
枠_
  6
CONTINUOUS
 62
     2
100
AcDbLine
 10
1103.002014
 20
172.188066
 30
0.0
 11
1105.158234
 21
178.106398
 31
0.0
  0
LINE
  5
2CC
100
AcDbEntity
  8
枠_
  6
CONTINUOUS
 62
     2
100
AcDbLine
 10
1105.882416
 20
172.188066
 30
0.0
 11
1108.038635
 21
178.106398
 31
0.0
  0
LINE
  5
2CD
100
AcDbEntity
  8
枠_
  6
CONTINUOUS
 62
     2
100
AcDbLine
 10
1066.336212
 20
170.308899
 30
0.0
 11
1118.784027
 21
170.308899
 31
0.0
  0
LINE
  5
2CE
100
AcDbEntity
  8
枠_
  6
CONTINUOUS
 62
     2
100
AcDbLine
 10
1066.336212
 20
163.353638
 30
0.0
 11
1087.838745
 21
163.353638
 31
0.0
  0
LINE
  5
2CF
100
AcDbEntity
  8
枠_
  6
CONTINUOUS
 62
     2
100
AcDbLine
 10
1066.336212
 20
156.398377
 30
0.0
 11
1087.838745
 21
156.398377
 31
0.0
  0
LINE
  5
2D0
100
AcDbEntity
  8
枠_
  6
CONTINUOUS
 62
     2
100
AcDbLine
 10
1097.475586
 20
156.398377
 30
0.0
 11
1118.784027
 21
156.398377
 31
0.0
  0
LINE
  5
2D1
100
AcDbEntity
  8
枠_
  6
CONTINUOUS
 62
     2
100
AcDbLine
 10
1069.50882
 20
145.999998
 30
0.0
 11
1079.533234
 21
155.057539
 31
0.0
  0
LINE
  5
2D2
100
AcDbEntity
  8
枠_
  6
CONTINUOUS
 62
     2
100
AcDbLine
 10
1072.867737
 20
145.999998
 30
0.0
 11
1082.892456
 21
155.057558
 31
0.0
  0
LINE
  5
2D3
100
AcDbEntity
  8
枠_
  6
CONTINUOUS
 62
     2
100
AcDbLine
 10
1076.028748
 20
145.999998
 30
0.0
 11
1086.053467
 21
155.057558
 31
0.0
  0
LINE
  5
2D4
100
AcDbEntity
  8
枠_
  6
CONTINUOUS
 62
     2
100
AcDbLine
 10
1089.838715
 20
145.999998
 30
0.0
 11
1089.838715
 21
168.308901
 31
0.0
  0
LINE
  5
2D5
100
AcDbEntity
  8
枠_
  6
CONTINUOUS
 62
     2
100
AcDbLine
 10
1092.757111
 20
145.999998
 30
0.0
 11
1092.757111
 21
168.308901
 31
0.0
  0
LINE
  5
2D6
100
AcDbEntity
  8
枠_
  6
CONTINUOUS
 62
     2
100
AcDbLine
 10
1095.475617
 20
145.999998
 30
0.0
 11
1095.475617
 21
168.308901
 31
0.0
  0
LINE
  5
2D7
100
AcDbEntity
  8
枠_
  6
CONTINUOUS
 62
     2
100
AcDbLine
 10
1109.171753
 20
145.999998
 30
0.0
 11
1099.147339
 21
155.057539
 31
0.0
  0
LINE
  5
2D8
100
AcDbEntity
  8
枠_
  6
CONTINUOUS
 62
     2
100
AcDbLine
 10
1112.530823
 20
145.999998
 30
0.0
 11
1102.506104
 21
155.057558
 31
0.0
  0
LINE
  5
2D9
100
AcDbEntity
  8
枠_
  6
CONTINUOUS
 62
     2
100
AcDbLine
 10
1115.891876
 20
145.999998
 30
0.0
 11
1105.867157
 21
155.057558
 31
0.0
  0
LINE
  5
2DA
100
AcDbEntity
  8
枠_
  6
CONTINUOUS
 62
     2
100
AcDbLine
 10
1134.997864
 20
186.351961
 30
0.0
 11
1134.997864
 21
182.79199
 31
0.0
  0
LINE
  5
2DB
100
AcDbEntity
  8
枠_
  6
CONTINUOUS
 62
     2
100
AcDbLine
 10
1137.516174
 20
186.351961
 30
0.0
 11
1137.516174
 21
182.79199
 31
0.0
  0
LINE
  5
2DC
100
AcDbEntity
  8
枠_
  6
CONTINUOUS
 62
     2
100
AcDbLine
 10
1140.034638
 20
186.351961
 30
0.0
 11
1140.034638
 21
182.79199
 31
0.0
  0
LINE
  5
2DD
100
AcDbEntity
  8
枠_
  6
CONTINUOUS
 62
     2
100
AcDbLine
 10
1124.799957
 20
180.791992
 30
0.0
 11
1142.975159
 21
180.791992
 31
0.0
  0
LINE
  5
2DE
100
AcDbEntity
  8
枠_
  6
CONTINUOUS
 62
     2
100
AcDbLine
 10
1124.944153
 20
145.98905
 30
0.0
 11
1128.392029
 21
178.802942
 31
0.0
  0
LINE
  5
2DF
100
AcDbEntity
  8
枠_
  6
CONTINUOUS
 62
     2
100
AcDbLine
 10
1127.276764
 20
145.98905
 30
0.0
 11
1130.724792
 21
178.802942
 31
0.0
  0
LINE
  5
2E0
100
AcDbEntity
  8
枠_
  6
CONTINUOUS
 62
     2
100
AcDbLine
 10
1134.997864
 20
145.999998
 30
0.0
 11
1134.997864
 21
178.791994
 31
0.0
  0
LINE
  5
2E1
100
AcDbEntity
  8
枠_
  6
CONTINUOUS
 62
     2
100
AcDbLine
 10
1137.516174
 20
145.999998
 30
0.0
 11
1137.516174
 21
178.791994
 31
0.0
  0
LINE
  5
2E2
100
AcDbEntity
  8
枠_
  6
CONTINUOUS
 62
     2
100
AcDbLine
 10
1140.034638
 20
145.999998
 30
0.0
 11
1140.034638
 21
178.791994
 31
0.0
  0
LINE
  5
2E3
100
AcDbEntity
  8
枠_
  6
CONTINUOUS
 62
     2
100
AcDbLine
 10
1141.209259
 20
176.154245
 30
0.0
 11
1143.800354
 21
172.583841
 31
0.0
  0
LINE
  5
2E4
100
AcDbEntity
  8
枠_
  6
CONTINUOUS
 62
     2
100
AcDbLine
 10
1141.209259
 20
172.264246
 30
0.0
 11
1143.800354
 21
168.693842
 31
0.0
  0
LINE
  5
2E5
100
AcDbEntity
  8
枠_
  6
CONTINUOUS
 62
     2
100
AcDbLine
 10
1147.469177
 20
177.188601
 30
0.0
 11
1149.768829
 21
186.411375
 31
0.0
  0
LINE
  5
2E6
100
AcDbEntity
  8
枠_
  6
CONTINUOUS
 62
     2
100
AcDbLine
 10
1149.867401
 20
177.188686
 30
0.0
 11
1152.165222
 21
186.411289
 31
0.0
  0
LINE
  5
2E7
100
AcDbEntity
  8
枠_
  6
CONTINUOUS
 62
     2
100
AcDbLine
 10
1151.963806
 20
177.188601
 30
0.0
 11
1154.263458
 21
186.411375
 31
0.0
  0
LINE
  5
2E8
100
AcDbEntity
  8
枠_
  6
CONTINUOUS
 62
     2
100
AcDbLine
 10
1160.702362
 20
182.79199
 30
0.0
 11
1160.702362
 21
186.351961
 31
0.0
  0
LINE
  5
2E9
100
AcDbEntity
  8
枠_
  6
CONTINUOUS
 62
     2
100
AcDbLine
 10
1163.420715
 20
182.79199
 30
0.0
 11
1163.420715
 21
186.351961
 31
0.0
  0
LINE
  5
2EA
100
AcDbEntity
  8
枠_
  6
CONTINUOUS
 62
     2
100
AcDbLine
 10
1165.939179
 20
182.79199
 30
0.0
 11
1165.939179
 21
186.351961
 31
0.0
  0
LINE
  5
2EB
100
AcDbEntity
  8
枠_
  6
CONTINUOUS
 62
     2
100
AcDbLine
 10
1154.862213
 20
180.791992
 30
0.0
 11
1177.247772
 21
180.791992
 31
0.0
  0
LINE
  5
2EC
100
AcDbEntity
  8
枠_
  6
CONTINUOUS
 62
     2
100
AcDbLine
 10
1160.702362
 20
178.791994
 30
0.0
 11
1160.702362
 21
172.712034
 31
0.0
  0
LINE
  5
2ED
100
AcDbEntity
  8
枠_
  6
CONTINUOUS
 62
     2
100
AcDbLine
 10
1163.420715
 20
178.791994
 30
0.0
 11
1163.420715
 21
172.712034
 31
0.0
  0
LINE
  5
2EE
100
AcDbEntity
  8
枠_
  6
CONTINUOUS
 62
     2
100
AcDbLine
 10
1165.939179
 20
178.791994
 30
0.0
 11
1165.939179
 21
172.712034
 31
0.0
  0
LINE
  5
2EF
100
AcDbEntity
  8
枠_
  6
CONTINUOUS
 62
     2
100
AcDbLine
 10
1147.984009
 20
170.712036
 30
0.0
 11
1178.256683
 21
170.712036
 31
0.0
  0
LINE
  5
2F0
100
AcDbEntity
  8
枠_
  6
CONTINUOUS
 62
     2
100
AcDbLine
 10
1152.447968
 20
168.744387
 30
0.0
 11
1148.300781
 21
145.967649
 31
0.0
  0
LINE
  5
2F1
100
AcDbEntity
  8
枠_
  6
CONTINUOUS
 62
     2
100
AcDbLine
 10
1154.807282
 20
168.744387
 30
0.0
 11
1150.660248
 21
145.967649
 31
0.0
  0
LINE
  5
2F2
100
AcDbEntity
  8
枠_
  6
CONTINUOUS
 62
     2
100
AcDbLine
 10
1156.889191
 20
168.744415
 30
0.0
 11
1152.740021
 21
145.967621
 31
0.0
  0
LINE
  5
2F3
100
AcDbEntity
  8
枠_
  6
CONTINUOUS
 62
     2
100
AcDbLine
 10
1160.702362
 20
168.712038
 30
0.0
 11
1160.702362
 21
145.999998
 31
0.0
  0
LINE
  5
2F4
100
AcDbEntity
  8
枠_
  6
CONTINUOUS
 62
     2
100
AcDbLine
 10
1163.220673
 20
168.712038
 30
0.0
 11
1163.220673
 21
145.999998
 31
0.0
  0
LINE
  5
2F5
100
AcDbEntity
  8
枠_
  6
CONTINUOUS
 62
     3
100
AcDbLine
 10
1165.939179
 20
168.712038
 30
0.0
 11
1165.939179
 21
145.999998
 31
0.0
  0
LINE
  5
2F6
100
AcDbEntity
  8
枠_
  6
CONTINUOUS
 62
     2
100
AcDbLine
 10
1169.349518
 20
168.744415
 30
0.0
 11
1173.498688
 21
145.967621
 31
0.0
  0
LINE
  5
2F7
100
AcDbEntity
  8
枠_
  6
CONTINUOUS
 62
     2
100
AcDbLine
 10
1171.510925
 20
168.744415
 30
0.0
 11
1175.660095
 21
145.967621
 31
0.0
  0
LINE
  5
2F8
100
AcDbEntity
  8
枠_
  6
CONTINUOUS
 62
     2
100
AcDbLine
 10
1174.070282
 20
168.744415
 30
0.0
 11
1178.219452
 21
145.967621
 31
0.0
  0
LINE
  5
2F9
100
AcDbEntity
  8
枠_
  6
CONTINUOUS
 62
     2
100
AcDbLine
 10
1184.272614
 20
182.400154
 30
0.0
 11
1212.824097
 21
182.400154
 31
0.0
  0
LINE
  5
2FA
100
AcDbEntity
  8
枠_
  6
CONTINUOUS
 62
     2
100
AcDbLine
 10
1184.272614
 20
179.880165
 30
0.0
 11
1213.741303
 21
179.880165
 31
0.0
  0
LINE
  5
2FB
100
AcDbEntity
  8
枠_
  6
CONTINUOUS
 62
     2
100
AcDbLine
 10
1228.116608
 20
145.879387
 30
0.0
 11
1213.34198
 21
186.472572
 31
0.0
  0
LINE
  5
2FC
100
AcDbEntity
  8
枠_
  6
CONTINUOUS
 62
     2
100
AcDbLine
 10
1230.796967
 20
145.879396
 30
0.0
 11
1216.022949
 21
186.472563
 31
0.0
  0
LINE
  5
2FD
100
AcDbEntity
  8
枠_
  6
CONTINUOUS
 62
     2
100
AcDbLine
 10
1233.477326
 20
145.879396
 30
0.0
 11
1218.703308
 21
186.472563
 31
0.0
  0
LINE
  5
2FE
100
AcDbEntity
  8
枠_
  6
CONTINUOUS
 62
     2
100
AcDbLine
 10
1236.157684
 20
145.879358
 30
0.0
 11
1221.381378
 21
186.472591
 31
0.0
  0
LINE
  5
2FF
100
AcDbEntity
  8
枠_
  6
CONTINUOUS
 62
     2
100
AcDbLine
 10
1228.543091
 20
184.400152
 30
0.0
 11
1228.543091
 21
186.351961
 31
0.0
  0
LINE
  5
300
100
AcDbEntity
  8
枠_
  6
CONTINUOUS
 62
     2
100
AcDbLine
 10
1231.261597
 20
184.400152
 30
0.0
 11
1231.261597
 21
186.351961
 31
0.0
  0
LINE
  5
301
100
AcDbEntity
  8
枠_
  6
CONTINUOUS
 62
     2
100
AcDbLine
 10
1233.97995
 20
184.400152
 30
0.0
 11
1233.97995
 21
186.351961
 31
0.0
  0
LINE
  5
302
100
AcDbEntity
  8
枠_
  6
CONTINUOUS
 62
     2
100
AcDbLine
 10
1224.863739
 20
182.400154
 30
0.0
 11
1236.720429
 21
182.400154
 31
0.0
  0
LINE
  5
303
100
AcDbEntity
  8
枠_
  6
CONTINUOUS
 62
     2
100
AcDbLine
 10
1225.781098
 20
179.880165
 30
0.0
 11
1236.720429
 21
179.880165
 31
0.0
  0
LINE
  5
304
100
AcDbEntity
  8
枠_
  6
CONTINUOUS
 62
     2
100
AcDbLine
 10
1187.295532
 20
170.364098
 30
0.0
 11
1213.536377
 21
170.364098
 31
0.0
  0
LINE
  5
305
100
AcDbEntity
  8
枠_
  6
CONTINUOUS
 62
     2
100
AcDbLine
 10
1187.295532
 20
167.843956
 30
0.0
 11
1213.536377
 21
167.843956
 31
0.0
  0
LINE
  5
306
100
AcDbEntity
  8
枠_
  6
CONTINUOUS
 62
     2
100
AcDbLine
 10
1196.790924
 20
165.843958
 30
0.0
 11
1196.790924
 21
155.791153
 31
0.0
  0
LINE
  5
307
100
AcDbEntity
  8
枠_
  6
CONTINUOUS
 62
     2
100
AcDbLine
 10
1199.309235
 20
165.843958
 30
0.0
 11
1199.309235
 21
156.326431
 31
0.0
  0
LINE
  5
308
100
AcDbEntity
  8
枠_
  6
CONTINUOUS
 62
     2
100
AcDbLine
 10
1201.827545
 20
165.843958
 30
0.0
 11
1201.827545
 21
156.861719
 31
0.0
  0
LINE
  5
309
100
AcDbEntity
  8
枠_
  6
CONTINUOUS
 62
     2
100
AcDbLine
 10
1204.346008
 20
165.843958
 30
0.0
 11
1204.346008
 21
157.397026
 31
0.0
  0
LINE
  5
30A
100
AcDbEntity
  8
枠_
  6
CONTINUOUS
 62
     2
100
AcDbLine
 10
1186.747284
 20
151.656317
 30
0.0
 11
1214.084473
 21
157.466997
 31
0.0
  0
LINE
  5
30B
100
AcDbEntity
  8
枠_
  6
CONTINUOUS
 62
     2
100
AcDbLine
 10
1186.747284
 20
148.880028
 30
0.0
 11
1214.084473
 21
154.690851
 31
0.0
  0
LINE
  5
30C
100
AcDbEntity
  8
枠_
  6
CONTINUOUS
 62
     2
100
AcDbLine
 10
1186.747284
 20
146.503729
 30
0.0
 11
1214.084473
 21
152.314409
 31
0.0
  0
LINE
  5
30D
100
AcDbEntity
  8
枠_
  6
CONTINUOUS
 62
     2
100
AcDbLine
 10
1242.633057
 20
178.325943
 30
0.0
 11
1268.51532
 21
186.985401
 31
0.0
  0
LINE
  5
30E
100
AcDbEntity
  8
枠_
  6
CONTINUOUS
 62
     2
100
AcDbLine
 10
1242.633057
 20
175.668625
 30
0.0
 11
1268.51532
 21
184.328236
 31
0.0
  0
LINE
  5
30F
100
AcDbEntity
  8
枠_
  6
CONTINUOUS
 62
     2
100
AcDbLine
 10
1270.411987
 20
186.985392
 30
0.0
 11
1296.294403
 21
178.325304
 31
0.0
  0
LINE
  5
310
100
AcDbEntity
  8
枠_
  6
CONTINUOUS
 62
     2
100
AcDbLine
 10
1270.411987
 20
184.528231
 30
0.0
 11
1296.294403
 21
175.868143
 31
0.0
  0
LINE
  5
311
100
AcDbEntity
  8
枠_
  6
CONTINUOUS
 62
     2
100
AcDbLine
 10
1287.62497
 20
175.596107
 30
0.0
 11
1251.304474
 21
175.596107
 31
0.0
  0
LINE
  5
312
100
AcDbEntity
  8
枠_
  6
CONTINUOUS
 62
     2
100
AcDbLine
 10
1287.62497
 20
172.875961
 30
0.0
 11
1251.304474
 21
172.875961
 31
0.0
  0
LINE
  5
313
100
AcDbEntity
  8
枠_
  6
CONTINUOUS
 62
     2
100
AcDbLine
 10
1242.736359
 20
165.063919
 30
0.0
 11
1296.191101
 21
165.063919
 31
0.0
  0
LINE
  5
314
100
AcDbEntity
  8
枠_
  6
CONTINUOUS
 62
     2
100
AcDbLine
 10
1242.736359
 20
162.744087
 30
0.0
 11
1296.191101
 21
162.744087
 31
0.0
  0
LINE
  5
315
100
AcDbEntity
  8
枠_
  6
CONTINUOUS
 62
     2
100
AcDbLine
 10
1251.013336
 20
160.931534
 30
0.0
 11
1245.911255
 21
149.99246
 31
0.0
  0
LINE
  5
316
100
AcDbEntity
  8
枠_
  6
CONTINUOUS
 62
     2
100
AcDbLine
 10
1254.194336
 20
160.931543
 30
0.0
 11
1249.092102
 21
149.99246
 31
0.0
  0
LINE
  5
317
100
AcDbEntity
  8
枠_
  6
CONTINUOUS
 62
     2
100
AcDbLine
 10
1257.375336
 20
160.931543
 30
0.0
 11
1252.273102
 21
149.99246
 31
0.0
  0
LINE
  5
318
100
AcDbEntity
  8
枠_
  6
CONTINUOUS
 62
     2
100
AcDbLine
 10
1281.554108
 20
160.931667
 30
0.0
 11
1286.658325
 21
149.992336
 31
0.0
  0
LINE
  5
319
100
AcDbEntity
  8
枠_
  6
CONTINUOUS
 62
     2
100
AcDbLine
 10
1284.737091
 20
160.931419
 30
0.0
 11
1289.837036
 21
149.992584
 31
0.0
  0
LINE
  5
31A
100
AcDbEntity
  8
枠_
  6
CONTINUOUS
 62
     2
100
AcDbLine
 10
1287.919922
 20
160.931315
 30
0.0
 11
1293.018189
 21
149.992689
 31
0.0
  0
LINE
  5
31B
100
AcDbEntity
  8
枠_
  6
CONTINUOUS
 62
     2
100
AcDbLine
 10
1244.685364
 20
148.179916
 30
0.0
 11
1294.242096
 21
148.179916
 31
0.0
  0
LINE
  5
31C
100
AcDbEntity
  8
枠_
  6
CONTINUOUS
 62
     2
100
AcDbLine
 10
1243.510285
 20
145.659927
 30
0.0
 11
1295.417175
 21
145.659927
 31
0.0
  0
LINE
  5
31D
100
AcDbEntity
  8
枠_
  6
CONTINUOUS
 62
     2
100
AcDbLine
 10
1311.397858
 20
184.400152
 30
0.0
 11
1311.397858
 21
186.351961
 31
0.0
  0
LINE
  5
31E
100
AcDbEntity
  8
枠_
  6
CONTINUOUS
 62
     2
100
AcDbLine
 10
1314.316254
 20
184.400152
 30
0.0
 11
1314.316254
 21
186.351961
 31
0.0
  0
LINE
  5
31F
100
AcDbEntity
  8
枠_
  6
CONTINUOUS
 62
     2
100
AcDbLine
 10
1317.234802
 20
184.400152
 30
0.0
 11
1317.234802
 21
186.351961
 31
0.0
  0
LINE
  5
320
100
AcDbEntity
  8
枠_
  6
CONTINUOUS
 62
     2
100
AcDbLine
 10
1302.206879
 20
182.400154
 30
0.0
 11
1325.087891
 21
182.400154
 31
0.0
  0
LINE
  5
321
100
AcDbEntity
  8
枠_
  6
CONTINUOUS
 62
     2
100
AcDbLine
 10
1302.206879
 20
179.880165
 30
0.0
 11
1323.323822
 21
179.880165
 31
0.0
  0
LINE
  5
322
100
AcDbEntity
  8
枠_
  6
CONTINUOUS
 62
     2
100
AcDbLine
 10
1315.379181
 20
178.241676
 30
0.0
 11
1301.35376
 21
158.204722
 31
0.0
  0
LINE
  5
323
100
AcDbEntity
  8
枠_
  6
CONTINUOUS
 62
     2
100
AcDbLine
 10
1318.656616
 20
178.2418
 30
0.0
 11
1301.353912
 21
153.528513
 31
0.0
  0
LINE
  5
324
100
AcDbEntity
  8
枠_
  6
CONTINUOUS
 62
     2
100
AcDbLine
 10
1321.737976
 20
178.241772
 30
0.0
 11
1301.353912
 21
149.125732
 31
0.0
  0
LINE
  5
325
100
AcDbEntity
  8
枠_
  6
CONTINUOUS
 62
     2
100
AcDbLine
 10
1316.929932
 20
167.88691
 30
0.0
 11
1325.786743
 21
161.684641
 31
0.0
  0
LINE
  5
326
100
AcDbEntity
  8
枠_
  6
CONTINUOUS
 62
     2
100
AcDbLine
 10
1315.484467
 20
165.821995
 30
0.0
 11
1325.786591
 21
158.607992
 31
0.0
  0
LINE
  5
327
100
AcDbEntity
  8
枠_
  6
CONTINUOUS
 62
     2
100
AcDbLine
 10
1313.945007
 20
163.623127
 30
0.0
 11
1325.786591
 21
155.331501
 31
0.0
  0
LINE
  5
328
100
AcDbEntity
  8
枠_
  6
CONTINUOUS
 62
     2
100
AcDbLine
 10
1311.397858
 20
161.472229
 30
0.0
 11
1311.397858
 21
145.999998
 31
0.0
  0
LINE
  5
329
100
AcDbEntity
  8
枠_
  6
CONTINUOUS
 62
     2
100
AcDbLine
 10
1314.316254
 20
161.363157
 30
0.0
 11
1314.316254
 21
145.999998
 31
0.0
  0
LINE
  5
32A
100
AcDbEntity
  8
枠_
  6
CONTINUOUS
 62
     2
100
AcDbLine
 10
1317.234802
 20
159.319567
 30
0.0
 11
1317.234802
 21
145.999998
 31
0.0
  0
LINE
  5
32B
100
AcDbEntity
  8
枠_
  6
CONTINUOUS
 62
     2
100
AcDbLine
 10
1338.613739
 20
150.179915
 30
0.0
 11
1338.613739
 21
186.351961
 31
0.0
  0
LINE
  5
32C
100
AcDbEntity
  8
枠_
  6
CONTINUOUS
 62
     2
100
AcDbLine
 10
1341.532135
 20
150.179915
 30
0.0
 11
1341.532135
 21
186.351961
 31
0.0
  0
LINE
  5
32D
100
AcDbEntity
  8
枠_
  6
CONTINUOUS
 62
     2
100
AcDbLine
 10
1344.450684
 20
150.179915
 30
0.0
 11
1344.450684
 21
186.351961
 31
0.0
  0
LINE
  5
32E
100
AcDbEntity
  8
枠_
  6
CONTINUOUS
 62
     2
100
AcDbLine
 10
1329.424896
 20
175.344032
 30
0.0
 11
1336.61377
 21
175.344032
 31
0.0
  0
LINE
  5
32F
100
AcDbEntity
  8
枠_
  6
CONTINUOUS
 62
     2
100
AcDbLine
 10
1329.424896
 20
172.824196
 30
0.0
 11
1336.61377
 21
172.824196
 31
0.0
  0
LINE
  5
330
100
AcDbEntity
  8
枠_
  6
CONTINUOUS
 62
     2
100
AcDbLine
 10
1346.450653
 20
175.344032
 30
0.0
 11
1353.647766
 21
175.344032
 31
0.0
  0
LINE
  5
331
100
AcDbEntity
  8
枠_
  6
CONTINUOUS
 62
     2
100
AcDbLine
 10
1346.450653
 20
172.624191
 30
0.0
 11
1353.647766
 21
172.624191
 31
0.0
  0
LINE
  5
332
100
AcDbEntity
  8
枠_
  6
CONTINUOUS
 62
     2
100
AcDbLine
 10
1325.39093
 20
148.179916
 30
0.0
 11
1354.656677
 21
148.179916
 31
0.0
  0
LINE
  5
333
100
AcDbEntity
  8
枠_
  6
CONTINUOUS
 62
     2
100
AcDbLine
 10
1325.39093
 20
145.659927
 30
0.0
 11
1354.656677
 21
145.659927
 31
0.0
  0
LINE
  5
334
100
AcDbEntity
  8
枠_
  6
CONTINUOUS
 62
     2
100
AcDbLine
 10
1097.475586
 20
163.353638
 30
0.0
 11
1118.784027
 21
163.353638
 31
0.0
  0
TEXT
  5
335
100
AcDbEntity
  8
枠_
  6
CONTINUOUS
 62
     2
100
AcDbText
 10
783.0
 20
594.000153
 30
0.0
 40
40.0
  1
Ｆ．Ｌ
 41
0.833
  7
EXCADSTD
 72
     5
 11
902.0
 21
594.000153
 31
0.0
100
AcDbText
  0
LINE
  5
336
100
AcDbEntity
  8
枠_
  6
CONTINUOUS
 62
     7
100
AcDbLine
 10
367.0
 20
590.0
 30
0.0
 11
1129.0
 21
590.0
 31
0.0
  0
TEXT
  5
337
100
AcDbEntity
  8
枠_
  6
CONTINUOUS
 62
     2
100
AcDbText
 10
1795.881714
 20
1795.0
 30
0.0
 40
40.0
  1
Ｗ．Ｌ
 50
90.0
 41
0.805
  7
EXCADSTD
 72
     5
 11
1795.881714
 21
1910.0
 31
0.0
100
AcDbText
  0
LINE
  5
338
100
AcDbEntity
  8
枠_
  6
CONTINUOUS
 62
     7
100
AcDbLine
 10
1800.810394
 20
590.0
 30
0.0
 11
1800.810394
 21
1925.0
 31
0.0
  0
LINE
  5
339
100
AcDbEntity
  8
枠_
  6
CONTINUOUS
 62
     7
100
AcDbLine
 10
1800.810394
 20
590.0
 30
0.0
 11
1390.0
 21
590.0
 31
0.0
  0
TEXT
  5
33A
100
AcDbEntity
  8
枠_
  6
CONTINUOUS
 62
     2
100
AcDbText
 10
805.610718
 20
272.931519
 30
0.0
 40
57.5
  1
壁掛小便器（トラップ無）
 41
0.623304
  7
EXCADSTD
 72
     5
 11
1317.610723
 21
272.931519
 31
0.0
100
AcDbText
  0
TEXT
  5
33B
100
AcDbEntity
  8
枠_
  6
CONTINUOUS
 62
     2
100
AcDbText
 10
807.61084
 20
218.271332
 30
0.0
 40
57.5
  1
小便器用Ｓトラップ
 41
0.626551
  7
EXCADSTD
 72
     5
 11
1193.610844
 21
218.271332
 31
0.0
100
AcDbText
  0
TEXT
  5
33C
100
AcDbEntity
  8
枠_
  6
CONTINUOUS
 62
     2
100
AcDbText
 10
1443.085693
 20
215.916992
 30
0.0
 40
57.5
  1
ＴＵ１２０
 41
0.796174
  7
EXCADSTD
 72
     5
 11
1715.585693
 21
215.916992
 31
0.0
100
AcDbText
  0
TEXT
  5
33D
100
AcDbEntity
  8
枠_
  6
CONTINUOUS
 62
     2
100
AcDbText
 10
1442.795166
 20
271.931549
 30
0.0
 40
57.5
  1
Ｕ１２０
 41
0.803478
  7
EXCADSTD
 72
     5
 11
1662.795166
 21
271.931549
 31
0.0
100
AcDbText
  0
TEXT
  5
33E
100
AcDbEntity
  8
枠_
  6
CONTINUOUS
 62
     7
100
AcDbText
 10
1453.25
 20
130.75
 30
0.0
 40
70.0
  1
Ｕ０１２０００８
 41
0.795
  7
EXCADSTD
 72
     5
 11
1983.25
 21
130.75
 31
0.0
100
AcDbText
  0
TEXT
  5
33F
100
AcDbEntity
  8
枠_
  6
CONTINUOUS
 62
     2
100
AcDbText
 10
633.0
 20
200.0
 30
0.0
 40
50.0
  1
又場
 41
0.8568
  7
EXCADSTD
 72
     5
 11
726.4932
 21
200.0
 31
0.0
100
AcDbText
  0
TEXT
  5
340
100
AcDbEntity
  8
枠_
  6
CONTINUOUS
 62
     2
100
AcDbText
 10
496.0
 20
200.0
 30
0.0
 40
50.0
  1
間瀬
 41
0.7728
  7
EXCADSTD
 72
     5
 11
580.3272
 21
200.0
 31
0.0
100
AcDbText
  0
TEXT
  5
341
100
AcDbEntity
  8
枠_
  6
CONTINUOUS
 62
     2
100
AcDbText
 10
584.0
 20
199.5
 30
0.0
 40
30.0
  1
ゆ
 41
0.98
  7
EXCADSTD
 72
     5
 11
612.0
 21
199.5
 31
0.0
100
AcDbText
  0
TEXT
  5
342
100
AcDbEntity
  8
枠_
  6
CONTINUOUS
 62
     2
100
AcDbText
 10
205.5
 20
200.0
 30
0.0
 40
50.0
  1
風穴
 41
0.8568
  7
EXCADSTD
 72
     5
 11
298.9932
 21
200.0
 31
0.0
100
AcDbText
  0
TEXT
  5
343
100
AcDbEntity
  8
枠_
  6
CONTINUOUS
 62
     2
100
AcDbText
 10
181.644116
 20
126.950073
 30
0.0
 40
25.0
  1
１７
 41
0.75768
  7
EXCADSTD
 72
     5
 11
222.982775
 21
126.950073
 31
0.0
100
AcDbText
  0
TEXT
  5
344
100
AcDbEntity
  8
枠_
  6
CONTINUOUS
 62
     2
100
AcDbText
 10
244.644116
 20
126.950073
 30
0.0
 40
25.0
  1
２
 41
0.89208
  7
EXCADSTD
 72
     5
 11
265.884116
 21
126.950073
 31
0.0
100
AcDbText
  0
TEXT
  5
345
100
AcDbEntity
  8
枠_
  6
CONTINUOUS
 62
     2
100
AcDbText
 10
288.944116
 20
126.950073
 30
0.0
 40
25.0
  1
１４
 41
0.75768
  7
EXCADSTD
 72
     5
 11
330.282775
 21
126.950073
 31
0.0
100
AcDbText
  0
LINE
  5
346
100
AcDbEntity
  8
スト－ル
  6
EXLTYPE2
 62
     2
100
AcDbLine
 10
1719.012299
 20
994.265366
 30
0.0
 11
1772.604523
 21
994.265366
 31
0.0
  0
LINE
  5
347
100
AcDbEntity
  8
スト－ル
  6
EXLTYPE2
 62
     2
100
AcDbLine
 10
1723.308411
 20
994.265366
 30
0.0
 11
1723.308411
 21
990.566788
 31
0.0
  0
ARC
  5
348
100
AcDbEntity
  8
スト－ル
  6
EXLTYPE2
 62
     2
100
AcDbCircle
 10
1727.006989
 20
990.566788
 30
0.0
 40
3.698578
100
AcDbArc
 50
180.0
 51
270.0
  0
ARC
  5
349
100
AcDbEntity
  8
スト－ル
  6
EXLTYPE2
 62
     2
100
AcDbCircle
 10
1727.006989
 20
983.169632
 30
0.0
 40
3.698578
100
AcDbArc
 50
90.0
 51
270.0
  0
ARC
  5
34A
100
AcDbEntity
  8
スト－ル
  6
EXLTYPE2
 62
     2
100
AcDbCircle
 10
1727.006989
 20
975.772476
 30
0.0
 40
3.698578
100
AcDbArc
 50
90.0
 51
270.0
  0
ARC
  5
34B
100
AcDbEntity
  8
スト－ル
  6
EXLTYPE2
 62
     2
100
AcDbCircle
 10
1726.845245
 20
968.537064
 30
0.0
 40
3.536873
100
AcDbArc
 50
90.0
 51
270.0
  0
LINE
  5
34C
100
AcDbEntity
  8
スト－ル
  6
EXLTYPE2
 62
     2
100
AcDbLine
 10
1726.845245
 20
965.000076
 30
0.0
 11
1764.771576
 21
965.000076
 31
0.0
  0
ARC
  5
34D
100
AcDbEntity
  8
スト－ル
  6
EXLTYPE2
 62
     2
100
AcDbCircle
 10
1764.771576
 20
968.537064
 30
0.0
 40
3.536873
100
AcDbArc
 50
270.0
 51
90.0
  0
LINE
  5
34E
100
AcDbEntity
  8
スト－ル
  6
EXLTYPE2
 62
     2
100
AcDbLine
 10
1727.006989
 20
972.073898
 30
0.0
 11
1764.771576
 21
972.073898
 31
0.0
  0
ARC
  5
34F
100
AcDbEntity
  8
スト－ル
  6
EXLTYPE2
 62
     2
100
AcDbCircle
 10
1764.609833
 20
975.772476
 30
0.0
 40
3.698578
100
AcDbArc
 50
270.0
 51
90.0
  0
LINE
  5
350
100
AcDbEntity
  8
スト－ル
  6
EXLTYPE2
 62
     2
100
AcDbLine
 10
1727.006989
 20
979.471054
 30
0.0
 11
1764.609833
 21
979.471054
 31
0.0
  0
ARC
  5
351
100
AcDbEntity
  8
スト－ル
  6
EXLTYPE2
 62
     2
100
AcDbCircle
 10
1764.609833
 20
983.169632
 30
0.0
 40
3.698578
100
AcDbArc
 50
270.0
 51
90.0
  0
LINE
  5
352
100
AcDbEntity
  8
スト－ル
  6
EXLTYPE2
 62
     2
100
AcDbLine
 10
1727.006989
 20
986.86821
 30
0.0
 11
1764.609833
 21
986.86821
 31
0.0
  0
ARC
  5
353
100
AcDbEntity
  8
スト－ル
  6
EXLTYPE2
 62
     2
100
AcDbCircle
 10
1764.609833
 20
990.566788
 30
0.0
 40
3.698578
100
AcDbArc
 50
270.0
 51
0.0
  0
LINE
  5
354
100
AcDbEntity
  8
スト－ル
  6
EXLTYPE2
 62
     2
100
AcDbLine
 10
1768.308411
 20
994.265366
 30
0.0
 11
1768.308411
 21
990.566788
 31
0.0
  0
LINE
  5
355
100
AcDbEntity
  8
スト－ル
  6
EXLTYPE2
 62
     2
100
AcDbLine
 10
1750.377655
 20
1419.568863
 30
0.0
 11
1745.825348
 21
1415.872269
 31
0.0
  0
LINE
  5
356
100
AcDbEntity
  8
スト－ル
  6
EXLTYPE2
 62
     2
100
AcDbLine
 10
1781.243134
 20
1419.568863
 30
0.0
 11
1785.795441
 21
1415.872269
 31
0.0
  0
ARC
  5
357
100
AcDbEntity
  8
スト－ル
  6
EXLTYPE2
 62
     2
100
AcDbCircle
 10
1751.276093
 20
1442.034531
 30
0.0
 40
2.965622
100
AcDbArc
 50
90.0
 51
270.0
  0
ARC
  5
358
100
AcDbEntity
  8
スト－ル
  6
EXLTYPE2
 62
     2
100
AcDbCircle
 10
1751.560516
 20
1435.818863
 30
0.0
 40
3.250008
100
AcDbArc
 50
90.0
 51
270.0
  0
ARC
  5
359
100
AcDbEntity
  8
スト－ル
  6
EXLTYPE2
 62
     2
100
AcDbCircle
 10
1751.560516
 20
1429.318924
 30
0.0
 40
3.250008
100
AcDbArc
 50
90.0
 51
270.0
  0
ARC
  5
35A
100
AcDbEntity
  8
スト－ル
  6
EXLTYPE2
 62
     2
100
AcDbCircle
 10
1751.560516
 20
1422.818832
 30
0.0
 40
3.250008
100
AcDbArc
 50
90.0
 51
270.0
  0
LINE
  5
35B
100
AcDbEntity
  8
スト－ル
  6
EXLTYPE2
 62
     2
100
AcDbLine
 10
1751.560516
 20
1419.568863
 30
0.0
 11
1780.060272
 21
1419.568863
 31
0.0
  0
ARC
  5
35C
100
AcDbEntity
  8
スト－ル
  6
EXLTYPE2
 62
     2
100
AcDbCircle
 10
1780.060272
 20
1422.818832
 30
0.0
 40
3.250008
100
AcDbArc
 50
270.0
 51
90.0
  0
LINE
  5
35D
100
AcDbEntity
  8
スト－ル
  6
EXLTYPE2
 62
     2
100
AcDbLine
 10
1751.560516
 20
1426.068802
 30
0.0
 11
1780.060272
 21
1426.068802
 31
0.0
  0
ARC
  5
35E
100
AcDbEntity
  8
スト－ル
  6
EXLTYPE2
 62
     2
100
AcDbCircle
 10
1780.060272
 20
1429.318924
 30
0.0
 40
3.250008
100
AcDbArc
 50
270.0
 51
90.0
  0
LINE
  5
35F
100
AcDbEntity
  8
スト－ル
  6
EXLTYPE2
 62
     2
100
AcDbLine
 10
1751.560516
 20
1432.568893
 30
0.0
 11
1780.060272
 21
1432.568893
 31
0.0
  0
ARC
  5
360
100
AcDbEntity
  8
スト－ル
  6
EXLTYPE2
 62
     2
100
AcDbCircle
 10
1780.060272
 20
1435.818863
 30
0.0
 40
3.250008
100
AcDbArc
 50
270.0
 51
90.0
  0
LINE
  5
361
100
AcDbEntity
  8
スト－ル
  6
EXLTYPE2
 62
     2
100
AcDbLine
 10
1751.560516
 20
1439.068985
 30
0.0
 11
1780.060272
 21
1439.068985
 31
0.0
  0
ARC
  5
362
100
AcDbEntity
  8
スト－ル
  6
EXLTYPE2
 62
     2
100
AcDbCircle
 10
1780.344696
 20
1442.034531
 30
0.0
 40
2.965622
100
AcDbArc
 50
270.0
 51
90.0
  0
LINE
  5
363
100
AcDbEntity
  8
スト－ル
  6
EXLTYPE2
 62
     2
100
AcDbLine
 10
1751.276093
 20
1445.000076
 30
0.0
 11
1780.344696
 21
1445.000076
 31
0.0
  0
ARC
  5
364
100
AcDbEntity
  8
スト－ル
  6
CONTINUOUS
 62
     7
100
AcDbCircle
 10
1783.123779
 20
1395.576859
 30
0.0
 40
42.462616
100
AcDbArc
 50
151.447815
 51
172.662109
  0
ARC
  5
365
100
AcDbEntity
  8
スト－ル
  6
CONTINUOUS
 62
     7
100
AcDbCircle
 10
1748.497009
 20
1395.576859
 30
0.0
 40
42.462616
100
AcDbArc
 50
7.337898
 51
28.552185
  0
ARC
  5
366
100
AcDbEntity
  8
スト－ル
  6
CONTINUOUS
 62
     6
100
AcDbCircle
 10
1788.809662
 20
1230.000076
 30
0.0
 40
8.000002
100
AcDbArc
 50
89.999451
 51
269.999512
  0
ARC
  5
367
100
AcDbEntity
  8
スト－ル
  6
CONTINUOUS
 62
     6
100
AcDbCircle
 10
1788.809357
 20
1192.000198
 30
0.0
 40
8.000002
100
AcDbArc
 50
89.999451
 51
269.999512
  0
LINE
  5
368
100
AcDbEntity
  8
スト－ル
  6
CONTINUOUS
 62
     7
100
AcDbLine
 10
1788.809204
 20
1162.665176
 30
0.0
 11
1782.309113
 21
1156.772842
 31
0.0
  0
LINE
  5
369
100
AcDbEntity
  8
スト－ル
  6
CONTINUOUS
 62
     7
100
AcDbLine
 10
1788.809814
 20
1259.659042
 30
0.0
 11
1788.809204
 21
1162.665176
 31
0.0
  0
LINE
  5
36A
100
AcDbEntity
  8
スト－ル
  6
CONTINUOUS
 62
     7
100
AcDbLine
 10
1782.309723
 20
1267.518387
 30
0.0
 11
1788.809814
 21
1259.659042
 31
0.0
  0
LINE
  5
36B
100
AcDbEntity
  8
スト－ル
  6
CONTINUOUS
 62
     2
100
AcDbLine
 10
1712.058411
 20
1011.527481
 30
0.0
 11
1779.558411
 21
1011.527481
 31
0.0
  0
LINE
  5
36C
100
AcDbEntity
  8
スト－ル
  6
EXLTYPE2
 62
     2
100
AcDbLine
 10
1714.446869
 20
1000.000076
 30
0.0
 11
1719.012299
 21
994.265366
 31
0.0
  0
LINE
  5
36D
100
AcDbEntity
  8
スト－ル
  6
EXLTYPE2
 62
     2
100
AcDbLine
 10
1777.169952
 20
1000.000076
 30
0.0
 11
1772.604523
 21
994.265366
 31
0.0
  0
LINE
  5
36E
100
AcDbEntity
  8
スト－ル
  6
CONTINUOUS
 62
     6
100
AcDbLine
 10
1808.809357
 20
1189.000015
 30
0.0
 11
1808.809357
 21
1195.000076
 31
0.0
  0
LINE
  5
36F
100
AcDbEntity
  8
スト－ル
  6
CONTINUOUS
 62
     6
100
AcDbLine
 10
1808.809662
 20
1227.000198
 30
0.0
 11
1808.809662
 21
1233.000259
 31
0.0
  0
LINE
  5
370
100
AcDbEntity
  8
スト－ル
  6
CONTINUOUS
 62
     6
100
AcDbLine
 10
1800.809326
 20
1189.000015
 30
0.0
 11
1831.667938
 21
1189.000015
 31
0.0
  0
ARC
  5
371
100
AcDbEntity
  8
スト－ル
  6
CONTINUOUS
 62
     6
100
AcDbCircle
 10
1831.667938
 20
1199.000015
 30
0.0
 40
10.0
100
AcDbArc
 50
270.0
 51
315.573486
  0
ARC
  5
372
100
AcDbEntity
  8
スト－ル
  6
CONTINUOUS
 62
     6
100
AcDbCircle
 10
1831.667938
 20
1185.000076
 30
0.0
 40
10.0
100
AcDbArc
 50
44.42662
 51
90.0
  0
LINE
  5
373
100
AcDbEntity
  8
スト－ル
  6
CONTINUOUS
 62
     6
100
AcDbLine
 10
1800.809326
 20
1195.000076
 30
0.0
 11
1831.667938
 21
1195.000076
 31
0.0
  0
LINE
  5
374
100
AcDbEntity
  8
スト－ル
  6
CONTINUOUS
 62
     6
100
AcDbLine
 10
1800.809479
 20
1227.000198
 30
0.0
 11
1831.668243
 21
1227.000198
 31
0.0
  0
ARC
  5
375
100
AcDbEntity
  8
スト－ル
  6
CONTINUOUS
 62
     6
100
AcDbCircle
 10
1831.668243
 20
1237.000198
 30
0.0
 40
10.0
100
AcDbArc
 50
270.0
 51
315.573486
  0
ARC
  5
376
100
AcDbEntity
  8
スト－ル
  6
CONTINUOUS
 62
     6
100
AcDbCircle
 10
1831.668243
 20
1223.000259
 30
0.0
 40
10.0
100
AcDbArc
 50
44.42662
 51
90.0
  0
LINE
  5
377
100
AcDbEntity
  8
スト－ル
  6
CONTINUOUS
 62
     6
100
AcDbLine
 10
1800.809479
 20
1233.000259
 30
0.0
 11
1831.668243
 21
1233.000259
 31
0.0
  0
ARC
  5
378
100
AcDbEntity
  8
スト－ル
  6
CONTINUOUS
 62
     7
100
AcDbCircle
 10
1740.8107
 20
1391.000137
 30
0.0
 40
10.0
100
AcDbArc
 50
90.0
 51
174.840118
  0
ARC
  5
379
100
AcDbEntity
  8
スト－ル
  6
CONTINUOUS
 62
     7
100
AcDbCircle
 10
1619.380341
 20
1228.833389
 30
0.0
 40
85.0
100
AcDbArc
 50
293.603516
 51
347.305664
  0
ARC
  5
37A
100
AcDbEntity
  8
スト－ル
  6
CONTINUOUS
 62
     7
100
AcDbCircle
 10
336.5242
 20
1517.805252
 30
0.0
 40
1400.0
100
AcDbArc
 50
347.305664
 51
354.840332
  0
ARC
  5
37B
100
AcDbEntity
  8
スト－ル
  6
CONTINUOUS
 62
     7
100
AcDbCircle
 10
1493.252564
 20
1517.479935
 30
0.0
 40
400.0
100
AcDbArc
 50
276.333008
 51
293.603516
  0
ARC
  5
37C
100
AcDbEntity
  8
スト－ル
  6
CONTINUOUS
 62
     7
100
AcDbCircle
 10
1538.808746
 20
1107.000198
 30
0.0
 40
13.000002
100
AcDbArc
 50
96.33284
 51
181.995071
  0
ARC
  5
37D
100
AcDbEntity
  8
スト－ル
  6
CONTINUOUS
 62
     7
100
AcDbCircle
 10
1600.771637
 20
1109.158707
 30
0.0
 40
75.0
100
AcDbArc
 50
181.995178
 51
244.899231
  0
ARC
  5
37E
100
AcDbEntity
  8
スト－ル
  6
CONTINUOUS
 62
     7
100
AcDbCircle
 10
1738.640289
 20
1403.466263
 30
0.0
 40
400.0
100
AcDbArc
 50
244.899078
 51
257.074707
  0
ARC
  5
37F
100
AcDbEntity
  8
スト－ル
  6
CONTINUOUS
 62
     7
100
AcDbCircle
 10
1789.973602
 20
1001.000137
 30
0.0
 40
5.0
100
AcDbArc
 50
90.0
 51
156.422577
  0
LINE
  5
380
100
AcDbEntity
  8
スト－ル
  6
CONTINUOUS
 62
     7
100
AcDbLine
 10
1789.973602
 20
1006.000137
 30
0.0
 11
1800.808258
 21
1006.000137
 31
0.0
  0
ARC
  5
381
100
AcDbEntity
  8
スト－ル
  6
CONTINUOUS
 62
     7
100
AcDbCircle
 10
1701.495056
 20
1001.358261
 30
0.0
 40
5.0
100
AcDbArc
 50
21.35788
 51
87.22229
  0
ARC
  5
382
100
AcDbEntity
  8
スト－ル
  6
CONTINUOUS
 62
     7
100
AcDbCircle
 10
1716.272125
 20
1306.000137
 30
0.0
 40
300.0
100
AcDbArc
 50
257.074707
 51
267.2229
  0
LINE
  5
383
100
AcDbEntity
  8
スト－ル
  6
CONTINUOUS
 62
     7
100
AcDbLine
 10
1790.611874
 20
1401.000137
 30
0.0
 11
1800.8107
 21
1401.000137
 31
0.0
  0
ARC
  5
384
100
AcDbEntity
  8
スト－ル
  6
CONTINUOUS
 62
     2
100
AcDbCircle
 10
1765.810377
 20
1553.893527
 30
0.0
 40
154.891832
100
AcDbArc
 50
263.375432
 51
276.624581
  0
TEXT
  5
385
100
AcDbEntity
  8
スト－ル
  6
CONTINUOUS
 62
     2
100
AcDbText
 10
1502.810425
 20
1344.461319
 30
0.0
 40
40.0
  1
ＮＴ７Ａ
 41
0.819
  7
EXCADSTD
 72
     5
 11
1658.810424
 21
1344.461319
 31
0.0
100
AcDbText
  0
LEADER
  5
386
100
AcDbEntity
  8
スト－ル
  6
CONTINUOUS
 62
     6
100
AcDbLeader
  3
STANDARD
 73
     3
 74
     1
 75
     0
 40
0.0
 76
     2
 10
1782.049736
 20
1234.278327
 30
0.0
 10
1652.810425
 20
1340.961319
 30
0.0
 77
     6
1001
ACAD
1000
DSTYLE
1002
{
1070
    41
1040
35.0
1070
     5
1000
_EX_NORM
1070
     6
1000
_EX_NORM
1070
     7
1000
_EX_NORM
1070
   341
1005
2A
1002
}
  0
CIRCLE
  5
387
100
AcDbEntity
  8
スト－ル
  6
CONTINUOUS
 62
     6
100
AcDbCircle
 10
523.0
 20
1230.0
 30
0.0
 40
8.000002
  0
CIRCLE
  5
388
100
AcDbEntity
  8
スト－ル
  6
CONTINUOUS
 62
     6
100
AcDbCircle
 10
523.0
 20
1192.000122
 30
0.0
 40
8.000002
  0
CIRCLE
  5
389
100
AcDbEntity
  8
スト－ル
  6
CONTINUOUS
 62
     6
100
AcDbCircle
 10
883.0
 20
1230.0
 30
0.0
 40
8.000002
  0
CIRCLE
  5
38A
100
AcDbEntity
  8
スト－ル
  6
CONTINUOUS
 62
     6
100
AcDbCircle
 10
883.0
 20
1192.000122
 30
0.0
 40
8.000002
  0
LINE
  5
38B
100
AcDbEntity
  8
スト－ル
  6
EXLTYPE2
 62
     2
100
AcDbLine
 10
672.057159
 20
999.474182
 30
0.0
 11
676.203888
 21
994.265289
 31
0.0
  0
LINE
  5
38C
100
AcDbEntity
  8
スト－ル
  6
EXLTYPE2
 62
     2
100
AcDbLine
 10
733.942841
 20
999.474182
 30
0.0
 11
729.796112
 21
994.265289
 31
0.0
  0
LINE
  5
38D
100
AcDbEntity
  8
スト－ル
  6
EXLTYPE2
 62
     2
100
AcDbLine
 10
676.203888
 20
994.265289
 30
0.0
 11
729.796112
 21
994.265289
 31
0.0
  0
ARC
  5
38E
100
AcDbEntity
  8
スト－ル
  6
CONTINUOUS
 62
     7
100
AcDbCircle
 10
720.313385
 20
1395.576782
 30
0.0
 40
42.462616
100
AcDbArc
 50
151.447815
 51
175.373764
  0
LINE
  5
38F
100
AcDbEntity
  8
スト－ル
  6
CONTINUOUS
 62
     2
100
AcDbLine
 10
687.567108
 20
1419.568787
 30
0.0
 11
683.014954
 21
1415.872192
 31
0.0
  0
LINE
  5
390
100
AcDbEntity
  8
スト－ル
  6
CONTINUOUS
 62
     2
100
AcDbLine
 10
718.432892
 20
1419.568787
 30
0.0
 11
722.985046
 21
1415.872192
 31
0.0
  0
ARC
  5
391
100
AcDbEntity
  8
スト－ル
  6
CONTINUOUS
 62
     7
100
AcDbCircle
 10
685.686615
 20
1395.576782
 30
0.0
 40
42.462616
100
AcDbArc
 50
4.626236
 51
28.552185
  0
ARC
  5
392
100
AcDbEntity
  8
スト－ル
  6
EXLTYPE2
 62
     2
100
AcDbCircle
 10
688.465546
 20
1442.034454
 30
0.0
 40
2.965622
100
AcDbArc
 50
90.0
 51
270.0
  0
ARC
  5
393
100
AcDbEntity
  8
スト－ル
  6
EXLTYPE2
 62
     2
100
AcDbCircle
 10
688.749969
 20
1435.818787
 30
0.0
 40
3.250008
100
AcDbArc
 50
90.0
 51
270.0
  0
ARC
  5
394
100
AcDbEntity
  8
スト－ル
  6
EXLTYPE2
 62
     2
100
AcDbCircle
 10
688.749969
 20
1429.318848
 30
0.0
 40
3.250008
100
AcDbArc
 50
90.0
 51
270.0
  0
ARC
  5
395
100
AcDbEntity
  8
スト－ル
  6
EXLTYPE2
 62
     2
100
AcDbCircle
 10
688.749969
 20
1422.818756
 30
0.0
 40
3.250008
100
AcDbArc
 50
90.0
 51
270.0
  0
LINE
  5
396
100
AcDbEntity
  8
スト－ル
  6
EXLTYPE2
 62
     2
100
AcDbLine
 10
688.749969
 20
1419.568787
 30
0.0
 11
717.25003
 21
1419.568787
 31
0.0
  0
ARC
  5
397
100
AcDbEntity
  8
スト－ル
  6
EXLTYPE2
 62
     2
100
AcDbCircle
 10
717.25003
 20
1422.818756
 30
0.0
 40
3.250008
100
AcDbArc
 50
270.0
 51
90.0
  0
LINE
  5
398
100
AcDbEntity
  8
スト－ル
  6
EXLTYPE2
 62
     2
100
AcDbLine
 10
688.749969
 20
1426.068726
 30
0.0
 11
717.25003
 21
1426.068726
 31
0.0
  0
ARC
  5
399
100
AcDbEntity
  8
スト－ル
  6
EXLTYPE2
 62
     2
100
AcDbCircle
 10
717.25003
 20
1429.318848
 30
0.0
 40
3.250008
100
AcDbArc
 50
270.0
 51
90.0
  0
LINE
  5
39A
100
AcDbEntity
  8
スト－ル
  6
EXLTYPE2
 62
     2
100
AcDbLine
 10
688.749969
 20
1432.568817
 30
0.0
 11
717.25003
 21
1432.568817
 31
0.0
  0
ARC
  5
39B
100
AcDbEntity
  8
スト－ル
  6
EXLTYPE2
 62
     2
100
AcDbCircle
 10
717.25003
 20
1435.818787
 30
0.0
 40
3.250008
100
AcDbArc
 50
270.0
 51
90.0
  0
LINE
  5
39C
100
AcDbEntity
  8
スト－ル
  6
EXLTYPE2
 62
     2
100
AcDbLine
 10
688.749969
 20
1439.068909
 30
0.0
 11
717.25003
 21
1439.068909
 31
0.0
  0
ARC
  5
39D
100
AcDbEntity
  8
スト－ル
  6
EXLTYPE2
 62
     2
100
AcDbCircle
 10
717.534454
 20
1442.034454
 30
0.0
 40
2.965622
100
AcDbArc
 50
270.0
 51
90.0
  0
LINE
  5
39E
100
AcDbEntity
  8
スト－ル
  6
EXLTYPE2
 62
     2
100
AcDbLine
 10
688.465546
 20
1445.0
 30
0.0
 11
717.534454
 21
1445.0
 31
0.0
  0
ARC
  5
39F
100
AcDbEntity
  8
スト－ル
  6
CONTINUOUS
 62
     7
100
AcDbCircle
 10
700.497559
 20
1233.818207
 30
0.0
 40
167.5
100
AcDbArc
 50
4.58345
 51
75.508102
  0
ARC
  5
3A0
100
AcDbEntity
  8
スト－ル
  6
CONTINUOUS
 62
     7
100
AcDbCircle
 10
703.0
 20
1243.500061
 30
0.0
 40
157.5
100
AcDbArc
 50
75.508072
 51
104.491928
  0
ARC
  5
3A1
100
AcDbEntity
  8
スト－ル
  6
CONTINUOUS
 62
     7
100
AcDbCircle
 10
705.502441
 20
1233.818207
 30
0.0
 40
167.5
100
AcDbArc
 50
104.491898
 51
175.41655
  0
ARC
  5
3A2
100
AcDbEntity
  8
スト－ル
  6
CONTINUOUS
 62
     7
100
AcDbCircle
 10
699.661224
 20
1234.073792
 30
0.0
 40
130.0
100
AcDbArc
 50
0.0
 51
70.49617
  0
ARC
  5
3A3
100
AcDbEntity
  8
スト－ル
  6
CONTINUOUS
 62
     7
100
AcDbCircle
 10
703.0
 20
1243.500061
 30
0.0
 40
120.0
100
AcDbArc
 50
70.49617
 51
109.50383
  0
ARC
  5
3A4
100
AcDbEntity
  8
スト－ル
  6
CONTINUOUS
 62
     7
100
AcDbCircle
 10
706.338776
 20
1234.073792
 30
0.0
 40
130.0
100
AcDbArc
 50
109.50383
 51
180.0
  0
LINE
  5
3A5
100
AcDbEntity
  8
スト－ル
  6
CONTINUOUS
 62
     7
100
AcDbLine
 10
576.338623
 20
1219.460602
 30
0.0
 11
576.338623
 21
1234.073792
 31
0.0
  0
ARC
  5
3A6
100
AcDbEntity
  8
スト－ル
  6
CONTINUOUS
 62
     7
100
AcDbCircle
 10
676.338776
 20
1219.460602
 30
0.0
 40
100.0
100
AcDbArc
 50
180.0
 51
270.0
  0
LINE
  5
3A7
100
AcDbEntity
  8
スト－ル
  6
CONTINUOUS
 62
     7
100
AcDbLine
 10
676.338776
 20
1119.460602
 30
0.0
 11
729.661224
 21
1119.460602
 31
0.0
  0
ARC
  5
3A8
100
AcDbEntity
  8
スト－ル
  6
CONTINUOUS
 62
     7
100
AcDbCircle
 10
729.661224
 20
1219.460602
 30
0.0
 40
100.0
100
AcDbArc
 50
270.0
 51
0.0
  0
LINE
  5
3A9
100
AcDbEntity
  8
スト－ル
  6
CONTINUOUS
 62
     7
100
AcDbLine
 10
829.661224
 20
1219.460602
 30
0.0
 11
829.661224
 21
1234.073792
 31
0.0
  0
ARC
  5
3AA
100
AcDbEntity
  8
スト－ル
  6
CONTINUOUS
 62
     7
100
AcDbCircle
 10
533.629272
 20
1266.751404
 30
0.0
 40
7.5
100
AcDbArc
 50
288.978516
 51
349.152832
  0
ARC
  5
3AB
100
AcDbEntity
  8
スト－ル
  6
CONTINUOUS
 62
     7
100
AcDbCircle
 10
1485.499542
 20
1171.287842
 30
0.0
 40
950.0
100
AcDbArc
 50
175.41655
 51
180.0
  0
ARC
  5
3AC
100
AcDbEntity
  8
スト－ル
  6
CONTINUOUS
 62
     7
100
AcDbCircle
 10
700.5
 20
1171.287842
 30
0.0
 40
165.0
100
AcDbArc
 50
180.0
 51
256.863525
  0
ARC
  5
3AD
100
AcDbEntity
  8
スト－ル
  6
CONTINUOUS
 62
     7
100
AcDbCircle
 10
703.0
 20
1182.000122
 30
0.0
 40
176.000061
100
AcDbArc
 50
256.863525
 51
283.136475
  0
ARC
  5
3AE
100
AcDbEntity
  8
スト－ル
  6
CONTINUOUS
 62
     7
100
AcDbCircle
 10
705.5
 20
1171.287842
 30
0.0
 40
165.0
100
AcDbArc
 50
283.136475
 51
0.0
  0
ARC
  5
3AF
100
AcDbEntity
  8
スト－ル
  6
CONTINUOUS
 62
     7
100
AcDbCircle
 10
-79.5
 20
1171.287842
 30
0.0
 40
950.0
100
AcDbArc
 50
0.0
 51
4.583446
  0
ARC
  5
3B0
100
AcDbEntity
  8
スト－ル
  6
CONTINUOUS
 62
     7
100
AcDbCircle
 10
528.714264
 20
1155.606537
 30
0.0
 40
7.5
100
AcDbArc
 50
5.216063
 51
70.245453
  0
ARC
  5
3B1
100
AcDbEntity
  8
スト－ル
  6
CONTINUOUS
 62
     7
100
AcDbCircle
 10
877.285736
 20
1155.606537
 30
0.0
 40
7.5
100
AcDbArc
 50
109.754547
 51
174.783936
  0
ARC
  5
3B2
100
AcDbEntity
  8
スト－ル
  6
CONTINUOUS
 62
     7
100
AcDbCircle
 10
872.37088
 20
1266.751404
 30
0.0
 40
7.5
100
AcDbArc
 50
190.847229
 51
251.021515
  0
ARC
  5
3B3
100
AcDbEntity
  8
スト－ル
  6
CONTINUOUS
 62
     7
100
AcDbCircle
 10
517.999084
 20
1242.870026
 30
0.0
 40
10.0
100
AcDbArc
 50
108.978348
 51
179.999557
  0
LINE
  5
3B4
100
AcDbEntity
  8
スト－ル
  6
CONTINUOUS
 62
     7
100
AcDbLine
 10
514.746979
 20
1252.326355
 30
0.0
 11
536.068237
 21
1259.658966
 31
0.0
  0
ARC
  5
3B5
100
AcDbEntity
  8
スト－ル
  6
CONTINUOUS
 62
     7
100
AcDbCircle
 10
517.998474
 20
1178.049316
 30
0.0
 40
10.0
100
AcDbArc
 50
179.999558
 51
250.245087
  0
LINE
  5
3B6
100
AcDbEntity
  8
スト－ル
  6
CONTINUOUS
 62
     7
100
AcDbLine
 10
507.999084
 20
1242.870178
 30
0.0
 11
507.998474
 21
1178.049316
 31
0.0
  0
LINE
  5
3B7
100
AcDbEntity
  8
スト－ル
  6
CONTINUOUS
 62
     7
100
AcDbLine
 10
514.618652
 20
1168.637695
 30
0.0
 11
531.249207
 21
1162.6651
 31
0.0
  0
ARC
  5
3B8
100
AcDbEntity
  8
スト－ル
  6
CONTINUOUS
 62
     7
100
AcDbCircle
 10
887.998627
 20
1178.048248
 30
0.0
 40
10.0
100
AcDbArc
 50
289.754883
 51
0.0
  0
LINE
  5
3B9
100
AcDbEntity
  8
スト－ル
  6
CONTINUOUS
 62
     7
100
AcDbLine
 10
891.378448
 20
1168.63678
 30
0.0
 11
874.750641
 21
1162.6651
 31
0.0
  0
ARC
  5
3BA
100
AcDbEntity
  8
スト－ル
  6
CONTINUOUS
 62
     7
100
AcDbCircle
 10
887.999084
 20
1242.870636
 30
0.0
 40
10.0
100
AcDbArc
 50
0.0
 51
71.021652
  0
LINE
  5
3BB
100
AcDbEntity
  8
スト－ル
  6
CONTINUOUS
 62
     7
100
AcDbLine
 10
897.999084
 20
1242.870483
 30
0.0
 11
897.998627
 21
1178.048096
 31
0.0
  0
LINE
  5
3BC
100
AcDbEntity
  8
スト－ル
  6
CONTINUOUS
 62
     7
100
AcDbLine
 10
891.25119
 20
1252.326965
 30
0.0
 11
869.93161
 21
1259.658966
 31
0.0
  0
ARC
  5
3BD
100
AcDbEntity
  8
スト－ル
  6
CONTINUOUS
 62
     7
100
AcDbCircle
 10
658.0
 20
1006.686096
 30
0.0
 40
5.0
100
AcDbArc
 50
0.0
 51
75.522491
  0
LINE
  5
3BE
100
AcDbEntity
  8
スト－ル
  6
CONTINUOUS
 62
     7
100
AcDbLine
 10
663.0
 20
1006.686096
 30
0.0
 11
663.0
 21
1005.0
 31
0.0
  0
ARC
  5
3BF
100
AcDbEntity
  8
スト－ル
  6
CONTINUOUS
 62
     7
100
AcDbCircle
 10
748.0
 20
1006.686096
 30
0.0
 40
5.0
100
AcDbArc
 50
104.477509
 51
180.0
  0
LINE
  5
3C0
100
AcDbEntity
  8
スト－ル
  6
CONTINUOUS
 62
     7
100
AcDbLine
 10
743.0
 20
1006.686096
 30
0.0
 11
743.0
 21
1005.0
 31
0.0
  0
LINE
  5
3C1
100
AcDbEntity
  8
スト－ル
  6
EXLTYPE2
 62
     2
100
AcDbLine
 10
680.5
 20
994.265289
 30
0.0
 11
680.5
 21
990.566712
 31
0.0
  0
ARC
  5
3C2
100
AcDbEntity
  8
スト－ル
  6
EXLTYPE2
 62
     2
100
AcDbCircle
 10
684.198578
 20
990.566712
 30
0.0
 40
3.698578
100
AcDbArc
 50
180.0
 51
270.0
  0
ARC
  5
3C3
100
AcDbEntity
  8
スト－ル
  6
EXLTYPE2
 62
     2
100
AcDbCircle
 10
684.198578
 20
983.169556
 30
0.0
 40
3.698578
100
AcDbArc
 50
90.0
 51
270.0
  0
ARC
  5
3C4
100
AcDbEntity
  8
スト－ル
  6
EXLTYPE2
 62
     2
100
AcDbCircle
 10
684.198578
 20
975.7724
 30
0.0
 40
3.698578
100
AcDbArc
 50
90.0
 51
270.0
  0
ARC
  5
3C5
100
AcDbEntity
  8
スト－ル
  6
EXLTYPE2
 62
     2
100
AcDbCircle
 10
684.036835
 20
968.536987
 30
0.0
 40
3.536873
100
AcDbArc
 50
90.0
 51
270.0
  0
LINE
  5
3C6
100
AcDbEntity
  8
スト－ル
  6
EXLTYPE2
 62
     2
100
AcDbLine
 10
684.036835
 20
965.0
 30
0.0
 11
721.963165
 21
965.0
 31
0.0
  0
ARC
  5
3C7
100
AcDbEntity
  8
スト－ル
  6
EXLTYPE2
 62
     2
100
AcDbCircle
 10
721.963165
 20
968.536987
 30
0.0
 40
3.536873
100
AcDbArc
 50
270.0
 51
90.0
  0
LINE
  5
3C8
100
AcDbEntity
  8
スト－ル
  6
EXLTYPE2
 62
     2
100
AcDbLine
 10
684.198578
 20
972.073822
 30
0.0
 11
721.963165
 21
972.073822
 31
0.0
  0
ARC
  5
3C9
100
AcDbEntity
  8
スト－ル
  6
EXLTYPE2
 62
     2
100
AcDbCircle
 10
721.801422
 20
975.7724
 30
0.0
 40
3.698578
100
AcDbArc
 50
270.0
 51
90.0
  0
LINE
  5
3CA
100
AcDbEntity
  8
スト－ル
  6
EXLTYPE2
 62
     2
100
AcDbLine
 10
684.198578
 20
979.470978
 30
0.0
 11
721.801422
 21
979.470978
 31
0.0
  0
ARC
  5
3CB
100
AcDbEntity
  8
スト－ル
  6
EXLTYPE2
 62
     2
100
AcDbCircle
 10
721.801422
 20
983.169556
 30
0.0
 40
3.698578
100
AcDbArc
 50
270.0
 51
90.0
  0
LINE
  5
3CC
100
AcDbEntity
  8
スト－ル
  6
EXLTYPE2
 62
     2
100
AcDbLine
 10
684.198578
 20
986.868134
 30
0.0
 11
721.801422
 21
986.868134
 31
0.0
  0
ARC
  5
3CD
100
AcDbEntity
  8
スト－ル
  6
EXLTYPE2
 62
     2
100
AcDbCircle
 10
721.801422
 20
990.566712
 30
0.0
 40
3.698578
100
AcDbArc
 50
270.0
 51
0.0
  0
LINE
  5
3CE
100
AcDbEntity
  8
スト－ル
  6
EXLTYPE2
 62
     2
100
AcDbLine
 10
725.5
 20
994.265289
 30
0.0
 11
725.5
 21
990.566712
 31
0.0
  0
LINE
  5
3CF
100
AcDbEntity
  8
スト－ル
  6
CONTINUOUS
 62
     6
100
AcDbLine
 10
523.0
 20
1248.000002
 30
0.0
 11
523.0
 21
1174.00012
 31
0.0
  0
LINE
  5
3D0
100
AcDbEntity
  8
スト－ル
  6
CONTINUOUS
 62
     6
100
AcDbLine
 10
883.0
 20
1248.000002
 30
0.0
 11
883.0
 21
1174.00012
 31
0.0
  0
LINE
  5
3D1
100
AcDbEntity
  8
スト－ル
  6
CONTINUOUS
 62
     6
100
AcDbLine
 10
901.000002
 20
1230.0
 30
0.0
 11
864.999998
 21
1230.0
 31
0.0
  0
LINE
  5
3D2
100
AcDbEntity
  8
スト－ル
  6
CONTINUOUS
 62
     6
100
AcDbLine
 10
901.000002
 20
1192.000122
 30
0.0
 11
864.999998
 21
1192.000122
 31
0.0
  0
ARC
  5
3D3
100
AcDbEntity
  8
スト－ル
  6
CONTINUOUS
 62
     7
100
AcDbCircle
 10
513.0
 20
2413.199158
 30
0.0
 40
5.0
100
AcDbArc
 50
180.0
 51
269.402832
  0
LINE
  5
3D4
100
AcDbEntity
  8
スト－ル
  6
CONTINUOUS
 62
     7
100
AcDbLine
 10
508.0
 20
2420.0
 30
0.0
 11
508.0
 21
2413.199158
 31
0.0
  0
ARC
  5
3D5
100
AcDbEntity
  8
スト－ル
  6
CONTINUOUS
 62
     7
100
AcDbCircle
 10
892.999847
 20
2413.199158
 30
0.0
 40
5.0
100
AcDbArc
 50
270.5979
 51
0.0
  0
LINE
  5
3D6
100
AcDbEntity
  8
スト－ル
  6
CONTINUOUS
 62
     7
100
AcDbLine
 10
897.999847
 20
2420.0
 30
0.0
 11
897.999847
 21
2413.199158
 31
0.0
  0
ARC
  5
3D7
100
AcDbEntity
  8
スト－ル
  6
CONTINUOUS
 62
     7
100
AcDbCircle
 10
529.121521
 20
2401.530151
 30
0.0
 40
6.500001
100
AcDbArc
 50
1.096262
 51
89.402802
  0
LINE
  5
3D8
100
AcDbEntity
  8
スト－ル
  6
CONTINUOUS
 62
     7
100
AcDbLine
 10
512.947815
 20
2408.19931
 30
0.0
 11
529.18927
 21
2408.029938
 31
0.0
  0
ARC
  5
3D9
100
AcDbEntity
  8
スト－ル
  6
CONTINUOUS
 62
     7
100
AcDbCircle
 10
876.878326
 20
2401.530151
 30
0.0
 40
6.500001
100
AcDbArc
 50
90.597198
 51
178.903732
  0
LINE
  5
3DA
100
AcDbEntity
  8
スト－ル
  6
CONTINUOUS
 62
     7
100
AcDbLine
 10
893.052032
 20
2408.19931
 30
0.0
 11
876.810577
 21
2408.029938
 31
0.0
  0
LINE
  5
3DB
100
AcDbEntity
  8
スト－ル
  6
CONTINUOUS
 62
     7
100
AcDbLine
 10
535.620392
 20
2401.654663
 30
0.0
 11
536.387909
 21
2361.53656
 31
0.0
  0
ARC
  5
3DC
100
AcDbEntity
  8
スト－ル
  6
CONTINUOUS
 62
     7
100
AcDbCircle
 10
616.373261
 20
2363.067017
 30
0.0
 40
80.0
100
AcDbArc
 50
181.096069
 51
223.45842
  0
ARC
  5
3DD
100
AcDbEntity
  8
スト－ル
  6
CONTINUOUS
 62
     7
100
AcDbCircle
 10
217.141388
 20
1984.76059
 30
0.0
 40
470.001679
100
AcDbArc
 50
22.566177
 51
43.458389
  0
ARC
  5
3DE
100
AcDbEntity
  8
スト－ル
  6
CONTINUOUS
 62
     7
100
AcDbCircle
 10
674.244049
 20
2174.717713
 30
0.0
 40
25.0
100
AcDbArc
 50
202.566284
 51
251.366714
  0
ARC
  5
3DF
100
AcDbEntity
  8
スト－ル
  6
CONTINUOUS
 62
     7
100
AcDbCircle
 10
703.0
 20
2260.0
 30
0.0
 40
115.0
100
AcDbArc
 50
251.366714
 51
288.633301
  0
ARC
  5
3E0
100
AcDbEntity
  8
スト－ル
  6
CONTINUOUS
 62
     7
100
AcDbCircle
 10
731.755951
 20
2174.717713
 30
0.0
 40
25.0
100
AcDbArc
 50
288.633301
 51
337.433838
  0
ARC
  5
3E1
100
AcDbEntity
  8
スト－ル
  6
CONTINUOUS
 62
     7
100
AcDbCircle
 10
1188.858917
 20
1984.76059
 30
0.0
 40
470.001679
100
AcDbArc
 50
136.541611
 51
157.433823
  0
ARC
  5
3E2
100
AcDbEntity
  8
スト－ル
  6
CONTINUOUS
 62
     7
100
AcDbCircle
 10
789.62674
 20
2363.067017
 30
0.0
 40
80.0
100
AcDbArc
 50
316.541504
 51
358.903809
  0
LINE
  5
3E3
100
AcDbEntity
  8
スト－ル
  6
CONTINUOUS
 62
     7
100
AcDbLine
 10
870.379608
 20
2401.654663
 30
0.0
 11
869.612091
 21
2361.53656
 31
0.0
  0
ARC
  5
3E4
100
AcDbEntity
  8
スト－ル
  6
CONTINUOUS
 62
     7
100
AcDbCircle
 10
217.141388
 20
1984.76059
 30
0.0
 40
505.001679
100
AcDbArc
 50
24.255417
 51
43.458389
  0
ARC
  5
3E5
100
AcDbEntity
  8
スト－ル
  6
CONTINUOUS
 62
     7
100
AcDbCircle
 10
695.797546
 20
2200.43396
 30
0.0
 40
20.0
100
AcDbArc
 50
204.255386
 51
263.105469
  0
ARC
  5
3E6
100
AcDbEntity
  8
スト－ル
  6
CONTINUOUS
 62
     7
100
AcDbCircle
 10
703.0
 20
2260.0
 30
0.0
 40
80.0
100
AcDbArc
 50
263.105469
 51
276.894531
  0
ARC
  5
3E7
100
AcDbEntity
  8
スト－ル
  6
CONTINUOUS
 62
     7
100
AcDbCircle
 10
710.202454
 20
2200.43396
 30
0.0
 40
20.0
100
AcDbArc
 50
276.894531
 51
335.744629
  0
ARC
  5
3E8
100
AcDbEntity
  8
スト－ル
  6
CONTINUOUS
 62
     7
100
AcDbCircle
 10
1188.858917
 20
1984.76059
 30
0.0
 40
505.001679
100
AcDbArc
 50
136.541611
 51
155.744583
  0
ARC
  5
3E9
100
AcDbEntity
  8
スト－ル
  6
CONTINUOUS
 62
     7
100
AcDbCircle
 10
616.373261
 20
2363.067017
 30
0.0
 40
45.0
100
AcDbArc
 50
208.136215
 51
223.45842
  0
ARC
  5
3EA
100
AcDbEntity
  8
スト－ル
  6
CONTINUOUS
 62
     7
100
AcDbCircle
 10
789.62674
 20
2363.067017
 30
0.0
 40
45.0
100
AcDbArc
 50
316.541504
 51
332.744141
  0
LINE
  5
3EB
100
AcDbEntity
  8
スト－ル
  6
CONTINUOUS
 62
     6
100
AcDbLine
 10
519.999969
 20
2428.094483
 30
0.0
 11
526.00003
 21
2428.094483
 31
0.0
  0
ARC
  5
3EC
100
AcDbEntity
  8
スト－ル
  6
CONTINUOUS
 62
     6
100
AcDbCircle
 10
523.0
 20
2408.094483
 30
0.0
 40
8.000002
100
AcDbArc
 50
179.402756
 51
357.568359
  0
LINE
  5
3ED
100
AcDbEntity
  8
スト－ル
  6
CONTINUOUS
 62
     6
100
AcDbLine
 10
526.00003
 20
2420.0
 30
0.0
 11
526.00003
 21
2450.953064
 31
0.0
  0
ARC
  5
3EE
100
AcDbEntity
  8
スト－ル
  6
CONTINUOUS
 62
     6
100
AcDbCircle
 10
516.00003
 20
2450.953064
 30
0.0
 40
10.0
100
AcDbArc
 50
0.0
 51
45.57338
  0
ARC
  5
3EF
100
AcDbEntity
  8
スト－ル
  6
CONTINUOUS
 62
     6
100
AcDbCircle
 10
529.999969
 20
2450.953064
 30
0.0
 40
10.0
100
AcDbArc
 50
134.42662
 51
180.0
  0
LINE
  5
3F0
100
AcDbEntity
  8
スト－ル
  6
CONTINUOUS
 62
     6
100
AcDbLine
 10
519.999969
 20
2420.0
 30
0.0
 11
519.999969
 21
2450.953064
 31
0.0
  0
LINE
  5
3F1
100
AcDbEntity
  8
スト－ル
  6
CONTINUOUS
 62
     6
100
AcDbLine
 10
879.999969
 20
2428.094483
 30
0.0
 11
886.00003
 21
2428.094483
 31
0.0
  0
ARC
  5
3F2
100
AcDbEntity
  8
スト－ル
  6
CONTINUOUS
 62
     6
100
AcDbCircle
 10
883.0
 20
2408.094483
 30
0.0
 40
8.000002
100
AcDbArc
 50
182.431732
 51
0.597242
  0
LINE
  5
3F3
100
AcDbEntity
  8
スト－ル
  6
CONTINUOUS
 62
     6
100
AcDbLine
 10
886.00003
 20
2420.0
 30
0.0
 11
886.00003
 21
2450.953064
 31
0.0
  0
ARC
  5
3F4
100
AcDbEntity
  8
スト－ル
  6
CONTINUOUS
 62
     6
100
AcDbCircle
 10
876.00003
 20
2450.953064
 30
0.0
 40
10.0
100
AcDbArc
 50
0.0
 51
45.57338
  0
ARC
  5
3F5
100
AcDbEntity
  8
スト－ル
  6
CONTINUOUS
 62
     6
100
AcDbCircle
 10
889.999969
 20
2450.953064
 30
0.0
 40
10.0
100
AcDbArc
 50
134.42662
 51
180.0
  0
LINE
  5
3F6
100
AcDbEntity
  8
スト－ル
  6
CONTINUOUS
 62
     6
100
AcDbLine
 10
879.999969
 20
2420.0
 30
0.0
 11
879.999969
 21
2450.953064
 31
0.0
  0
LINE
  5
3F7
100
AcDbEntity
  8
スト－ル
  6
CONTINUOUS
 62
     7
100
AcDbLine
 10
508.0
 20
2420.0
 30
0.0
 11
897.999847
 21
2420.0
 31
0.0
  0
LINE
  5
3F8
100
AcDbEntity
  8
スト－ル
  6
CONTINUOUS
 62
     6
100
AcDbLine
 10
1508.0
 20
1340.961319
 30
0.0
 11
1652.810425
 21
1340.961319
 31
0.0
  0
ARC
  5
3F9
100
AcDbEntity
  8
スト－ル
  6
CONTINUOUS
 62
     7
100
AcDbCircle
 10
703.0
 20
2365.0
 30
0.0
 40
31.5
100
AcDbArc
 50
209.348297
 51
221.953672
  0
ARC
  5
3FA
100
AcDbEntity
  8
スト－ル
  6
CONTINUOUS
 62
     7
100
AcDbCircle
 10
703.0
 20
2365.0
 30
0.0
 40
31.5
100
AcDbArc
 50
318.045891
 51
330.94073
  0
LINE
  5
3FB
100
AcDbEntity
  8
スト－ル
  6
EXLTYPE3
 62
     6
100
AcDbLine
 10
702.999924
 20
2440.0
 30
0.0
 11
702.999924
 21
2125.0
 31
0.0
  0
LINE
  5
3FC
100
AcDbEntity
  8
スト－ル
  6
CONTINUOUS
 62
     7
100
AcDbLine
 10
683.015048
 20
1415.872269
 30
0.0
 11
722.984952
 21
1415.872269
 31
0.0
  0
LINE
  5
3FD
100
AcDbEntity
  8
スト－ル
  6
CONTINUOUS
 62
     7
100
AcDbLine
 10
1745.825348
 20
1415.872269
 30
0.0
 11
1785.795441
 21
1415.872269
 31
0.0
  0
ARC
  5
3FE
100
AcDbEntity
  8
スト－ル
  6
CONTINUOUS
 62
     7
100
AcDbCircle
 10
703.0
 20
2385.0
 30
0.0
 40
25.0
100
AcDbArc
 50
119.41852
 51
232.151762
  0
ARC
  5
3FF
100
AcDbEntity
  8
スト－ル
  6
CONTINUOUS
 62
     7
100
AcDbCircle
 10
703.0
 20
2385.0
 30
0.0
 40
25.0
100
AcDbArc
 50
307.84798
 51
60.581866
  0
ARC
  5
400
100
AcDbEntity
  8
スト－ル
  6
CONTINUOUS
 62
     7
100
AcDbCircle
 10
705.61795
 20
1327.05658
 30
0.0
 40
1022.94693
100
AcDbArc
 50
91.013377
 51
98.108078
  0
ARC
  5
401
100
AcDbEntity
  8
スト－ル
  6
CONTINUOUS
 62
     7
100
AcDbCircle
 10
705.61795
 20
1327.05658
 30
0.0
 40
1022.94693
100
AcDbArc
 50
81.94191
 51
89.278459
  0
ELLIPSE
  5
402
100
AcDbEntity
  8
スト－ル
  6
CONTINUOUS
 62
     6
100
AcDbEllipse
 10
703.0
 20
787.499711
 30
0.0
 11
8.75
 21
0.0
 31
0.0
210
0.0
220
0.0
230
1.0
 40
0.642788
 41
0.0
 42
6.2831853071796004
  0
LINE
  5
403
100
AcDbEntity
  8
スト－ル
  6
CONTINUOUS
 62
     6
100
AcDbLine
 10
695.340566
 20
794.505095
 30
0.0
 11
694.297328
 21
788.083903
 31
0.0
  0
LINE
  5
404
100
AcDbEntity
  8
スト－ル
  6
CONTINUOUS
 62
     6
100
AcDbLine
 10
710.222828
 20
794.69416
 30
0.0
 11
711.659966
 21
788.304479
 31
0.0
  0
ELLIPSE
  5
405
100
AcDbEntity
  8
スト－ル
  6
CONTINUOUS
 62
     6
100
AcDbEllipse
 10
702.8
 20
794.004359
 30
0.0
 11
7.5000000000000027
 21
0.0
 31
0.0
210
0.0
220
0.0
230
1.0
 40
0.642788
 41
0.143578053963215
 42
3.0375373503693979
  0
ARC
  5
406
100
AcDbEntity
  8
スト－ル
  6
CONTINUOUS
 62
     7
100
AcDbCircle
 10
668.0
 20
1005.0
 30
0.0
 40
5.0
100
AcDbArc
 50
180.0
 51
247.081688
  0
ARC
  5
407
100
AcDbEntity
  8
スト－ル
  6
CONTINUOUS
 62
     7
100
AcDbCircle
 10
738.0
 20
1005.0
 30
0.0
 40
5.0
100
AcDbArc
 50
292.918312
 51
0.0
  0
LINE
  5
408
100
AcDbEntity
  8
スト－ル
  6
EXLTYPE3
 62
     6
100
AcDbLine
 10
703.0
 20
1597.0
 30
0.0
 11
703.0
 21
529.474182
 31
0.0
  0
ARC
  5
409
100
AcDbEntity
  8
スト－ル
  6
CONTINUOUS
 62
     7
100
AcDbCircle
 10
1780.808411
 20
1005.000076
 30
0.0
 40
5.0
100
AcDbArc
 50
292.918312
 51
336.421875
  0
ARC
  5
40A
100
AcDbEntity
  8
スト－ル
  6
CONTINUOUS
 62
     7
100
AcDbCircle
 10
1710.808411
 20
1005.000076
 30
0.0
 40
5.0
100
AcDbArc
 50
201.356247
 51
247.081688
  0
LINE
  5
40B
100
AcDbEntity
  8
スト－ル
  6
CONTINUOUS
 62
     7
100
AcDbLine
 10
681.5
 20
549.474182
 30
0.0
 11
724.5
 21
549.474182
 31
0.0
  0
LINE
  5
40C
100
AcDbEntity
  8
スト－ル
  6
CONTINUOUS
 62
     7
100
AcDbLine
 10
681.428906
 20
556.474182
 30
0.0
 11
724.571094
 21
556.474182
 31
0.0
  0
LINE
  5
40D
100
AcDbEntity
  8
スト－ル
  6
CONTINUOUS
 62
     7
100
AcDbLine
 10
681.357812
 20
563.474182
 30
0.0
 11
724.642187
 21
563.474182
 31
0.0
  0
LINE
  5
40E
100
AcDbEntity
  8
スト－ル
  6
CONTINUOUS
 62
     7
100
AcDbLine
 10
681.286719
 20
570.474182
 30
0.0
 11
724.713281
 21
570.474182
 31
0.0
  0
LINE
  5
40F
100
AcDbEntity
  8
スト－ル
  6
CONTINUOUS
 62
     7
100
AcDbLine
 10
678.5
 20
612.0
 30
0.0
 11
727.5
 21
612.0
 31
0.0
  0
LINE
  5
410
100
AcDbEntity
  8
スト－ル
  6
CONTINUOUS
 62
     7
100
AcDbLine
 10
670.9
 20
601.91743
 30
0.0
 11
733.8
 21
601.91743
 31
0.0
  0
ARC
  5
411
100
AcDbEntity
  8
スト－ル
  6
CONTINUOUS
 62
     7
100
AcDbCircle
 10
637.745962
 20
622.657431
 30
0.0
 40
35.177786
100
AcDbArc
 50
317.863866
 51
332.067859
  0
ARC
  5
412
100
AcDbEntity
  8
スト－ル
  6
CONTINUOUS
 62
     7
100
AcDbCircle
 10
673.392972
 20
590.407028
 30
0.0
 40
12.892972
100
AcDbArc
 50
137.863866
 51
179.627425
  0
ARC
  5
413
100
AcDbEntity
  8
スト－ル
  6
CONTINUOUS
 62
     7
100
AcDbCircle
 10
678.5
 20
601.05
 30
0.0
 40
10.95
100
AcDbArc
 50
90.0
 51
152.067859
  0
ARC
  5
414
100
AcDbEntity
  8
スト－ル
  6
CONTINUOUS
 62
     7
100
AcDbCircle
 10
768.254038
 20
622.657431
 30
0.0
 40
35.177786
100
AcDbArc
 50
207.932141
 51
222.136134
  0
ARC
  5
415
100
AcDbEntity
  8
スト－ル
  6
CONTINUOUS
 62
     7
100
AcDbCircle
 10
727.5
 20
601.05
 30
0.0
 40
10.95
100
AcDbArc
 50
27.932141
 51
90.0
  0
ARC
  5
416
100
AcDbEntity
  8
スト－ル
  6
CONTINUOUS
 62
     7
100
AcDbCircle
 10
732.607028
 20
590.407028
 30
0.0
 40
12.892972
100
AcDbArc
 50
0.372575
 51
42.136134
  0
LINE
  5
417
100
AcDbEntity
  8
スト－ル
  6
CONTINUOUS
 62
     7
100
AcDbLine
 10
681.5
 20
549.474182
 30
0.0
 11
681.08841
 21
590.0
 31
0.0
  0
LINE
  5
418
100
AcDbEntity
  8
スト－ル
  6
CONTINUOUS
 62
     7
100
AcDbLine
 10
724.5
 20
549.474182
 30
0.0
 11
724.91159
 21
590.0
 31
0.0
  0
LINE
  5
419
100
AcDbEntity
  8
スト－ル
  6
CONTINUOUS
 62
     7
100
AcDbLine
 10
725.135028
 20
612.0
 30
0.0
 11
726.58523
 21
754.789129
 31
0.0
  0
LINE
  5
41A
100
AcDbEntity
  8
スト－ル
  6
CONTINUOUS
 62
     7
100
AcDbLine
 10
680.864972
 20
612.0
 30
0.0
 11
679.41477
 21
754.789129
 31
0.0
  0
ARC
  5
41B
100
AcDbEntity
  8
スト－ル
  6
CONTINUOUS
 62
     7
100
AcDbCircle
 10
761.81833
 20
809.690465
 30
0.0
 40
89.66833
100
AcDbArc
 50
180.0
 51
194.459712
  0
ARC
  5
41C
100
AcDbEntity
  8
スト－ル
  6
CONTINUOUS
 62
     7
100
AcDbCircle
 10
543.562533
 20
753.409379
 30
0.0
 40
135.727219
100
AcDbArc
 50
0.58189
 51
14.459712
  0
ARC
  5
41D
100
AcDbEntity
  8
スト－ル
  6
CONTINUOUS
 62
     7
100
AcDbCircle
 10
644.181669
 20
809.690465
 30
0.0
 40
89.66833
100
AcDbArc
 50
345.540288
 51
0.0
  0
ARC
  5
41E
100
AcDbEntity
  8
スト－ル
  6
CONTINUOUS
 62
     7
100
AcDbCircle
 10
862.437467
 20
753.409379
 30
0.0
 40
135.727219
100
AcDbArc
 50
165.540288
 51
179.41811
  0
LINE
  5
41F
100
AcDbEntity
  8
スト－ル
  6
CONTINUOUS
 62
     7
100
AcDbLine
 10
733.85
 20
952.497496
 30
0.0
 11
733.85
 21
809.690465
 31
0.0
  0
LINE
  5
420
100
AcDbEntity
  8
スト－ル
  6
CONTINUOUS
 62
     7
100
AcDbLine
 10
672.15
 20
952.497496
 30
0.0
 11
672.15
 21
809.690465
 31
0.0
  0
ARC
  5
421
100
AcDbEntity
  8
スト－ル
  6
CONTINUOUS
 62
     7
100
AcDbCircle
 10
657.020569
 20
952.497496
 30
0.0
 40
15.129431
100
AcDbArc
 50
0.0
 51
42.294926
  0
ARC
  5
422
100
AcDbEntity
  8
スト－ル
  6
CONTINUOUS
 62
     7
100
AcDbCircle
 10
679.307029
 20
972.773006
 30
0.0
 40
15.0
100
AcDbArc
 50
182.764977
 51
222.294926
  0
LINE
  5
423
100
AcDbEntity
  8
スト－ル
  6
CONTINUOUS
 62
     7
100
AcDbLine
 10
663.0
 20
999.474182
 30
0.0
 11
664.324491
 21
972.049418
 31
0.0
  0
LINE
  5
424
100
AcDbEntity
  8
スト－ル
  6
CONTINUOUS
 62
     7
100
AcDbLine
 10
663.0
 20
999.474182
 30
0.0
 11
743.0
 21
999.474182
 31
0.0
  0
LINE
  5
425
100
AcDbEntity
  8
スト－ル
  6
CONTINUOUS
 62
     7
100
AcDbLine
 10
743.0
 20
999.474182
 30
0.0
 11
741.675508
 21
972.049418
 31
0.0
  0
ARC
  5
426
100
AcDbEntity
  8
スト－ル
  6
CONTINUOUS
 62
     7
100
AcDbCircle
 10
726.692971
 20
972.773006
 30
0.0
 40
15.0
100
AcDbArc
 50
317.705074
 51
357.235023
  0
ARC
  5
427
100
AcDbEntity
  8
スト－ル
  6
CONTINUOUS
 62
     7
100
AcDbCircle
 10
748.979431
 20
952.497496
 30
0.0
 40
15.129431
100
AcDbArc
 50
137.705074
 51
180.0
  0
LINE
  5
428
100
AcDbEntity
  8
スト－ル
  6
CONTINUOUS
 62
     7
100
AcDbLine
 10
1705.808411
 20
1000.000076
 30
0.0
 11
1785.808411
 21
1000.000076
 31
0.0
  0
LINE
  5
429
100
AcDbEntity
  8
スト－ル
  6
CONTINUOUS
 62
     7
100
AcDbLine
 10
1705.808411
 20
1000.000076
 30
0.0
 11
1707.07657
 21
955.90271
 31
0.0
  0
ARC
  5
42A
100
AcDbEntity
  8
スト－ル
  6
CONTINUOUS
 62
     7
100
AcDbCircle
 10
1687.167696
 20
955.330168
 30
0.0
 40
19.917106
100
AcDbArc
 50
336.384709
 51
1.647268
  0
ARC
  5
42B
100
AcDbEntity
  8
スト－ル
  6
CONTINUOUS
 62
     7
100
AcDbCircle
 10
1773.484157
 20
917.591996
 30
0.0
 40
74.288526
100
AcDbArc
 50
156.384709
 51
176.842467
  0
ARC
  5
42C
100
AcDbEntity
  8
スト－ル
  6
CONTINUOUS
 62
     7
100
AcDbCircle
 10
2693.403032
 20
893.789763
 30
0.0
 40
994.094621
100
AcDbArc
 50
180.0
 51
184.618305
  0
LINE
  5
42D
100
AcDbEntity
  8
スト－ル
  6
CONTINUOUS
 62
     7
100
AcDbLine
 10
1699.308411
 20
921.683916
 30
0.0
 11
1699.308411
 21
893.789763
 31
0.0
  0
LINE
  5
42E
100
AcDbEntity
  8
スト－ル
  6
CONTINUOUS
 62
     7
100
AcDbLine
 10
1785.808411
 20
1000.000076
 30
0.0
 11
1784.540251
 21
955.90271
 31
0.0
  0
ARC
  5
42F
100
AcDbEntity
  8
スト－ル
  6
CONTINUOUS
 62
     7
100
AcDbCircle
 10
1718.132664
 20
917.591996
 30
0.0
 40
74.288526
100
AcDbArc
 50
3.157533
 51
23.615291
  0
ARC
  5
430
100
AcDbEntity
  8
スト－ル
  6
CONTINUOUS
 62
     7
100
AcDbCircle
 10
1804.449126
 20
955.330168
 30
0.0
 40
19.917106
100
AcDbArc
 50
178.352732
 51
203.615291
  0
LINE
  5
431
100
AcDbEntity
  8
スト－ル
  6
CONTINUOUS
 62
     7
100
AcDbLine
 10
1792.308411
 20
921.683916
 30
0.0
 11
1792.308411
 21
838.408297
 31
0.0
  0
ARC
  5
432
100
AcDbEntity
  8
スト－ル
  6
CONTINUOUS
 62
     7
100
AcDbCircle
 10
1712.308411
 20
838.408297
 30
0.0
 40
80.0
100
AcDbArc
 50
327.380757
 51
0.0
  0
ARC
  5
433
100
AcDbEntity
  8
スト－ル
  6
CONTINUOUS
 62
     7
100
AcDbCircle
 10
1809.78972
 20
768.110512
 30
0.0
 40
40.0
100
AcDbArc
 50
147.380757
 51
179.41811
  0
LINE
  5
434
100
AcDbEntity
  8
スト－ル
  6
CONTINUOUS
 62
     7
100
AcDbLine
 10
1776.098864
 20
789.67266
 30
0.0
 11
1779.690123
 21
795.284001
 31
0.0
  0
ARC
  5
435
100
AcDbEntity
  8
スト－ル
  6
CONTINUOUS
 62
     7
100
AcDbCircle
 10
1693.929714
 20
813.052667
 30
0.0
 40
8.634351
100
AcDbArc
 50
320.0
 51
4.618305
  0
LINE
  5
436
100
AcDbEntity
  8
スト－ル
  6
CONTINUOUS
 62
     7
100
AcDbLine
 10
1767.938097
 20
612.0
 30
0.0
 11
1769.527748
 21
768.519423
 31
0.0
  0
LINE
  5
437
100
AcDbEntity
  8
スト－ル
  6
CONTINUOUS
 62
     7
100
AcDbLine
 10
1723.678724
 20
612.0
 30
0.0
 11
1721.954615
 21
781.758431
 31
0.0
  0
LINE
  5
438
100
AcDbEntity
  8
スト－ル
  6
CONTINUOUS
 62
     7
100
AcDbLine
 10
1724.308411
 20
550.000076
 30
0.0
 11
1767.308411
 21
550.000076
 31
0.0
  0
LINE
  5
439
100
AcDbEntity
  8
スト－ル
  6
CONTINUOUS
 62
     7
100
AcDbLine
 10
1724.237317
 20
557.000076
 30
0.0
 11
1767.379504
 21
557.000076
 31
0.0
  0
LINE
  5
43A
100
AcDbEntity
  8
スト－ル
  6
CONTINUOUS
 62
     7
100
AcDbLine
 10
1724.166223
 20
564.000076
 30
0.0
 11
1767.450598
 21
564.000076
 31
0.0
  0
LINE
  5
43B
100
AcDbEntity
  8
スト－ル
  6
CONTINUOUS
 62
     7
100
AcDbLine
 10
1724.095129
 20
571.000076
 30
0.0
 11
1767.521692
 21
571.000076
 31
0.0
  0
LINE
  5
43C
100
AcDbEntity
  8
スト－ル
  6
CONTINUOUS
 62
     7
100
AcDbLine
 10
1721.308411
 20
612.0
 30
0.0
 11
1770.308411
 21
612.0
 31
0.0
  0
LINE
  5
43D
100
AcDbEntity
  8
スト－ル
  6
CONTINUOUS
 62
     7
100
AcDbLine
 10
1713.708411
 20
601.91743
 30
0.0
 11
1776.608411
 21
601.91743
 31
0.0
  0
ARC
  5
43E
100
AcDbEntity
  8
スト－ル
  6
CONTINUOUS
 62
     7
100
AcDbCircle
 10
1680.554373
 20
622.657431
 30
0.0
 40
35.177786
100
AcDbArc
 50
317.863866
 51
332.067859
  0
ARC
  5
43F
100
AcDbEntity
  8
スト－ル
  6
CONTINUOUS
 62
     7
100
AcDbCircle
 10
1716.201383
 20
590.407028
 30
0.0
 40
12.892972
100
AcDbArc
 50
137.863866
 51
179.627425
  0
ARC
  5
440
100
AcDbEntity
  8
スト－ル
  6
CONTINUOUS
 62
     7
100
AcDbCircle
 10
1721.308411
 20
601.05
 30
0.0
 40
10.95
100
AcDbArc
 50
90.0
 51
152.067859
  0
ARC
  5
441
100
AcDbEntity
  8
スト－ル
  6
CONTINUOUS
 62
     7
100
AcDbCircle
 10
1811.062448
 20
622.657431
 30
0.0
 40
35.177786
100
AcDbArc
 50
207.932141
 51
222.136134
  0
ARC
  5
442
100
AcDbEntity
  8
スト－ル
  6
CONTINUOUS
 62
     7
100
AcDbCircle
 10
1770.308411
 20
601.05
 30
0.0
 40
10.95
100
AcDbArc
 50
27.932141
 51
90.0
  0
ARC
  5
443
100
AcDbEntity
  8
スト－ル
  6
CONTINUOUS
 62
     7
100
AcDbCircle
 10
1775.415439
 20
590.407028
 30
0.0
 40
12.892972
100
AcDbArc
 50
0.372575
 51
42.136134
  0
LINE
  5
444
100
AcDbEntity
  8
スト－ル
  6
CONTINUOUS
 62
     7
100
AcDbLine
 10
1724.308411
 20
550.000076
 30
0.0
 11
1723.902161
 21
590.0
 31
0.0
  0
LINE
  5
445
100
AcDbEntity
  8
スト－ル
  6
CONTINUOUS
 62
     7
100
AcDbLine
 10
1767.308411
 20
550.000076
 30
0.0
 11
1767.71466
 21
590.0
 31
0.0
  0
LINE
  5
446
100
AcDbEntity
  8
スト－ル
  6
CONTINUOUS
 62
     7
100
AcDbLine
 10
1691.899288
 20
794.922153
 30
0.0
 11
1702.66964
 21
781.129057
 31
0.0
  0
LINE
  5
447
100
AcDbEntity
  8
スト－ル
  6
CONTINUOUS
 62
     7
100
AcDbLine
 10
1701.42612
 20
800.775251
 30
0.0
 11
1691.899288
 21
794.922153
 31
0.0
  0
LINE
  5
448
100
AcDbEntity
  8
スト－ル
  6
CONTINUOUS
 62
     7
100
AcDbLine
 10
1710.657851
 20
788.952597
 30
0.0
 11
1702.66964
 21
781.129057
 31
0.0
  0
ARC
  5
449
100
AcDbEntity
  8
スト－ル
  6
CONTINUOUS
 62
     7
100
AcDbCircle
 10
1700.34554
 20
804.768075
 30
0.0
 40
1.60569
100
AcDbArc
 50
140.0
 51
217.984531
  0
ARC
  5
44A
100
AcDbEntity
  8
スト－ル
  6
CONTINUOUS
 62
     7
100
AcDbCircle
 10
1717.436735
 20
781.712546
 30
0.0
 40
4.518113
100
AcDbArc
 50
0.58189
 51
126.868101
  0
ARC
  5
44B
100
AcDbEntity
  8
スト－ル
  6
CONTINUOUS
 62
     7
100
AcDbCircle
 10
1714.129312
 20
786.122731
 30
0.0
 40
0.994489
100
AcDbArc
 50
217.984531
 51
306.868101
  0
LINE
  5
44C
100
AcDbEntity
  8
スト－ル
  6
CONTINUOUS
 62
     7
100
AcDbLine
 10
1699.11551
 20
805.800192
 30
0.0
 11
1700.544011
 21
807.502613
 31
0.0
  0
LINE
  5
44D
100
AcDbEntity
  8
スト－ル
  6
CONTINUOUS
 62
     7
100
AcDbLine
 10
1699.079972
 20
803.779855
 30
0.0
 11
1713.345479
 21
785.510674
 31
0.0
  0
ELLIPSE
  5
44E
100
AcDbEntity
  8
スト－ル
  6
CONTINUOUS
 62
     7
100
AcDbEllipse
 10
703.0
 20
794.20562
 30
0.0
 11
12.500000000000011
 21
0.0
 31
0.0
210
0.0
220
0.0
230
1.0
 40
0.642788
 41
5.6720467477203149
 42
3.7513340195551361
  0
ARC
  5
44F
100
AcDbEntity
  8
小便器用水栓
  6
CONTINUOUS
 62
     6
100
AcDbCircle
 10
676.68997
 20
1420.337411
 30
0.0
 40
5.0
100
AcDbArc
 50
296.743684
 51
0.0
  0
LINE
  5
450
100
AcDbEntity
  8
小便器用水栓
  6
CONTINUOUS
 62
     6
100
AcDbLine
 10
681.68997
 20
1420.337411
 30
0.0
 11
681.68997
 21
1442.872269
 31
0.0
  0
ARC
  5
451
100
AcDbEntity
  8
小便器用水栓
  6
CONTINUOUS
 62
     6
100
AcDbCircle
 10
665.884024
 20
1468.370741
 30
0.0
 40
30.0
100
AcDbArc
 50
301.79387
 51
326.636481
  0
LINE
  5
452
100
AcDbEntity
  8
小便器用水栓
  6
CONTINUOUS
 62
     6
100
AcDbLine
 10
690.939969
 20
1451.872269
 30
0.0
 11
714.939969
 21
1451.872269
 31
0.0
  0
ARC
  5
453
100
AcDbEntity
  8
小便器用水栓
  6
CONTINUOUS
 62
     6
100
AcDbCircle
 10
739.995915
 20
1468.370741
 30
0.0
 40
30.0
100
AcDbArc
 50
213.363519
 51
238.20613
  0
LINE
  5
454
100
AcDbEntity
  8
小便器用水栓
  6
CONTINUOUS
 62
     6
100
AcDbLine
 10
724.18997
 20
1420.337411
 30
0.0
 11
724.18997
 21
1442.872269
 31
0.0
  0
ARC
  5
455
100
AcDbEntity
  8
小便器用水栓
  6
CONTINUOUS
 62
     6
100
AcDbCircle
 10
729.18997
 20
1420.337411
 30
0.0
 40
5.0
100
AcDbArc
 50
180.0
 51
243.256316
  0
ARC
  5
456
100
AcDbEntity
  8
小便器用水栓
  6
CONTINUOUS
 62
     6
100
AcDbCircle
 10
1739.560394
 20
1420.337411
 30
0.0
 40
5.0
100
AcDbArc
 50
296.743684
 51
0.0
  0
LINE
  5
457
100
AcDbEntity
  8
小便器用水栓
  6
CONTINUOUS
 62
     6
100
AcDbLine
 10
1744.560394
 20
1420.337411
 30
0.0
 11
1744.560394
 21
1442.872269
 31
0.0
  0
ARC
  5
458
100
AcDbEntity
  8
小便器用水栓
  6
CONTINUOUS
 62
     6
100
AcDbCircle
 10
1728.754449
 20
1468.370741
 30
0.0
 40
30.0
100
AcDbArc
 50
301.79387
 51
326.636481
  0
LINE
  5
459
100
AcDbEntity
  8
小便器用水栓
  6
CONTINUOUS
 62
     6
100
AcDbLine
 10
1753.810394
 20
1451.872269
 30
0.0
 11
1777.810394
 21
1451.872269
 31
0.0
  0
ARC
  5
45A
100
AcDbEntity
  8
小便器用水栓
  6
CONTINUOUS
 62
     6
100
AcDbCircle
 10
1802.86634
 20
1468.370741
 30
0.0
 40
30.0
100
AcDbArc
 50
213.363519
 51
238.20613
  0
LINE
  5
45B
100
AcDbEntity
  8
小便器用水栓
  6
CONTINUOUS
 62
     6
100
AcDbLine
 10
1787.060394
 20
1420.337411
 30
0.0
 11
1787.060394
 21
1442.872269
 31
0.0
  0
ARC
  5
45C
100
AcDbEntity
  8
小便器用水栓
  6
CONTINUOUS
 62
     6
100
AcDbCircle
 10
1792.060394
 20
1420.337411
 30
0.0
 40
5.0
100
AcDbArc
 50
180.0
 51
243.256316
  0
LINE
  5
45D
100
AcDbEntity
  8
小便器用水栓
  6
CONTINUOUS
 62
     6
100
AcDbLine
 10
678.939969
 20
1415.872269
 30
0.0
 11
683.015048
 21
1415.872269
 31
0.0
  0
LINE
  5
45E
100
AcDbEntity
  8
小便器用水栓
  6
CONTINUOUS
 62
     6
100
AcDbLine
 10
722.984952
 20
1415.872269
 30
0.0
 11
726.93997
 21
1415.872269
 31
0.0
  0
LINE
  5
45F
100
AcDbEntity
  8
小便器用水栓
  6
CONTINUOUS
 62
     6
100
AcDbLine
 10
1741.810394
 20
1415.872269
 30
0.0
 11
1745.825348
 21
1415.872269
 31
0.0
  0
LINE
  5
460
100
AcDbEntity
  8
小便器用水栓
  6
CONTINUOUS
 62
     6
100
AcDbLine
 10
1785.795441
 20
1415.872269
 30
0.0
 11
1789.810394
 21
1415.872269
 31
0.0
  0
LINE
  5
461
100
AcDbEntity
  8
小便器用水栓
  6
CONTINUOUS
 62
     6
100
AcDbLine
 10
690.587509
 20
2353.422089
 30
0.0
 11
693.842209
 21
2355.301209
 31
0.0
  0
ARC
  5
462
100
AcDbEntity
  8
小便器用水栓
  6
CONTINUOUS
 62
     6
100
AcDbCircle
 10
702.999924
 20
2345.0
 30
0.0
 40
14.999991
100
AcDbArc
 50
145.842285
 51
154.158569
  0
ARC
  5
463
100
AcDbEntity
  8
小便器用水栓
  6
CONTINUOUS
 62
     6
100
AcDbCircle
 10
702.999924
 20
2345.0
 30
0.0
 40
13.500013
100
AcDbArc
 50
131.351089
 51
188.519547
  0
LINE
  5
464
100
AcDbEntity
  8
小便器用水栓
  6
CONTINUOUS
 62
     6
100
AcDbLine
 10
689.499863
 20
2343.00003
 30
0.0
 11
689.499863
 21
2351.538238
 31
0.0
  0
LINE
  5
465
100
AcDbEntity
  8
小便器用水栓
  6
CONTINUOUS
 62
     6
100
AcDbLine
 10
716.499985
 20
2343.00003
 30
0.0
 11
716.499985
 21
2351.538238
 31
0.0
  0
ARC
  5
466
100
AcDbEntity
  8
小便器用水栓
  6
CONTINUOUS
 62
     6
100
AcDbCircle
 10
702.999924
 20
2345.0
 30
0.0
 40
15.00001
100
AcDbArc
 50
25.841446
 51
34.153534
  0
LINE
  5
467
100
AcDbEntity
  8
小便器用水栓
  6
CONTINUOUS
 62
     6
100
AcDbLine
 10
712.157181
 20
2355.300903
 30
0.0
 11
715.412949
 21
2353.421173
 31
0.0
  0
ARC
  5
468
100
AcDbEntity
  8
小便器用水栓
  6
CONTINUOUS
 62
     6
100
AcDbCircle
 10
702.999924
 20
2345.0
 30
0.0
 40
13.499947
100
AcDbArc
 50
351.480476
 51
48.648895
  0
LINE
  5
469
100
AcDbEntity
  8
小便器用水栓
  6
CONTINUOUS
 62
     6
100
AcDbLine
 10
679.999893
 20
2418.000488
 30
0.0
 11
689.999893
 21
2410.0
 31
0.0
  0
LINE
  5
46A
100
AcDbEntity
  8
小便器用水栓
  6
CONTINUOUS
 62
     6
100
AcDbLine
 10
715.999954
 20
2410.0
 30
0.0
 11
725.999954
 21
2418.000488
 31
0.0
  0
LINE
  5
46B
100
AcDbEntity
  8
小便器用水栓
  6
CONTINUOUS
 62
     6
100
AcDbLine
 10
679.999893
 20
2418.000488
 30
0.0
 11
725.999954
 21
2418.000488
 31
0.0
  0
LINE
  5
46C
100
AcDbEntity
  8
小便器用水栓
  6
CONTINUOUS
 62
     6
100
AcDbLine
 10
725.999954
 20
2420.0
 30
0.0
 11
725.999954
 21
2418.000488
 31
0.0
  0
LINE
  5
46D
100
AcDbEntity
  8
小便器用水栓
  6
CONTINUOUS
 62
     6
100
AcDbLine
 10
679.999893
 20
2420.0
 30
0.0
 11
679.999893
 21
2418.000488
 31
0.0
  0
LINE
  5
46E
100
AcDbEntity
  8
小便器用水栓
  6
CONTINUOUS
 62
     6
100
AcDbLine
 10
689.999893
 20
2410.0
 30
0.0
 11
715.999954
 21
2410.0
 31
0.0
  0
LINE
  5
46F
100
AcDbEntity
  8
小便器用水栓
  6
CONTINUOUS
 62
     6
100
AcDbLine
 10
713.499954
 20
2420.0
 30
0.0
 11
713.499954
 21
2433.999023
 31
0.0
  0
LINE
  5
470
100
AcDbEntity
  8
小便器用水栓
  6
CONTINUOUS
 62
     6
100
AcDbLine
 10
692.499893
 20
2433.999023
 30
0.0
 11
713.499954
 21
2433.999023
 31
0.0
  0
LINE
  5
471
100
AcDbEntity
  8
小便器用水栓
  6
CONTINUOUS
 62
     6
100
AcDbLine
 10
692.499893
 20
2420.0
 30
0.0
 11
692.499893
 21
2433.999023
 31
0.0
  0
LINE
  5
472
100
AcDbEntity
  8
小便器用水栓
  6
CONTINUOUS
 62
     6
100
AcDbLine
 10
692.499893
 20
2406.999512
 30
0.0
 11
713.499954
 21
2406.999512
 31
0.0
  0
LINE
  5
473
100
AcDbEntity
  8
小便器用水栓
  6
CONTINUOUS
 62
     6
100
AcDbLine
 10
694.09993
 20
2420.0
 30
0.0
 11
694.09993
 21
2433.999023
 31
0.0
  0
LINE
  5
474
100
AcDbEntity
  8
小便器用水栓
  6
CONTINUOUS
 62
     6
100
AcDbLine
 10
711.899918
 20
2420.0
 30
0.0
 11
711.899918
 21
2433.999023
 31
0.0
  0
ARC
  5
475
100
AcDbEntity
  8
小便器用水栓
  6
CONTINUOUS
 62
     6
100
AcDbCircle
 10
672.499893
 20
2403.540497
 30
0.0
 40
20.00001
100
AcDbArc
 50
344.641255
 51
0.0
  0
LINE
  5
476
100
AcDbEntity
  8
小便器用水栓
  6
CONTINUOUS
 62
     6
100
AcDbLine
 10
692.499893
 20
2403.540497
 30
0.0
 11
692.499893
 21
2410.0
 31
0.0
  0
ARC
  5
477
100
AcDbEntity
  8
小便器用水栓
  6
CONTINUOUS
 62
     6
100
AcDbCircle
 10
733.499954
 20
2403.540497
 30
0.0
 40
20.0
100
AcDbArc
 50
180.000015
 51
195.358658
  0
LINE
  5
478
100
AcDbEntity
  8
小便器用水栓
  6
CONTINUOUS
 62
     6
100
AcDbLine
 10
713.499954
 20
2403.540497
 30
0.0
 11
713.499954
 21
2410.0
 31
0.0
  0
LINE
  5
479
100
AcDbEntity
  8
小便器用水栓
  6
CONTINUOUS
 62
     6
100
AcDbLine
 10
714.727066
 20
2357.100372
 30
0.0
 11
708.299912
 21
2352.600098
 31
0.0
  0
ARC
  5
47A
100
AcDbEntity
  8
小便器用水栓
  6
CONTINUOUS
 62
     6
100
AcDbCircle
 10
711.749924
 20
2361.725006
 30
0.0
 40
5.500056
100
AcDbArc
 50
302.771713
 51
43.343002
  0
POLYLINE
  5
47B
100
AcDbEntity
  8
小便器用水栓
  6
CONTINUOUS
 62
     6
100
AcDb2dPolyline
 66
     1
 10
0.0
 20
0.0
 30
0.0
 70
   128
  0
VERTEX
  5
47C
100
AcDbEntity
  8
小便器用水栓
  6
CONTINUOUS
 62
     6
100
AcDbVertex
100
AcDb2dVertex
 10
690.986526
 20
2358.352966
 30
0.0
  0
VERTEX
  5
47D
100
AcDbEntity
  8
小便器用水栓
  6
CONTINUOUS
 62
     6
100
AcDbVertex
100
AcDb2dVertex
 10
691.235092
 20
2358.287048
 30
0.0
  0
VERTEX
  5
47E
100
AcDbEntity
  8
小便器用水栓
  6
CONTINUOUS
 62
     6
100
AcDbVertex
100
AcDb2dVertex
 10
691.487625
 20
2358.247223
 30
0.0
  0
VERTEX
  5
47F
100
AcDbEntity
  8
小便器用水栓
  6
CONTINUOUS
 62
     6
100
AcDbVertex
100
AcDb2dVertex
 10
691.742294
 20
2358.233948
 30
0.0
  0
SEQEND
  5
480
100
AcDbEntity
  8
小便器用水栓
  6
CONTINUOUS
 62
     6
  0
POLYLINE
  5
481
100
AcDbEntity
  8
小便器用水栓
  6
CONTINUOUS
 62
     6
100
AcDb2dPolyline
 66
     1
 10
0.0
 20
0.0
 30
0.0
 70
   128
  0
VERTEX
  5
482
100
AcDbEntity
  8
小便器用水栓
  6
CONTINUOUS
 62
     6
100
AcDbVertex
100
AcDb2dVertex
 10
691.741531
 20
2358.233948
 30
0.0
  0
VERTEX
  5
483
100
AcDbEntity
  8
小便器用水栓
  6
CONTINUOUS
 62
     6
100
AcDbVertex
100
AcDb2dVertex
 10
691.995895
 20
2358.247223
 30
0.0
  0
VERTEX
  5
484
100
AcDbEntity
  8
小便器用水栓
  6
CONTINUOUS
 62
     6
100
AcDbVertex
100
AcDb2dVertex
 10
692.248276
 20
2358.287048
 30
0.0
  0
VERTEX
  5
485
100
AcDbEntity
  8
小便器用水栓
  6
CONTINUOUS
 62
     6
100
AcDbVertex
100
AcDb2dVertex
 10
692.496994
 20
2358.352966
 30
0.0
  0
VERTEX
  5
486
100
AcDbEntity
  8
小便器用水栓
  6
CONTINUOUS
 62
     6
100
AcDbVertex
100
AcDb2dVertex
 10
692.739761
 20
2358.444519
 30
0.0
  0
VERTEX
  5
487
100
AcDbEntity
  8
小便器用水栓
  6
CONTINUOUS
 62
     6
100
AcDbVertex
100
AcDb2dVertex
 10
692.975204
 20
2358.561096
 30
0.0
  0
VERTEX
  5
488
100
AcDbEntity
  8
小便器用水栓
  6
CONTINUOUS
 62
     6
100
AcDbVertex
100
AcDb2dVertex
 10
693.200729
 20
2358.70163
 30
0.0
  0
VERTEX
  5
489
100
AcDbEntity
  8
小便器用水栓
  6
CONTINUOUS
 62
     6
100
AcDbVertex
100
AcDb2dVertex
 10
693.41542
 20
2358.865356
 30
0.0
  0
VERTEX
  5
48A
100
AcDbEntity
  8
小便器用水栓
  6
CONTINUOUS
 62
     6
100
AcDbVertex
100
AcDb2dVertex
 10
693.617447
 20
2359.050751
 30
0.0
  0
VERTEX
  5
48B
100
AcDbEntity
  8
小便器用水栓
  6
CONTINUOUS
 62
     6
100
AcDbVertex
100
AcDb2dVertex
 10
693.804825
 20
2359.256287
 30
0.0
  0
VERTEX
  5
48C
100
AcDbEntity
  8
小便器用水栓
  6
CONTINUOUS
 62
     6
100
AcDbVertex
100
AcDb2dVertex
 10
693.976639
 20
2359.480896
 30
0.0
  0
VERTEX
  5
48D
100
AcDbEntity
  8
小便器用水栓
  6
CONTINUOUS
 62
     6
100
AcDbVertex
100
AcDb2dVertex
 10
694.131515
 20
2359.722443
 30
0.0
  0
VERTEX
  5
48E
100
AcDbEntity
  8
小便器用水栓
  6
CONTINUOUS
 62
     6
100
AcDbVertex
100
AcDb2dVertex
 10
694.268845
 20
2359.979401
 30
0.0
  0
VERTEX
  5
48F
100
AcDbEntity
  8
小便器用水栓
  6
CONTINUOUS
 62
     6
100
AcDbVertex
100
AcDb2dVertex
 10
694.38649
 20
2360.249481
 30
0.0
  0
VERTEX
  5
490
100
AcDbEntity
  8
小便器用水栓
  6
CONTINUOUS
 62
     6
100
AcDbVertex
100
AcDb2dVertex
 10
694.483994
 20
2360.530853
 30
0.0
  0
VERTEX
  5
491
100
AcDbEntity
  8
小便器用水栓
  6
CONTINUOUS
 62
     6
100
AcDbVertex
100
AcDb2dVertex
 10
694.560287
 20
2360.821381
 30
0.0
  0
VERTEX
  5
492
100
AcDbEntity
  8
小便器用水栓
  6
CONTINUOUS
 62
     6
100
AcDbVertex
100
AcDb2dVertex
 10
694.615372
 20
2361.118774
 30
0.0
  0
VERTEX
  5
493
100
AcDbEntity
  8
小便器用水栓
  6
CONTINUOUS
 62
     6
100
AcDbVertex
100
AcDb2dVertex
 10
694.648636
 20
2361.420593
 30
0.0
  0
VERTEX
  5
494
100
AcDbEntity
  8
小便器用水栓
  6
CONTINUOUS
 62
     6
100
AcDbVertex
100
AcDb2dVertex
 10
694.659775
 20
2361.725006
 30
0.0
  0
VERTEX
  5
495
100
AcDbEntity
  8
小便器用水栓
  6
CONTINUOUS
 62
     6
100
AcDbVertex
100
AcDb2dVertex
 10
694.648636
 20
2362.029266
 30
0.0
  0
VERTEX
  5
496
100
AcDbEntity
  8
小便器用水栓
  6
CONTINUOUS
 62
     6
100
AcDbVertex
100
AcDb2dVertex
 10
694.615677
 20
2362.331238
 30
0.0
  0
VERTEX
  5
497
100
AcDbEntity
  8
小便器用水栓
  6
CONTINUOUS
 62
     6
100
AcDbVertex
100
AcDb2dVertex
 10
694.560287
 20
2362.628632
 30
0.0
  0
VERTEX
  5
498
100
AcDbEntity
  8
小便器用水栓
  6
CONTINUOUS
 62
     6
100
AcDbVertex
100
AcDb2dVertex
 10
694.483688
 20
2362.919006
 30
0.0
  0
VERTEX
  5
499
100
AcDbEntity
  8
小便器用水栓
  6
CONTINUOUS
 62
     6
100
AcDbVertex
100
AcDb2dVertex
 10
694.386185
 20
2363.200531
 30
0.0
  0
VERTEX
  5
49A
100
AcDbEntity
  8
小便器用水栓
  6
CONTINUOUS
 62
     6
100
AcDbVertex
100
AcDb2dVertex
 10
694.268845
 20
2363.470612
 30
0.0
  0
VERTEX
  5
49B
100
AcDbEntity
  8
小便器用水栓
  6
CONTINUOUS
 62
     6
100
AcDbVertex
100
AcDb2dVertex
 10
694.132126
 20
2363.727417
 30
0.0
  0
VERTEX
  5
49C
100
AcDbEntity
  8
小便器用水栓
  6
CONTINUOUS
 62
     6
100
AcDbVertex
100
AcDb2dVertex
 10
693.977249
 20
2363.969116
 30
0.0
  0
VERTEX
  5
49D
100
AcDbEntity
  8
小便器用水栓
  6
CONTINUOUS
 62
     6
100
AcDbVertex
100
AcDb2dVertex
 10
693.804825
 20
2364.193573
 30
0.0
  0
VERTEX
  5
49E
100
AcDbEntity
  8
小便器用水栓
  6
CONTINUOUS
 62
     6
100
AcDbVertex
100
AcDb2dVertex
 10
693.616989
 20
2364.399261
 30
0.0
  0
VERTEX
  5
49F
100
AcDbEntity
  8
小便器用水栓
  6
CONTINUOUS
 62
     6
100
AcDbVertex
100
AcDb2dVertex
 10
693.414963
 20
2364.584656
 30
0.0
  0
VERTEX
  5
4A0
100
AcDbEntity
  8
小便器用水栓
  6
CONTINUOUS
 62
     6
100
AcDbVertex
100
AcDb2dVertex
 10
693.200729
 20
2364.74823
 30
0.0
  0
VERTEX
  5
4A1
100
AcDbEntity
  8
小便器用水栓
  6
CONTINUOUS
 62
     6
100
AcDbVertex
100
AcDb2dVertex
 10
692.974899
 20
2364.888763
 30
0.0
  0
VERTEX
  5
4A2
100
AcDbEntity
  8
小便器用水栓
  6
CONTINUOUS
 62
     6
100
AcDbVertex
100
AcDb2dVertex
 10
692.739914
 20
2365.005341
 30
0.0
  0
VERTEX
  5
4A3
100
AcDbEntity
  8
小便器用水栓
  6
CONTINUOUS
 62
     6
100
AcDbVertex
100
AcDb2dVertex
 10
692.496994
 20
2365.097046
 30
0.0
  0
VERTEX
  5
4A4
100
AcDbEntity
  8
小便器用水栓
  6
CONTINUOUS
 62
     6
100
AcDbVertex
100
AcDb2dVertex
 10
692.248581
 20
2365.162964
 30
0.0
  0
VERTEX
  5
4A5
100
AcDbEntity
  8
小便器用水栓
  6
CONTINUOUS
 62
     6
100
AcDbVertex
100
AcDb2dVertex
 10
691.996353
 20
2365.202789
 30
0.0
  0
VERTEX
  5
4A6
100
AcDbEntity
  8
小便器用水栓
  6
CONTINUOUS
 62
     6
100
AcDbVertex
100
AcDb2dVertex
 10
691.741531
 20
2365.216064
 30
0.0
  0
VERTEX
  5
4A7
100
AcDbEntity
  8
小便器用水栓
  6
CONTINUOUS
 62
     6
100
AcDbVertex
100
AcDb2dVertex
 10
691.487167
 20
2365.202789
 30
0.0
  0
VERTEX
  5
4A8
100
AcDbEntity
  8
小便器用水栓
  6
CONTINUOUS
 62
     6
100
AcDbVertex
100
AcDb2dVertex
 10
691.234787
 20
2365.162964
 30
0.0
  0
VERTEX
  5
4A9
100
AcDbEntity
  8
小便器用水栓
  6
CONTINUOUS
 62
     6
100
AcDbVertex
100
AcDb2dVertex
 10
690.986526
 20
2365.097046
 30
0.0
  0
VERTEX
  5
4AA
100
AcDbEntity
  8
小便器用水栓
  6
CONTINUOUS
 62
     6
100
AcDbVertex
100
AcDb2dVertex
 10
690.743759
 20
2365.005493
 30
0.0
  0
VERTEX
  5
4AB
100
AcDbEntity
  8
小便器用水栓
  6
CONTINUOUS
 62
     6
100
AcDbVertex
100
AcDb2dVertex
 10
690.508774
 20
2364.888916
 30
0.0
  0
VERTEX
  5
4AC
100
AcDbEntity
  8
小便器用水栓
  6
CONTINUOUS
 62
     6
100
AcDbVertex
100
AcDb2dVertex
 10
690.282486
 20
2364.74823
 30
0.0
  0
VERTEX
  5
4AD
100
AcDbEntity
  8
小便器用水栓
  6
CONTINUOUS
 62
     6
100
AcDbVertex
100
AcDb2dVertex
 10
690.067795
 20
2364.584503
 30
0.0
  0
VERTEX
  5
4AE
100
AcDbEntity
  8
小便器用水栓
  6
CONTINUOUS
 62
     6
100
AcDbVertex
100
AcDb2dVertex
 10
689.865616
 20
2364.399109
 30
0.0
  0
VERTEX
  5
4AF
100
AcDbEntity
  8
小便器用水栓
  6
CONTINUOUS
 62
     6
100
AcDbVertex
100
AcDb2dVertex
 10
689.67839
 20
2364.193573
 30
0.0
  0
VERTEX
  5
4B0
100
AcDbEntity
  8
小便器用水栓
  6
CONTINUOUS
 62
     6
100
AcDbVertex
100
AcDb2dVertex
 10
689.506424
 20
2363.968964
 30
0.0
  0
VERTEX
  5
4B1
100
AcDbEntity
  8
小便器用水栓
  6
CONTINUOUS
 62
     6
100
AcDbVertex
100
AcDb2dVertex
 10
689.3517
 20
2363.727417
 30
0.0
  0
VERTEX
  5
4B2
100
AcDbEntity
  8
小便器用水栓
  6
CONTINUOUS
 62
     6
100
AcDbVertex
100
AcDb2dVertex
 10
689.214371
 20
2363.470612
 30
0.0
  0
VERTEX
  5
4B3
100
AcDbEntity
  8
小便器用水栓
  6
CONTINUOUS
 62
     6
100
AcDbVertex
100
AcDb2dVertex
 10
689.096725
 20
2363.200531
 30
0.0
  0
VERTEX
  5
4B4
100
AcDbEntity
  8
小便器用水栓
  6
CONTINUOUS
 62
     6
100
AcDbVertex
100
AcDb2dVertex
 10
688.999222
 20
2362.919159
 30
0.0
  0
VERTEX
  5
4B5
100
AcDbEntity
  8
小便器用水栓
  6
CONTINUOUS
 62
     6
100
AcDbVertex
100
AcDb2dVertex
 10
688.922928
 20
2362.628632
 30
0.0
  0
VERTEX
  5
4B6
100
AcDbEntity
  8
小便器用水栓
  6
CONTINUOUS
 62
     6
100
AcDbVertex
100
AcDb2dVertex
 10
688.867844
 20
2362.331238
 30
0.0
  0
VERTEX
  5
4B7
100
AcDbEntity
  8
小便器用水栓
  6
CONTINUOUS
 62
     6
100
AcDbVertex
100
AcDb2dVertex
 10
688.834579
 20
2362.029419
 30
0.0
  0
VERTEX
  5
4B8
100
AcDbEntity
  8
小便器用水栓
  6
CONTINUOUS
 62
     6
100
AcDbVertex
100
AcDb2dVertex
 10
688.823746
 20
2361.725006
 30
0.0
  0
VERTEX
  5
4B9
100
AcDbEntity
  8
小便器用水栓
  6
CONTINUOUS
 62
     6
100
AcDbVertex
100
AcDb2dVertex
 10
688.834885
 20
2361.420746
 30
0.0
  0
VERTEX
  5
4BA
100
AcDbEntity
  8
小便器用水栓
  6
CONTINUOUS
 62
     6
100
AcDbVertex
100
AcDb2dVertex
 10
688.868301
 20
2361.118774
 30
0.0
  0
VERTEX
  5
4BB
100
AcDbEntity
  8
小便器用水栓
  6
CONTINUOUS
 62
     6
100
AcDbVertex
100
AcDb2dVertex
 10
688.922928
 20
2360.821381
 30
0.0
  0
VERTEX
  5
4BC
100
AcDbEntity
  8
小便器用水栓
  6
CONTINUOUS
 62
     6
100
AcDbVertex
100
AcDb2dVertex
 10
688.999527
 20
2360.531006
 30
0.0
  0
VERTEX
  5
4BD
100
AcDbEntity
  8
小便器用水栓
  6
CONTINUOUS
 62
     6
100
AcDbVertex
100
AcDb2dVertex
 10
689.096878
 20
2360.249481
 30
0.0
  0
SEQEND
  5
4BE
100
AcDbEntity
  8
小便器用水栓
  6
CONTINUOUS
 62
     6
  0
POLYLINE
  5
4BF
100
AcDbEntity
  8
小便器用水栓
  6
CONTINUOUS
 62
     6
100
AcDb2dPolyline
 66
     1
 10
0.0
 20
0.0
 30
0.0
 70
   128
  0
VERTEX
  5
4C0
100
AcDbEntity
  8
小便器用水栓
  6
CONTINUOUS
 62
     6
100
AcDbVertex
100
AcDb2dVertex
 10
689.096878
 20
2360.249481
 30
0.0
  0
VERTEX
  5
4C1
100
AcDbEntity
  8
小便器用水栓
  6
CONTINUOUS
 62
     6
100
AcDbVertex
100
AcDb2dVertex
 10
689.214371
 20
2359.979401
 30
0.0
  0
VERTEX
  5
4C2
100
AcDbEntity
  8
小便器用水栓
  6
CONTINUOUS
 62
     6
100
AcDbVertex
100
AcDb2dVertex
 10
689.351089
 20
2359.722595
 30
0.0
  0
VERTEX
  5
4C3
100
AcDbEntity
  8
小便器用水栓
  6
CONTINUOUS
 62
     6
100
AcDbVertex
100
AcDb2dVertex
 10
689.505966
 20
2359.480896
 30
0.0
  0
VERTEX
  5
4C4
100
AcDbEntity
  8
小便器用水栓
  6
CONTINUOUS
 62
     6
100
AcDbVertex
100
AcDb2dVertex
 10
689.67839
 20
2359.256287
 30
0.0
  0
VERTEX
  5
4C5
100
AcDbEntity
  8
小便器用水栓
  6
CONTINUOUS
 62
     6
100
AcDbVertex
100
AcDb2dVertex
 10
689.866074
 20
2359.050598
 30
0.0
  0
VERTEX
  5
4C6
100
AcDbEntity
  8
小便器用水栓
  6
CONTINUOUS
 62
     6
100
AcDbVertex
100
AcDb2dVertex
 10
690.068252
 20
2358.865204
 30
0.0
  0
VERTEX
  5
4C7
100
AcDbEntity
  8
小便器用水栓
  6
CONTINUOUS
 62
     6
100
AcDbVertex
100
AcDb2dVertex
 10
690.282486
 20
2358.70163
 30
0.0
  0
VERTEX
  5
4C8
100
AcDbEntity
  8
小便器用水栓
  6
CONTINUOUS
 62
     6
100
AcDbVertex
100
AcDb2dVertex
 10
690.508316
 20
2358.561096
 30
0.0
  0
VERTEX
  5
4C9
100
AcDbEntity
  8
小便器用水栓
  6
CONTINUOUS
 62
     6
100
AcDbVertex
100
AcDb2dVertex
 10
690.743301
 20
2358.444519
 30
0.0
  0
VERTEX
  5
4CA
100
AcDbEntity
  8
小便器用水栓
  6
CONTINUOUS
 62
     6
100
AcDbVertex
100
AcDb2dVertex
 10
690.986526
 20
2358.352966
 30
0.0
  0
SEQEND
  5
4CB
100
AcDbEntity
  8
小便器用水栓
  6
CONTINUOUS
 62
     6
  0
POLYLINE
  5
4CC
100
AcDbEntity
  8
小便器用水栓
  6
CONTINUOUS
 62
     6
100
AcDb2dPolyline
 66
     1
 10
0.0
 20
0.0
 30
0.0
 70
   128
  0
VERTEX
  5
4CD
100
AcDbEntity
  8
小便器用水栓
  6
CONTINUOUS
 62
     6
100
AcDbVertex
100
AcDb2dVertex
 10
701.489609
 20
2358.352966
 30
0.0
  0
VERTEX
  5
4CE
100
AcDbEntity
  8
小便器用水栓
  6
CONTINUOUS
 62
     6
100
AcDbVertex
100
AcDb2dVertex
 10
701.98674
 20
2358.287048
 30
0.0
  0
VERTEX
  5
4CF
100
AcDbEntity
  8
小便器用水栓
  6
CONTINUOUS
 62
     6
100
AcDbVertex
100
AcDb2dVertex
 10
702.491501
 20
2358.247223
 30
0.0
  0
VERTEX
  5
4D0
100
AcDbEntity
  8
小便器用水栓
  6
CONTINUOUS
 62
     6
100
AcDbVertex
100
AcDb2dVertex
 10
703.000076
 20
2358.233948
 30
0.0
  0
SEQEND
  5
4D1
100
AcDbEntity
  8
小便器用水栓
  6
CONTINUOUS
 62
     6
  0
POLYLINE
  5
4D2
100
AcDbEntity
  8
小便器用水栓
  6
CONTINUOUS
 62
     6
100
AcDb2dPolyline
 66
     1
 10
0.0
 20
0.0
 30
0.0
 70
   128
  0
VERTEX
  5
4D3
100
AcDbEntity
  8
小便器用水栓
  6
CONTINUOUS
 62
     6
100
AcDbVertex
100
AcDb2dVertex
 10
703.000076
 20
2358.233948
 30
0.0
  0
VERTEX
  5
4D4
100
AcDbEntity
  8
小便器用水栓
  6
CONTINUOUS
 62
     6
100
AcDbVertex
100
AcDb2dVertex
 10
703.508652
 20
2358.247223
 30
0.0
  0
VERTEX
  5
4D5
100
AcDbEntity
  8
小便器用水栓
  6
CONTINUOUS
 62
     6
100
AcDbVertex
100
AcDb2dVertex
 10
704.013565
 20
2358.287048
 30
0.0
  0
VERTEX
  5
4D6
100
AcDbEntity
  8
小便器用水栓
  6
CONTINUOUS
 62
     6
100
AcDbVertex
100
AcDb2dVertex
 10
704.510696
 20
2358.352966
 30
0.0
  0
VERTEX
  5
4D7
100
AcDbEntity
  8
小便器用水栓
  6
CONTINUOUS
 62
     6
100
AcDbVertex
100
AcDb2dVertex
 10
704.996231
 20
2358.444519
 30
0.0
  0
VERTEX
  5
4D8
100
AcDbEntity
  8
小便器用水栓
  6
CONTINUOUS
 62
     6
100
AcDbVertex
100
AcDb2dVertex
 10
705.46666
 20
2358.561096
 30
0.0
  0
VERTEX
  5
4D9
100
AcDbEntity
  8
小便器用水栓
  6
CONTINUOUS
 62
     6
100
AcDbVertex
100
AcDb2dVertex
 10
705.91832
 20
2358.70163
 30
0.0
  0
VERTEX
  5
4DA
100
AcDbEntity
  8
小便器用水栓
  6
CONTINUOUS
 62
     6
100
AcDbVertex
100
AcDb2dVertex
 10
706.347702
 20
2358.865356
 30
0.0
  0
VERTEX
  5
4DB
100
AcDbEntity
  8
小便器用水栓
  6
CONTINUOUS
 62
     6
100
AcDbVertex
100
AcDb2dVertex
 10
706.751907
 20
2359.050751
 30
0.0
  0
VERTEX
  5
4DC
100
AcDbEntity
  8
小便器用水栓
  6
CONTINUOUS
 62
     6
100
AcDbVertex
100
AcDb2dVertex
 10
707.126968
 20
2359.256287
 30
0.0
  0
VERTEX
  5
4DD
100
AcDbEntity
  8
小便器用水栓
  6
CONTINUOUS
 62
     6
100
AcDbVertex
100
AcDb2dVertex
 10
707.470901
 20
2359.480896
 30
0.0
  0
VERTEX
  5
4DE
100
AcDbEntity
  8
小便器用水栓
  6
CONTINUOUS
 62
     6
100
AcDbVertex
100
AcDb2dVertex
 10
707.780808
 20
2359.722443
 30
0.0
  0
VERTEX
  5
4DF
100
AcDbEntity
  8
小便器用水栓
  6
CONTINUOUS
 62
     6
100
AcDbVertex
100
AcDb2dVertex
 10
708.054092
 20
2359.979401
 30
0.0
  0
VERTEX
  5
4E0
100
AcDbEntity
  8
小便器用水栓
  6
CONTINUOUS
 62
     6
100
AcDbVertex
100
AcDb2dVertex
 10
708.289078
 20
2360.249481
 30
0.0
  0
VERTEX
  5
4E1
100
AcDbEntity
  8
小便器用水栓
  6
CONTINUOUS
 62
     6
100
AcDbVertex
100
AcDb2dVertex
 10
708.48378
 20
2360.530853
 30
0.0
  0
VERTEX
  5
4E2
100
AcDbEntity
  8
小便器用水栓
  6
CONTINUOUS
 62
     6
100
AcDbVertex
100
AcDb2dVertex
 10
708.637436
 20
2360.821381
 30
0.0
  0
VERTEX
  5
4E3
100
AcDbEntity
  8
小便器用水栓
  6
CONTINUOUS
 62
     6
100
AcDbVertex
100
AcDb2dVertex
 10
708.747604
 20
2361.118774
 30
0.0
  0
VERTEX
  5
4E4
100
AcDbEntity
  8
小便器用水栓
  6
CONTINUOUS
 62
     6
100
AcDbVertex
100
AcDb2dVertex
 10
708.81398
 20
2361.420593
 30
0.0
  0
VERTEX
  5
4E5
100
AcDbEntity
  8
小便器用水栓
  6
CONTINUOUS
 62
     6
100
AcDbVertex
100
AcDb2dVertex
 10
708.836258
 20
2361.725006
 30
0.0
  0
VERTEX
  5
4E6
100
AcDbEntity
  8
小便器用水栓
  6
CONTINUOUS
 62
     6
100
AcDbVertex
100
AcDb2dVertex
 10
708.81398
 20
2362.029266
 30
0.0
  0
VERTEX
  5
4E7
100
AcDbEntity
  8
小便器用水栓
  6
CONTINUOUS
 62
     6
100
AcDbVertex
100
AcDb2dVertex
 10
708.747452
 20
2362.331238
 30
0.0
  0
VERTEX
  5
4E8
100
AcDbEntity
  8
小便器用水栓
  6
CONTINUOUS
 62
     6
100
AcDbVertex
100
AcDb2dVertex
 10
708.637436
 20
2362.628632
 30
0.0
  0
VERTEX
  5
4E9
100
AcDbEntity
  8
小便器用水栓
  6
CONTINUOUS
 62
     6
100
AcDbVertex
100
AcDb2dVertex
 10
708.484238
 20
2362.919006
 30
0.0
  0
VERTEX
  5
4EA
100
AcDbEntity
  8
小便器用水栓
  6
CONTINUOUS
 62
     6
100
AcDbVertex
100
AcDb2dVertex
 10
708.289535
 20
2363.200531
 30
0.0
  0
VERTEX
  5
4EB
100
AcDbEntity
  8
小便器用水栓
  6
CONTINUOUS
 62
     6
100
AcDbVertex
100
AcDb2dVertex
 10
708.054092
 20
2363.470612
 30
0.0
  0
VERTEX
  5
4EC
100
AcDbEntity
  8
小便器用水栓
  6
CONTINUOUS
 62
     6
100
AcDbVertex
100
AcDb2dVertex
 10
707.780502
 20
2363.727417
 30
0.0
  0
VERTEX
  5
4ED
100
AcDbEntity
  8
小便器用水栓
  6
CONTINUOUS
 62
     6
100
AcDbVertex
100
AcDb2dVertex
 10
707.470444
 20
2363.969116
 30
0.0
  0
VERTEX
  5
4EE
100
AcDbEntity
  8
小便器用水栓
  6
CONTINUOUS
 62
     6
100
AcDbVertex
100
AcDb2dVertex
 10
707.126968
 20
2364.193573
 30
0.0
  0
VERTEX
  5
4EF
100
AcDbEntity
  8
小便器用水栓
  6
CONTINUOUS
 62
     6
100
AcDbVertex
100
AcDb2dVertex
 10
706.751602
 20
2364.399261
 30
0.0
  0
VERTEX
  5
4F0
100
AcDbEntity
  8
小便器用水栓
  6
CONTINUOUS
 62
     6
100
AcDbVertex
100
AcDb2dVertex
 10
706.347702
 20
2364.584656
 30
0.0
  0
VERTEX
  5
4F1
100
AcDbEntity
  8
小便器用水栓
  6
CONTINUOUS
 62
     6
100
AcDbVertex
100
AcDb2dVertex
 10
705.91832
 20
2364.74823
 30
0.0
  0
VERTEX
  5
4F2
100
AcDbEntity
  8
小便器用水栓
  6
CONTINUOUS
 62
     6
100
AcDbVertex
100
AcDb2dVertex
 10
705.466812
 20
2364.888763
 30
0.0
  0
VERTEX
  5
4F3
100
AcDbEntity
  8
小便器用水栓
  6
CONTINUOUS
 62
     6
100
AcDbVertex
100
AcDb2dVertex
 10
704.996536
 20
2365.005341
 30
0.0
  0
VERTEX
  5
4F4
100
AcDbEntity
  8
小便器用水栓
  6
CONTINUOUS
 62
     6
100
AcDbVertex
100
AcDb2dVertex
 10
704.510696
 20
2365.097046
 30
0.0
  0
VERTEX
  5
4F5
100
AcDbEntity
  8
小便器用水栓
  6
CONTINUOUS
 62
     6
100
AcDbVertex
100
AcDb2dVertex
 10
704.013565
 20
2365.162964
 30
0.0
  0
VERTEX
  5
4F6
100
AcDbEntity
  8
小便器用水栓
  6
CONTINUOUS
 62
     6
100
AcDbVertex
100
AcDb2dVertex
 10
703.508804
 20
2365.202789
 30
0.0
  0
VERTEX
  5
4F7
100
AcDbEntity
  8
小便器用水栓
  6
CONTINUOUS
 62
     6
100
AcDbVertex
100
AcDb2dVertex
 10
703.000076
 20
2365.216064
 30
0.0
  0
VERTEX
  5
4F8
100
AcDbEntity
  8
小便器用水栓
  6
CONTINUOUS
 62
     6
100
AcDbVertex
100
AcDb2dVertex
 10
702.491501
 20
2365.202789
 30
0.0
  0
VERTEX
  5
4F9
100
AcDbEntity
  8
小便器用水栓
  6
CONTINUOUS
 62
     6
100
AcDbVertex
100
AcDb2dVertex
 10
701.986587
 20
2365.162964
 30
0.0
  0
VERTEX
  5
4FA
100
AcDbEntity
  8
小便器用水栓
  6
CONTINUOUS
 62
     6
100
AcDbVertex
100
AcDb2dVertex
 10
701.489609
 20
2365.097046
 30
0.0
  0
VERTEX
  5
4FB
100
AcDbEntity
  8
小便器用水栓
  6
CONTINUOUS
 62
     6
100
AcDbVertex
100
AcDb2dVertex
 10
701.004074
 20
2365.005493
 30
0.0
  0
VERTEX
  5
4FC
100
AcDbEntity
  8
小便器用水栓
  6
CONTINUOUS
 62
     6
100
AcDbVertex
100
AcDb2dVertex
 10
700.533646
 20
2364.888916
 30
0.0
  0
VERTEX
  5
4FD
100
AcDbEntity
  8
小便器用水栓
  6
CONTINUOUS
 62
     6
100
AcDbVertex
100
AcDb2dVertex
 10
700.08168
 20
2364.74823
 30
0.0
  0
VERTEX
  5
4FE
100
AcDbEntity
  8
小便器用水栓
  6
CONTINUOUS
 62
     6
100
AcDbVertex
100
AcDb2dVertex
 10
699.652298
 20
2364.584503
 30
0.0
  0
VERTEX
  5
4FF
100
AcDbEntity
  8
小便器用水栓
  6
CONTINUOUS
 62
     6
100
AcDbVertex
100
AcDb2dVertex
 10
699.248093
 20
2364.399109
 30
0.0
  0
VERTEX
  5
500
100
AcDbEntity
  8
小便器用水栓
  6
CONTINUOUS
 62
     6
100
AcDbVertex
100
AcDb2dVertex
 10
698.873337
 20
2364.193573
 30
0.0
  0
VERTEX
  5
501
100
AcDbEntity
  8
小便器用水栓
  6
CONTINUOUS
 62
     6
100
AcDbVertex
100
AcDb2dVertex
 10
698.529404
 20
2363.968964
 30
0.0
  0
VERTEX
  5
502
100
AcDbEntity
  8
小便器用水栓
  6
CONTINUOUS
 62
     6
100
AcDbVertex
100
AcDb2dVertex
 10
698.219498
 20
2363.727417
 30
0.0
  0
VERTEX
  5
503
100
AcDbEntity
  8
小便器用水栓
  6
CONTINUOUS
 62
     6
100
AcDbVertex
100
AcDb2dVertex
 10
697.945908
 20
2363.470612
 30
0.0
  0
VERTEX
  5
504
100
AcDbEntity
  8
小便器用水栓
  6
CONTINUOUS
 62
     6
100
AcDbVertex
100
AcDb2dVertex
 10
697.710922
 20
2363.200531
 30
0.0
  0
VERTEX
  5
505
100
AcDbEntity
  8
小便器用水栓
  6
CONTINUOUS
 62
     6
100
AcDbVertex
100
AcDb2dVertex
 10
697.51622
 20
2362.919159
 30
0.0
  0
VERTEX
  5
506
100
AcDbEntity
  8
小便器用水栓
  6
CONTINUOUS
 62
     6
100
AcDbVertex
100
AcDb2dVertex
 10
697.362869
 20
2362.628632
 30
0.0
  0
VERTEX
  5
507
100
AcDbEntity
  8
小便器用水栓
  6
CONTINUOUS
 62
     6
100
AcDbVertex
100
AcDb2dVertex
 10
697.252701
 20
2362.331238
 30
0.0
  0
VERTEX
  5
508
100
AcDbEntity
  8
小便器用水栓
  6
CONTINUOUS
 62
     6
100
AcDbVertex
100
AcDb2dVertex
 10
697.186325
 20
2362.029419
 30
0.0
  0
VERTEX
  5
509
100
AcDbEntity
  8
小便器用水栓
  6
CONTINUOUS
 62
     6
100
AcDbVertex
100
AcDb2dVertex
 10
697.164047
 20
2361.725006
 30
0.0
  0
VERTEX
  5
50A
100
AcDbEntity
  8
小便器用水栓
  6
CONTINUOUS
 62
     6
100
AcDbVertex
100
AcDb2dVertex
 10
697.186325
 20
2361.420746
 30
0.0
  0
VERTEX
  5
50B
100
AcDbEntity
  8
小便器用水栓
  6
CONTINUOUS
 62
     6
100
AcDbVertex
100
AcDb2dVertex
 10
697.252853
 20
2361.118774
 30
0.0
  0
VERTEX
  5
50C
100
AcDbEntity
  8
小便器用水栓
  6
CONTINUOUS
 62
     6
100
AcDbVertex
100
AcDb2dVertex
 10
697.362869
 20
2360.821381
 30
0.0
  0
VERTEX
  5
50D
100
AcDbEntity
  8
小便器用水栓
  6
CONTINUOUS
 62
     6
100
AcDbVertex
100
AcDb2dVertex
 10
697.516067
 20
2360.531006
 30
0.0
  0
VERTEX
  5
50E
100
AcDbEntity
  8
小便器用水栓
  6
CONTINUOUS
 62
     6
100
AcDbVertex
100
AcDb2dVertex
 10
697.71077
 20
2360.249481
 30
0.0
  0
SEQEND
  5
50F
100
AcDbEntity
  8
小便器用水栓
  6
CONTINUOUS
 62
     6
  0
POLYLINE
  5
510
100
AcDbEntity
  8
小便器用水栓
  6
CONTINUOUS
 62
     6
100
AcDb2dPolyline
 66
     1
 10
0.0
 20
0.0
 30
0.0
 70
   128
  0
VERTEX
  5
511
100
AcDbEntity
  8
小便器用水栓
  6
CONTINUOUS
 62
     6
100
AcDbVertex
100
AcDb2dVertex
 10
697.71077
 20
2360.249481
 30
0.0
  0
VERTEX
  5
512
100
AcDbEntity
  8
小便器用水栓
  6
CONTINUOUS
 62
     6
100
AcDbVertex
100
AcDb2dVertex
 10
697.945908
 20
2359.979401
 30
0.0
  0
VERTEX
  5
513
100
AcDbEntity
  8
小便器用水栓
  6
CONTINUOUS
 62
     6
100
AcDbVertex
100
AcDb2dVertex
 10
698.219498
 20
2359.722595
 30
0.0
  0
VERTEX
  5
514
100
AcDbEntity
  8
小便器用水栓
  6
CONTINUOUS
 62
     6
100
AcDbVertex
100
AcDb2dVertex
 10
698.529556
 20
2359.480896
 30
0.0
  0
VERTEX
  5
515
100
AcDbEntity
  8
小便器用水栓
  6
CONTINUOUS
 62
     6
100
AcDbVertex
100
AcDb2dVertex
 10
698.873337
 20
2359.256287
 30
0.0
  0
VERTEX
  5
516
100
AcDbEntity
  8
小便器用水栓
  6
CONTINUOUS
 62
     6
100
AcDbVertex
100
AcDb2dVertex
 10
699.248703
 20
2359.050598
 30
0.0
  0
VERTEX
  5
517
100
AcDbEntity
  8
小便器用水栓
  6
CONTINUOUS
 62
     6
100
AcDbVertex
100
AcDb2dVertex
 10
699.652603
 20
2358.865204
 30
0.0
  0
VERTEX
  5
518
100
AcDbEntity
  8
小便器用水栓
  6
CONTINUOUS
 62
     6
100
AcDbVertex
100
AcDb2dVertex
 10
700.08168
 20
2358.70163
 30
0.0
  0
VERTEX
  5
519
100
AcDbEntity
  8
小便器用水栓
  6
CONTINUOUS
 62
     6
100
AcDbVertex
100
AcDb2dVertex
 10
700.533188
 20
2358.561096
 30
0.0
  0
VERTEX
  5
51A
100
AcDbEntity
  8
小便器用水栓
  6
CONTINUOUS
 62
     6
100
AcDbVertex
100
AcDb2dVertex
 10
701.003464
 20
2358.444519
 30
0.0
  0
VERTEX
  5
51B
100
AcDbEntity
  8
小便器用水栓
  6
CONTINUOUS
 62
     6
100
AcDbVertex
100
AcDb2dVertex
 10
701.489609
 20
2358.352966
 30
0.0
  0
SEQEND
  5
51C
100
AcDbEntity
  8
小便器用水栓
  6
CONTINUOUS
 62
     6
  0
POLYLINE
  5
51D
100
AcDbEntity
  8
小便器用水栓
  6
CONTINUOUS
 62
     6
100
AcDb2dPolyline
 66
     1
 10
0.0
 20
0.0
 30
0.0
 70
   128
  0
VERTEX
  5
51E
100
AcDbEntity
  8
小便器用水栓
  6
CONTINUOUS
 62
     6
100
AcDbVertex
100
AcDb2dVertex
 10
713.503159
 20
2358.352966
 30
0.0
  0
VERTEX
  5
51F
100
AcDbEntity
  8
小便器用水栓
  6
CONTINUOUS
 62
     6
100
AcDbVertex
100
AcDb2dVertex
 10
713.751572
 20
2358.287048
 30
0.0
  0
VERTEX
  5
520
100
AcDbEntity
  8
小便器用水栓
  6
CONTINUOUS
 62
     6
100
AcDbVertex
100
AcDb2dVertex
 10
714.003799
 20
2358.247223
 30
0.0
  0
VERTEX
  5
521
100
AcDbEntity
  8
小便器用水栓
  6
CONTINUOUS
 62
     6
100
AcDbVertex
100
AcDb2dVertex
 10
714.257858
 20
2358.233948
 30
0.0
  0
SEQEND
  5
522
100
AcDbEntity
  8
小便器用水栓
  6
CONTINUOUS
 62
     6
  0
POLYLINE
  5
523
100
AcDbEntity
  8
小便器用水栓
  6
CONTINUOUS
 62
     6
100
AcDb2dPolyline
 66
     1
 10
0.0
 20
0.0
 30
0.0
 70
   128
  0
VERTEX
  5
524
100
AcDbEntity
  8
小便器用水栓
  6
CONTINUOUS
 62
     6
100
AcDbVertex
100
AcDb2dVertex
 10
714.258621
 20
2358.233948
 30
0.0
  0
VERTEX
  5
525
100
AcDbEntity
  8
小便器用水栓
  6
CONTINUOUS
 62
     6
100
AcDbVertex
100
AcDb2dVertex
 10
714.512985
 20
2358.247223
 30
0.0
  0
VERTEX
  5
526
100
AcDbEntity
  8
小便器用水栓
  6
CONTINUOUS
 62
     6
100
AcDbVertex
100
AcDb2dVertex
 10
714.765366
 20
2358.287048
 30
0.0
  0
VERTEX
  5
527
100
AcDbEntity
  8
小便器用水栓
  6
CONTINUOUS
 62
     6
100
AcDbVertex
100
AcDb2dVertex
 10
715.013626
 20
2358.352966
 30
0.0
  0
VERTEX
  5
528
100
AcDbEntity
  8
小便器用水栓
  6
CONTINUOUS
 62
     6
100
AcDbVertex
100
AcDb2dVertex
 10
715.256393
 20
2358.444519
 30
0.0
  0
VERTEX
  5
529
100
AcDbEntity
  8
小便器用水栓
  6
CONTINUOUS
 62
     6
100
AcDbVertex
100
AcDb2dVertex
 10
715.491379
 20
2358.561096
 30
0.0
  0
VERTEX
  5
52A
100
AcDbEntity
  8
小便器用水栓
  6
CONTINUOUS
 62
     6
100
AcDbVertex
100
AcDb2dVertex
 10
715.717667
 20
2358.70163
 30
0.0
  0
VERTEX
  5
52B
100
AcDbEntity
  8
小便器用水栓
  6
CONTINUOUS
 62
     6
100
AcDbVertex
100
AcDb2dVertex
 10
715.932358
 20
2358.865356
 30
0.0
  0
VERTEX
  5
52C
100
AcDbEntity
  8
小便器用水栓
  6
CONTINUOUS
 62
     6
100
AcDbVertex
100
AcDb2dVertex
 10
716.134537
 20
2359.050751
 30
0.0
  0
VERTEX
  5
52D
100
AcDbEntity
  8
小便器用水栓
  6
CONTINUOUS
 62
     6
100
AcDbVertex
100
AcDb2dVertex
 10
716.321762
 20
2359.256287
 30
0.0
  0
VERTEX
  5
52E
100
AcDbEntity
  8
小便器用水栓
  6
CONTINUOUS
 62
     6
100
AcDbVertex
100
AcDb2dVertex
 10
716.493729
 20
2359.480896
 30
0.0
  0
VERTEX
  5
52F
100
AcDbEntity
  8
小便器用水栓
  6
CONTINUOUS
 62
     6
100
AcDbVertex
100
AcDb2dVertex
 10
716.648453
 20
2359.722443
 30
0.0
  0
VERTEX
  5
530
100
AcDbEntity
  8
小便器用水栓
  6
CONTINUOUS
 62
     6
100
AcDbVertex
100
AcDb2dVertex
 10
716.785782
 20
2359.979401
 30
0.0
  0
VERTEX
  5
531
100
AcDbEntity
  8
小便器用水栓
  6
CONTINUOUS
 62
     6
100
AcDbVertex
100
AcDb2dVertex
 10
716.903427
 20
2360.249481
 30
0.0
  0
VERTEX
  5
532
100
AcDbEntity
  8
小便器用水栓
  6
CONTINUOUS
 62
     6
100
AcDbVertex
100
AcDb2dVertex
 10
717.000931
 20
2360.530853
 30
0.0
  0
VERTEX
  5
533
100
AcDbEntity
  8
小便器用水栓
  6
CONTINUOUS
 62
     6
100
AcDbVertex
100
AcDb2dVertex
 10
717.077225
 20
2360.821381
 30
0.0
  0
VERTEX
  5
534
100
AcDbEntity
  8
小便器用水栓
  6
CONTINUOUS
 62
     6
100
AcDbVertex
100
AcDb2dVertex
 10
717.132309
 20
2361.118774
 30
0.0
  0
VERTEX
  5
535
100
AcDbEntity
  8
小便器用水栓
  6
CONTINUOUS
 62
     6
100
AcDbVertex
100
AcDb2dVertex
 10
717.165573
 20
2361.420593
 30
0.0
  0
VERTEX
  5
536
100
AcDbEntity
  8
小便器用水栓
  6
CONTINUOUS
 62
     6
100
AcDbVertex
100
AcDb2dVertex
 10
717.176407
 20
2361.725006
 30
0.0
  0
VERTEX
  5
537
100
AcDbEntity
  8
小便器用水栓
  6
CONTINUOUS
 62
     6
100
AcDbVertex
100
AcDb2dVertex
 10
717.165268
 20
2362.029266
 30
0.0
  0
VERTEX
  5
538
100
AcDbEntity
  8
小便器用水栓
  6
CONTINUOUS
 62
     6
100
AcDbVertex
100
AcDb2dVertex
 10
717.131851
 20
2362.331238
 30
0.0
  0
VERTEX
  5
539
100
AcDbEntity
  8
小便器用水栓
  6
CONTINUOUS
 62
     6
100
AcDbVertex
100
AcDb2dVertex
 10
717.077225
 20
2362.628632
 30
0.0
  0
VERTEX
  5
53A
100
AcDbEntity
  8
小便器用水栓
  6
CONTINUOUS
 62
     6
100
AcDbVertex
100
AcDb2dVertex
 10
717.000626
 20
2362.919006
 30
0.0
  0
VERTEX
  5
53B
100
AcDbEntity
  8
小便器用水栓
  6
CONTINUOUS
 62
     6
100
AcDbVertex
100
AcDb2dVertex
 10
716.903274
 20
2363.200531
 30
0.0
  0
VERTEX
  5
53C
100
AcDbEntity
  8
小便器用水栓
  6
CONTINUOUS
 62
     6
100
AcDbVertex
100
AcDb2dVertex
 10
716.785782
 20
2363.470612
 30
0.0
  0
VERTEX
  5
53D
100
AcDbEntity
  8
小便器用水栓
  6
CONTINUOUS
 62
     6
100
AcDbVertex
100
AcDb2dVertex
 10
716.649063
 20
2363.727417
 30
0.0
  0
VERTEX
  5
53E
100
AcDbEntity
  8
小便器用水栓
  6
CONTINUOUS
 62
     6
100
AcDbVertex
100
AcDb2dVertex
 10
716.494186
 20
2363.969116
 30
0.0
  0
VERTEX
  5
53F
100
AcDbEntity
  8
小便器用水栓
  6
CONTINUOUS
 62
     6
100
AcDbVertex
100
AcDb2dVertex
 10
716.321762
 20
2364.193573
 30
0.0
  0
VERTEX
  5
540
100
AcDbEntity
  8
小便器用水栓
  6
CONTINUOUS
 62
     6
100
AcDbVertex
100
AcDb2dVertex
 10
716.134079
 20
2364.399261
 30
0.0
  0
VERTEX
  5
541
100
AcDbEntity
  8
小便器用水栓
  6
CONTINUOUS
 62
     6
100
AcDbVertex
100
AcDb2dVertex
 10
715.9319
 20
2364.584656
 30
0.0
  0
VERTEX
  5
542
100
AcDbEntity
  8
小便器用水栓
  6
CONTINUOUS
 62
     6
100
AcDbVertex
100
AcDb2dVertex
 10
715.717667
 20
2364.74823
 30
0.0
  0
VERTEX
  5
543
100
AcDbEntity
  8
小便器用水栓
  6
CONTINUOUS
 62
     6
100
AcDbVertex
100
AcDb2dVertex
 10
715.491837
 20
2364.888763
 30
0.0
  0
VERTEX
  5
544
100
AcDbEntity
  8
小便器用水栓
  6
CONTINUOUS
 62
     6
100
AcDbVertex
100
AcDb2dVertex
 10
715.256851
 20
2365.005341
 30
0.0
  0
VERTEX
  5
545
100
AcDbEntity
  8
小便器用水栓
  6
CONTINUOUS
 62
     6
100
AcDbVertex
100
AcDb2dVertex
 10
715.013626
 20
2365.097046
 30
0.0
  0
VERTEX
  5
546
100
AcDbEntity
  8
小便器用水栓
  6
CONTINUOUS
 62
     6
100
AcDbVertex
100
AcDb2dVertex
 10
714.76506
 20
2365.162964
 30
0.0
  0
VERTEX
  5
547
100
AcDbEntity
  8
小便器用水栓
  6
CONTINUOUS
 62
     6
100
AcDbVertex
100
AcDb2dVertex
 10
714.512527
 20
2365.202789
 30
0.0
  0
VERTEX
  5
548
100
AcDbEntity
  8
小便器用水栓
  6
CONTINUOUS
 62
     6
100
AcDbVertex
100
AcDb2dVertex
 10
714.258621
 20
2365.216064
 30
0.0
  0
VERTEX
  5
549
100
AcDbEntity
  8
小便器用水栓
  6
CONTINUOUS
 62
     6
100
AcDbVertex
100
AcDb2dVertex
 10
714.004257
 20
2365.202789
 30
0.0
  0
VERTEX
  5
54A
100
AcDbEntity
  8
小便器用水栓
  6
CONTINUOUS
 62
     6
100
AcDbVertex
100
AcDb2dVertex
 10
713.751877
 20
2365.162964
 30
0.0
  0
VERTEX
  5
54B
100
AcDbEntity
  8
小便器用水栓
  6
CONTINUOUS
 62
     6
100
AcDbVertex
100
AcDb2dVertex
 10
713.503159
 20
2365.097046
 30
0.0
  0
VERTEX
  5
54C
100
AcDbEntity
  8
小便器用水栓
  6
CONTINUOUS
 62
     6
100
AcDbVertex
100
AcDb2dVertex
 10
713.260391
 20
2365.005493
 30
0.0
  0
VERTEX
  5
54D
100
AcDbEntity
  8
小便器用水栓
  6
CONTINUOUS
 62
     6
100
AcDbVertex
100
AcDb2dVertex
 10
713.024948
 20
2364.888916
 30
0.0
  0
VERTEX
  5
54E
100
AcDbEntity
  8
小便器用水栓
  6
CONTINUOUS
 62
     6
100
AcDbVertex
100
AcDb2dVertex
 10
712.799576
 20
2364.74823
 30
0.0
  0
VERTEX
  5
54F
100
AcDbEntity
  8
小便器用水栓
  6
CONTINUOUS
 62
     6
100
AcDbVertex
100
AcDb2dVertex
 10
712.584885
 20
2364.584503
 30
0.0
  0
VERTEX
  5
550
100
AcDbEntity
  8
小便器用水栓
  6
CONTINUOUS
 62
     6
100
AcDbVertex
100
AcDb2dVertex
 10
712.382858
 20
2364.399109
 30
0.0
  0
VERTEX
  5
551
100
AcDbEntity
  8
小便器用水栓
  6
CONTINUOUS
 62
     6
100
AcDbVertex
100
AcDb2dVertex
 10
712.19548
 20
2364.193573
 30
0.0
  0
VERTEX
  5
552
100
AcDbEntity
  8
小便器用水栓
  6
CONTINUOUS
 62
     6
100
AcDbVertex
100
AcDb2dVertex
 10
712.023666
 20
2363.968964
 30
0.0
  0
VERTEX
  5
553
100
AcDbEntity
  8
小便器用水栓
  6
CONTINUOUS
 62
     6
100
AcDbVertex
100
AcDb2dVertex
 10
711.86879
 20
2363.727417
 30
0.0
  0
VERTEX
  5
554
100
AcDbEntity
  8
小便器用水栓
  6
CONTINUOUS
 62
     6
100
AcDbVertex
100
AcDb2dVertex
 10
711.731461
 20
2363.470612
 30
0.0
  0
VERTEX
  5
555
100
AcDbEntity
  8
小便器用水栓
  6
CONTINUOUS
 62
     6
100
AcDbVertex
100
AcDb2dVertex
 10
711.613815
 20
2363.200531
 30
0.0
  0
VERTEX
  5
556
100
AcDbEntity
  8
小便器用水栓
  6
CONTINUOUS
 62
     6
100
AcDbVertex
100
AcDb2dVertex
 10
711.516312
 20
2362.919159
 30
0.0
  0
VERTEX
  5
557
100
AcDbEntity
  8
小便器用水栓
  6
CONTINUOUS
 62
     6
100
AcDbVertex
100
AcDb2dVertex
 10
711.439865
 20
2362.628632
 30
0.0
  0
VERTEX
  5
558
100
AcDbEntity
  8
小便器用水栓
  6
CONTINUOUS
 62
     6
100
AcDbVertex
100
AcDb2dVertex
 10
711.384781
 20
2362.331238
 30
0.0
  0
VERTEX
  5
559
100
AcDbEntity
  8
小便器用水栓
  6
CONTINUOUS
 62
     6
100
AcDbVertex
100
AcDb2dVertex
 10
711.351517
 20
2362.029419
 30
0.0
  0
VERTEX
  5
55A
100
AcDbEntity
  8
小便器用水栓
  6
CONTINUOUS
 62
     6
100
AcDbVertex
100
AcDb2dVertex
 10
711.340378
 20
2361.725006
 30
0.0
  0
VERTEX
  5
55B
100
AcDbEntity
  8
小便器用水栓
  6
CONTINUOUS
 62
     6
100
AcDbVertex
100
AcDb2dVertex
 10
711.351517
 20
2361.420746
 30
0.0
  0
VERTEX
  5
55C
100
AcDbEntity
  8
小便器用水栓
  6
CONTINUOUS
 62
     6
100
AcDbVertex
100
AcDb2dVertex
 10
711.384476
 20
2361.118774
 30
0.0
  0
VERTEX
  5
55D
100
AcDbEntity
  8
小便器用水栓
  6
CONTINUOUS
 62
     6
100
AcDbVertex
100
AcDb2dVertex
 10
711.439865
 20
2360.821381
 30
0.0
  0
VERTEX
  5
55E
100
AcDbEntity
  8
小便器用水栓
  6
CONTINUOUS
 62
     6
100
AcDbVertex
100
AcDb2dVertex
 10
711.516464
 20
2360.531006
 30
0.0
  0
VERTEX
  5
55F
100
AcDbEntity
  8
小便器用水栓
  6
CONTINUOUS
 62
     6
100
AcDbVertex
100
AcDb2dVertex
 10
711.613968
 20
2360.249481
 30
0.0
  0
SEQEND
  5
560
100
AcDbEntity
  8
小便器用水栓
  6
CONTINUOUS
 62
     6
  0
POLYLINE
  5
561
100
AcDbEntity
  8
小便器用水栓
  6
CONTINUOUS
 62
     6
100
AcDb2dPolyline
 66
     1
 10
0.0
 20
0.0
 30
0.0
 70
   128
  0
VERTEX
  5
562
100
AcDbEntity
  8
小便器用水栓
  6
CONTINUOUS
 62
     6
100
AcDbVertex
100
AcDb2dVertex
 10
711.613968
 20
2360.249481
 30
0.0
  0
VERTEX
  5
563
100
AcDbEntity
  8
小便器用水栓
  6
CONTINUOUS
 62
     6
100
AcDbVertex
100
AcDb2dVertex
 10
711.731461
 20
2359.979401
 30
0.0
  0
VERTEX
  5
564
100
AcDbEntity
  8
小便器用水栓
  6
CONTINUOUS
 62
     6
100
AcDbVertex
100
AcDb2dVertex
 10
711.868179
 20
2359.722595
 30
0.0
  0
VERTEX
  5
565
100
AcDbEntity
  8
小便器用水栓
  6
CONTINUOUS
 62
     6
100
AcDbVertex
100
AcDb2dVertex
 10
712.023056
 20
2359.480896
 30
0.0
  0
VERTEX
  5
566
100
AcDbEntity
  8
小便器用水栓
  6
CONTINUOUS
 62
     6
100
AcDbVertex
100
AcDb2dVertex
 10
712.19548
 20
2359.256287
 30
0.0
  0
VERTEX
  5
567
100
AcDbEntity
  8
小便器用水栓
  6
CONTINUOUS
 62
     6
100
AcDbVertex
100
AcDb2dVertex
 10
712.383316
 20
2359.050598
 30
0.0
  0
VERTEX
  5
568
100
AcDbEntity
  8
小便器用水栓
  6
CONTINUOUS
 62
     6
100
AcDbVertex
100
AcDb2dVertex
 10
712.585342
 20
2358.865204
 30
0.0
  0
VERTEX
  5
569
100
AcDbEntity
  8
小便器用水栓
  6
CONTINUOUS
 62
     6
100
AcDbVertex
100
AcDb2dVertex
 10
712.799576
 20
2358.70163
 30
0.0
  0
VERTEX
  5
56A
100
AcDbEntity
  8
小便器用水栓
  6
CONTINUOUS
 62
     6
100
AcDbVertex
100
AcDb2dVertex
 10
713.025406
 20
2358.561096
 30
0.0
  0
VERTEX
  5
56B
100
AcDbEntity
  8
小便器用水栓
  6
CONTINUOUS
 62
     6
100
AcDbVertex
100
AcDb2dVertex
 10
713.260391
 20
2358.444519
 30
0.0
  0
VERTEX
  5
56C
100
AcDbEntity
  8
小便器用水栓
  6
CONTINUOUS
 62
     6
100
AcDbVertex
100
AcDb2dVertex
 10
713.503159
 20
2358.352966
 30
0.0
  0
SEQEND
  5
56D
100
AcDbEntity
  8
小便器用水栓
  6
CONTINUOUS
 62
     6
  0
LINE
  5
56E
100
AcDbEntity
  8
小便器用水栓
  6
CONTINUOUS
 62
     6
100
AcDbLine
 10
691.272781
 20
2357.100372
 30
0.0
 11
714.727066
 21
2357.100372
 31
0.0
  0
LINE
  5
56F
100
AcDbEntity
  8
小便器用水栓
  6
CONTINUOUS
 62
     6
100
AcDbLine
 10
691.272781
 20
2357.100372
 30
0.0
 11
697.699936
 21
2352.600098
 31
0.0
  0
ARC
  5
570
100
AcDbEntity
  8
小便器用水栓
  6
CONTINUOUS
 62
     6
100
AcDbCircle
 10
694.249924
 20
2361.725006
 30
0.0
 40
5.500029
100
AcDbArc
 50
136.656998
 51
237.228287
  0
LINE
  5
571
100
AcDbEntity
  8
小便器用水栓
  6
CONTINUOUS
 62
     6
100
AcDbLine
 10
690.249985
 20
2365.50003
 30
0.0
 11
715.749863
 21
2365.50003
 31
0.0
  0
LINE
  5
572
100
AcDbEntity
  8
小便器用水栓
  6
CONTINUOUS
 62
     6
100
AcDbLine
 10
697.699936
 20
2352.600098
 30
0.0
 11
708.299912
 21
2352.600098
 31
0.0
  0
ARC
  5
573
100
AcDbEntity
  8
小便器用水栓
  6
CONTINUOUS
 62
     6
100
AcDbCircle
 10
739.999893
 20
2385.0
 30
0.0
 40
50.0
100
AcDbArc
 50
164.641098
 51
188.109848
  0
ARC
  5
574
100
AcDbEntity
  8
小便器用水栓
  6
CONTINUOUS
 62
     6
100
AcDbCircle
 10
640.999954
 20
2370.892792
 30
0.0
 40
50.0
100
AcDbArc
 50
0.0
 51
8.109971
  0
LINE
  5
575
100
AcDbEntity
  8
小便器用水栓
  6
CONTINUOUS
 62
     6
100
AcDbLine
 10
690.999954
 20
2370.892792
 30
0.0
 11
690.999954
 21
2365.50003
 31
0.0
  0
ARC
  5
576
100
AcDbEntity
  8
小便器用水栓
  6
CONTINUOUS
 62
     6
100
AcDbCircle
 10
665.999954
 20
2385.0
 30
0.0
 40
50.0
100
AcDbArc
 50
351.890203
 51
15.358937
  0
ARC
  5
577
100
AcDbEntity
  8
小便器用水栓
  6
CONTINUOUS
 62
     6
100
AcDbCircle
 10
764.999893
 20
2370.892792
 30
0.0
 40
50.00001
100
AcDbArc
 50
171.89006
 51
180.000015
  0
LINE
  5
578
100
AcDbEntity
  8
小便器用水栓
  6
CONTINUOUS
 62
     6
100
AcDbLine
 10
714.999893
 20
2370.892792
 30
0.0
 11
714.999893
 21
2365.50003
 31
0.0
  0
ARC
  5
579
100
AcDbEntity
  8
小便器用水栓
  6
CONTINUOUS
 62
     6
100
AcDbCircle
 10
702.999924
 20
2355.280151
 30
0.0
 40
26.78009
100
AcDbArc
 50
254.292496
 51
285.707489
  0
LINE
  5
57A
100
AcDbEntity
  8
小便器用水栓
  6
CONTINUOUS
 62
     6
100
AcDbLine
 10
707.749985
 20
2352.600098
 30
0.0
 11
707.749985
 21
2343.00003
 31
0.0
  0
LINE
  5
57B
100
AcDbEntity
  8
小便器用水栓
  6
CONTINUOUS
 62
     6
100
AcDbLine
 10
698.249863
 20
2352.600098
 30
0.0
 11
698.249863
 21
2343.00003
 31
0.0
  0
LINE
  5
57C
100
AcDbEntity
  8
小便器用水栓
  6
CONTINUOUS
 62
     6
100
AcDbLine
 10
730.65068
 20
2343.00003
 30
0.0
 11
675.349319
 21
2343.00003
 31
0.0
  0
LINE
  5
57D
100
AcDbEntity
  8
小便器用水栓
  6
CONTINUOUS
 62
     6
100
AcDbLine
 10
697.508285
 20
2338.858643
 30
0.0
 11
696.999863
 21
2343.00003
 31
0.0
  0
ARC
  5
57E
100
AcDbEntity
  8
小便器用水栓
  6
CONTINUOUS
 62
     6
100
AcDbCircle
 10
702.999924
 20
2339.532928
 30
0.0
 40
5.532728
100
AcDbArc
 50
187.000168
 51
352.999832
  0
LINE
  5
57F
100
AcDbEntity
  8
小便器用水栓
  6
CONTINUOUS
 62
     6
100
AcDbLine
 10
708.491409
 20
2338.858643
 30
0.0
 11
708.999985
 21
2343.00003
 31
0.0
  0
ARC
  5
580
100
AcDbEntity
  8
小便器用水栓
  6
CONTINUOUS
 62
     6
100
AcDbCircle
 10
681.882065
 20
2339.028626
 30
0.0
 40
6.000073
100
AcDbArc
 50
186.999725
 51
261.712219
  0
LINE
  5
581
100
AcDbEntity
  8
小便器用水栓
  6
CONTINUOUS
 62
     6
100
AcDbLine
 10
675.926712
 20
2338.297424
 30
0.0
 11
675.349319
 21
2343.00003
 31
0.0
  0
ARC
  5
582
100
AcDbEntity
  8
小便器用水栓
  6
CONTINUOUS
 62
     6
100
AcDbCircle
 10
709.844559
 20
2531.002808
 30
0.0
 40
200.0
100
AcDbArc
 50
261.712662
 51
265.95874
  0
ARC
  5
583
100
AcDbEntity
  8
小便器用水栓
  6
CONTINUOUS
 62
     6
100
AcDbCircle
 10
724.117935
 20
2339.028626
 30
0.0
 40
6.000007
100
AcDbArc
 50
278.287781
 51
353.000061
  0
ARC
  5
584
100
AcDbEntity
  8
小便器用水栓
  6
CONTINUOUS
 62
     6
100
AcDbCircle
 10
696.155441
 20
2531.002808
 30
0.0
 40
200.0
100
AcDbArc
 50
274.041306
 51
278.287384
  0
LINE
  5
585
100
AcDbEntity
  8
小便器用水栓
  6
CONTINUOUS
 62
     6
100
AcDbLine
 10
730.073288
 20
2338.297424
 30
0.0
 11
730.65068
 21
2343.00003
 31
0.0
  0
LINE
  5
586
100
AcDbEntity
  8
小便器用水栓
  6
CONTINUOUS
 62
     6
100
AcDbLine
 10
695.749863
 20
2331.500092
 30
0.0
 11
710.249985
 21
2331.500092
 31
0.0
  0
LINE
  5
587
100
AcDbEntity
  8
小便器用水栓
  6
CONTINUOUS
 62
     6
100
AcDbLine
 10
695.749863
 20
2329.500122
 30
0.0
 11
710.249985
 21
2329.500122
 31
0.0
  0
LINE
  5
588
100
AcDbEntity
  8
小便器用水栓
  6
CONTINUOUS
 62
     6
100
AcDbLine
 10
710.249985
 20
2331.500092
 30
0.0
 11
710.249985
 21
2329.500122
 31
0.0
  0
LINE
  5
589
100
AcDbEntity
  8
小便器用水栓
  6
CONTINUOUS
 62
     6
100
AcDbLine
 10
695.749863
 20
2331.500092
 30
0.0
 11
695.749863
 21
2329.500122
 31
0.0
  0
LINE
  5
58A
100
AcDbEntity
  8
小便器用水栓
  6
CONTINUOUS
 62
     6
100
AcDbLine
 10
710.999954
 20
2354.490662
 30
0.0
 11
710.999954
 21
2343.00003
 31
0.0
  0
LINE
  5
58B
100
AcDbEntity
  8
小便器用水栓
  6
CONTINUOUS
 62
     6
100
AcDbLine
 10
694.999893
 20
2354.490662
 30
0.0
 11
694.999893
 21
2343.00003
 31
0.0
  0
LINE
  5
58C
100
AcDbEntity
  8
小便器用水栓
  6
CONTINUOUS
 62
     6
100
AcDbLine
 10
660.000017
 20
1545.000076
 30
0.0
 11
689.000061
 21
1545.000076
 31
0.0
  0
LINE
  5
58D
100
AcDbEntity
  8
小便器用水栓
  6
CONTINUOUS
 62
     6
100
AcDbLine
 10
699.000061
 20
1545.000076
 30
0.0
 11
706.999939
 21
1545.000076
 31
0.0
  0
CIRCLE
  5
58E
100
AcDbEntity
  8
小便器用水栓
  6
CONTINUOUS
 62
     6
100
AcDbCircle
 10
703.0
 20
1545.000076
 30
0.0
 40
7.250061
  0
LINE
  5
58F
100
AcDbEntity
  8
小便器用水栓
  6
CONTINUOUS
 62
     6
100
AcDbLine
 10
713.254364
 20
1556.367264
 30
0.0
 11
708.757141
 21
1571.689835
 31
0.0
  0
ARC
  5
590
100
AcDbEntity
  8
小便器用水栓
  6
CONTINUOUS
 62
     6
100
AcDbCircle
 10
703.0
 20
1570.000076
 30
0.0
 40
5.999997
100
AcDbArc
 50
16.3573
 51
163.642685
  0
LINE
  5
591
100
AcDbEntity
  8
小便器用水栓
  6
CONTINUOUS
 62
     6
100
AcDbLine
 10
697.242859
 20
1571.689835
 30
0.0
 11
692.745941
 21
1556.367874
 31
0.0
  0
ARC
  5
592
100
AcDbEntity
  8
小便器用水栓
  6
CONTINUOUS
 62
     6
100
AcDbCircle
 10
673.55542
 20
1562.000198
 30
0.0
 40
20.000019
100
AcDbArc
 50
316.357071
 51
343.643295
  0
LINE
  5
593
100
AcDbEntity
  8
小便器用水栓
  6
CONTINUOUS
 62
     6
100
AcDbLine
 10
688.028534
 20
1548.196945
 30
0.0
 11
677.007416
 21
1536.640854
 31
0.0
  0
ARC
  5
594
100
AcDbEntity
  8
小便器用水栓
  6
CONTINUOUS
 62
     6
100
AcDbCircle
 10
681.349457
 20
1532.499924
 30
0.0
 40
6.000052
100
AcDbArc
 50
136.358109
 51
283.641846
  0
LINE
  5
595
100
AcDbEntity
  8
小便器用水栓
  6
CONTINUOUS
 62
     6
100
AcDbLine
 10
682.764557
 20
1526.669235
 30
0.0
 11
698.282898
 21
1530.435562
 31
0.0
  0
ARC
  5
596
100
AcDbEntity
  8
小便器用水栓
  6
CONTINUOUS
 62
     6
100
AcDbCircle
 10
703.0
 20
1510.999832
 30
0.0
 40
20.00001
100
AcDbArc
 50
76.359268
 51
103.642105
  0
LINE
  5
597
100
AcDbEntity
  8
小便器用水栓
  6
CONTINUOUS
 62
     6
100
AcDbLine
 10
707.716644
 20
1530.435715
 30
0.0
 11
723.235748
 21
1526.669541
 31
0.0
  0
ARC
  5
598
100
AcDbEntity
  8
小便器用水栓
  6
CONTINUOUS
 62
     6
100
AcDbCircle
 10
724.650696
 20
1532.500382
 30
0.0
 40
6.000066
100
AcDbArc
 50
256.359863
 51
43.643967
  0
POLYLINE
  5
599
100
AcDbEntity
  8
小便器用水栓
  6
CONTINUOUS
 62
     6
100
AcDb2dPolyline
 66
     1
 10
0.0
 20
0.0
 30
0.0
 70
   128
  0
VERTEX
  5
59A
100
AcDbEntity
  8
小便器用水栓
  6
CONTINUOUS
 62
     6
100
AcDbVertex
100
AcDb2dVertex
 10
701.475647
 20
1517.000198
 30
0.0
  0
VERTEX
  5
59B
100
AcDbEntity
  8
小便器用水栓
  6
CONTINUOUS
 62
     6
100
AcDbVertex
100
AcDb2dVertex
 10
701.456116
 20
1517.444077
 30
0.0
  0
VERTEX
  5
59C
100
AcDbEntity
  8
小便器用水栓
  6
CONTINUOUS
 62
     6
100
AcDbVertex
100
AcDb2dVertex
 10
701.398132
 20
1517.884598
 30
0.0
  0
VERTEX
  5
59D
100
AcDbEntity
  8
小便器用水栓
  6
CONTINUOUS
 62
     6
100
AcDbVertex
100
AcDb2dVertex
 10
701.301849
 20
1518.318558
 30
0.0
  0
VERTEX
  5
59E
100
AcDbEntity
  8
小便器用水栓
  6
CONTINUOUS
 62
     6
100
AcDbVertex
100
AcDb2dVertex
 10
701.16803
 20
1518.742294
 30
0.0
  0
VERTEX
  5
59F
100
AcDbEntity
  8
小便器用水栓
  6
CONTINUOUS
 62
     6
100
AcDbVertex
100
AcDb2dVertex
 10
700.997742
 20
1519.152756
 30
0.0
  0
VERTEX
  5
5A0
100
AcDbEntity
  8
小便器用水栓
  6
CONTINUOUS
 62
     6
100
AcDbVertex
100
AcDb2dVertex
 10
700.792358
 20
1519.546738
 30
0.0
  0
VERTEX
  5
5A1
100
AcDbEntity
  8
小便器用水栓
  6
CONTINUOUS
 62
     6
100
AcDbVertex
100
AcDb2dVertex
 10
700.553253
 20
1519.921341
 30
0.0
  0
VERTEX
  5
5A2
100
AcDbEntity
  8
小便器用水栓
  6
CONTINUOUS
 62
     6
100
AcDbVertex
100
AcDb2dVertex
 10
700.28241
 20
1520.273819
 30
0.0
  0
VERTEX
  5
5A3
100
AcDbEntity
  8
小便器用水栓
  6
CONTINUOUS
 62
     6
100
AcDbVertex
100
AcDb2dVertex
 10
699.981811
 20
1520.601578
 30
0.0
  0
VERTEX
  5
5A4
100
AcDbEntity
  8
小便器用水栓
  6
CONTINUOUS
 62
     6
100
AcDbVertex
100
AcDb2dVertex
 10
699.653748
 20
1520.901566
 30
0.0
  0
VERTEX
  5
5A5
100
AcDbEntity
  8
小便器用水栓
  6
CONTINUOUS
 62
     6
100
AcDbVertex
100
AcDb2dVertex
 10
699.300659
 20
1521.171951
 30
0.0
  0
VERTEX
  5
5A6
100
AcDbEntity
  8
小便器用水栓
  6
CONTINUOUS
 62
     6
100
AcDbVertex
100
AcDb2dVertex
 10
698.925293
 20
1521.410904
 30
0.0
  0
VERTEX
  5
5A7
100
AcDbEntity
  8
小便器用水栓
  6
CONTINUOUS
 62
     6
100
AcDbVertex
100
AcDb2dVertex
 10
698.530548
 20
1521.615982
 30
0.0
  0
VERTEX
  5
5A8
100
AcDbEntity
  8
小便器用水栓
  6
CONTINUOUS
 62
     6
100
AcDbVertex
100
AcDb2dVertex
 10
698.119476
 20
1521.785965
 30
0.0
  0
VERTEX
  5
5A9
100
AcDbEntity
  8
小便器用水栓
  6
CONTINUOUS
 62
     6
100
AcDbVertex
100
AcDb2dVertex
 10
697.695129
 20
1521.919632
 30
0.0
  0
VERTEX
  5
5AA
100
AcDbEntity
  8
小便器用水栓
  6
CONTINUOUS
 62
     6
100
AcDbVertex
100
AcDb2dVertex
 10
697.260712
 20
1522.01561
 30
0.0
  0
VERTEX
  5
5AB
100
AcDbEntity
  8
小便器用水栓
  6
CONTINUOUS
 62
     6
100
AcDbVertex
100
AcDb2dVertex
 10
696.81958
 20
1522.073441
 30
0.0
  0
VERTEX
  5
5AC
100
AcDbEntity
  8
小便器用水栓
  6
CONTINUOUS
 62
     6
100
AcDbVertex
100
AcDb2dVertex
 10
696.375092
 20
1522.093277
 30
0.0
  0
VERTEX
  5
5AD
100
AcDbEntity
  8
小便器用水栓
  6
CONTINUOUS
 62
     6
100
AcDbVertex
100
AcDb2dVertex
 10
695.930603
 20
1522.073746
 30
0.0
  0
VERTEX
  5
5AE
100
AcDbEntity
  8
小便器用水栓
  6
CONTINUOUS
 62
     6
100
AcDbVertex
100
AcDb2dVertex
 10
695.489319
 20
1522.01561
 30
0.0
  0
VERTEX
  5
5AF
100
AcDbEntity
  8
小便器用水栓
  6
CONTINUOUS
 62
     6
100
AcDbVertex
100
AcDb2dVertex
 10
695.054901
 20
1521.919632
 30
0.0
  0
VERTEX
  5
5B0
100
AcDbEntity
  8
小便器用水栓
  6
CONTINUOUS
 62
     6
100
AcDbVertex
100
AcDb2dVertex
 10
694.630554
 20
1521.785965
 30
0.0
  0
VERTEX
  5
5B1
100
AcDbEntity
  8
小便器用水栓
  6
CONTINUOUS
 62
     6
100
AcDbVertex
100
AcDb2dVertex
 10
694.219482
 20
1521.615677
 30
0.0
  0
VERTEX
  5
5B2
100
AcDbEntity
  8
小便器用水栓
  6
CONTINUOUS
 62
     6
100
AcDbVertex
100
AcDb2dVertex
 10
693.824738
 20
1521.410904
 30
0.0
  0
VERTEX
  5
5B3
100
AcDbEntity
  8
小便器用水栓
  6
CONTINUOUS
 62
     6
100
AcDbVertex
100
AcDb2dVertex
 10
693.449524
 20
1521.172104
 30
0.0
  0
VERTEX
  5
5B4
100
AcDbEntity
  8
小便器用水栓
  6
CONTINUOUS
 62
     6
100
AcDbVertex
100
AcDb2dVertex
 10
693.096435
 20
1520.901566
 30
0.0
  0
VERTEX
  5
5B5
100
AcDbEntity
  8
小便器用水栓
  6
CONTINUOUS
 62
     6
100
AcDbVertex
100
AcDb2dVertex
 10
692.768372
 20
1520.601578
 30
0.0
  0
VERTEX
  5
5B6
100
AcDbEntity
  8
小便器用水栓
  6
CONTINUOUS
 62
     6
100
AcDbVertex
100
AcDb2dVertex
 10
692.467773
 20
1520.273972
 30
0.0
  0
VERTEX
  5
5B7
100
AcDbEntity
  8
小便器用水栓
  6
CONTINUOUS
 62
     6
100
AcDbVertex
100
AcDb2dVertex
 10
692.19693
 20
1519.921188
 30
0.0
  0
VERTEX
  5
5B8
100
AcDbEntity
  8
小便器用水栓
  6
CONTINUOUS
 62
     6
100
AcDbVertex
100
AcDb2dVertex
 10
691.957825
 20
1519.546738
 30
0.0
  0
VERTEX
  5
5B9
100
AcDbEntity
  8
小便器用水栓
  6
CONTINUOUS
 62
     6
100
AcDbVertex
100
AcDb2dVertex
 10
691.752441
 20
1519.152603
 30
0.0
  0
VERTEX
  5
5BA
100
AcDbEntity
  8
小便器用水栓
  6
CONTINUOUS
 62
     6
100
AcDbVertex
100
AcDb2dVertex
 10
691.582153
 20
1518.741989
 30
0.0
  0
VERTEX
  5
5BB
100
AcDbEntity
  8
小便器用水栓
  6
CONTINUOUS
 62
     6
100
AcDbVertex
100
AcDb2dVertex
 10
691.448181
 20
1518.318558
 30
0.0
  0
VERTEX
  5
5BC
100
AcDbEntity
  8
小便器用水栓
  6
CONTINUOUS
 62
     6
100
AcDbVertex
100
AcDb2dVertex
 10
691.351898
 20
1517.88475
 30
0.0
  0
VERTEX
  5
5BD
100
AcDbEntity
  8
小便器用水栓
  6
CONTINUOUS
 62
     6
100
AcDbVertex
100
AcDb2dVertex
 10
691.293915
 20
1517.444229
 30
0.0
  0
VERTEX
  5
5BE
100
AcDbEntity
  8
小便器用水栓
  6
CONTINUOUS
 62
     6
100
AcDbVertex
100
AcDb2dVertex
 10
691.274383
 20
1517.000198
 30
0.0
  0
VERTEX
  5
5BF
100
AcDbEntity
  8
小便器用水栓
  6
CONTINUOUS
 62
     6
100
AcDbVertex
100
AcDb2dVertex
 10
691.293915
 20
1516.55632
 30
0.0
  0
VERTEX
  5
5C0
100
AcDbEntity
  8
小便器用水栓
  6
CONTINUOUS
 62
     6
100
AcDbVertex
100
AcDb2dVertex
 10
691.351898
 20
1516.115799
 30
0.0
  0
VERTEX
  5
5C1
100
AcDbEntity
  8
小便器用水栓
  6
CONTINUOUS
 62
     6
100
AcDbVertex
100
AcDb2dVertex
 10
691.448181
 20
1515.682144
 30
0.0
  0
VERTEX
  5
5C2
100
AcDbEntity
  8
小便器用水栓
  6
CONTINUOUS
 62
     6
100
AcDbVertex
100
AcDb2dVertex
 10
691.582001
 20
1515.258408
 30
0.0
  0
VERTEX
  5
5C3
100
AcDbEntity
  8
小便器用水栓
  6
CONTINUOUS
 62
     6
100
AcDbVertex
100
AcDb2dVertex
 10
691.752289
 20
1514.847946
 30
0.0
  0
VERTEX
  5
5C4
100
AcDbEntity
  8
小便器用水栓
  6
CONTINUOUS
 62
     6
100
AcDbVertex
100
AcDb2dVertex
 10
691.957825
 20
1514.453812
 30
0.0
  0
VERTEX
  5
5C5
100
AcDbEntity
  8
小便器用水栓
  6
CONTINUOUS
 62
     6
100
AcDbVertex
100
AcDb2dVertex
 10
692.19693
 20
1514.079208
 30
0.0
  0
VERTEX
  5
5C6
100
AcDbEntity
  8
小便器用水栓
  6
CONTINUOUS
 62
     6
100
AcDbVertex
100
AcDb2dVertex
 10
692.467926
 20
1513.72673
 30
0.0
  0
VERTEX
  5
5C7
100
AcDbEntity
  8
小便器用水栓
  6
CONTINUOUS
 62
     6
100
AcDbVertex
100
AcDb2dVertex
 10
692.768372
 20
1513.399124
 30
0.0
  0
VERTEX
  5
5C8
100
AcDbEntity
  8
小便器用水栓
  6
CONTINUOUS
 62
     6
100
AcDbVertex
100
AcDb2dVertex
 10
693.096435
 20
1513.099136
 30
0.0
  0
VERTEX
  5
5C9
100
AcDbEntity
  8
小便器用水栓
  6
CONTINUOUS
 62
     6
100
AcDbVertex
100
AcDb2dVertex
 10
693.449524
 20
1512.828751
 30
0.0
  0
VERTEX
  5
5CA
100
AcDbEntity
  8
小便器用水栓
  6
CONTINUOUS
 62
     6
100
AcDbVertex
100
AcDb2dVertex
 10
693.824738
 20
1512.589645
 30
0.0
  0
VERTEX
  5
5CB
100
AcDbEntity
  8
小便器用水栓
  6
CONTINUOUS
 62
     6
100
AcDbVertex
100
AcDb2dVertex
 10
694.219482
 20
1512.384567
 30
0.0
  0
VERTEX
  5
5CC
100
AcDbEntity
  8
小便器用水栓
  6
CONTINUOUS
 62
     6
100
AcDbVertex
100
AcDb2dVertex
 10
694.630554
 20
1512.214584
 30
0.0
  0
VERTEX
  5
5CD
100
AcDbEntity
  8
小便器用水栓
  6
CONTINUOUS
 62
     6
100
AcDbVertex
100
AcDb2dVertex
 10
695.054901
 20
1512.08107
 30
0.0
  0
VERTEX
  5
5CE
100
AcDbEntity
  8
小便器用水栓
  6
CONTINUOUS
 62
     6
100
AcDbVertex
100
AcDb2dVertex
 10
695.489319
 20
1511.98494
 30
0.0
  0
VERTEX
  5
5CF
100
AcDbEntity
  8
小便器用水栓
  6
CONTINUOUS
 62
     6
100
AcDbVertex
100
AcDb2dVertex
 10
695.930603
 20
1511.927261
 30
0.0
  0
VERTEX
  5
5D0
100
AcDbEntity
  8
小便器用水栓
  6
CONTINUOUS
 62
     6
100
AcDbVertex
100
AcDb2dVertex
 10
696.375092
 20
1511.907272
 30
0.0
  0
VERTEX
  5
5D1
100
AcDbEntity
  8
小便器用水栓
  6
CONTINUOUS
 62
     6
100
AcDbVertex
100
AcDb2dVertex
 10
696.81958
 20
1511.926804
 30
0.0
  0
VERTEX
  5
5D2
100
AcDbEntity
  8
小便器用水栓
  6
CONTINUOUS
 62
     6
100
AcDbVertex
100
AcDb2dVertex
 10
697.260864
 20
1511.98494
 30
0.0
  0
VERTEX
  5
5D3
100
AcDbEntity
  8
小便器用水栓
  6
CONTINUOUS
 62
     6
100
AcDbVertex
100
AcDb2dVertex
 10
697.695129
 20
1512.08107
 30
0.0
  0
VERTEX
  5
5D4
100
AcDbEntity
  8
小便器用水栓
  6
CONTINUOUS
 62
     6
100
AcDbVertex
100
AcDb2dVertex
 10
698.119476
 20
1512.214737
 30
0.0
  0
VERTEX
  5
5D5
100
AcDbEntity
  8
小便器用水栓
  6
CONTINUOUS
 62
     6
100
AcDbVertex
100
AcDb2dVertex
 10
698.530548
 20
1512.385025
 30
0.0
  0
SEQEND
  5
5D6
100
AcDbEntity
  8
小便器用水栓
  6
CONTINUOUS
 62
     6
  0
POLYLINE
  5
5D7
100
AcDbEntity
  8
小便器用水栓
  6
CONTINUOUS
 62
     6
100
AcDb2dPolyline
 66
     1
 10
0.0
 20
0.0
 30
0.0
 70
   128
  0
VERTEX
  5
5D8
100
AcDbEntity
  8
小便器用水栓
  6
CONTINUOUS
 62
     6
100
AcDbVertex
100
AcDb2dVertex
 10
698.530548
 20
1512.385025
 30
0.0
  0
VERTEX
  5
5D9
100
AcDbEntity
  8
小便器用水栓
  6
CONTINUOUS
 62
     6
100
AcDbVertex
100
AcDb2dVertex
 10
698.925293
 20
1512.589645
 30
0.0
  0
VERTEX
  5
5DA
100
AcDbEntity
  8
小便器用水栓
  6
CONTINUOUS
 62
     6
100
AcDbVertex
100
AcDb2dVertex
 10
699.300507
 20
1512.828445
 30
0.0
  0
VERTEX
  5
5DB
100
AcDbEntity
  8
小便器用水栓
  6
CONTINUOUS
 62
     6
100
AcDbVertex
100
AcDb2dVertex
 10
699.653595
 20
1513.098984
 30
0.0
  0
VERTEX
  5
5DC
100
AcDbEntity
  8
小便器用水栓
  6
CONTINUOUS
 62
     6
100
AcDbVertex
100
AcDb2dVertex
 10
699.981811
 20
1513.399124
 30
0.0
  0
VERTEX
  5
5DD
100
AcDbEntity
  8
小便器用水栓
  6
CONTINUOUS
 62
     6
100
AcDbVertex
100
AcDb2dVertex
 10
700.28241
 20
1513.72673
 30
0.0
  0
VERTEX
  5
5DE
100
AcDbEntity
  8
小便器用水栓
  6
CONTINUOUS
 62
     6
100
AcDbVertex
100
AcDb2dVertex
 10
700.553253
 20
1514.079514
 30
0.0
  0
VERTEX
  5
5DF
100
AcDbEntity
  8
小便器用水栓
  6
CONTINUOUS
 62
     6
100
AcDbVertex
100
AcDb2dVertex
 10
700.792358
 20
1514.453812
 30
0.0
  0
VERTEX
  5
5E0
100
AcDbEntity
  8
小便器用水栓
  6
CONTINUOUS
 62
     6
100
AcDbVertex
100
AcDb2dVertex
 10
700.997742
 20
1514.847946
 30
0.0
  0
VERTEX
  5
5E1
100
AcDbEntity
  8
小便器用水栓
  6
CONTINUOUS
 62
     6
100
AcDbVertex
100
AcDb2dVertex
 10
701.16803
 20
1515.25856
 30
0.0
  0
VERTEX
  5
5E2
100
AcDbEntity
  8
小便器用水栓
  6
CONTINUOUS
 62
     6
100
AcDbVertex
100
AcDb2dVertex
 10
701.301849
 20
1515.682144
 30
0.0
  0
SEQEND
  5
5E3
100
AcDbEntity
  8
小便器用水栓
  6
CONTINUOUS
 62
     6
  0
POLYLINE
  5
5E4
100
AcDbEntity
  8
小便器用水栓
  6
CONTINUOUS
 62
     6
100
AcDb2dPolyline
 66
     1
 10
0.0
 20
0.0
 30
0.0
 70
   128
  0
VERTEX
  5
5E5
100
AcDbEntity
  8
小便器用水栓
  6
CONTINUOUS
 62
     6
100
AcDbVertex
100
AcDb2dVertex
 10
701.301849
 20
1515.682144
 30
0.0
  0
VERTEX
  5
5E6
100
AcDbEntity
  8
小便器用水栓
  6
CONTINUOUS
 62
     6
100
AcDbVertex
100
AcDb2dVertex
 10
701.398132
 20
1516.115952
 30
0.0
  0
VERTEX
  5
5E7
100
AcDbEntity
  8
小便器用水栓
  6
CONTINUOUS
 62
     6
100
AcDbVertex
100
AcDb2dVertex
 10
701.456116
 20
1516.556473
 30
0.0
  0
VERTEX
  5
5E8
100
AcDbEntity
  8
小便器用水栓
  6
CONTINUOUS
 62
     6
100
AcDbVertex
100
AcDb2dVertex
 10
701.475647
 20
1517.000351
 30
0.0
  0
SEQEND
  5
5E9
100
AcDbEntity
  8
小便器用水栓
  6
CONTINUOUS
 62
     6
  0
POLYLINE
  5
5EA
100
AcDbEntity
  8
小便器用水栓
  6
CONTINUOUS
 62
     6
100
AcDb2dPolyline
 66
     1
 10
0.0
 20
0.0
 30
0.0
 70
   128
  0
VERTEX
  5
5EB
100
AcDbEntity
  8
小便器用水栓
  6
CONTINUOUS
 62
     6
100
AcDbVertex
100
AcDb2dVertex
 10
714.725464
 20
1517.000198
 30
0.0
  0
VERTEX
  5
5EC
100
AcDbEntity
  8
小便器用水栓
  6
CONTINUOUS
 62
     6
100
AcDbVertex
100
AcDb2dVertex
 10
714.705933
 20
1517.444077
 30
0.0
  0
VERTEX
  5
5ED
100
AcDbEntity
  8
小便器用水栓
  6
CONTINUOUS
 62
     6
100
AcDbVertex
100
AcDb2dVertex
 10
714.647949
 20
1517.884598
 30
0.0
  0
VERTEX
  5
5EE
100
AcDbEntity
  8
小便器用水栓
  6
CONTINUOUS
 62
     6
100
AcDbVertex
100
AcDb2dVertex
 10
714.551666
 20
1518.318558
 30
0.0
  0
VERTEX
  5
5EF
100
AcDbEntity
  8
小便器用水栓
  6
CONTINUOUS
 62
     6
100
AcDbVertex
100
AcDb2dVertex
 10
714.417847
 20
1518.742294
 30
0.0
  0
VERTEX
  5
5F0
100
AcDbEntity
  8
小便器用水栓
  6
CONTINUOUS
 62
     6
100
AcDbVertex
100
AcDb2dVertex
 10
714.247559
 20
1519.152756
 30
0.0
  0
VERTEX
  5
5F1
100
AcDbEntity
  8
小便器用水栓
  6
CONTINUOUS
 62
     6
100
AcDbVertex
100
AcDb2dVertex
 10
714.042023
 20
1519.546738
 30
0.0
  0
VERTEX
  5
5F2
100
AcDbEntity
  8
小便器用水栓
  6
CONTINUOUS
 62
     6
100
AcDbVertex
100
AcDb2dVertex
 10
713.802917
 20
1519.921341
 30
0.0
  0
VERTEX
  5
5F3
100
AcDbEntity
  8
小便器用水栓
  6
CONTINUOUS
 62
     6
100
AcDbVertex
100
AcDb2dVertex
 10
713.532074
 20
1520.273819
 30
0.0
  0
VERTEX
  5
5F4
100
AcDbEntity
  8
小便器用水栓
  6
CONTINUOUS
 62
     6
100
AcDbVertex
100
AcDb2dVertex
 10
713.231476
 20
1520.601578
 30
0.0
  0
VERTEX
  5
5F5
100
AcDbEntity
  8
小便器用水栓
  6
CONTINUOUS
 62
     6
100
AcDbVertex
100
AcDb2dVertex
 10
712.903412
 20
1520.901566
 30
0.0
  0
VERTEX
  5
5F6
100
AcDbEntity
  8
小便器用水栓
  6
CONTINUOUS
 62
     6
100
AcDbVertex
100
AcDb2dVertex
 10
712.550476
 20
1521.171951
 30
0.0
  0
VERTEX
  5
5F7
100
AcDbEntity
  8
小便器用水栓
  6
CONTINUOUS
 62
     6
100
AcDbVertex
100
AcDb2dVertex
 10
712.175262
 20
1521.410904
 30
0.0
  0
VERTEX
  5
5F8
100
AcDbEntity
  8
小便器用水栓
  6
CONTINUOUS
 62
     6
100
AcDbVertex
100
AcDb2dVertex
 10
711.780518
 20
1521.615982
 30
0.0
  0
VERTEX
  5
5F9
100
AcDbEntity
  8
小便器用水栓
  6
CONTINUOUS
 62
     6
100
AcDbVertex
100
AcDb2dVertex
 10
711.369446
 20
1521.785965
 30
0.0
  0
VERTEX
  5
5FA
100
AcDbEntity
  8
小便器用水栓
  6
CONTINUOUS
 62
     6
100
AcDbVertex
100
AcDb2dVertex
 10
710.945099
 20
1521.919632
 30
0.0
  0
VERTEX
  5
5FB
100
AcDbEntity
  8
小便器用水栓
  6
CONTINUOUS
 62
     6
100
AcDbVertex
100
AcDb2dVertex
 10
710.510681
 20
1522.01561
 30
0.0
  0
VERTEX
  5
5FC
100
AcDbEntity
  8
小便器用水栓
  6
CONTINUOUS
 62
     6
100
AcDbVertex
100
AcDb2dVertex
 10
710.069549
 20
1522.073441
 30
0.0
  0
VERTEX
  5
5FD
100
AcDbEntity
  8
小便器用水栓
  6
CONTINUOUS
 62
     6
100
AcDbVertex
100
AcDb2dVertex
 10
709.625061
 20
1522.093277
 30
0.0
  0
VERTEX
  5
5FE
100
AcDbEntity
  8
小便器用水栓
  6
CONTINUOUS
 62
     6
100
AcDbVertex
100
AcDb2dVertex
 10
709.180572
 20
1522.073746
 30
0.0
  0
VERTEX
  5
5FF
100
AcDbEntity
  8
小便器用水栓
  6
CONTINUOUS
 62
     6
100
AcDbVertex
100
AcDb2dVertex
 10
708.739441
 20
1522.01561
 30
0.0
  0
VERTEX
  5
600
100
AcDbEntity
  8
小便器用水栓
  6
CONTINUOUS
 62
     6
100
AcDbVertex
100
AcDb2dVertex
 10
708.304871
 20
1521.919632
 30
0.0
  0
VERTEX
  5
601
100
AcDbEntity
  8
小便器用水栓
  6
CONTINUOUS
 62
     6
100
AcDbVertex
100
AcDb2dVertex
 10
707.880524
 20
1521.785965
 30
0.0
  0
VERTEX
  5
602
100
AcDbEntity
  8
小便器用水栓
  6
CONTINUOUS
 62
     6
100
AcDbVertex
100
AcDb2dVertex
 10
707.469452
 20
1521.615677
 30
0.0
  0
VERTEX
  5
603
100
AcDbEntity
  8
小便器用水栓
  6
CONTINUOUS
 62
     6
100
AcDbVertex
100
AcDb2dVertex
 10
707.07486
 20
1521.410904
 30
0.0
  0
VERTEX
  5
604
100
AcDbEntity
  8
小便器用水栓
  6
CONTINUOUS
 62
     6
100
AcDbVertex
100
AcDb2dVertex
 10
706.699646
 20
1521.172104
 30
0.0
  0
VERTEX
  5
605
100
AcDbEntity
  8
小便器用水栓
  6
CONTINUOUS
 62
     6
100
AcDbVertex
100
AcDb2dVertex
 10
706.34671
 20
1520.901566
 30
0.0
  0
VERTEX
  5
606
100
AcDbEntity
  8
小便器用水栓
  6
CONTINUOUS
 62
     6
100
AcDbVertex
100
AcDb2dVertex
 10
706.018494
 20
1520.601578
 30
0.0
  0
VERTEX
  5
607
100
AcDbEntity
  8
小便器用水栓
  6
CONTINUOUS
 62
     6
100
AcDbVertex
100
AcDb2dVertex
 10
705.717895
 20
1520.273972
 30
0.0
  0
VERTEX
  5
608
100
AcDbEntity
  8
小便器用水栓
  6
CONTINUOUS
 62
     6
100
AcDbVertex
100
AcDb2dVertex
 10
705.447052
 20
1519.921188
 30
0.0
  0
VERTEX
  5
609
100
AcDbEntity
  8
小便器用水栓
  6
CONTINUOUS
 62
     6
100
AcDbVertex
100
AcDb2dVertex
 10
705.207947
 20
1519.546738
 30
0.0
  0
VERTEX
  5
60A
100
AcDbEntity
  8
小便器用水栓
  6
CONTINUOUS
 62
     6
100
AcDbVertex
100
AcDb2dVertex
 10
705.002563
 20
1519.152603
 30
0.0
  0
VERTEX
  5
60B
100
AcDbEntity
  8
小便器用水栓
  6
CONTINUOUS
 62
     6
100
AcDbVertex
100
AcDb2dVertex
 10
704.832275
 20
1518.741989
 30
0.0
  0
VERTEX
  5
60C
100
AcDbEntity
  8
小便器用水栓
  6
CONTINUOUS
 62
     6
100
AcDbVertex
100
AcDb2dVertex
 10
704.698456
 20
1518.318558
 30
0.0
  0
VERTEX
  5
60D
100
AcDbEntity
  8
小便器用水栓
  6
CONTINUOUS
 62
     6
100
AcDbVertex
100
AcDb2dVertex
 10
704.602173
 20
1517.88475
 30
0.0
  0
VERTEX
  5
60E
100
AcDbEntity
  8
小便器用水栓
  6
CONTINUOUS
 62
     6
100
AcDbVertex
100
AcDb2dVertex
 10
704.544189
 20
1517.444229
 30
0.0
  0
VERTEX
  5
60F
100
AcDbEntity
  8
小便器用水栓
  6
CONTINUOUS
 62
     6
100
AcDbVertex
100
AcDb2dVertex
 10
704.524658
 20
1517.000198
 30
0.0
  0
VERTEX
  5
610
100
AcDbEntity
  8
小便器用水栓
  6
CONTINUOUS
 62
     6
100
AcDbVertex
100
AcDb2dVertex
 10
704.544189
 20
1516.55632
 30
0.0
  0
VERTEX
  5
611
100
AcDbEntity
  8
小便器用水栓
  6
CONTINUOUS
 62
     6
100
AcDbVertex
100
AcDb2dVertex
 10
704.602173
 20
1516.115799
 30
0.0
  0
VERTEX
  5
612
100
AcDbEntity
  8
小便器用水栓
  6
CONTINUOUS
 62
     6
100
AcDbVertex
100
AcDb2dVertex
 10
704.698456
 20
1515.682144
 30
0.0
  0
VERTEX
  5
613
100
AcDbEntity
  8
小便器用水栓
  6
CONTINUOUS
 62
     6
100
AcDbVertex
100
AcDb2dVertex
 10
704.832275
 20
1515.258408
 30
0.0
  0
VERTEX
  5
614
100
AcDbEntity
  8
小便器用水栓
  6
CONTINUOUS
 62
     6
100
AcDbVertex
100
AcDb2dVertex
 10
705.002563
 20
1514.847946
 30
0.0
  0
VERTEX
  5
615
100
AcDbEntity
  8
小便器用水栓
  6
CONTINUOUS
 62
     6
100
AcDbVertex
100
AcDb2dVertex
 10
705.207947
 20
1514.453812
 30
0.0
  0
VERTEX
  5
616
100
AcDbEntity
  8
小便器用水栓
  6
CONTINUOUS
 62
     6
100
AcDbVertex
100
AcDb2dVertex
 10
705.447052
 20
1514.079208
 30
0.0
  0
VERTEX
  5
617
100
AcDbEntity
  8
小便器用水栓
  6
CONTINUOUS
 62
     6
100
AcDbVertex
100
AcDb2dVertex
 10
705.717895
 20
1513.72673
 30
0.0
  0
VERTEX
  5
618
100
AcDbEntity
  8
小便器用水栓
  6
CONTINUOUS
 62
     6
100
AcDbVertex
100
AcDb2dVertex
 10
706.018494
 20
1513.399124
 30
0.0
  0
VERTEX
  5
619
100
AcDbEntity
  8
小便器用水栓
  6
CONTINUOUS
 62
     6
100
AcDbVertex
100
AcDb2dVertex
 10
706.346558
 20
1513.099136
 30
0.0
  0
VERTEX
  5
61A
100
AcDbEntity
  8
小便器用水栓
  6
CONTINUOUS
 62
     6
100
AcDbVertex
100
AcDb2dVertex
 10
706.699646
 20
1512.828751
 30
0.0
  0
VERTEX
  5
61B
100
AcDbEntity
  8
小便器用水栓
  6
CONTINUOUS
 62
     6
100
AcDbVertex
100
AcDb2dVertex
 10
707.07486
 20
1512.589645
 30
0.0
  0
VERTEX
  5
61C
100
AcDbEntity
  8
小便器用水栓
  6
CONTINUOUS
 62
     6
100
AcDbVertex
100
AcDb2dVertex
 10
707.469605
 20
1512.384567
 30
0.0
  0
VERTEX
  5
61D
100
AcDbEntity
  8
小便器用水栓
  6
CONTINUOUS
 62
     6
100
AcDbVertex
100
AcDb2dVertex
 10
707.880676
 20
1512.214584
 30
0.0
  0
VERTEX
  5
61E
100
AcDbEntity
  8
小便器用水栓
  6
CONTINUOUS
 62
     6
100
AcDbVertex
100
AcDb2dVertex
 10
708.304871
 20
1512.08107
 30
0.0
  0
VERTEX
  5
61F
100
AcDbEntity
  8
小便器用水栓
  6
CONTINUOUS
 62
     6
100
AcDbVertex
100
AcDb2dVertex
 10
708.739288
 20
1511.98494
 30
0.0
  0
VERTEX
  5
620
100
AcDbEntity
  8
小便器用水栓
  6
CONTINUOUS
 62
     6
100
AcDbVertex
100
AcDb2dVertex
 10
709.18042
 20
1511.927261
 30
0.0
  0
VERTEX
  5
621
100
AcDbEntity
  8
小便器用水栓
  6
CONTINUOUS
 62
     6
100
AcDbVertex
100
AcDb2dVertex
 10
709.625061
 20
1511.907272
 30
0.0
  0
VERTEX
  5
622
100
AcDbEntity
  8
小便器用水栓
  6
CONTINUOUS
 62
     6
100
AcDbVertex
100
AcDb2dVertex
 10
710.069549
 20
1511.926804
 30
0.0
  0
VERTEX
  5
623
100
AcDbEntity
  8
小便器用水栓
  6
CONTINUOUS
 62
     6
100
AcDbVertex
100
AcDb2dVertex
 10
710.510681
 20
1511.98494
 30
0.0
  0
VERTEX
  5
624
100
AcDbEntity
  8
小便器用水栓
  6
CONTINUOUS
 62
     6
100
AcDbVertex
100
AcDb2dVertex
 10
710.945099
 20
1512.08107
 30
0.0
  0
VERTEX
  5
625
100
AcDbEntity
  8
小便器用水栓
  6
CONTINUOUS
 62
     6
100
AcDbVertex
100
AcDb2dVertex
 10
711.369446
 20
1512.214737
 30
0.0
  0
VERTEX
  5
626
100
AcDbEntity
  8
小便器用水栓
  6
CONTINUOUS
 62
     6
100
AcDbVertex
100
AcDb2dVertex
 10
711.780518
 20
1512.385025
 30
0.0
  0
SEQEND
  5
627
100
AcDbEntity
  8
小便器用水栓
  6
CONTINUOUS
 62
     6
  0
POLYLINE
  5
628
100
AcDbEntity
  8
小便器用水栓
  6
CONTINUOUS
 62
     6
100
AcDb2dPolyline
 66
     1
 10
0.0
 20
0.0
 30
0.0
 70
   128
  0
VERTEX
  5
629
100
AcDbEntity
  8
小便器用水栓
  6
CONTINUOUS
 62
     6
100
AcDbVertex
100
AcDb2dVertex
 10
711.780518
 20
1512.385025
 30
0.0
  0
VERTEX
  5
62A
100
AcDbEntity
  8
小便器用水栓
  6
CONTINUOUS
 62
     6
100
AcDbVertex
100
AcDb2dVertex
 10
712.175262
 20
1512.589645
 30
0.0
  0
VERTEX
  5
62B
100
AcDbEntity
  8
小便器用水栓
  6
CONTINUOUS
 62
     6
100
AcDbVertex
100
AcDb2dVertex
 10
712.550476
 20
1512.828445
 30
0.0
  0
VERTEX
  5
62C
100
AcDbEntity
  8
小便器用水栓
  6
CONTINUOUS
 62
     6
100
AcDbVertex
100
AcDb2dVertex
 10
712.903564
 20
1513.098984
 30
0.0
  0
VERTEX
  5
62D
100
AcDbEntity
  8
小便器用水栓
  6
CONTINUOUS
 62
     6
100
AcDbVertex
100
AcDb2dVertex
 10
713.231476
 20
1513.399124
 30
0.0
  0
VERTEX
  5
62E
100
AcDbEntity
  8
小便器用水栓
  6
CONTINUOUS
 62
     6
100
AcDbVertex
100
AcDb2dVertex
 10
713.532074
 20
1513.72673
 30
0.0
  0
VERTEX
  5
62F
100
AcDbEntity
  8
小便器用水栓
  6
CONTINUOUS
 62
     6
100
AcDbVertex
100
AcDb2dVertex
 10
713.802917
 20
1514.079514
 30
0.0
  0
VERTEX
  5
630
100
AcDbEntity
  8
小便器用水栓
  6
CONTINUOUS
 62
     6
100
AcDbVertex
100
AcDb2dVertex
 10
714.042023
 20
1514.453812
 30
0.0
  0
VERTEX
  5
631
100
AcDbEntity
  8
小便器用水栓
  6
CONTINUOUS
 62
     6
100
AcDbVertex
100
AcDb2dVertex
 10
714.247406
 20
1514.847946
 30
0.0
  0
VERTEX
  5
632
100
AcDbEntity
  8
小便器用水栓
  6
CONTINUOUS
 62
     6
100
AcDbVertex
100
AcDb2dVertex
 10
714.417694
 20
1515.25856
 30
0.0
  0
VERTEX
  5
633
100
AcDbEntity
  8
小便器用水栓
  6
CONTINUOUS
 62
     6
100
AcDbVertex
100
AcDb2dVertex
 10
714.551666
 20
1515.682144
 30
0.0
  0
SEQEND
  5
634
100
AcDbEntity
  8
小便器用水栓
  6
CONTINUOUS
 62
     6
  0
POLYLINE
  5
635
100
AcDbEntity
  8
小便器用水栓
  6
CONTINUOUS
 62
     6
100
AcDb2dPolyline
 66
     1
 10
0.0
 20
0.0
 30
0.0
 70
   128
  0
VERTEX
  5
636
100
AcDbEntity
  8
小便器用水栓
  6
CONTINUOUS
 62
     6
100
AcDbVertex
100
AcDb2dVertex
 10
714.551666
 20
1515.682144
 30
0.0
  0
VERTEX
  5
637
100
AcDbEntity
  8
小便器用水栓
  6
CONTINUOUS
 62
     6
100
AcDbVertex
100
AcDb2dVertex
 10
714.647949
 20
1516.115952
 30
0.0
  0
VERTEX
  5
638
100
AcDbEntity
  8
小便器用水栓
  6
CONTINUOUS
 62
     6
100
AcDbVertex
100
AcDb2dVertex
 10
714.705933
 20
1516.556473
 30
0.0
  0
VERTEX
  5
639
100
AcDbEntity
  8
小便器用水栓
  6
CONTINUOUS
 62
     6
100
AcDbVertex
100
AcDb2dVertex
 10
714.725464
 20
1517.000351
 30
0.0
  0
SEQEND
  5
63A
100
AcDbEntity
  8
小便器用水栓
  6
CONTINUOUS
 62
     6
  0
LINE
  5
63B
100
AcDbEntity
  8
小便器用水栓
  6
CONTINUOUS
 62
     6
100
AcDbLine
 10
690.280426
 20
1523.000259
 30
0.0
 11
715.719574
 21
1523.000259
 31
0.0
  0
LINE
  5
63C
100
AcDbEntity
  8
小便器用水栓
  6
CONTINUOUS
 62
     6
100
AcDbLine
 10
690.280426
 20
1511.000137
 30
0.0
 11
715.719574
 21
1511.000137
 31
0.0
  0
ARC
  5
63D
100
AcDbEntity
  8
小便器用水栓
  6
CONTINUOUS
 62
     6
100
AcDbCircle
 10
699.499939
 20
1517.000198
 30
0.0
 40
11.000004
100
AcDbArc
 50
146.943909
 51
152.418716
  0
ARC
  5
63E
100
AcDbEntity
  8
小便器用水栓
  6
CONTINUOUS
 62
     6
100
AcDbCircle
 10
699.499939
 20
1517.000198
 30
0.0
 40
11.000004
100
AcDbArc
 50
207.581284
 51
213.056091
  0
ARC
  5
63F
100
AcDbEntity
  8
小便器用水栓
  6
CONTINUOUS
 62
     6
100
AcDbCircle
 10
706.500061
 20
1517.000198
 30
0.0
 40
11.000004
100
AcDbArc
 50
326.943909
 51
332.418701
  0
ARC
  5
640
100
AcDbEntity
  8
小便器用水栓
  6
CONTINUOUS
 62
     6
100
AcDbCircle
 10
706.500061
 20
1517.000198
 30
0.0
 40
11.000004
100
AcDbArc
 50
27.581299
 51
33.056091
  0
LINE
  5
641
100
AcDbEntity
  8
小便器用水栓
  6
CONTINUOUS
 62
     6
100
AcDbLine
 10
689.75003
 20
1522.093277
 30
0.0
 11
689.75003
 21
1511.90712
 31
0.0
  0
LINE
  5
642
100
AcDbEntity
  8
小便器用水栓
  6
CONTINUOUS
 62
     6
100
AcDbLine
 10
716.249969
 20
1522.093277
 30
0.0
 11
716.249969
 21
1511.90712
 31
0.0
  0
LINE
  5
643
100
AcDbEntity
  8
小便器用水栓
  6
CONTINUOUS
 62
     6
100
AcDbLine
 10
728.992584
 20
1536.641464
 30
0.0
 11
717.972076
 21
1548.196182
 31
0.0
  0
ARC
  5
644
100
AcDbEntity
  8
小便器用水栓
  6
CONTINUOUS
 62
     6
100
AcDbCircle
 10
732.444885
 20
1561.999741
 30
0.0
 40
20.000019
100
AcDbArc
 50
196.357086
 51
223.644135
  0
LINE
  5
645
100
AcDbEntity
  8
小便器用水栓
  6
CONTINUOUS
 62
     6
100
AcDbLine
 10
714.999969
 20
1528.668137
 30
0.0
 11
714.999969
 21
1523.000259
 31
0.0
  0
LINE
  5
646
100
AcDbEntity
  8
小便器用水栓
  6
CONTINUOUS
 62
     6
100
AcDbLine
 10
691.00003
 20
1528.667984
 30
0.0
 11
691.00003
 21
1523.000259
 31
0.0
  0
ARC
  5
647
100
AcDbEntity
  8
小便器用水栓
  6
CONTINUOUS
 62
     6
100
AcDbCircle
 10
703.0
 20
1545.000076
 30
0.0
 40
22.999992
100
AcDbArc
 50
301.448944
 51
311.817612
  0
ARC
  5
648
100
AcDbEntity
  8
小便器用水栓
  6
CONTINUOUS
 62
     6
100
AcDbCircle
 10
703.0
 20
1545.000076
 30
0.0
 40
23.000078
100
AcDbArc
 50
348.183449
 51
71.8172
  0
ARC
  5
649
100
AcDbEntity
  8
小便器用水栓
  6
CONTINUOUS
 62
     6
100
AcDbCircle
 10
703.0
 20
1545.000076
 30
0.0
 40
22.999983
100
AcDbArc
 50
108.182816
 51
191.817337
  0
ARC
  5
64A
100
AcDbEntity
  8
小便器用水栓
  6
CONTINUOUS
 62
     6
100
AcDbCircle
 10
703.0
 20
1545.000076
 30
0.0
 40
23.000059
100
AcDbArc
 50
228.183472
 51
238.551041
  0
LINE
  5
64B
100
AcDbEntity
  8
小便器用水栓
  6
CONTINUOUS
 62
     6
100
AcDbLine
 10
694.999969
 20
1451.872269
 30
0.0
 11
694.999969
 21
1511.000137
 31
0.0
  0
LINE
  5
64C
100
AcDbEntity
  8
小便器用水栓
  6
CONTINUOUS
 62
     6
100
AcDbLine
 10
711.00003
 20
1451.872269
 30
0.0
 11
711.00003
 21
1511.000137
 31
0.0
  0
LINE
  5
64D
100
AcDbEntity
  8
小便器用水栓
  6
CONTINUOUS
 62
     6
100
AcDbLine
 10
1798.810425
 20
1522.008209
 30
0.0
 11
1800.810394
 21
1522.008209
 31
0.0
  0
LINE
  5
64E
100
AcDbEntity
  8
小便器用水栓
  6
CONTINUOUS
 62
     6
100
AcDbLine
 10
1798.810425
 20
1522.008209
 30
0.0
 11
1798.810425
 21
1568.009186
 31
0.0
  0
LINE
  5
64F
100
AcDbEntity
  8
小便器用水栓
  6
CONTINUOUS
 62
     6
100
AcDbLine
 10
1798.810425
 20
1568.009186
 30
0.0
 11
1800.810394
 21
1568.009186
 31
0.0
  0
LINE
  5
650
100
AcDbEntity
  8
小便器用水栓
  6
CONTINUOUS
 62
     6
100
AcDbLine
 10
1800.810394
 20
1534.508209
 30
0.0
 11
1814.810333
 21
1534.508209
 31
0.0
  0
LINE
  5
651
100
AcDbEntity
  8
小便器用水栓
  6
CONTINUOUS
 62
     6
100
AcDbLine
 10
1800.810394
 20
1536.108246
 30
0.0
 11
1814.810333
 21
1536.108246
 31
0.0
  0
LINE
  5
652
100
AcDbEntity
  8
小便器用水栓
  6
CONTINUOUS
 62
     6
100
AcDbLine
 10
1800.810394
 20
1553.909149
 30
0.0
 11
1814.810333
 21
1553.909149
 31
0.0
  0
LINE
  5
653
100
AcDbEntity
  8
小便器用水栓
  6
CONTINUOUS
 62
     6
100
AcDbLine
 10
1800.810394
 20
1555.509186
 30
0.0
 11
1814.810333
 21
1555.509186
 31
0.0
  0
LINE
  5
654
100
AcDbEntity
  8
小便器用水栓
  6
CONTINUOUS
 62
     6
100
AcDbLine
 10
1814.810333
 20
1534.508209
 30
0.0
 11
1814.810333
 21
1555.509186
 31
0.0
  0
LINE
  5
655
100
AcDbEntity
  8
小便器用水栓
  6
CONTINUOUS
 62
     6
100
AcDbLine
 10
1832.31842
 20
1603.902588
 30
0.0
 11
1951.0
 21
1603.902588
 31
0.0
  0
ARC
  5
656
100
AcDbEntity
  8
小便器用水栓
  6
CONTINUOUS
 62
     6
100
AcDbCircle
 10
1769.310303
 20
1517.00882
 30
0.0
 40
11.000004
100
AcDbArc
 50
326.943909
 51
33.056091
  0
LINE
  5
657
100
AcDbEntity
  8
小便器用水栓
  6
CONTINUOUS
 62
     6
100
AcDbLine
 10
1753.090973
 20
1523.008881
 30
0.0
 11
1778.529816
 21
1523.008881
 31
0.0
  0
ARC
  5
658
100
AcDbEntity
  8
小便器用水栓
  6
CONTINUOUS
 62
     6
100
AcDbCircle
 10
1762.310486
 20
1517.00882
 30
0.0
 40
11.000004
100
AcDbArc
 50
146.943909
 51
213.056213
  0
LINE
  5
659
100
AcDbEntity
  8
小便器用水栓
  6
CONTINUOUS
 62
     6
100
AcDbLine
 10
1753.090973
 20
1511.008759
 30
0.0
 11
1778.529816
 21
1511.008759
 31
0.0
  0
POLYLINE
  5
65A
100
AcDbEntity
  8
小便器用水栓
  6
CONTINUOUS
 62
     6
100
AcDb2dPolyline
 66
     1
 10
0.0
 20
0.0
 30
0.0
 70
   128
  0
VERTEX
  5
65B
100
AcDbEntity
  8
小便器用水栓
  6
CONTINUOUS
 62
     6
100
AcDbVertex
100
AcDb2dVertex
 10
1757.280884
 20
1517.008667
 30
0.0
  0
VERTEX
  5
65C
100
AcDbEntity
  8
小便器用水栓
  6
CONTINUOUS
 62
     6
100
AcDbVertex
100
AcDb2dVertex
 10
1757.269592
 20
1517.452545
 30
0.0
  0
VERTEX
  5
65D
100
AcDbEntity
  8
小便器用水栓
  6
CONTINUOUS
 62
     6
100
AcDbVertex
100
AcDb2dVertex
 10
1757.236175
 20
1517.892761
 30
0.0
  0
VERTEX
  5
65E
100
AcDbEntity
  8
小便器用水栓
  6
CONTINUOUS
 62
     6
100
AcDbVertex
100
AcDb2dVertex
 10
1757.180633
 20
1518.327179
 30
0.0
  0
VERTEX
  5
65F
100
AcDbEntity
  8
小便器用水栓
  6
CONTINUOUS
 62
     6
100
AcDbVertex
100
AcDb2dVertex
 10
1757.103424
 20
1518.750916
 30
0.0
  0
VERTEX
  5
660
100
AcDbEntity
  8
小便器用水栓
  6
CONTINUOUS
 62
     6
100
AcDbVertex
100
AcDb2dVertex
 10
1757.005158
 20
1519.161682
 30
0.0
  0
VERTEX
  5
661
100
AcDbEntity
  8
小便器用水栓
  6
CONTINUOUS
 62
     6
100
AcDbVertex
100
AcDb2dVertex
 10
1756.886139
 20
1519.555512
 30
0.0
  0
VERTEX
  5
662
100
AcDbEntity
  8
小便器用水栓
  6
CONTINUOUS
 62
     6
100
AcDbVertex
100
AcDb2dVertex
 10
1756.748047
 20
1519.930267
 30
0.0
  0
VERTEX
  5
663
100
AcDbEntity
  8
小便器用水栓
  6
CONTINUOUS
 62
     6
100
AcDbVertex
100
AcDb2dVertex
 10
1756.591644
 20
1520.282898
 30
0.0
  0
VERTEX
  5
664
100
AcDbEntity
  8
小便器用水栓
  6
CONTINUOUS
 62
     6
100
AcDbVertex
100
AcDb2dVertex
 10
1756.418457
 20
1520.610199
 30
0.0
  0
VERTEX
  5
665
100
AcDbEntity
  8
小便器用水栓
  6
CONTINUOUS
 62
     6
100
AcDbVertex
100
AcDb2dVertex
 10
1756.229096
 20
1520.910339
 30
0.0
  0
VERTEX
  5
666
100
AcDbEntity
  8
小便器用水栓
  6
CONTINUOUS
 62
     6
100
AcDbVertex
100
AcDb2dVertex
 10
1756.025391
 20
1521.180878
 30
0.0
  0
VERTEX
  5
667
100
AcDbEntity
  8
小便器用水栓
  6
CONTINUOUS
 62
     6
100
AcDbVertex
100
AcDb2dVertex
 10
1755.808258
 20
1521.419525
 30
0.0
  0
VERTEX
  5
668
100
AcDbEntity
  8
小便器用水栓
  6
CONTINUOUS
 62
     6
100
AcDbVertex
100
AcDb2dVertex
 10
1755.580292
 20
1521.624603
 30
0.0
  0
VERTEX
  5
669
100
AcDbEntity
  8
小便器用水栓
  6
CONTINUOUS
 62
     6
100
AcDbVertex
100
AcDb2dVertex
 10
1755.342712
 20
1521.794891
 30
0.0
  0
VERTEX
  5
66A
100
AcDbEntity
  8
小便器用水栓
  6
CONTINUOUS
 62
     6
100
AcDbVertex
100
AcDb2dVertex
 10
1755.098114
 20
1521.928253
 30
0.0
  0
VERTEX
  5
66B
100
AcDbEntity
  8
小便器用水栓
  6
CONTINUOUS
 62
     6
100
AcDbVertex
100
AcDb2dVertex
 10
1754.84726
 20
1522.024384
 30
0.0
  0
VERTEX
  5
66C
100
AcDbEntity
  8
小便器用水栓
  6
CONTINUOUS
 62
     6
100
AcDbVertex
100
AcDb2dVertex
 10
1754.59259
 20
1522.08252
 30
0.0
  0
VERTEX
  5
66D
100
AcDbEntity
  8
小便器用水栓
  6
CONTINUOUS
 62
     6
100
AcDbVertex
100
AcDb2dVertex
 10
1754.335785
 20
1522.101746
 30
0.0
  0
VERTEX
  5
66E
100
AcDbEntity
  8
小便器用水栓
  6
CONTINUOUS
 62
     6
100
AcDbVertex
100
AcDb2dVertex
 10
1754.079132
 20
1522.082367
 30
0.0
  0
VERTEX
  5
66F
100
AcDbEntity
  8
小便器用水栓
  6
CONTINUOUS
 62
     6
100
AcDbVertex
100
AcDb2dVertex
 10
1753.824463
 20
1522.024536
 30
0.0
  0
VERTEX
  5
670
100
AcDbEntity
  8
小便器用水栓
  6
CONTINUOUS
 62
     6
100
AcDbVertex
100
AcDb2dVertex
 10
1753.573761
 20
1521.928253
 30
0.0
  0
VERTEX
  5
671
100
AcDbEntity
  8
小便器用水栓
  6
CONTINUOUS
 62
     6
100
AcDbVertex
100
AcDb2dVertex
 10
1753.328705
 20
1521.794739
 30
0.0
  0
VERTEX
  5
672
100
AcDbEntity
  8
小便器用水栓
  6
CONTINUOUS
 62
     6
100
AcDbVertex
100
AcDb2dVertex
 10
1753.091583
 20
1521.624756
 30
0.0
  0
VERTEX
  5
673
100
AcDbEntity
  8
小便器用水栓
  6
CONTINUOUS
 62
     6
100
AcDbVertex
100
AcDb2dVertex
 10
1752.863159
 20
1521.419525
 30
0.0
  0
VERTEX
  5
674
100
AcDbEntity
  8
小便器用水栓
  6
CONTINUOUS
 62
     6
100
AcDbVertex
100
AcDb2dVertex
 10
1752.646484
 20
1521.180878
 30
0.0
  0
VERTEX
  5
675
100
AcDbEntity
  8
小便器用水栓
  6
CONTINUOUS
 62
     6
100
AcDbVertex
100
AcDb2dVertex
 10
1752.442474
 20
1520.910492
 30
0.0
  0
VERTEX
  5
676
100
AcDbEntity
  8
小便器用水栓
  6
CONTINUOUS
 62
     6
100
AcDbVertex
100
AcDb2dVertex
 10
1752.253265
 20
1520.610199
 30
0.0
  0
VERTEX
  5
677
100
AcDbEntity
  8
小便器用水栓
  6
CONTINUOUS
 62
     6
100
AcDbVertex
100
AcDb2dVertex
 10
1752.079773
 20
1520.282593
 30
0.0
  0
VERTEX
  5
678
100
AcDbEntity
  8
小便器用水栓
  6
CONTINUOUS
 62
     6
100
AcDbVertex
100
AcDb2dVertex
 10
1751.92337
 20
1519.930267
 30
0.0
  0
VERTEX
  5
679
100
AcDbEntity
  8
小便器用水栓
  6
CONTINUOUS
 62
     6
100
AcDbVertex
100
AcDb2dVertex
 10
1751.785126
 20
1519.555512
 30
0.0
  0
VERTEX
  5
67A
100
AcDbEntity
  8
小便器用水栓
  6
CONTINUOUS
 62
     6
100
AcDbVertex
100
AcDb2dVertex
 10
1751.666412
 20
1519.16153
 30
0.0
  0
VERTEX
  5
67B
100
AcDbEntity
  8
小便器用水栓
  6
CONTINUOUS
 62
     6
100
AcDbVertex
100
AcDb2dVertex
 10
1751.567993
 20
1518.751068
 30
0.0
  0
VERTEX
  5
67C
100
AcDbEntity
  8
小便器用水栓
  6
CONTINUOUS
 62
     6
100
AcDbVertex
100
AcDb2dVertex
 10
1751.491089
 20
1518.327179
 30
0.0
  0
VERTEX
  5
67D
100
AcDbEntity
  8
小便器用水栓
  6
CONTINUOUS
 62
     6
100
AcDbVertex
100
AcDb2dVertex
 10
1751.435547
 20
1517.893524
 30
0.0
  0
VERTEX
  5
67E
100
AcDbEntity
  8
小便器用水栓
  6
CONTINUOUS
 62
     6
100
AcDbVertex
100
AcDb2dVertex
 10
1751.401977
 20
1517.453156
 30
0.0
  0
VERTEX
  5
67F
100
AcDbEntity
  8
小便器用水栓
  6
CONTINUOUS
 62
     6
100
AcDbVertex
100
AcDb2dVertex
 10
1751.390839
 20
1517.008667
 30
0.0
  0
VERTEX
  5
680
100
AcDbEntity
  8
小便器用水栓
  6
CONTINUOUS
 62
     6
100
AcDbVertex
100
AcDb2dVertex
 10
1751.40213
 20
1516.564789
 30
0.0
  0
VERTEX
  5
681
100
AcDbEntity
  8
小便器用水栓
  6
CONTINUOUS
 62
     6
100
AcDbVertex
100
AcDb2dVertex
 10
1751.435852
 20
1516.123963
 30
0.0
  0
VERTEX
  5
682
100
AcDbEntity
  8
小便器用水栓
  6
CONTINUOUS
 62
     6
100
AcDbVertex
100
AcDb2dVertex
 10
1751.491089
 20
1515.691071
 30
0.0
  0
VERTEX
  5
683
100
AcDbEntity
  8
小便器用水栓
  6
CONTINUOUS
 62
     6
100
AcDbVertex
100
AcDb2dVertex
 10
1751.568451
 20
1515.267487
 30
0.0
  0
VERTEX
  5
684
100
AcDbEntity
  8
小便器用水栓
  6
CONTINUOUS
 62
     6
100
AcDbVertex
100
AcDb2dVertex
 10
1751.666718
 20
1514.857178
 30
0.0
  0
VERTEX
  5
685
100
AcDbEntity
  8
小便器用水栓
  6
CONTINUOUS
 62
     6
100
AcDbVertex
100
AcDb2dVertex
 10
1751.785126
 20
1514.462433
 30
0.0
  0
VERTEX
  5
686
100
AcDbEntity
  8
小便器用水栓
  6
CONTINUOUS
 62
     6
100
AcDbVertex
100
AcDb2dVertex
 10
1751.923065
 20
1514.087677
 30
0.0
  0
VERTEX
  5
687
100
AcDbEntity
  8
小便器用水栓
  6
CONTINUOUS
 62
     6
100
AcDbVertex
100
AcDb2dVertex
 10
1752.079315
 20
1513.735046
 30
0.0
  0
VERTEX
  5
688
100
AcDbEntity
  8
小便器用水栓
  6
CONTINUOUS
 62
     6
100
AcDbVertex
100
AcDb2dVertex
 10
1752.253265
 20
1513.407593
 30
0.0
  0
VERTEX
  5
689
100
AcDbEntity
  8
小便器用水栓
  6
CONTINUOUS
 62
     6
100
AcDbVertex
100
AcDb2dVertex
 10
1752.442627
 20
1513.107452
 30
0.0
  0
VERTEX
  5
68A
100
AcDbEntity
  8
小便器用水栓
  6
CONTINUOUS
 62
     6
100
AcDbVertex
100
AcDb2dVertex
 10
1752.646484
 20
1512.836914
 30
0.0
  0
VERTEX
  5
68B
100
AcDbEntity
  8
小便器用水栓
  6
CONTINUOUS
 62
     6
100
AcDbVertex
100
AcDb2dVertex
 10
1752.863159
 20
1512.598267
 30
0.0
  0
VERTEX
  5
68C
100
AcDbEntity
  8
小便器用水栓
  6
CONTINUOUS
 62
     6
100
AcDbVertex
100
AcDb2dVertex
 10
1753.090973
 20
1512.393189
 30
0.0
  0
VERTEX
  5
68D
100
AcDbEntity
  8
小便器用水栓
  6
CONTINUOUS
 62
     6
100
AcDbVertex
100
AcDb2dVertex
 10
1753.3284
 20
1512.2229
 30
0.0
  0
VERTEX
  5
68E
100
AcDbEntity
  8
小便器用水栓
  6
CONTINUOUS
 62
     6
100
AcDbVertex
100
AcDb2dVertex
 10
1753.573761
 20
1512.089691
 30
0.0
  0
VERTEX
  5
68F
100
AcDbEntity
  8
小便器用水栓
  6
CONTINUOUS
 62
     6
100
AcDbVertex
100
AcDb2dVertex
 10
1753.824616
 20
1511.993561
 30
0.0
  0
VERTEX
  5
690
100
AcDbEntity
  8
小便器用水栓
  6
CONTINUOUS
 62
     6
100
AcDbVertex
100
AcDb2dVertex
 10
1754.079437
 20
1511.935425
 30
0.0
  0
VERTEX
  5
691
100
AcDbEntity
  8
小便器用水栓
  6
CONTINUOUS
 62
     6
100
AcDbVertex
100
AcDb2dVertex
 10
1754.335938
 20
1511.916046
 30
0.0
  0
VERTEX
  5
692
100
AcDbEntity
  8
小便器用水栓
  6
CONTINUOUS
 62
     6
100
AcDbVertex
100
AcDb2dVertex
 10
1754.59259
 20
1511.935425
 30
0.0
  0
VERTEX
  5
693
100
AcDbEntity
  8
小便器用水栓
  6
CONTINUOUS
 62
     6
100
AcDbVertex
100
AcDb2dVertex
 10
1754.847412
 20
1511.993256
 30
0.0
  0
VERTEX
  5
694
100
AcDbEntity
  8
小便器用水栓
  6
CONTINUOUS
 62
     6
100
AcDbVertex
100
AcDb2dVertex
 10
1755.098114
 20
1512.089691
 30
0.0
  0
VERTEX
  5
695
100
AcDbEntity
  8
小便器用水栓
  6
CONTINUOUS
 62
     6
100
AcDbVertex
100
AcDb2dVertex
 10
1755.34317
 20
1512.223206
 30
0.0
  0
VERTEX
  5
696
100
AcDbEntity
  8
小便器用水栓
  6
CONTINUOUS
 62
     6
100
AcDbVertex
100
AcDb2dVertex
 10
1755.580597
 20
1512.393189
 30
0.0
  0
SEQEND
  5
697
100
AcDbEntity
  8
小便器用水栓
  6
CONTINUOUS
 62
     6
  0
POLYLINE
  5
698
100
AcDbEntity
  8
小便器用水栓
  6
CONTINUOUS
 62
     6
100
AcDb2dPolyline
 66
     1
 10
0.0
 20
0.0
 30
0.0
 70
   128
  0
VERTEX
  5
699
100
AcDbEntity
  8
小便器用水栓
  6
CONTINUOUS
 62
     6
100
AcDbVertex
100
AcDb2dVertex
 10
1755.580597
 20
1512.393189
 30
0.0
  0
VERTEX
  5
69A
100
AcDbEntity
  8
小便器用水栓
  6
CONTINUOUS
 62
     6
100
AcDbVertex
100
AcDb2dVertex
 10
1755.808258
 20
1512.598267
 30
0.0
  0
VERTEX
  5
69B
100
AcDbEntity
  8
小便器用水栓
  6
CONTINUOUS
 62
     6
100
AcDbVertex
100
AcDb2dVertex
 10
1756.024933
 20
1512.836914
 30
0.0
  0
VERTEX
  5
69C
100
AcDbEntity
  8
小便器用水栓
  6
CONTINUOUS
 62
     6
100
AcDbVertex
100
AcDb2dVertex
 10
1756.228485
 20
1513.1073
 30
0.0
  0
VERTEX
  5
69D
100
AcDbEntity
  8
小便器用水栓
  6
CONTINUOUS
 62
     6
100
AcDbVertex
100
AcDb2dVertex
 10
1756.418457
 20
1513.407593
 30
0.0
  0
VERTEX
  5
69E
100
AcDbEntity
  8
小便器用水栓
  6
CONTINUOUS
 62
     6
100
AcDbVertex
100
AcDb2dVertex
 10
1756.592102
 20
1513.735199
 30
0.0
  0
VERTEX
  5
69F
100
AcDbEntity
  8
小便器用水栓
  6
CONTINUOUS
 62
     6
100
AcDbVertex
100
AcDb2dVertex
 10
1756.748657
 20
1514.087525
 30
0.0
  0
VERTEX
  5
6A0
100
AcDbEntity
  8
小便器用水栓
  6
CONTINUOUS
 62
     6
100
AcDbVertex
100
AcDb2dVertex
 10
1756.886139
 20
1514.462433
 30
0.0
  0
VERTEX
  5
6A1
100
AcDbEntity
  8
小便器用水栓
  6
CONTINUOUS
 62
     6
100
AcDbVertex
100
AcDb2dVertex
 10
1757.0047
 20
1514.856415
 30
0.0
  0
VERTEX
  5
6A2
100
AcDbEntity
  8
小便器用水栓
  6
CONTINUOUS
 62
     6
100
AcDbVertex
100
AcDb2dVertex
 10
1757.102966
 20
1515.266876
 30
0.0
  0
VERTEX
  5
6A3
100
AcDbEntity
  8
小便器用水栓
  6
CONTINUOUS
 62
     6
100
AcDbVertex
100
AcDb2dVertex
 10
1757.180633
 20
1515.691071
 30
0.0
  0
SEQEND
  5
6A4
100
AcDbEntity
  8
小便器用水栓
  6
CONTINUOUS
 62
     6
  0
POLYLINE
  5
6A5
100
AcDbEntity
  8
小便器用水栓
  6
CONTINUOUS
 62
     6
100
AcDb2dPolyline
 66
     1
 10
0.0
 20
0.0
 30
0.0
 70
   128
  0
VERTEX
  5
6A6
100
AcDbEntity
  8
小便器用水栓
  6
CONTINUOUS
 62
     6
100
AcDbVertex
100
AcDb2dVertex
 10
1757.180633
 20
1515.691071
 30
0.0
  0
VERTEX
  5
6A7
100
AcDbEntity
  8
小便器用水栓
  6
CONTINUOUS
 62
     6
100
AcDbVertex
100
AcDb2dVertex
 10
1757.236328
 20
1516.124878
 30
0.0
  0
VERTEX
  5
6A8
100
AcDbEntity
  8
小便器用水栓
  6
CONTINUOUS
 62
     6
100
AcDbVertex
100
AcDb2dVertex
 10
1757.269898
 20
1516.565552
 30
0.0
  0
VERTEX
  5
6A9
100
AcDbEntity
  8
小便器用水栓
  6
CONTINUOUS
 62
     6
100
AcDbVertex
100
AcDb2dVertex
 10
1757.281494
 20
1517.009888
 30
0.0
  0
SEQEND
  5
6AA
100
AcDbEntity
  8
小便器用水栓
  6
CONTINUOUS
 62
     6
  0
POLYLINE
  5
6AB
100
AcDbEntity
  8
小便器用水栓
  6
CONTINUOUS
 62
     6
100
AcDb2dPolyline
 66
     1
 10
0.0
 20
0.0
 30
0.0
 70
   128
  0
VERTEX
  5
6AC
100
AcDbEntity
  8
小便器用水栓
  6
CONTINUOUS
 62
     6
100
AcDbVertex
100
AcDb2dVertex
 10
1771.700287
 20
1517.008667
 30
0.0
  0
VERTEX
  5
6AD
100
AcDbEntity
  8
小便器用水栓
  6
CONTINUOUS
 62
     6
100
AcDbVertex
100
AcDb2dVertex
 10
1771.677856
 20
1517.452545
 30
0.0
  0
VERTEX
  5
6AE
100
AcDbEntity
  8
小便器用水栓
  6
CONTINUOUS
 62
     6
100
AcDbVertex
100
AcDb2dVertex
 10
1771.61087
 20
1517.892761
 30
0.0
  0
VERTEX
  5
6AF
100
AcDbEntity
  8
小便器用水栓
  6
CONTINUOUS
 62
     6
100
AcDbVertex
100
AcDb2dVertex
 10
1771.499329
 20
1518.327179
 30
0.0
  0
VERTEX
  5
6B0
100
AcDbEntity
  8
小便器用水栓
  6
CONTINUOUS
 62
     6
100
AcDbVertex
100
AcDb2dVertex
 10
1771.344757
 20
1518.750916
 30
0.0
  0
VERTEX
  5
6B1
100
AcDbEntity
  8
小便器用水栓
  6
CONTINUOUS
 62
     6
100
AcDbVertex
100
AcDb2dVertex
 10
1771.148071
 20
1519.161682
 30
0.0
  0
VERTEX
  5
6B2
100
AcDbEntity
  8
小便器用水栓
  6
CONTINUOUS
 62
     6
100
AcDbVertex
100
AcDb2dVertex
 10
1770.91095
 20
1519.555512
 30
0.0
  0
VERTEX
  5
6B3
100
AcDbEntity
  8
小便器用水栓
  6
CONTINUOUS
 62
     6
100
AcDbVertex
100
AcDb2dVertex
 10
1770.634766
 20
1519.930267
 30
0.0
  0
VERTEX
  5
6B4
100
AcDbEntity
  8
小便器用水栓
  6
CONTINUOUS
 62
     6
100
AcDbVertex
100
AcDb2dVertex
 10
1770.321808
 20
1520.282898
 30
0.0
  0
VERTEX
  5
6B5
100
AcDbEntity
  8
小便器用水栓
  6
CONTINUOUS
 62
     6
100
AcDbVertex
100
AcDb2dVertex
 10
1769.975128
 20
1520.610199
 30
0.0
  0
VERTEX
  5
6B6
100
AcDbEntity
  8
小便器用水栓
  6
CONTINUOUS
 62
     6
100
AcDbVertex
100
AcDb2dVertex
 10
1769.596252
 20
1520.910339
 30
0.0
  0
VERTEX
  5
6B7
100
AcDbEntity
  8
小便器用水栓
  6
CONTINUOUS
 62
     6
100
AcDbVertex
100
AcDb2dVertex
 10
1769.188538
 20
1521.180878
 30
0.0
  0
VERTEX
  5
6B8
100
AcDbEntity
  8
小便器用水栓
  6
CONTINUOUS
 62
     6
100
AcDbVertex
100
AcDb2dVertex
 10
1768.755341
 20
1521.419525
 30
0.0
  0
VERTEX
  5
6B9
100
AcDbEntity
  8
小便器用水栓
  6
CONTINUOUS
 62
     6
100
AcDbVertex
100
AcDb2dVertex
 10
1768.29956
 20
1521.624603
 30
0.0
  0
VERTEX
  5
6BA
100
AcDbEntity
  8
小便器用水栓
  6
CONTINUOUS
 62
     6
100
AcDbVertex
100
AcDb2dVertex
 10
1767.825012
 20
1521.794891
 30
0.0
  0
VERTEX
  5
6BB
100
AcDbEntity
  8
小便器用水栓
  6
CONTINUOUS
 62
     6
100
AcDbVertex
100
AcDb2dVertex
 10
1767.3349
 20
1521.928253
 30
0.0
  0
VERTEX
  5
6BC
100
AcDbEntity
  8
小便器用水栓
  6
CONTINUOUS
 62
     6
100
AcDbVertex
100
AcDb2dVertex
 10
1766.833344
 20
1522.024384
 30
0.0
  0
VERTEX
  5
6BD
100
AcDbEntity
  8
小便器用水栓
  6
CONTINUOUS
 62
     6
100
AcDbVertex
100
AcDb2dVertex
 10
1766.323852
 20
1522.08252
 30
0.0
  0
VERTEX
  5
6BE
100
AcDbEntity
  8
小便器用水栓
  6
CONTINUOUS
 62
     6
100
AcDbVertex
100
AcDb2dVertex
 10
1765.810547
 20
1522.101746
 30
0.0
  0
VERTEX
  5
6BF
100
AcDbEntity
  8
小便器用水栓
  6
CONTINUOUS
 62
     6
100
AcDbVertex
100
AcDb2dVertex
 10
1765.297241
 20
1522.082367
 30
0.0
  0
VERTEX
  5
6C0
100
AcDbEntity
  8
小便器用水栓
  6
CONTINUOUS
 62
     6
100
AcDbVertex
100
AcDb2dVertex
 10
1764.787903
 20
1522.024536
 30
0.0
  0
VERTEX
  5
6C1
100
AcDbEntity
  8
小便器用水栓
  6
CONTINUOUS
 62
     6
100
AcDbVertex
100
AcDb2dVertex
 10
1764.286194
 20
1521.928253
 30
0.0
  0
VERTEX
  5
6C2
100
AcDbEntity
  8
小便器用水栓
  6
CONTINUOUS
 62
     6
100
AcDbVertex
100
AcDb2dVertex
 10
1763.796234
 20
1521.794739
 30
0.0
  0
VERTEX
  5
6C3
100
AcDbEntity
  8
小便器用水栓
  6
CONTINUOUS
 62
     6
100
AcDbVertex
100
AcDb2dVertex
 10
1763.321533
 20
1521.624756
 30
0.0
  0
VERTEX
  5
6C4
100
AcDbEntity
  8
小便器用水栓
  6
CONTINUOUS
 62
     6
100
AcDbVertex
100
AcDb2dVertex
 10
1762.865753
 20
1521.419525
 30
0.0
  0
VERTEX
  5
6C5
100
AcDbEntity
  8
小便器用水栓
  6
CONTINUOUS
 62
     6
100
AcDbVertex
100
AcDb2dVertex
 10
1762.432404
 20
1521.180878
 30
0.0
  0
VERTEX
  5
6C6
100
AcDbEntity
  8
小便器用水栓
  6
CONTINUOUS
 62
     6
100
AcDbVertex
100
AcDb2dVertex
 10
1762.024841
 20
1520.910492
 30
0.0
  0
VERTEX
  5
6C7
100
AcDbEntity
  8
小便器用水栓
  6
CONTINUOUS
 62
     6
100
AcDbVertex
100
AcDb2dVertex
 10
1761.645966
 20
1520.610199
 30
0.0
  0
VERTEX
  5
6C8
100
AcDbEntity
  8
小便器用水栓
  6
CONTINUOUS
 62
     6
100
AcDbVertex
100
AcDb2dVertex
 10
1761.298981
 20
1520.282593
 30
0.0
  0
VERTEX
  5
6C9
100
AcDbEntity
  8
小便器用水栓
  6
CONTINUOUS
 62
     6
100
AcDbVertex
100
AcDb2dVertex
 10
1760.986328
 20
1519.930267
 30
0.0
  0
VERTEX
  5
6CA
100
AcDbEntity
  8
小便器用水栓
  6
CONTINUOUS
 62
     6
100
AcDbVertex
100
AcDb2dVertex
 10
1760.709686
 20
1519.555512
 30
0.0
  0
VERTEX
  5
6CB
100
AcDbEntity
  8
小便器用水栓
  6
CONTINUOUS
 62
     6
100
AcDbVertex
100
AcDb2dVertex
 10
1760.472412
 20
1519.16153
 30
0.0
  0
VERTEX
  5
6CC
100
AcDbEntity
  8
小便器用水栓
  6
CONTINUOUS
 62
     6
100
AcDbVertex
100
AcDb2dVertex
 10
1760.275574
 20
1518.751068
 30
0.0
  0
VERTEX
  5
6CD
100
AcDbEntity
  8
小便器用水栓
  6
CONTINUOUS
 62
     6
100
AcDbVertex
100
AcDb2dVertex
 10
1760.121307
 20
1518.327179
 30
0.0
  0
VERTEX
  5
6CE
100
AcDbEntity
  8
小便器用水栓
  6
CONTINUOUS
 62
     6
100
AcDbVertex
100
AcDb2dVertex
 10
1760.010071
 20
1517.893524
 30
0.0
  0
VERTEX
  5
6CF
100
AcDbEntity
  8
小便器用水栓
  6
CONTINUOUS
 62
     6
100
AcDbVertex
100
AcDb2dVertex
 10
1759.942779
 20
1517.453156
 30
0.0
  0
VERTEX
  5
6D0
100
AcDbEntity
  8
小便器用水栓
  6
CONTINUOUS
 62
     6
100
AcDbVertex
100
AcDb2dVertex
 10
1759.920807
 20
1517.008667
 30
0.0
  0
VERTEX
  5
6D1
100
AcDbEntity
  8
小便器用水栓
  6
CONTINUOUS
 62
     6
100
AcDbVertex
100
AcDb2dVertex
 10
1759.943237
 20
1516.564789
 30
0.0
  0
VERTEX
  5
6D2
100
AcDbEntity
  8
小便器用水栓
  6
CONTINUOUS
 62
     6
100
AcDbVertex
100
AcDb2dVertex
 10
1760.010376
 20
1516.123963
 30
0.0
  0
VERTEX
  5
6D3
100
AcDbEntity
  8
小便器用水栓
  6
CONTINUOUS
 62
     6
100
AcDbVertex
100
AcDb2dVertex
 10
1760.121307
 20
1515.691071
 30
0.0
  0
VERTEX
  5
6D4
100
AcDbEntity
  8
小便器用水栓
  6
CONTINUOUS
 62
     6
100
AcDbVertex
100
AcDb2dVertex
 10
1760.275726
 20
1515.267487
 30
0.0
  0
VERTEX
  5
6D5
100
AcDbEntity
  8
小便器用水栓
  6
CONTINUOUS
 62
     6
100
AcDbVertex
100
AcDb2dVertex
 10
1760.47226
 20
1514.857178
 30
0.0
  0
VERTEX
  5
6D6
100
AcDbEntity
  8
小便器用水栓
  6
CONTINUOUS
 62
     6
100
AcDbVertex
100
AcDb2dVertex
 10
1760.709686
 20
1514.462433
 30
0.0
  0
VERTEX
  5
6D7
100
AcDbEntity
  8
小便器用水栓
  6
CONTINUOUS
 62
     6
100
AcDbVertex
100
AcDb2dVertex
 10
1760.985718
 20
1514.087677
 30
0.0
  0
VERTEX
  5
6D8
100
AcDbEntity
  8
小便器用水栓
  6
CONTINUOUS
 62
     6
100
AcDbVertex
100
AcDb2dVertex
 10
1761.29837
 20
1513.735046
 30
0.0
  0
VERTEX
  5
6D9
100
AcDbEntity
  8
小便器用水栓
  6
CONTINUOUS
 62
     6
100
AcDbVertex
100
AcDb2dVertex
 10
1761.645966
 20
1513.407593
 30
0.0
  0
VERTEX
  5
6DA
100
AcDbEntity
  8
小便器用水栓
  6
CONTINUOUS
 62
     6
100
AcDbVertex
100
AcDb2dVertex
 10
1762.024841
 20
1513.107452
 30
0.0
  0
VERTEX
  5
6DB
100
AcDbEntity
  8
小便器用水栓
  6
CONTINUOUS
 62
     6
100
AcDbVertex
100
AcDb2dVertex
 10
1762.432709
 20
1512.836914
 30
0.0
  0
VERTEX
  5
6DC
100
AcDbEntity
  8
小便器用水栓
  6
CONTINUOUS
 62
     6
100
AcDbVertex
100
AcDb2dVertex
 10
1762.865753
 20
1512.598267
 30
0.0
  0
VERTEX
  5
6DD
100
AcDbEntity
  8
小便器用水栓
  6
CONTINUOUS
 62
     6
100
AcDbVertex
100
AcDb2dVertex
 10
1763.321533
 20
1512.393189
 30
0.0
  0
VERTEX
  5
6DE
100
AcDbEntity
  8
小便器用水栓
  6
CONTINUOUS
 62
     6
100
AcDbVertex
100
AcDb2dVertex
 10
1763.796234
 20
1512.2229
 30
0.0
  0
VERTEX
  5
6DF
100
AcDbEntity
  8
小便器用水栓
  6
CONTINUOUS
 62
     6
100
AcDbVertex
100
AcDb2dVertex
 10
1764.286194
 20
1512.089691
 30
0.0
  0
VERTEX
  5
6E0
100
AcDbEntity
  8
小便器用水栓
  6
CONTINUOUS
 62
     6
100
AcDbVertex
100
AcDb2dVertex
 10
1764.787903
 20
1511.993561
 30
0.0
  0
VERTEX
  5
6E1
100
AcDbEntity
  8
小便器用水栓
  6
CONTINUOUS
 62
     6
100
AcDbVertex
100
AcDb2dVertex
 10
1765.297394
 20
1511.935425
 30
0.0
  0
VERTEX
  5
6E2
100
AcDbEntity
  8
小便器用水栓
  6
CONTINUOUS
 62
     6
100
AcDbVertex
100
AcDb2dVertex
 10
1765.810547
 20
1511.916046
 30
0.0
  0
VERTEX
  5
6E3
100
AcDbEntity
  8
小便器用水栓
  6
CONTINUOUS
 62
     6
100
AcDbVertex
100
AcDb2dVertex
 10
1766.323852
 20
1511.935425
 30
0.0
  0
VERTEX
  5
6E4
100
AcDbEntity
  8
小便器用水栓
  6
CONTINUOUS
 62
     6
100
AcDbVertex
100
AcDb2dVertex
 10
1766.833344
 20
1511.993256
 30
0.0
  0
VERTEX
  5
6E5
100
AcDbEntity
  8
小便器用水栓
  6
CONTINUOUS
 62
     6
100
AcDbVertex
100
AcDb2dVertex
 10
1767.3349
 20
1512.089691
 30
0.0
  0
VERTEX
  5
6E6
100
AcDbEntity
  8
小便器用水栓
  6
CONTINUOUS
 62
     6
100
AcDbVertex
100
AcDb2dVertex
 10
1767.82486
 20
1512.223206
 30
0.0
  0
VERTEX
  5
6E7
100
AcDbEntity
  8
小便器用水栓
  6
CONTINUOUS
 62
     6
100
AcDbVertex
100
AcDb2dVertex
 10
1768.29956
 20
1512.393189
 30
0.0
  0
SEQEND
  5
6E8
100
AcDbEntity
  8
小便器用水栓
  6
CONTINUOUS
 62
     6
  0
POLYLINE
  5
6E9
100
AcDbEntity
  8
小便器用水栓
  6
CONTINUOUS
 62
     6
100
AcDb2dPolyline
 66
     1
 10
0.0
 20
0.0
 30
0.0
 70
   128
  0
VERTEX
  5
6EA
100
AcDbEntity
  8
小便器用水栓
  6
CONTINUOUS
 62
     6
100
AcDbVertex
100
AcDb2dVertex
 10
1768.29956
 20
1512.393189
 30
0.0
  0
VERTEX
  5
6EB
100
AcDbEntity
  8
小便器用水栓
  6
CONTINUOUS
 62
     6
100
AcDbVertex
100
AcDb2dVertex
 10
1768.755341
 20
1512.598267
 30
0.0
  0
VERTEX
  5
6EC
100
AcDbEntity
  8
小便器用水栓
  6
CONTINUOUS
 62
     6
100
AcDbVertex
100
AcDb2dVertex
 10
1769.18869
 20
1512.836914
 30
0.0
  0
VERTEX
  5
6ED
100
AcDbEntity
  8
小便器用水栓
  6
CONTINUOUS
 62
     6
100
AcDbVertex
100
AcDb2dVertex
 10
1769.596405
 20
1513.1073
 30
0.0
  0
VERTEX
  5
6EE
100
AcDbEntity
  8
小便器用水栓
  6
CONTINUOUS
 62
     6
100
AcDbVertex
100
AcDb2dVertex
 10
1769.975128
 20
1513.407593
 30
0.0
  0
VERTEX
  5
6EF
100
AcDbEntity
  8
小便器用水栓
  6
CONTINUOUS
 62
     6
100
AcDbVertex
100
AcDb2dVertex
 10
1770.322266
 20
1513.735199
 30
0.0
  0
VERTEX
  5
6F0
100
AcDbEntity
  8
小便器用水栓
  6
CONTINUOUS
 62
     6
100
AcDbVertex
100
AcDb2dVertex
 10
1770.634918
 20
1514.087525
 30
0.0
  0
VERTEX
  5
6F1
100
AcDbEntity
  8
小便器用水栓
  6
CONTINUOUS
 62
     6
100
AcDbVertex
100
AcDb2dVertex
 10
1770.91095
 20
1514.462433
 30
0.0
  0
VERTEX
  5
6F2
100
AcDbEntity
  8
小便器用水栓
  6
CONTINUOUS
 62
     6
100
AcDbVertex
100
AcDb2dVertex
 10
1771.148071
 20
1514.856415
 30
0.0
  0
VERTEX
  5
6F3
100
AcDbEntity
  8
小便器用水栓
  6
CONTINUOUS
 62
     6
100
AcDbVertex
100
AcDb2dVertex
 10
1771.344605
 20
1515.266876
 30
0.0
  0
VERTEX
  5
6F4
100
AcDbEntity
  8
小便器用水栓
  6
CONTINUOUS
 62
     6
100
AcDbVertex
100
AcDb2dVertex
 10
1771.499329
 20
1515.691071
 30
0.0
  0
SEQEND
  5
6F5
100
AcDbEntity
  8
小便器用水栓
  6
CONTINUOUS
 62
     6
  0
POLYLINE
  5
6F6
100
AcDbEntity
  8
小便器用水栓
  6
CONTINUOUS
 62
     6
100
AcDb2dPolyline
 66
     1
 10
0.0
 20
0.0
 30
0.0
 70
   128
  0
VERTEX
  5
6F7
100
AcDbEntity
  8
小便器用水栓
  6
CONTINUOUS
 62
     6
100
AcDbVertex
100
AcDb2dVertex
 10
1771.499329
 20
1515.691071
 30
0.0
  0
VERTEX
  5
6F8
100
AcDbEntity
  8
小便器用水栓
  6
CONTINUOUS
 62
     6
100
AcDbVertex
100
AcDb2dVertex
 10
1771.610413
 20
1516.124878
 30
0.0
  0
VERTEX
  5
6F9
100
AcDbEntity
  8
小便器用水栓
  6
CONTINUOUS
 62
     6
100
AcDbVertex
100
AcDb2dVertex
 10
1771.677399
 20
1516.565552
 30
0.0
  0
VERTEX
  5
6FA
100
AcDbEntity
  8
小便器用水栓
  6
CONTINUOUS
 62
     6
100
AcDbVertex
100
AcDb2dVertex
 10
1771.699676
 20
1517.009888
 30
0.0
  0
SEQEND
  5
6FB
100
AcDbEntity
  8
小便器用水栓
  6
CONTINUOUS
 62
     6
  0
POLYLINE
  5
6FC
100
AcDbEntity
  8
小便器用水栓
  6
CONTINUOUS
 62
     6
100
AcDb2dPolyline
 66
     1
 10
0.0
 20
0.0
 30
0.0
 70
   128
  0
VERTEX
  5
6FD
100
AcDbEntity
  8
小便器用水栓
  6
CONTINUOUS
 62
     6
100
AcDbVertex
100
AcDb2dVertex
 10
1780.230102
 20
1517.008667
 30
0.0
  0
VERTEX
  5
6FE
100
AcDbEntity
  8
小便器用水栓
  6
CONTINUOUS
 62
     6
100
AcDbVertex
100
AcDb2dVertex
 10
1780.218811
 20
1517.452545
 30
0.0
  0
VERTEX
  5
6FF
100
AcDbEntity
  8
小便器用水栓
  6
CONTINUOUS
 62
     6
100
AcDbVertex
100
AcDb2dVertex
 10
1780.185394
 20
1517.892761
 30
0.0
  0
VERTEX
  5
700
100
AcDbEntity
  8
小便器用水栓
  6
CONTINUOUS
 62
     6
100
AcDbVertex
100
AcDb2dVertex
 10
1780.130005
 20
1518.327179
 30
0.0
  0
VERTEX
  5
701
100
AcDbEntity
  8
小便器用水栓
  6
CONTINUOUS
 62
     6
100
AcDbVertex
100
AcDb2dVertex
 10
1780.052795
 20
1518.750916
 30
0.0
  0
VERTEX
  5
702
100
AcDbEntity
  8
小便器用水栓
  6
CONTINUOUS
 62
     6
100
AcDbVertex
100
AcDb2dVertex
 10
1779.954529
 20
1519.161682
 30
0.0
  0
VERTEX
  5
703
100
AcDbEntity
  8
小便器用水栓
  6
CONTINUOUS
 62
     6
100
AcDbVertex
100
AcDb2dVertex
 10
1779.83551
 20
1519.555512
 30
0.0
  0
VERTEX
  5
704
100
AcDbEntity
  8
小便器用水栓
  6
CONTINUOUS
 62
     6
100
AcDbVertex
100
AcDb2dVertex
 10
1779.697418
 20
1519.930267
 30
0.0
  0
VERTEX
  5
705
100
AcDbEntity
  8
小便器用水栓
  6
CONTINUOUS
 62
     6
100
AcDbVertex
100
AcDb2dVertex
 10
1779.541016
 20
1520.282898
 30
0.0
  0
VERTEX
  5
706
100
AcDbEntity
  8
小便器用水栓
  6
CONTINUOUS
 62
     6
100
AcDbVertex
100
AcDb2dVertex
 10
1779.367828
 20
1520.610199
 30
0.0
  0
VERTEX
  5
707
100
AcDbEntity
  8
小便器用水栓
  6
CONTINUOUS
 62
     6
100
AcDbVertex
100
AcDb2dVertex
 10
1779.178467
 20
1520.910339
 30
0.0
  0
VERTEX
  5
708
100
AcDbEntity
  8
小便器用水栓
  6
CONTINUOUS
 62
     6
100
AcDbVertex
100
AcDb2dVertex
 10
1778.974762
 20
1521.180878
 30
0.0
  0
VERTEX
  5
709
100
AcDbEntity
  8
小便器用水栓
  6
CONTINUOUS
 62
     6
100
AcDbVertex
100
AcDb2dVertex
 10
1778.757935
 20
1521.419525
 30
0.0
  0
VERTEX
  5
70A
100
AcDbEntity
  8
小便器用水栓
  6
CONTINUOUS
 62
     6
100
AcDbVertex
100
AcDb2dVertex
 10
1778.530121
 20
1521.624603
 30
0.0
  0
VERTEX
  5
70B
100
AcDbEntity
  8
小便器用水栓
  6
CONTINUOUS
 62
     6
100
AcDbVertex
100
AcDb2dVertex
 10
1778.292999
 20
1521.794891
 30
0.0
  0
VERTEX
  5
70C
100
AcDbEntity
  8
小便器用水栓
  6
CONTINUOUS
 62
     6
100
AcDbVertex
100
AcDb2dVertex
 10
1778.047485
 20
1521.928253
 30
0.0
  0
VERTEX
  5
70D
100
AcDbEntity
  8
小便器用水栓
  6
CONTINUOUS
 62
     6
100
AcDbVertex
100
AcDb2dVertex
 10
1777.796631
 20
1522.024384
 30
0.0
  0
VERTEX
  5
70E
100
AcDbEntity
  8
小便器用水栓
  6
CONTINUOUS
 62
     6
100
AcDbVertex
100
AcDb2dVertex
 10
1777.541962
 20
1522.08252
 30
0.0
  0
VERTEX
  5
70F
100
AcDbEntity
  8
小便器用水栓
  6
CONTINUOUS
 62
     6
100
AcDbVertex
100
AcDb2dVertex
 10
1777.285461
 20
1522.101746
 30
0.0
  0
VERTEX
  5
710
100
AcDbEntity
  8
小便器用水栓
  6
CONTINUOUS
 62
     6
100
AcDbVertex
100
AcDb2dVertex
 10
1777.028809
 20
1522.082367
 30
0.0
  0
VERTEX
  5
711
100
AcDbEntity
  8
小便器用水栓
  6
CONTINUOUS
 62
     6
100
AcDbVertex
100
AcDb2dVertex
 10
1776.774139
 20
1522.024536
 30
0.0
  0
VERTEX
  5
712
100
AcDbEntity
  8
小便器用水栓
  6
CONTINUOUS
 62
     6
100
AcDbVertex
100
AcDb2dVertex
 10
1776.523285
 20
1521.928253
 30
0.0
  0
VERTEX
  5
713
100
AcDbEntity
  8
小便器用水栓
  6
CONTINUOUS
 62
     6
100
AcDbVertex
100
AcDb2dVertex
 10
1776.278229
 20
1521.794739
 30
0.0
  0
VERTEX
  5
714
100
AcDbEntity
  8
小便器用水栓
  6
CONTINUOUS
 62
     6
100
AcDbVertex
100
AcDb2dVertex
 10
1776.040955
 20
1521.624756
 30
0.0
  0
VERTEX
  5
715
100
AcDbEntity
  8
小便器用水栓
  6
CONTINUOUS
 62
     6
100
AcDbVertex
100
AcDb2dVertex
 10
1775.813141
 20
1521.419525
 30
0.0
  0
VERTEX
  5
716
100
AcDbEntity
  8
小便器用水栓
  6
CONTINUOUS
 62
     6
100
AcDbVertex
100
AcDb2dVertex
 10
1775.596466
 20
1521.180878
 30
0.0
  0
VERTEX
  5
717
100
AcDbEntity
  8
小便器用水栓
  6
CONTINUOUS
 62
     6
100
AcDbVertex
100
AcDb2dVertex
 10
1775.392914
 20
1520.910492
 30
0.0
  0
VERTEX
  5
718
100
AcDbEntity
  8
小便器用水栓
  6
CONTINUOUS
 62
     6
100
AcDbVertex
100
AcDb2dVertex
 10
1775.2034
 20
1520.610199
 30
0.0
  0
VERTEX
  5
719
100
AcDbEntity
  8
小便器用水栓
  6
CONTINUOUS
 62
     6
100
AcDbVertex
100
AcDb2dVertex
 10
1775.029907
 20
1520.282593
 30
0.0
  0
VERTEX
  5
71A
100
AcDbEntity
  8
小便器用水栓
  6
CONTINUOUS
 62
     6
100
AcDbVertex
100
AcDb2dVertex
 10
1774.873657
 20
1519.930267
 30
0.0
  0
VERTEX
  5
71B
100
AcDbEntity
  8
小便器用水栓
  6
CONTINUOUS
 62
     6
100
AcDbVertex
100
AcDb2dVertex
 10
1774.73526
 20
1519.555512
 30
0.0
  0
VERTEX
  5
71C
100
AcDbEntity
  8
小便器用水栓
  6
CONTINUOUS
 62
     6
100
AcDbVertex
100
AcDb2dVertex
 10
1774.616699
 20
1519.16153
 30
0.0
  0
VERTEX
  5
71D
100
AcDbEntity
  8
小便器用水栓
  6
CONTINUOUS
 62
     6
100
AcDbVertex
100
AcDb2dVertex
 10
1774.518433
 20
1518.751068
 30
0.0
  0
VERTEX
  5
71E
100
AcDbEntity
  8
小便器用水栓
  6
CONTINUOUS
 62
     6
100
AcDbVertex
100
AcDb2dVertex
 10
1774.441223
 20
1518.327179
 30
0.0
  0
VERTEX
  5
71F
100
AcDbEntity
  8
小便器用水栓
  6
CONTINUOUS
 62
     6
100
AcDbVertex
100
AcDb2dVertex
 10
1774.385681
 20
1517.893524
 30
0.0
  0
VERTEX
  5
720
100
AcDbEntity
  8
小便器用水栓
  6
CONTINUOUS
 62
     6
100
AcDbVertex
100
AcDb2dVertex
 10
1774.352417
 20
1517.453156
 30
0.0
  0
VERTEX
  5
721
100
AcDbEntity
  8
小便器用水栓
  6
CONTINUOUS
 62
     6
100
AcDbVertex
100
AcDb2dVertex
 10
1774.340515
 20
1517.008667
 30
0.0
  0
VERTEX
  5
722
100
AcDbEntity
  8
小便器用水栓
  6
CONTINUOUS
 62
     6
100
AcDbVertex
100
AcDb2dVertex
 10
1774.351654
 20
1516.564789
 30
0.0
  0
VERTEX
  5
723
100
AcDbEntity
  8
小便器用水栓
  6
CONTINUOUS
 62
     6
100
AcDbVertex
100
AcDb2dVertex
 10
1774.385071
 20
1516.123963
 30
0.0
  0
VERTEX
  5
724
100
AcDbEntity
  8
小便器用水栓
  6
CONTINUOUS
 62
     6
100
AcDbVertex
100
AcDb2dVertex
 10
1774.441223
 20
1515.691071
 30
0.0
  0
VERTEX
  5
725
100
AcDbEntity
  8
小便器用水栓
  6
CONTINUOUS
 62
     6
100
AcDbVertex
100
AcDb2dVertex
 10
1774.518585
 20
1515.267487
 30
0.0
  0
VERTEX
  5
726
100
AcDbEntity
  8
小便器用水栓
  6
CONTINUOUS
 62
     6
100
AcDbVertex
100
AcDb2dVertex
 10
1774.617004
 20
1514.857178
 30
0.0
  0
VERTEX
  5
727
100
AcDbEntity
  8
小便器用水栓
  6
CONTINUOUS
 62
     6
100
AcDbVertex
100
AcDb2dVertex
 10
1774.73526
 20
1514.462433
 30
0.0
  0
VERTEX
  5
728
100
AcDbEntity
  8
小便器用水栓
  6
CONTINUOUS
 62
     6
100
AcDbVertex
100
AcDb2dVertex
 10
1774.873352
 20
1514.087677
 30
0.0
  0
VERTEX
  5
729
100
AcDbEntity
  8
小便器用水栓
  6
CONTINUOUS
 62
     6
100
AcDbVertex
100
AcDb2dVertex
 10
1775.029755
 20
1513.735046
 30
0.0
  0
VERTEX
  5
72A
100
AcDbEntity
  8
小便器用水栓
  6
CONTINUOUS
 62
     6
100
AcDbVertex
100
AcDb2dVertex
 10
1775.2034
 20
1513.407593
 30
0.0
  0
VERTEX
  5
72B
100
AcDbEntity
  8
小便器用水栓
  6
CONTINUOUS
 62
     6
100
AcDbVertex
100
AcDb2dVertex
 10
1775.392914
 20
1513.107452
 30
0.0
  0
VERTEX
  5
72C
100
AcDbEntity
  8
小便器用水栓
  6
CONTINUOUS
 62
     6
100
AcDbVertex
100
AcDb2dVertex
 10
1775.596924
 20
1512.836914
 30
0.0
  0
VERTEX
  5
72D
100
AcDbEntity
  8
小便器用水栓
  6
CONTINUOUS
 62
     6
100
AcDbVertex
100
AcDb2dVertex
 10
1775.813141
 20
1512.598267
 30
0.0
  0
VERTEX
  5
72E
100
AcDbEntity
  8
小便器用水栓
  6
CONTINUOUS
 62
     6
100
AcDbVertex
100
AcDb2dVertex
 10
1776.041107
 20
1512.393189
 30
0.0
  0
VERTEX
  5
72F
100
AcDbEntity
  8
小便器用水栓
  6
CONTINUOUS
 62
     6
100
AcDbVertex
100
AcDb2dVertex
 10
1776.278534
 20
1512.2229
 30
0.0
  0
VERTEX
  5
730
100
AcDbEntity
  8
小便器用水栓
  6
CONTINUOUS
 62
     6
100
AcDbVertex
100
AcDb2dVertex
 10
1776.523285
 20
1512.089691
 30
0.0
  0
VERTEX
  5
731
100
AcDbEntity
  8
小便器用水栓
  6
CONTINUOUS
 62
     6
100
AcDbVertex
100
AcDb2dVertex
 10
1776.774139
 20
1511.993561
 30
0.0
  0
VERTEX
  5
732
100
AcDbEntity
  8
小便器用水栓
  6
CONTINUOUS
 62
     6
100
AcDbVertex
100
AcDb2dVertex
 10
1777.028656
 20
1511.935425
 30
0.0
  0
VERTEX
  5
733
100
AcDbEntity
  8
小便器用水栓
  6
CONTINUOUS
 62
     6
100
AcDbVertex
100
AcDb2dVertex
 10
1777.285461
 20
1511.916046
 30
0.0
  0
VERTEX
  5
734
100
AcDbEntity
  8
小便器用水栓
  6
CONTINUOUS
 62
     6
100
AcDbVertex
100
AcDb2dVertex
 10
1777.542114
 20
1511.935425
 30
0.0
  0
VERTEX
  5
735
100
AcDbEntity
  8
小便器用水栓
  6
CONTINUOUS
 62
     6
100
AcDbVertex
100
AcDb2dVertex
 10
1777.796783
 20
1511.993256
 30
0.0
  0
VERTEX
  5
736
100
AcDbEntity
  8
小便器用水栓
  6
CONTINUOUS
 62
     6
100
AcDbVertex
100
AcDb2dVertex
 10
1778.047485
 20
1512.089691
 30
0.0
  0
VERTEX
  5
737
100
AcDbEntity
  8
小便器用水栓
  6
CONTINUOUS
 62
     6
100
AcDbVertex
100
AcDb2dVertex
 10
1778.292389
 20
1512.223206
 30
0.0
  0
VERTEX
  5
738
100
AcDbEntity
  8
小便器用水栓
  6
CONTINUOUS
 62
     6
100
AcDbVertex
100
AcDb2dVertex
 10
1778.529816
 20
1512.393189
 30
0.0
  0
SEQEND
  5
739
100
AcDbEntity
  8
小便器用水栓
  6
CONTINUOUS
 62
     6
  0
POLYLINE
  5
73A
100
AcDbEntity
  8
小便器用水栓
  6
CONTINUOUS
 62
     6
100
AcDb2dPolyline
 66
     1
 10
0.0
 20
0.0
 30
0.0
 70
   128
  0
VERTEX
  5
73B
100
AcDbEntity
  8
小便器用水栓
  6
CONTINUOUS
 62
     6
100
AcDbVertex
100
AcDb2dVertex
 10
1778.529816
 20
1512.393189
 30
0.0
  0
VERTEX
  5
73C
100
AcDbEntity
  8
小便器用水栓
  6
CONTINUOUS
 62
     6
100
AcDbVertex
100
AcDb2dVertex
 10
1778.757935
 20
1512.598267
 30
0.0
  0
VERTEX
  5
73D
100
AcDbEntity
  8
小便器用水栓
  6
CONTINUOUS
 62
     6
100
AcDbVertex
100
AcDb2dVertex
 10
1778.974609
 20
1512.836914
 30
0.0
  0
VERTEX
  5
73E
100
AcDbEntity
  8
小便器用水栓
  6
CONTINUOUS
 62
     6
100
AcDbVertex
100
AcDb2dVertex
 10
1779.178619
 20
1513.1073
 30
0.0
  0
VERTEX
  5
73F
100
AcDbEntity
  8
小便器用水栓
  6
CONTINUOUS
 62
     6
100
AcDbVertex
100
AcDb2dVertex
 10
1779.367828
 20
1513.407593
 30
0.0
  0
VERTEX
  5
740
100
AcDbEntity
  8
小便器用水栓
  6
CONTINUOUS
 62
     6
100
AcDbVertex
100
AcDb2dVertex
 10
1779.541473
 20
1513.735199
 30
0.0
  0
VERTEX
  5
741
100
AcDbEntity
  8
小便器用水栓
  6
CONTINUOUS
 62
     6
100
AcDbVertex
100
AcDb2dVertex
 10
1779.697876
 20
1514.087525
 30
0.0
  0
VERTEX
  5
742
100
AcDbEntity
  8
小便器用水栓
  6
CONTINUOUS
 62
     6
100
AcDbVertex
100
AcDb2dVertex
 10
1779.83551
 20
1514.462433
 30
0.0
  0
VERTEX
  5
743
100
AcDbEntity
  8
小便器用水栓
  6
CONTINUOUS
 62
     6
100
AcDbVertex
100
AcDb2dVertex
 10
1779.954071
 20
1514.856415
 30
0.0
  0
VERTEX
  5
744
100
AcDbEntity
  8
小便器用水栓
  6
CONTINUOUS
 62
     6
100
AcDbVertex
100
AcDb2dVertex
 10
1780.052338
 20
1515.266876
 30
0.0
  0
VERTEX
  5
745
100
AcDbEntity
  8
小便器用水栓
  6
CONTINUOUS
 62
     6
100
AcDbVertex
100
AcDb2dVertex
 10
1780.130005
 20
1515.691071
 30
0.0
  0
SEQEND
  5
746
100
AcDbEntity
  8
小便器用水栓
  6
CONTINUOUS
 62
     6
  0
POLYLINE
  5
747
100
AcDbEntity
  8
小便器用水栓
  6
CONTINUOUS
 62
     6
100
AcDb2dPolyline
 66
     1
 10
0.0
 20
0.0
 30
0.0
 70
   128
  0
VERTEX
  5
748
100
AcDbEntity
  8
小便器用水栓
  6
CONTINUOUS
 62
     6
100
AcDbVertex
100
AcDb2dVertex
 10
1780.130005
 20
1515.691071
 30
0.0
  0
VERTEX
  5
749
100
AcDbEntity
  8
小便器用水栓
  6
CONTINUOUS
 62
     6
100
AcDbVertex
100
AcDb2dVertex
 10
1780.185547
 20
1516.124878
 30
0.0
  0
VERTEX
  5
74A
100
AcDbEntity
  8
小便器用水栓
  6
CONTINUOUS
 62
     6
100
AcDbVertex
100
AcDb2dVertex
 10
1780.219269
 20
1516.565552
 30
0.0
  0
VERTEX
  5
74B
100
AcDbEntity
  8
小便器用水栓
  6
CONTINUOUS
 62
     6
100
AcDbVertex
100
AcDb2dVertex
 10
1780.230713
 20
1517.009888
 30
0.0
  0
SEQEND
  5
74C
100
AcDbEntity
  8
小便器用水栓
  6
CONTINUOUS
 62
     6
  0
ARC
  5
74D
100
AcDbEntity
  8
小便器用水栓
  6
CONTINUOUS
 62
     6
100
AcDbCircle
 10
1765.810394
 20
1508.008728
 30
0.0
 40
49.999962
100
AcDbArc
 50
74.642487
 51
101.478622
  0
ARC
  5
74E
100
AcDbEntity
  8
小便器用水栓
  6
CONTINUOUS
 62
     6
100
AcDbCircle
 10
1783.310394
 20
1529.008179
 30
0.0
 40
5.500031
100
AcDbArc
 50
89.999969
 51
180.000015
  0
ARC
  5
74F
100
AcDbEntity
  8
小便器用水栓
  6
CONTINUOUS
 62
     6
100
AcDbCircle
 10
1748.310394
 20
1527.508698
 30
0.0
 40
5.500031
100
AcDbArc
 50
0.0
 51
89.999969
  0
LINE
  5
750
100
AcDbEntity
  8
小便器用水栓
  6
CONTINUOUS
 62
     6
100
AcDbLine
 10
1777.810364
 20
1523.008881
 30
0.0
 11
1777.810364
 21
1529.008179
 31
0.0
  0
LINE
  5
751
100
AcDbEntity
  8
小便器用水栓
  6
CONTINUOUS
 62
     6
100
AcDbLine
 10
1753.810425
 20
1523.008881
 30
0.0
 11
1753.810425
 21
1527.508698
 31
0.0
  0
LINE
  5
752
100
AcDbEntity
  8
小便器用水栓
  6
CONTINUOUS
 62
     6
100
AcDbLine
 10
1746.310425
 20
1533.008728
 30
0.0
 11
1748.310394
 21
1533.008728
 31
0.0
  0
LINE
  5
753
100
AcDbEntity
  8
小便器用水栓
  6
CONTINUOUS
 62
     6
100
AcDbLine
 10
1746.310425
 20
1557.008667
 30
0.0
 11
1755.860291
 21
1557.008667
 31
0.0
  0
LINE
  5
754
100
AcDbEntity
  8
小便器用水栓
  6
CONTINUOUS
 62
     6
100
AcDbLine
 10
1746.310425
 20
1532.258759
 30
0.0
 11
1746.310425
 21
1557.758637
 31
0.0
  0
LINE
  5
755
100
AcDbEntity
  8
小便器用水栓
  6
CONTINUOUS
 62
     6
100
AcDbLine
 10
1733.410492
 20
1550.308533
 30
0.0
 11
1737.910614
 21
1556.735382
 31
0.0
  0
LINE
  5
756
100
AcDbEntity
  8
小便器用水栓
  6
CONTINUOUS
 62
     6
100
AcDbLine
 10
1733.410492
 20
1539.70871
 30
0.0
 11
1733.410492
 21
1550.308533
 31
0.0
  0
LINE
  5
757
100
AcDbEntity
  8
小便器用水栓
  6
CONTINUOUS
 62
     6
100
AcDbLine
 10
1733.410492
 20
1539.70871
 30
0.0
 11
1737.910767
 21
1533.281555
 31
0.0
  0
LINE
  5
758
100
AcDbEntity
  8
小便器用水栓
  6
CONTINUOUS
 62
     6
100
AcDbLine
 10
1737.910767
 20
1533.281555
 30
0.0
 11
1737.910767
 21
1556.735535
 31
0.0
  0
ARC
  5
759
100
AcDbEntity
  8
小便器用水栓
  6
CONTINUOUS
 62
     6
100
AcDbCircle
 10
1742.5354
 20
1553.758698
 30
0.0
 40
5.500029
100
AcDbArc
 50
46.656998
 51
50.59964
  0
ARC
  5
75A
100
AcDbEntity
  8
小便器用水栓
  6
CONTINUOUS
 62
     6
100
AcDbCircle
 10
1742.5354
 20
1553.758698
 30
0.0
 40
5.500022
100
AcDbArc
 50
129.400391
 51
147.233185
  0
ARC
  5
75B
100
AcDbEntity
  8
小便器用水栓
  6
CONTINUOUS
 62
     6
100
AcDbCircle
 10
1742.5354
 20
1536.258698
 30
0.0
 40
5.500056
100
AcDbArc
 50
212.771667
 51
230.599609
  0
ARC
  5
75C
100
AcDbEntity
  8
小便器用水栓
  6
CONTINUOUS
 62
     6
100
AcDbCircle
 10
1742.5354
 20
1536.258698
 30
0.0
 40
5.500022
100
AcDbArc
 50
309.40036
 51
313.343002
  0
LINE
  5
75D
100
AcDbEntity
  8
小便器用水栓
  6
CONTINUOUS
 62
     6
100
AcDbLine
 10
1739.044342
 20
1532.008667
 30
0.0
 11
1746.026459
 21
1532.008667
 31
0.0
  0
LINE
  5
75E
100
AcDbEntity
  8
小便器用水栓
  6
CONTINUOUS
 62
     6
100
AcDbLine
 10
1739.044342
 20
1558.008728
 30
0.0
 11
1746.026459
 21
1558.008728
 31
0.0
  0
POLYLINE
  5
75F
100
AcDbEntity
  8
小便器用水栓
  6
CONTINUOUS
 62
     6
100
AcDb2dPolyline
 66
     1
 10
0.0
 20
0.0
 30
0.0
 70
   128
  0
VERTEX
  5
760
100
AcDbEntity
  8
小便器用水栓
  6
CONTINUOUS
 62
     6
100
AcDbVertex
100
AcDb2dVertex
 10
1746.026459
 20
1551.508789
 30
0.0
  0
VERTEX
  5
761
100
AcDbEntity
  8
小便器用水栓
  6
CONTINUOUS
 62
     6
100
AcDbVertex
100
AcDb2dVertex
 10
1746.013184
 20
1551.94931
 30
0.0
  0
VERTEX
  5
762
100
AcDbEntity
  8
小便器用水栓
  6
CONTINUOUS
 62
     6
100
AcDbVertex
100
AcDb2dVertex
 10
1745.973358
 20
1552.386627
 30
0.0
  0
VERTEX
  5
763
100
AcDbEntity
  8
小便器用水栓
  6
CONTINUOUS
 62
     6
100
AcDbVertex
100
AcDb2dVertex
 10
1745.907593
 20
1552.816925
 30
0.0
  0
VERTEX
  5
764
100
AcDbEntity
  8
小便器用水栓
  6
CONTINUOUS
 62
     6
100
AcDbVertex
100
AcDb2dVertex
 10
1745.81604
 20
1553.237457
 30
0.0
  0
VERTEX
  5
765
100
AcDbEntity
  8
小便器用水栓
  6
CONTINUOUS
 62
     6
100
AcDbVertex
100
AcDb2dVertex
 10
1745.699463
 20
1553.644867
 30
0.0
  0
VERTEX
  5
766
100
AcDbEntity
  8
小便器用水栓
  6
CONTINUOUS
 62
     6
100
AcDbVertex
100
AcDb2dVertex
 10
1745.558929
 20
1554.036255
 30
0.0
  0
VERTEX
  5
767
100
AcDbEntity
  8
小便器用水栓
  6
CONTINUOUS
 62
     6
100
AcDbVertex
100
AcDb2dVertex
 10
1745.395355
 20
1554.408112
 30
0.0
  0
VERTEX
  5
768
100
AcDbEntity
  8
小便器用水栓
  6
CONTINUOUS
 62
     6
100
AcDbVertex
100
AcDb2dVertex
 10
1745.209961
 20
1554.758148
 30
0.0
  0
VERTEX
  5
769
100
AcDbEntity
  8
小便器用水栓
  6
CONTINUOUS
 62
     6
100
AcDbVertex
100
AcDb2dVertex
 10
1745.00412
 20
1555.082703
 30
0.0
  0
VERTEX
  5
76A
100
AcDbEntity
  8
小便器用水栓
  6
CONTINUOUS
 62
     6
100
AcDbVertex
100
AcDb2dVertex
 10
1744.779663
 20
1555.380554
 30
0.0
  0
VERTEX
  5
76B
100
AcDbEntity
  8
小便器用水栓
  6
CONTINUOUS
 62
     6
100
AcDbVertex
100
AcDb2dVertex
 10
1744.538117
 20
1555.648804
 30
0.0
  0
VERTEX
  5
76C
100
AcDbEntity
  8
小便器用水栓
  6
CONTINUOUS
 62
     6
100
AcDbVertex
100
AcDb2dVertex
 10
1744.281006
 20
1555.886078
 30
0.0
  0
VERTEX
  5
76D
100
AcDbEntity
  8
小便器用水栓
  6
CONTINUOUS
 62
     6
100
AcDbVertex
100
AcDb2dVertex
 10
1744.010773
 20
1556.08963
 30
0.0
  0
VERTEX
  5
76E
100
AcDbEntity
  8
小便器用水栓
  6
CONTINUOUS
 62
     6
100
AcDbVertex
100
AcDb2dVertex
 10
1743.729401
 20
1556.25824
 30
0.0
  0
VERTEX
  5
76F
100
AcDbEntity
  8
小便器用水栓
  6
CONTINUOUS
 62
     6
100
AcDbVertex
100
AcDb2dVertex
 10
1743.439026
 20
1556.390839
 30
0.0
  0
VERTEX
  5
770
100
AcDbEntity
  8
小便器用水栓
  6
CONTINUOUS
 62
     6
100
AcDbVertex
100
AcDb2dVertex
 10
1743.141632
 20
1556.486206
 30
0.0
  0
VERTEX
  5
771
100
AcDbEntity
  8
小便器用水栓
  6
CONTINUOUS
 62
     6
100
AcDbVertex
100
AcDb2dVertex
 10
1742.839661
 20
1556.543579
 30
0.0
  0
VERTEX
  5
772
100
AcDbEntity
  8
小便器用水栓
  6
CONTINUOUS
 62
     6
100
AcDbVertex
100
AcDb2dVertex
 10
1742.535553
 20
1556.56311
 30
0.0
  0
VERTEX
  5
773
100
AcDbEntity
  8
小便器用水栓
  6
CONTINUOUS
 62
     6
100
AcDbVertex
100
AcDb2dVertex
 10
1742.231293
 20
1556.543732
 30
0.0
  0
VERTEX
  5
774
100
AcDbEntity
  8
小便器用水栓
  6
CONTINUOUS
 62
     6
100
AcDbVertex
100
AcDb2dVertex
 10
1741.929321
 20
1556.486054
 30
0.0
  0
VERTEX
  5
775
100
AcDbEntity
  8
小便器用水栓
  6
CONTINUOUS
 62
     6
100
AcDbVertex
100
AcDb2dVertex
 10
1741.63208
 20
1556.390839
 30
0.0
  0
VERTEX
  5
776
100
AcDbEntity
  8
小便器用水栓
  6
CONTINUOUS
 62
     6
100
AcDbVertex
100
AcDb2dVertex
 10
1741.341705
 20
1556.258087
 30
0.0
  0
VERTEX
  5
777
100
AcDbEntity
  8
小便器用水栓
  6
CONTINUOUS
 62
     6
100
AcDbVertex
100
AcDb2dVertex
 10
1741.060333
 20
1556.089172
 30
0.0
  0
VERTEX
  5
778
100
AcDbEntity
  8
小便器用水栓
  6
CONTINUOUS
 62
     6
100
AcDbVertex
100
AcDb2dVertex
 10
1740.789947
 20
1555.886078
 30
0.0
  0
VERTEX
  5
779
100
AcDbEntity
  8
小便器用水栓
  6
CONTINUOUS
 62
     6
100
AcDbVertex
100
AcDb2dVertex
 10
1740.533142
 20
1555.649109
 30
0.0
  0
VERTEX
  5
77A
100
AcDbEntity
  8
小便器用水栓
  6
CONTINUOUS
 62
     6
100
AcDbVertex
100
AcDb2dVertex
 10
1740.291596
 20
1555.380554
 30
0.0
  0
VERTEX
  5
77B
100
AcDbEntity
  8
小便器用水栓
  6
CONTINUOUS
 62
     6
100
AcDbVertex
100
AcDb2dVertex
 10
1740.066834
 20
1555.082703
 30
0.0
  0
VERTEX
  5
77C
100
AcDbEntity
  8
小便器用水栓
  6
CONTINUOUS
 62
     6
100
AcDbVertex
100
AcDb2dVertex
 10
1739.861145
 20
1554.757538
 30
0.0
  0
VERTEX
  5
77D
100
AcDbEntity
  8
小便器用水栓
  6
CONTINUOUS
 62
     6
100
AcDbVertex
100
AcDb2dVertex
 10
1739.675598
 20
1554.407501
 30
0.0
  0
VERTEX
  5
77E
100
AcDbEntity
  8
小便器用水栓
  6
CONTINUOUS
 62
     6
100
AcDbVertex
100
AcDb2dVertex
 10
1739.512024
 20
1554.036255
 30
0.0
  0
VERTEX
  5
77F
100
AcDbEntity
  8
小便器用水栓
  6
CONTINUOUS
 62
     6
100
AcDbVertex
100
AcDb2dVertex
 10
1739.371338
 20
1553.645172
 30
0.0
  0
VERTEX
  5
780
100
AcDbEntity
  8
小便器用水栓
  6
CONTINUOUS
 62
     6
100
AcDbVertex
100
AcDb2dVertex
 10
1739.254761
 20
1553.238068
 30
0.0
  0
VERTEX
  5
781
100
AcDbEntity
  8
小便器用水栓
  6
CONTINUOUS
 62
     6
100
AcDbVertex
100
AcDb2dVertex
 10
1739.163361
 20
1552.816925
 30
0.0
  0
VERTEX
  5
782
100
AcDbEntity
  8
小便器用水栓
  6
CONTINUOUS
 62
     6
100
AcDbVertex
100
AcDb2dVertex
 10
1739.097443
 20
1552.386475
 30
0.0
  0
VERTEX
  5
783
100
AcDbEntity
  8
小便器用水栓
  6
CONTINUOUS
 62
     6
100
AcDbVertex
100
AcDb2dVertex
 10
1739.057617
 20
1551.94931
 30
0.0
  0
VERTEX
  5
784
100
AcDbEntity
  8
小便器用水栓
  6
CONTINUOUS
 62
     6
100
AcDbVertex
100
AcDb2dVertex
 10
1739.044495
 20
1551.508789
 30
0.0
  0
VERTEX
  5
785
100
AcDbEntity
  8
小便器用水栓
  6
CONTINUOUS
 62
     6
100
AcDbVertex
100
AcDb2dVertex
 10
1739.05777
 20
1551.068268
 30
0.0
  0
VERTEX
  5
786
100
AcDbEntity
  8
小便器用水栓
  6
CONTINUOUS
 62
     6
100
AcDbVertex
100
AcDb2dVertex
 10
1739.097595
 20
1550.631256
 30
0.0
  0
VERTEX
  5
787
100
AcDbEntity
  8
小便器用水栓
  6
CONTINUOUS
 62
     6
100
AcDbVertex
100
AcDb2dVertex
 10
1739.163361
 20
1550.200653
 30
0.0
  0
VERTEX
  5
788
100
AcDbEntity
  8
小便器用水栓
  6
CONTINUOUS
 62
     6
100
AcDbVertex
100
AcDb2dVertex
 10
1739.254913
 20
1549.780121
 30
0.0
  0
VERTEX
  5
789
100
AcDbEntity
  8
小便器用水栓
  6
CONTINUOUS
 62
     6
100
AcDbVertex
100
AcDb2dVertex
 10
1739.371491
 20
1549.372864
 30
0.0
  0
VERTEX
  5
78A
100
AcDbEntity
  8
小便器用水栓
  6
CONTINUOUS
 62
     6
100
AcDbVertex
100
AcDb2dVertex
 10
1739.512024
 20
1548.981476
 30
0.0
  0
VERTEX
  5
78B
100
AcDbEntity
  8
小便器用水栓
  6
CONTINUOUS
 62
     6
100
AcDbVertex
100
AcDb2dVertex
 10
1739.675598
 20
1548.609619
 30
0.0
  0
VERTEX
  5
78C
100
AcDbEntity
  8
小便器用水栓
  6
CONTINUOUS
 62
     6
100
AcDbVertex
100
AcDb2dVertex
 10
1739.860992
 20
1548.259735
 30
0.0
  0
VERTEX
  5
78D
100
AcDbEntity
  8
小便器用水栓
  6
CONTINUOUS
 62
     6
100
AcDbVertex
100
AcDb2dVertex
 10
1740.066834
 20
1547.93457
 30
0.0
  0
VERTEX
  5
78E
100
AcDbEntity
  8
小便器用水栓
  6
CONTINUOUS
 62
     6
100
AcDbVertex
100
AcDb2dVertex
 10
1740.29129
 20
1547.636719
 30
0.0
  0
VERTEX
  5
78F
100
AcDbEntity
  8
小便器用水栓
  6
CONTINUOUS
 62
     6
100
AcDbVertex
100
AcDb2dVertex
 10
1740.532837
 20
1547.368164
 30
0.0
  0
VERTEX
  5
790
100
AcDbEntity
  8
小便器用水栓
  6
CONTINUOUS
 62
     6
100
AcDbVertex
100
AcDb2dVertex
 10
1740.789947
 20
1547.131195
 30
0.0
  0
VERTEX
  5
791
100
AcDbEntity
  8
小便器用水栓
  6
CONTINUOUS
 62
     6
100
AcDbVertex
100
AcDb2dVertex
 10
1741.060181
 20
1546.927643
 30
0.0
  0
VERTEX
  5
792
100
AcDbEntity
  8
小便器用水栓
  6
CONTINUOUS
 62
     6
100
AcDbVertex
100
AcDb2dVertex
 10
1741.341553
 20
1546.758728
 30
0.0
  0
VERTEX
  5
793
100
AcDbEntity
  8
小便器用水栓
  6
CONTINUOUS
 62
     6
100
AcDbVertex
100
AcDb2dVertex
 10
1741.63208
 20
1546.626434
 30
0.0
  0
VERTEX
  5
794
100
AcDbEntity
  8
小便器用水栓
  6
CONTINUOUS
 62
     6
100
AcDbVertex
100
AcDb2dVertex
 10
1741.929474
 20
1546.531067
 30
0.0
  0
VERTEX
  5
795
100
AcDbEntity
  8
小便器用水栓
  6
CONTINUOUS
 62
     6
100
AcDbVertex
100
AcDb2dVertex
 10
1742.231445
 20
1546.473389
 30
0.0
  0
VERTEX
  5
796
100
AcDbEntity
  8
小便器用水栓
  6
CONTINUOUS
 62
     6
100
AcDbVertex
100
AcDb2dVertex
 10
1742.535553
 20
1546.454163
 30
0.0
  0
VERTEX
  5
797
100
AcDbEntity
  8
小便器用水栓
  6
CONTINUOUS
 62
     6
100
AcDbVertex
100
AcDb2dVertex
 10
1742.839813
 20
1546.473389
 30
0.0
  0
VERTEX
  5
798
100
AcDbEntity
  8
小便器用水栓
  6
CONTINUOUS
 62
     6
100
AcDbVertex
100
AcDb2dVertex
 10
1743.141785
 20
1546.530914
 30
0.0
  0
VERTEX
  5
799
100
AcDbEntity
  8
小便器用水栓
  6
CONTINUOUS
 62
     6
100
AcDbVertex
100
AcDb2dVertex
 10
1743.439026
 20
1546.626434
 30
0.0
  0
VERTEX
  5
79A
100
AcDbEntity
  8
小便器用水栓
  6
CONTINUOUS
 62
     6
100
AcDbVertex
100
AcDb2dVertex
 10
1743.729401
 20
1546.759033
 30
0.0
  0
VERTEX
  5
79B
100
AcDbEntity
  8
小便器用水栓
  6
CONTINUOUS
 62
     6
100
AcDbVertex
100
AcDb2dVertex
 10
1744.010773
 20
1546.927796
 30
0.0
  0
SEQEND
  5
79C
100
AcDbEntity
  8
小便器用水栓
  6
CONTINUOUS
 62
     6
  0
POLYLINE
  5
79D
100
AcDbEntity
  8
小便器用水栓
  6
CONTINUOUS
 62
     6
100
AcDb2dPolyline
 66
     1
 10
0.0
 20
0.0
 30
0.0
 70
   128
  0
VERTEX
  5
79E
100
AcDbEntity
  8
小便器用水栓
  6
CONTINUOUS
 62
     6
100
AcDbVertex
100
AcDb2dVertex
 10
1744.010773
 20
1546.927796
 30
0.0
  0
VERTEX
  5
79F
100
AcDbEntity
  8
小便器用水栓
  6
CONTINUOUS
 62
     6
100
AcDbVertex
100
AcDb2dVertex
 10
1744.281006
 20
1547.131195
 30
0.0
  0
VERTEX
  5
7A0
100
AcDbEntity
  8
小便器用水栓
  6
CONTINUOUS
 62
     6
100
AcDbVertex
100
AcDb2dVertex
 10
1744.537811
 20
1547.368164
 30
0.0
  0
VERTEX
  5
7A1
100
AcDbEntity
  8
小便器用水栓
  6
CONTINUOUS
 62
     6
100
AcDbVertex
100
AcDb2dVertex
 10
1744.779358
 20
1547.636414
 30
0.0
  0
VERTEX
  5
7A2
100
AcDbEntity
  8
小便器用水栓
  6
CONTINUOUS
 62
     6
100
AcDbVertex
100
AcDb2dVertex
 10
1745.00412
 20
1547.93457
 30
0.0
  0
VERTEX
  5
7A3
100
AcDbEntity
  8
小便器用水栓
  6
CONTINUOUS
 62
     6
100
AcDbVertex
100
AcDb2dVertex
 10
1745.209808
 20
1548.259735
 30
0.0
  0
VERTEX
  5
7A4
100
AcDbEntity
  8
小便器用水栓
  6
CONTINUOUS
 62
     6
100
AcDbVertex
100
AcDb2dVertex
 10
1745.395355
 20
1548.609467
 30
0.0
  0
VERTEX
  5
7A5
100
AcDbEntity
  8
小便器用水栓
  6
CONTINUOUS
 62
     6
100
AcDbVertex
100
AcDb2dVertex
 10
1745.558929
 20
1548.981476
 30
0.0
  0
VERTEX
  5
7A6
100
AcDbEntity
  8
小便器用水栓
  6
CONTINUOUS
 62
     6
100
AcDbVertex
100
AcDb2dVertex
 10
1745.699616
 20
1549.372559
 30
0.0
  0
VERTEX
  5
7A7
100
AcDbEntity
  8
小便器用水栓
  6
CONTINUOUS
 62
     6
100
AcDbVertex
100
AcDb2dVertex
 10
1745.816193
 20
1549.779968
 30
0.0
  0
VERTEX
  5
7A8
100
AcDbEntity
  8
小便器用水栓
  6
CONTINUOUS
 62
     6
100
AcDbVertex
100
AcDb2dVertex
 10
1745.907593
 20
1550.200653
 30
0.0
  0
SEQEND
  5
7A9
100
AcDbEntity
  8
小便器用水栓
  6
CONTINUOUS
 62
     6
  0
POLYLINE
  5
7AA
100
AcDbEntity
  8
小便器用水栓
  6
CONTINUOUS
 62
     6
100
AcDb2dPolyline
 66
     1
 10
0.0
 20
0.0
 30
0.0
 70
   128
  0
VERTEX
  5
7AB
100
AcDbEntity
  8
小便器用水栓
  6
CONTINUOUS
 62
     6
100
AcDbVertex
100
AcDb2dVertex
 10
1745.907593
 20
1550.200653
 30
0.0
  0
VERTEX
  5
7AC
100
AcDbEntity
  8
小便器用水栓
  6
CONTINUOUS
 62
     6
100
AcDbVertex
100
AcDb2dVertex
 10
1745.973511
 20
1550.631256
 30
0.0
  0
VERTEX
  5
7AD
100
AcDbEntity
  8
小便器用水栓
  6
CONTINUOUS
 62
     6
100
AcDbVertex
100
AcDb2dVertex
 10
1746.013336
 20
1551.068573
 30
0.0
  0
VERTEX
  5
7AE
100
AcDbEntity
  8
小便器用水栓
  6
CONTINUOUS
 62
     6
100
AcDbVertex
100
AcDb2dVertex
 10
1746.026611
 20
1551.509247
 30
0.0
  0
SEQEND
  5
7AF
100
AcDbEntity
  8
小便器用水栓
  6
CONTINUOUS
 62
     6
  0
POLYLINE
  5
7B0
100
AcDbEntity
  8
小便器用水栓
  6
CONTINUOUS
 62
     6
100
AcDb2dPolyline
 66
     1
 10
0.0
 20
0.0
 30
0.0
 70
   128
  0
VERTEX
  5
7B1
100
AcDbEntity
  8
小便器用水栓
  6
CONTINUOUS
 62
     6
100
AcDbVertex
100
AcDb2dVertex
 10
1746.026459
 20
1538.508759
 30
0.0
  0
VERTEX
  5
7B2
100
AcDbEntity
  8
小便器用水栓
  6
CONTINUOUS
 62
     6
100
AcDbVertex
100
AcDb2dVertex
 10
1746.013184
 20
1538.94928
 30
0.0
  0
VERTEX
  5
7B3
100
AcDbEntity
  8
小便器用水栓
  6
CONTINUOUS
 62
     6
100
AcDbVertex
100
AcDb2dVertex
 10
1745.973358
 20
1539.386292
 30
0.0
  0
VERTEX
  5
7B4
100
AcDbEntity
  8
小便器用水栓
  6
CONTINUOUS
 62
     6
100
AcDbVertex
100
AcDb2dVertex
 10
1745.907593
 20
1539.816895
 30
0.0
  0
VERTEX
  5
7B5
100
AcDbEntity
  8
小便器用水栓
  6
CONTINUOUS
 62
     6
100
AcDbVertex
100
AcDb2dVertex
 10
1745.81604
 20
1540.237427
 30
0.0
  0
VERTEX
  5
7B6
100
AcDbEntity
  8
小便器用水栓
  6
CONTINUOUS
 62
     6
100
AcDbVertex
100
AcDb2dVertex
 10
1745.699463
 20
1540.644684
 30
0.0
  0
VERTEX
  5
7B7
100
AcDbEntity
  8
小便器用水栓
  6
CONTINUOUS
 62
     6
100
AcDbVertex
100
AcDb2dVertex
 10
1745.558929
 20
1541.036224
 30
0.0
  0
VERTEX
  5
7B8
100
AcDbEntity
  8
小便器用水栓
  6
CONTINUOUS
 62
     6
100
AcDbVertex
100
AcDb2dVertex
 10
1745.395355
 20
1541.408081
 30
0.0
  0
VERTEX
  5
7B9
100
AcDbEntity
  8
小便器用水栓
  6
CONTINUOUS
 62
     6
100
AcDbVertex
100
AcDb2dVertex
 10
1745.209961
 20
1541.757965
 30
0.0
  0
VERTEX
  5
7BA
100
AcDbEntity
  8
小便器用水栓
  6
CONTINUOUS
 62
     6
100
AcDbVertex
100
AcDb2dVertex
 10
1745.00412
 20
1542.08313
 30
0.0
  0
VERTEX
  5
7BB
100
AcDbEntity
  8
小便器用水栓
  6
CONTINUOUS
 62
     6
100
AcDbVertex
100
AcDb2dVertex
 10
1744.779663
 20
1542.380982
 30
0.0
  0
VERTEX
  5
7BC
100
AcDbEntity
  8
小便器用水栓
  6
CONTINUOUS
 62
     6
100
AcDbVertex
100
AcDb2dVertex
 10
1744.538117
 20
1542.649384
 30
0.0
  0
VERTEX
  5
7BD
100
AcDbEntity
  8
小便器用水栓
  6
CONTINUOUS
 62
     6
100
AcDbVertex
100
AcDb2dVertex
 10
1744.281006
 20
1542.886353
 30
0.0
  0
VERTEX
  5
7BE
100
AcDbEntity
  8
小便器用水栓
  6
CONTINUOUS
 62
     6
100
AcDbVertex
100
AcDb2dVertex
 10
1744.010773
 20
1543.089905
 30
0.0
  0
VERTEX
  5
7BF
100
AcDbEntity
  8
小便器用水栓
  6
CONTINUOUS
 62
     6
100
AcDbVertex
100
AcDb2dVertex
 10
1743.729401
 20
1543.25882
 30
0.0
  0
VERTEX
  5
7C0
100
AcDbEntity
  8
小便器用水栓
  6
CONTINUOUS
 62
     6
100
AcDbVertex
100
AcDb2dVertex
 10
1743.439026
 20
1543.391419
 30
0.0
  0
VERTEX
  5
7C1
100
AcDbEntity
  8
小便器用水栓
  6
CONTINUOUS
 62
     6
100
AcDbVertex
100
AcDb2dVertex
 10
1743.141632
 20
1543.486786
 30
0.0
  0
VERTEX
  5
7C2
100
AcDbEntity
  8
小便器用水栓
  6
CONTINUOUS
 62
     6
100
AcDbVertex
100
AcDb2dVertex
 10
1742.839661
 20
1543.544312
 30
0.0
  0
VERTEX
  5
7C3
100
AcDbEntity
  8
小便器用水栓
  6
CONTINUOUS
 62
     6
100
AcDbVertex
100
AcDb2dVertex
 10
1742.535553
 20
1543.56369
 30
0.0
  0
VERTEX
  5
7C4
100
AcDbEntity
  8
小便器用水栓
  6
CONTINUOUS
 62
     6
100
AcDbVertex
100
AcDb2dVertex
 10
1742.231293
 20
1543.544464
 30
0.0
  0
VERTEX
  5
7C5
100
AcDbEntity
  8
小便器用水栓
  6
CONTINUOUS
 62
     6
100
AcDbVertex
100
AcDb2dVertex
 10
1741.929321
 20
1543.486786
 30
0.0
  0
VERTEX
  5
7C6
100
AcDbEntity
  8
小便器用水栓
  6
CONTINUOUS
 62
     6
100
AcDbVertex
100
AcDb2dVertex
 10
1741.63208
 20
1543.391419
 30
0.0
  0
VERTEX
  5
7C7
100
AcDbEntity
  8
小便器用水栓
  6
CONTINUOUS
 62
     6
100
AcDbVertex
100
AcDb2dVertex
 10
1741.341705
 20
1543.258667
 30
0.0
  0
VERTEX
  5
7C8
100
AcDbEntity
  8
小便器用水栓
  6
CONTINUOUS
 62
     6
100
AcDbVertex
100
AcDb2dVertex
 10
1741.060333
 20
1543.089905
 30
0.0
  0
VERTEX
  5
7C9
100
AcDbEntity
  8
小便器用水栓
  6
CONTINUOUS
 62
     6
100
AcDbVertex
100
AcDb2dVertex
 10
1740.789947
 20
1542.886353
 30
0.0
  0
VERTEX
  5
7CA
100
AcDbEntity
  8
小便器用水栓
  6
CONTINUOUS
 62
     6
100
AcDbVertex
100
AcDb2dVertex
 10
1740.533142
 20
1542.649384
 30
0.0
  0
VERTEX
  5
7CB
100
AcDbEntity
  8
小便器用水栓
  6
CONTINUOUS
 62
     6
100
AcDbVertex
100
AcDb2dVertex
 10
1740.291596
 20
1542.380982
 30
0.0
  0
VERTEX
  5
7CC
100
AcDbEntity
  8
小便器用水栓
  6
CONTINUOUS
 62
     6
100
AcDbVertex
100
AcDb2dVertex
 10
1740.066834
 20
1542.08313
 30
0.0
  0
VERTEX
  5
7CD
100
AcDbEntity
  8
小便器用水栓
  6
CONTINUOUS
 62
     6
100
AcDbVertex
100
AcDb2dVertex
 10
1739.861145
 20
1541.757965
 30
0.0
  0
VERTEX
  5
7CE
100
AcDbEntity
  8
小便器用水栓
  6
CONTINUOUS
 62
     6
100
AcDbVertex
100
AcDb2dVertex
 10
1739.675598
 20
1541.408234
 30
0.0
  0
VERTEX
  5
7CF
100
AcDbEntity
  8
小便器用水栓
  6
CONTINUOUS
 62
     6
100
AcDbVertex
100
AcDb2dVertex
 10
1739.512024
 20
1541.036224
 30
0.0
  0
VERTEX
  5
7D0
100
AcDbEntity
  8
小便器用水栓
  6
CONTINUOUS
 62
     6
100
AcDbVertex
100
AcDb2dVertex
 10
1739.371338
 20
1540.644989
 30
0.0
  0
VERTEX
  5
7D1
100
AcDbEntity
  8
小便器用水栓
  6
CONTINUOUS
 62
     6
100
AcDbVertex
100
AcDb2dVertex
 10
1739.254761
 20
1540.237579
 30
0.0
  0
VERTEX
  5
7D2
100
AcDbEntity
  8
小便器用水栓
  6
CONTINUOUS
 62
     6
100
AcDbVertex
100
AcDb2dVertex
 10
1739.163361
 20
1539.816895
 30
0.0
  0
VERTEX
  5
7D3
100
AcDbEntity
  8
小便器用水栓
  6
CONTINUOUS
 62
     6
100
AcDbVertex
100
AcDb2dVertex
 10
1739.097443
 20
1539.386292
 30
0.0
  0
VERTEX
  5
7D4
100
AcDbEntity
  8
小便器用水栓
  6
CONTINUOUS
 62
     6
100
AcDbVertex
100
AcDb2dVertex
 10
1739.057617
 20
1538.948975
 30
0.0
  0
VERTEX
  5
7D5
100
AcDbEntity
  8
小便器用水栓
  6
CONTINUOUS
 62
     6
100
AcDbVertex
100
AcDb2dVertex
 10
1739.044495
 20
1538.508759
 30
0.0
  0
VERTEX
  5
7D6
100
AcDbEntity
  8
小便器用水栓
  6
CONTINUOUS
 62
     6
100
AcDbVertex
100
AcDb2dVertex
 10
1739.05777
 20
1538.068237
 30
0.0
  0
VERTEX
  5
7D7
100
AcDbEntity
  8
小便器用水栓
  6
CONTINUOUS
 62
     6
100
AcDbVertex
100
AcDb2dVertex
 10
1739.097595
 20
1537.630921
 30
0.0
  0
VERTEX
  5
7D8
100
AcDbEntity
  8
小便器用水栓
  6
CONTINUOUS
 62
     6
100
AcDbVertex
100
AcDb2dVertex
 10
1739.163361
 20
1537.20047
 30
0.0
  0
VERTEX
  5
7D9
100
AcDbEntity
  8
小便器用水栓
  6
CONTINUOUS
 62
     6
100
AcDbVertex
100
AcDb2dVertex
 10
1739.254913
 20
1536.779938
 30
0.0
  0
VERTEX
  5
7DA
100
AcDbEntity
  8
小便器用水栓
  6
CONTINUOUS
 62
     6
100
AcDbVertex
100
AcDb2dVertex
 10
1739.371491
 20
1536.372376
 30
0.0
  0
VERTEX
  5
7DB
100
AcDbEntity
  8
小便器用水栓
  6
CONTINUOUS
 62
     6
100
AcDbVertex
100
AcDb2dVertex
 10
1739.512024
 20
1535.981293
 30
0.0
  0
VERTEX
  5
7DC
100
AcDbEntity
  8
小便器用水栓
  6
CONTINUOUS
 62
     6
100
AcDbVertex
100
AcDb2dVertex
 10
1739.675598
 20
1535.609436
 30
0.0
  0
VERTEX
  5
7DD
100
AcDbEntity
  8
小便器用水栓
  6
CONTINUOUS
 62
     6
100
AcDbVertex
100
AcDb2dVertex
 10
1739.860992
 20
1535.2594
 30
0.0
  0
VERTEX
  5
7DE
100
AcDbEntity
  8
小便器用水栓
  6
CONTINUOUS
 62
     6
100
AcDbVertex
100
AcDb2dVertex
 10
1740.066834
 20
1534.934387
 30
0.0
  0
VERTEX
  5
7DF
100
AcDbEntity
  8
小便器用水栓
  6
CONTINUOUS
 62
     6
100
AcDbVertex
100
AcDb2dVertex
 10
1740.29129
 20
1534.636383
 30
0.0
  0
VERTEX
  5
7E0
100
AcDbEntity
  8
小便器用水栓
  6
CONTINUOUS
 62
     6
100
AcDbVertex
100
AcDb2dVertex
 10
1740.532837
 20
1534.367828
 30
0.0
  0
VERTEX
  5
7E1
100
AcDbEntity
  8
小便器用水栓
  6
CONTINUOUS
 62
     6
100
AcDbVertex
100
AcDb2dVertex
 10
1740.789947
 20
1534.13147
 30
0.0
  0
VERTEX
  5
7E2
100
AcDbEntity
  8
小便器用水栓
  6
CONTINUOUS
 62
     6
100
AcDbVertex
100
AcDb2dVertex
 10
1741.060181
 20
1533.927918
 30
0.0
  0
VERTEX
  5
7E3
100
AcDbEntity
  8
小便器用水栓
  6
CONTINUOUS
 62
     6
100
AcDbVertex
100
AcDb2dVertex
 10
1741.341553
 20
1533.759308
 30
0.0
  0
VERTEX
  5
7E4
100
AcDbEntity
  8
小便器用水栓
  6
CONTINUOUS
 62
     6
100
AcDbVertex
100
AcDb2dVertex
 10
1741.63208
 20
1533.626099
 30
0.0
  0
VERTEX
  5
7E5
100
AcDbEntity
  8
小便器用水栓
  6
CONTINUOUS
 62
     6
100
AcDbVertex
100
AcDb2dVertex
 10
1741.929474
 20
1533.530579
 30
0.0
  0
VERTEX
  5
7E6
100
AcDbEntity
  8
小便器用水栓
  6
CONTINUOUS
 62
     6
100
AcDbVertex
100
AcDb2dVertex
 10
1742.231445
 20
1533.4729
 30
0.0
  0
VERTEX
  5
7E7
100
AcDbEntity
  8
小便器用水栓
  6
CONTINUOUS
 62
     6
100
AcDbVertex
100
AcDb2dVertex
 10
1742.535553
 20
1533.454285
 30
0.0
  0
VERTEX
  5
7E8
100
AcDbEntity
  8
小便器用水栓
  6
CONTINUOUS
 62
     6
100
AcDbVertex
100
AcDb2dVertex
 10
1742.839813
 20
1533.473663
 30
0.0
  0
VERTEX
  5
7E9
100
AcDbEntity
  8
小便器用水栓
  6
CONTINUOUS
 62
     6
100
AcDbVertex
100
AcDb2dVertex
 10
1743.141785
 20
1533.531342
 30
0.0
  0
VERTEX
  5
7EA
100
AcDbEntity
  8
小便器用水栓
  6
CONTINUOUS
 62
     6
100
AcDbVertex
100
AcDb2dVertex
 10
1743.439026
 20
1533.626099
 30
0.0
  0
VERTEX
  5
7EB
100
AcDbEntity
  8
小便器用水栓
  6
CONTINUOUS
 62
     6
100
AcDbVertex
100
AcDb2dVertex
 10
1743.729401
 20
1533.758698
 30
0.0
  0
VERTEX
  5
7EC
100
AcDbEntity
  8
小便器用水栓
  6
CONTINUOUS
 62
     6
100
AcDbVertex
100
AcDb2dVertex
 10
1744.010773
 20
1533.927307
 30
0.0
  0
SEQEND
  5
7ED
100
AcDbEntity
  8
小便器用水栓
  6
CONTINUOUS
 62
     6
  0
POLYLINE
  5
7EE
100
AcDbEntity
  8
小便器用水栓
  6
CONTINUOUS
 62
     6
100
AcDb2dPolyline
 66
     1
 10
0.0
 20
0.0
 30
0.0
 70
   128
  0
VERTEX
  5
7EF
100
AcDbEntity
  8
小便器用水栓
  6
CONTINUOUS
 62
     6
100
AcDbVertex
100
AcDb2dVertex
 10
1744.010773
 20
1533.927307
 30
0.0
  0
VERTEX
  5
7F0
100
AcDbEntity
  8
小便器用水栓
  6
CONTINUOUS
 62
     6
100
AcDbVertex
100
AcDb2dVertex
 10
1744.281006
 20
1534.13147
 30
0.0
  0
VERTEX
  5
7F1
100
AcDbEntity
  8
小便器用水栓
  6
CONTINUOUS
 62
     6
100
AcDbVertex
100
AcDb2dVertex
 10
1744.537811
 20
1534.368439
 30
0.0
  0
VERTEX
  5
7F2
100
AcDbEntity
  8
小便器用水栓
  6
CONTINUOUS
 62
     6
100
AcDbVertex
100
AcDb2dVertex
 10
1744.779358
 20
1534.637146
 30
0.0
  0
VERTEX
  5
7F3
100
AcDbEntity
  8
小便器用水栓
  6
CONTINUOUS
 62
     6
100
AcDbVertex
100
AcDb2dVertex
 10
1745.00412
 20
1534.934387
 30
0.0
  0
VERTEX
  5
7F4
100
AcDbEntity
  8
小便器用水栓
  6
CONTINUOUS
 62
     6
100
AcDbVertex
100
AcDb2dVertex
 10
1745.209808
 20
1535.2594
 30
0.0
  0
VERTEX
  5
7F5
100
AcDbEntity
  8
小便器用水栓
  6
CONTINUOUS
 62
     6
100
AcDbVertex
100
AcDb2dVertex
 10
1745.395355
 20
1535.609131
 30
0.0
  0
VERTEX
  5
7F6
100
AcDbEntity
  8
小便器用水栓
  6
CONTINUOUS
 62
     6
100
AcDbVertex
100
AcDb2dVertex
 10
1745.558929
 20
1535.981293
 30
0.0
  0
VERTEX
  5
7F7
100
AcDbEntity
  8
小便器用水栓
  6
CONTINUOUS
 62
     6
100
AcDbVertex
100
AcDb2dVertex
 10
1745.699616
 20
1536.372376
 30
0.0
  0
VERTEX
  5
7F8
100
AcDbEntity
  8
小便器用水栓
  6
CONTINUOUS
 62
     6
100
AcDbVertex
100
AcDb2dVertex
 10
1745.816193
 20
1536.779633
 30
0.0
  0
VERTEX
  5
7F9
100
AcDbEntity
  8
小便器用水栓
  6
CONTINUOUS
 62
     6
100
AcDbVertex
100
AcDb2dVertex
 10
1745.907593
 20
1537.20047
 30
0.0
  0
SEQEND
  5
7FA
100
AcDbEntity
  8
小便器用水栓
  6
CONTINUOUS
 62
     6
  0
POLYLINE
  5
7FB
100
AcDbEntity
  8
小便器用水栓
  6
CONTINUOUS
 62
     6
100
AcDb2dPolyline
 66
     1
 10
0.0
 20
0.0
 30
0.0
 70
   128
  0
VERTEX
  5
7FC
100
AcDbEntity
  8
小便器用水栓
  6
CONTINUOUS
 62
     6
100
AcDbVertex
100
AcDb2dVertex
 10
1745.907593
 20
1537.20047
 30
0.0
  0
VERTEX
  5
7FD
100
AcDbEntity
  8
小便器用水栓
  6
CONTINUOUS
 62
     6
100
AcDbVertex
100
AcDb2dVertex
 10
1745.973511
 20
1537.630921
 30
0.0
  0
VERTEX
  5
7FE
100
AcDbEntity
  8
小便器用水栓
  6
CONTINUOUS
 62
     6
100
AcDbVertex
100
AcDb2dVertex
 10
1746.013336
 20
1538.068085
 30
0.0
  0
VERTEX
  5
7FF
100
AcDbEntity
  8
小便器用水栓
  6
CONTINUOUS
 62
     6
100
AcDbVertex
100
AcDb2dVertex
 10
1746.026611
 20
1538.508606
 30
0.0
  0
SEQEND
  5
800
100
AcDbEntity
  8
小便器用水栓
  6
CONTINUOUS
 62
     6
  0
LINE
  5
801
100
AcDbEntity
  8
小便器用水栓
  6
CONTINUOUS
 62
     6
100
AcDbLine
 10
1724.810333
 20
1549.758759
 30
0.0
 11
1733.410492
 21
1549.758759
 31
0.0
  0
LINE
  5
802
100
AcDbEntity
  8
小便器用水栓
  6
CONTINUOUS
 62
     6
100
AcDbLine
 10
1724.810333
 20
1540.258637
 30
0.0
 11
1733.410492
 21
1540.258637
 31
0.0
  0
ARC
  5
803
100
AcDbEntity
  8
小便器用水栓
  6
CONTINUOUS
 62
     6
100
AcDbCircle
 10
1737.090454
 20
1545.008698
 30
0.0
 40
26.78009
100
AcDbArc
 50
164.292541
 51
195.707581
  0
LINE
  5
804
100
AcDbEntity
  8
小便器用水栓
  6
CONTINUOUS
 62
     6
100
AcDbLine
 10
1724.810333
 20
1526.508637
 30
0.0
 11
1724.810333
 21
1576.008759
 31
0.0
  0
ARC
  5
805
100
AcDbEntity
  8
小便器用水栓
  6
CONTINUOUS
 62
     6
100
AcDbCircle
 10
1720.890655
 20
1569.482422
 30
0.0
 40
6.000073
100
AcDbArc
 50
96.999832
 51
172.224365
  0
LINE
  5
806
100
AcDbEntity
  8
小便器用水栓
  6
CONTINUOUS
 62
     6
100
AcDbLine
 10
1720.159454
 20
1575.437622
 30
0.0
 11
1724.810333
 21
1576.008759
 31
0.0
  0
ARC
  5
807
100
AcDbEntity
  8
小便器用水栓
  6
CONTINUOUS
 62
     6
100
AcDbCircle
 10
1913.10669
 20
1543.2341
 30
0.0
 40
200.0
100
AcDbArc
 50
172.224091
 51
177.413818
  0
ARC
  5
808
100
AcDbEntity
  8
小便器用水栓
  6
CONTINUOUS
 62
     6
100
AcDbCircle
 10
1720.40863
 20
1533.094177
 30
0.0
 40
6.000071
100
AcDbArc
 50
192.627106
 51
263.000168
  0
ARC
  5
809
100
AcDbEntity
  8
小便器用水栓
  6
CONTINUOUS
 62
     6
100
AcDbCircle
 10
1909.716797
 20
1575.501709
 30
0.0
 40
200.0
100
AcDbArc
 50
190.877808
 51
192.626556
  0
LINE
  5
80A
100
AcDbEntity
  8
小便器用水栓
  6
CONTINUOUS
 62
     6
100
AcDbLine
 10
1719.677429
 20
1527.138825
 30
0.0
 11
1724.810333
 21
1526.508637
 31
0.0
  0
LINE
  5
80B
100
AcDbEntity
  8
小便器用水栓
  6
CONTINUOUS
 62
     6
100
AcDbLine
 10
1713.310394
 20
1552.258759
 30
0.0
 11
1713.310394
 21
1537.758637
 31
0.0
  0
LINE
  5
80C
100
AcDbEntity
  8
小便器用水栓
  6
CONTINUOUS
 62
     6
100
AcDbLine
 10
1711.310425
 20
1552.258759
 30
0.0
 11
1711.310425
 21
1537.758637
 31
0.0
  0
LINE
  5
80D
100
AcDbEntity
  8
小便器用水栓
  6
CONTINUOUS
 62
     6
100
AcDbLine
 10
1711.310425
 20
1552.258759
 30
0.0
 11
1713.310394
 21
1552.258759
 31
0.0
  0
LINE
  5
80E
100
AcDbEntity
  8
小便器用水栓
  6
CONTINUOUS
 62
     6
100
AcDbLine
 10
1711.310425
 20
1537.758637
 30
0.0
 11
1713.310394
 21
1537.758637
 31
0.0
  0
ARC
  5
80F
100
AcDbEntity
  8
小便器用水栓
  6
CONTINUOUS
 62
     6
100
AcDbCircle
 10
1784.349213
 20
1575.509186
 30
0.0
 40
20.000038
100
AcDbArc
 50
254.642593
 51
270.000031
  0
LINE
  5
810
100
AcDbEntity
  8
小便器用水栓
  6
CONTINUOUS
 62
     6
100
AcDbLine
 10
1784.349213
 20
1555.509186
 30
0.0
 11
1790.810394
 21
1555.509186
 31
0.0
  0
LINE
  5
811
100
AcDbEntity
  8
小便器用水栓
  6
CONTINUOUS
 62
     6
100
AcDbLine
 10
1783.310394
 20
1534.508209
 30
0.0
 11
1790.810394
 21
1534.508209
 31
0.0
  0
ARC
  5
812
100
AcDbEntity
  8
小便器用水栓
  6
CONTINUOUS
 62
     6
100
AcDbCircle
 10
1792.810364
 20
1557.307587
 30
0.0
 40
1.999999
100
AcDbArc
 50
141.34021
 51
180.0
  0
LINE
  5
813
100
AcDbEntity
  8
小便器用水栓
  6
CONTINUOUS
 62
     6
100
AcDbLine
 10
1798.810425
 20
1568.009186
 30
0.0
 11
1791.248627
 21
1558.556976
 31
0.0
  0
ARC
  5
814
100
AcDbEntity
  8
小便器用水栓
  6
CONTINUOUS
 62
     6
100
AcDbCircle
 10
1792.810364
 20
1532.709808
 30
0.0
 40
1.99997
100
AcDbArc
 50
180.0
 51
218.659683
  0
LINE
  5
815
100
AcDbEntity
  8
小便器用水栓
  6
CONTINUOUS
 62
     6
100
AcDbLine
 10
1790.810394
 20
1532.709808
 30
0.0
 11
1790.810394
 21
1557.307587
 31
0.0
  0
LINE
  5
816
100
AcDbEntity
  8
小便器用水栓
  6
CONTINUOUS
 62
     6
100
AcDbLine
 10
1791.248627
 20
1531.460419
 30
0.0
 11
1798.810425
 21
1522.008209
 31
0.0
  0
TEXT
  5
817
100
AcDbEntity
  8
小便器用水栓
  6
CONTINUOUS
 62
     2
100
AcDbText
 10
1826.636841
 20
1607.402649
 30
0.0
 40
40.0
  1
ＰＪ
 41
0.861
  7
EXCADSTD
 72
     5
 11
1901.798041
 21
1607.402649
 31
0.0
100
AcDbText
  0
TEXT
  5
818
100
AcDbEntity
  8
小便器用水栓
  6
CONTINUOUS
 62
     2
100
AcDbText
 10
1928.525879
 20
1608.83606
 30
0.0
 40
25.0
  1
２
 41
0.9912
  7
EXCADSTD
 72
     5
 11
1952.125879
 21
1608.83606
 31
0.0
100
AcDbText
  0
TEXT
  5
819
100
AcDbEntity
  8
小便器用水栓
  6
CONTINUOUS
 62
     6
100
AcDbText
 10
1902.134888
 20
1607.402649
 30
0.0
 40
40.0
  1
／ 
 41
0.9912
  7
EXCADSTD
 72
     5
 11
1939.894886
 21
1607.402649
 31
0.0
100
AcDbText
  0
TEXT
  5
81A
100
AcDbEntity
  8
小便器用水栓
  6
CONTINUOUS
 62
     2
100
AcDbText
 10
1893.891632
 20
1622.089996
 30
0.0
 40
25.0
  1
１
 41
0.9912
  7
EXCADSTD
 72
     5
 11
1917.491632
 21
1622.089996
 31
0.0
100
AcDbText
  0
LINE
  5
81B
100
AcDbEntity
  8
小便器用水栓
  6
CONTINUOUS
 62
     6
100
AcDbLine
 10
1773.810425
 20
1511.008759
 30
0.0
 11
1773.810425
 21
1451.872269
 31
0.0
  0
LINE
  5
81C
100
AcDbEntity
  8
小便器用水栓
  6
CONTINUOUS
 62
     6
100
AcDbLine
 10
1757.810364
 20
1511.008759
 30
0.0
 11
1757.810364
 21
1451.872269
 31
0.0
  0
ARC
  5
81D
100
AcDbEntity
  8
小便器用水栓
  6
CONTINUOUS
 62
     6
100
AcDbCircle
 10
703.0
 20
2385.0
 30
0.0
 40
21.683515
100
AcDbArc
 50
118.976781
 51
236.398185
  0
ARC
  5
81E
100
AcDbEntity
  8
小便器用水栓
  6
CONTINUOUS
 62
     6
100
AcDbCircle
 10
703.0
 20
2385.0
 30
0.0
 40
21.683515
100
AcDbArc
 50
304.074393
 51
61.023646
  0
ARC
  5
81F
100
AcDbEntity
  8
小便器用水栓
  6
CONTINUOUS
 62
     6
100
AcDbCircle
 10
703.0
 20
2385.0
 30
0.0
 40
24.080742
100
AcDbArc
 50
115.851331
 51
236.623704
  0
ARC
  5
820
100
AcDbEntity
  8
小便器用水栓
  6
CONTINUOUS
 62
     6
100
AcDbCircle
 10
703.0
 20
2385.0
 30
0.0
 40
24.080742
100
AcDbArc
 50
303.376061
 51
64.149073
  0
LINE
  5
821
100
AcDbEntity
  8
小便器用水栓
  6
CONTINUOUS
 62
     6
100
AcDbLine
 10
1690.310365
 20
1545.000153
 30
0.0
 11
1749.810394
 21
1545.000153
 31
0.0
  0
LINE
  5
822
100
AcDbEntity
  8
小便器用水栓
  6
CONTINUOUS
 62
     6
100
AcDbLine
 10
1761.810394
 20
1545.000153
 30
0.0
 11
1769.810394
 21
1545.000153
 31
0.0
  0
LINE
  5
823
100
AcDbEntity
  8
小便器用水栓
  6
CONTINUOUS
 62
     6
100
AcDbLine
 10
984.08374
 20
1545.000076
 30
0.0
 11
716.999939
 21
1545.000076
 31
0.0
  0
LINE
  5
824
100
AcDbEntity
  8
小便器用水栓
  6
CONTINUOUS
 62
     6
100
AcDbLine
 10
1781.810394
 20
1545.000153
 30
0.0
 11
1833.0
 21
1545.000153
 31
0.0
  0
TEXT
  5
825
100
AcDbEntity
  8
小便器用水栓
  6
CONTINUOUS
 62
     2
100
AcDbText
 10
1385.009583
 20
1607.681427
 30
0.0
 40
40.0
  1
ＮＵ１－ＭＹ
 41
0.805
  7
EXCADSTD
 72
     5
 11
1615.009582
 21
1607.681427
 31
0.0
100
AcDbText
  0
LINE
  5
826
100
AcDbEntity
  8
小便器用水栓
  6
CONTINUOUS
 62
     6
100
AcDbLine
 10
1385.009583
 20
1604.181366
 30
0.0
 11
1611.004791
 21
1604.181366
 31
0.0
  0
LINE
  5
827
100
AcDbEntity
  8
器具明細表_
  6
CONTINUOUS
 62
     6
100
AcDbLine
 10
1249.0
 20
2420.000305
 30
0.0
 11
1949.0
 21
2420.000305
 31
0.0
  0
LINE
  5
828
100
AcDbEntity
  8
器具明細表_
  6
CONTINUOUS
 62
     6
100
AcDbLine
 10
1249.0
 20
2485.000305
 30
0.0
 11
1949.0
 21
2485.000305
 31
0.0
  0
LINE
  5
829
100
AcDbEntity
  8
器具明細表_
  6
CONTINUOUS
 62
     6
100
AcDbLine
 10
1249.0
 20
2550.0
 30
0.0
 11
1949.0
 21
2550.0
 31
0.0
  0
LINE
  5
82A
100
AcDbEntity
  8
器具明細表_
  6
CONTINUOUS
 62
     6
100
AcDbLine
 10
1249.0
 20
2615.0
 30
0.0
 11
1949.0
 21
2615.0
 31
0.0
  0
LINE
  5
82B
100
AcDbEntity
  8
器具明細表_
  6
CONTINUOUS
 62
     6
100
AcDbLine
 10
1249.0
 20
2680.0
 30
0.0
 11
1949.0
 21
2680.0
 31
0.0
  0
LINE
  5
82C
100
AcDbEntity
  8
器具明細表_
  6
CONTINUOUS
 62
     6
100
AcDbLine
 10
1249.0
 20
2745.0
 30
0.0
 11
1949.0
 21
2745.0
 31
0.0
  0
LINE
  5
82D
100
AcDbEntity
  8
器具明細表_
  6
CONTINUOUS
 62
     6
100
AcDbLine
 10
1579.0
 20
2745.0
 30
0.0
 11
1579.0
 21
2420.000305
 31
0.0
  0
LINE
  5
82E
100
AcDbEntity
  8
器具明細表_
  6
CONTINUOUS
 62
     6
100
AcDbLine
 10
1859.0
 20
2745.0
 30
0.0
 11
1859.0
 21
2420.000305
 31
0.0
  0
LINE
  5
82F
100
AcDbEntity
  8
器具明細表_
  6
CONTINUOUS
 62
     6
100
AcDbLine
 10
1949.0
 20
2745.0
 30
0.0
 11
1949.0
 21
2420.000305
 31
0.0
  0
TEXT
  5
830
100
AcDbEntity
  8
器具明細表_
  6
CONTINUOUS
 62
     2
100
AcDbText
 10
1266.050781
 20
2757.004394
 30
0.0
 40
60.0
  1
器　具　明　細
 41
0.91
  7
EXCADSTD
 72
     5
 11
1721.050781
 21
2757.004394
 31
0.0
100
AcDbText
  0
TEXT
  5
831
100
AcDbEntity
  8
器具明細表_
  6
CONTINUOUS
 62
     2
100
AcDbText
 10
1299.400391
 20
2685.0
 30
0.0
 40
55.0
  1
品　　番
 41
0.859091
  7
EXCADSTD
 72
     5
 11
1524.400391
 21
2685.0
 31
0.0
100
AcDbText
  0
TEXT
  5
832
100
AcDbEntity
  8
器具明細表_
  6
CONTINUOUS
 62
     2
100
AcDbText
 10
1864.0
 20
2685.0
 30
0.0
 40
55.0
  1
個数
 41
0.664364
  7
EXCADSTD
 72
     5
 11
1943.7442
 21
2685.0
 31
0.0
100
AcDbText
  0
TEXT
  5
833
100
AcDbEntity
  8
器具明細表_
  6
CONTINUOUS
 62
     2
100
AcDbText
 10
1629.01709
 20
2685.0
 30
0.0
 40
55.0
  1
品　　名
 41
0.687273
  7
EXCADSTD
 72
     5
 11
1809.01709
 21
2685.0
 31
0.0
100
AcDbText
  0
TEXT
  5
834
100
AcDbEntity
  8
器具明細表_
  6
CONTINUOUS
 62
     2
100
AcDbText
 10
1884.0
 20
2558.613281
 30
0.0
 40
47.5
  1
１
 41
0.834695
  7
EXCADSTD
 72
     5
 11
1921.759998
 21
2558.613281
 31
0.0
100
AcDbText
  0
TEXT
  5
835
100
AcDbEntity
  8
器具明細表_
  6
CONTINUOUS
 62
     2
100
AcDbText
 10
1884.0
 20
2492.466126
 30
0.0
 40
47.5
  1
１
 41
0.834695
  7
EXCADSTD
 72
     5
 11
1921.759998
 21
2492.466126
 31
0.0
100
AcDbText
  0
TEXT
  5
836
100
AcDbEntity
  8
器具明細表_
  6
CONTINUOUS
 62
     2
100
AcDbText
 10
1582.918457
 20
2620.0
 30
0.0
 40
50.0
  1
小便器
 41
0.6664
  7
EXCADSTD
 72
     5
 11
1701.918457
 21
2620.0
 31
0.0
100
AcDbText
  0
TEXT
  5
837
100
AcDbEntity
  8
器具明細表_
  6
CONTINUOUS
 62
     2
100
AcDbText
 10
1884.0
 20
2623.981934
 30
0.0
 40
47.5
  1
１
 41
0.834695
  7
EXCADSTD
 72
     5
 11
1921.759998
 21
2623.981934
 31
0.0
100
AcDbText
  0
INSERT
  5
838
100
AcDbEntity
  8
器具明細表_
  6
CONTINUOUS
 62
     0
100
AcDbBlockReference
  2
NC510LSK
 10
1351.534424
 20
2829.388184
 30
0.0
 41
10.0
 42
10.0
  0
TEXT
  5
839
100
AcDbEntity
  8
器具明細表_
  6
CONTINUOUS
 62
     2
100
AcDbText
 10
1251.983856
 20
2427.479858
 30
0.0
 40
50.0
  1
ＮＴ７Ａ
 41
0.6384
  7
EXCADSTD
 72
     5
 11
1403.98386
 21
2427.479858
 31
0.0
100
AcDbText
  0
TEXT
  5
83A
100
AcDbEntity
  8
器具明細表_
  6
CONTINUOUS
 62
     2
100
AcDbText
 10
1582.918457
 20
2425.779114
 30
0.0
 40
50.0
  1
化粧頭付木ねじ
 41
0.6408
  7
EXCADSTD
 72
     5
 11
1849.918456
 21
2425.779114
 31
0.0
100
AcDbText
  0
TEXT
  5
83B
100
AcDbEntity
  8
器具明細表_
  6
CONTINUOUS
 62
     2
100
AcDbText
 10
1884.0
 20
2428.381653
 30
0.0
 40
47.5
  1
４
 41
0.834695
  7
EXCADSTD
 72
     5
 11
1921.759998
 21
2428.381653
 31
0.0
100
AcDbText
  0
TEXT
  5
83C
100
AcDbEntity
  8
器具明細表_
  6
CONTINUOUS
 62
     2
100
AcDbText
 10
1582.918457
 20
2555.778809
 30
0.0
 40
50.0
  1
Ｓトラップ
 41
0.5964
  7
EXCADSTD
 72
     5
 11
1760.418452
 21
2555.778809
 31
0.0
100
AcDbText
  0
TEXT
  5
83D
100
AcDbEntity
  8
器具明細表_
  6
CONTINUOUS
 62
     2
100
AcDbText
 10
1582.918457
 20
2490.779114
 30
0.0
 40
50.0
  1
洗浄水栓
 41
0.6552
  7
EXCADSTD
 72
     5
 11
1738.918457
 21
2490.779114
 31
0.0
100
AcDbText
  0
TEXT
  5
83E
100
AcDbEntity
  8
器具明細表_
  6
CONTINUOUS
 62
     2
100
AcDbText
 10
1251.983856
 20
2622.480469
 30
0.0
 40
50.0
  1
Ｕ１２０
 41
0.6552
  7
EXCADSTD
 72
     5
 11
1407.983856
 21
2622.480469
 31
0.0
100
AcDbText
  0
LINE
  5
83F
100
AcDbEntity
  8
器具明細表_
  6
CONTINUOUS
 62
     6
100
AcDbLine
 10
1249.0
 20
2745.0
 30
0.0
 11
1249.0
 21
2420.000305
 31
0.0
  0
TEXT
  5
840
100
AcDbEntity
  8
器具明細表_
  6
CONTINUOUS
 62
     2
100
AcDbText
 10
1251.983856
 20
2557.480469
 30
0.0
 40
50.0
  1
ＴＵ１２０
 41
0.64848
  7
EXCADSTD
 72
     5
 11
1444.983856
 21
2557.480469
 31
0.0
100
AcDbText
  0
TEXT
  5
841
100
AcDbEntity
  8
器具明細表_
  6
CONTINUOUS
 62
     2
100
AcDbText
 10
1251.983856
 20
2492.479858
 30
0.0
 40
50.0
  1
ＮＵ１－ＭＹ
 41
0.644
  7
EXCADSTD
 72
     5
 11
1481.983856
 21
2492.479858
 31
0.0
100
AcDbText
  0
ENDSEC
  0
SECTION
  2
OBJECTS
  0
DICTIONARY
  5
19
100
AcDbDictionary
  3
ACAD_GROUP
350
1A
  3
ACAD_MLINESTYLE
350
1B
  0
DICTIONARY
  5
1A
102
{ACAD_REACTORS
330
19
102
}
100
AcDbDictionary
  0
DICTIONARY
  5
1B
102
{ACAD_REACTORS
330
19
102
}
100
AcDbDictionary
  3
STANDARD
350
1C
  0
MLINESTYLE
  5
1C
102
{ACAD_REACTORS
330
1B
102
}
100
AcDbMlineStyle
  2
Standard
 70
     0
  3

 62
     0
 51
90.0
 52
90.0
 71
     2
 49
0.5
 62
   256
  6
ByLayer
 49
-0.5
 62
   256
  6
ByLayer
  0
ENDSEC
  0
EOF
