  0
SECTION
  2
HEADER
  9
$ACADVER
  1
AC1014
  9
$ACADMAINTVER
 70
     0
  9
$DWGCODEPAGE
  3
ANSI_932
  9
$INSBASE
 10
0.0
 20
0.0
 30
0.0
  9
$EXTMIN
 10
0.0
 20
11.5
 30
0.0
  9
$EXTMAX
 10
200.0
 20
291.5
 30
0.0
  9
$LIMMIN
 10
0.0
 20
0.0
  9
$LIMMAX
 10
210.0
 20
297.0
  9
$ORTHOMODE
 70
     0
  9
$REGENMODE
 70
     1
  9
$FILLMODE
 70
     1
  9
$QTEXTMODE
 70
     0
  9
$MIRRTEXT
 70
     1
  9
$DRAGMODE
 70
     2
  9
$LTSCALE
 40
1.0
  9
$OSMODE
 70
     0
  9
$ATTMODE
 70
     1
  9
$TEXTSIZE
 40
0.2
  9
$TRACEWID
 40
0.05
  9
$TEXTSTYLE
  7
STANDARD
  9
$CLAYER
  8
便器
  9
$CELTYPE
  6
CONTINUOUS
  9
$CECOLOR
 62
   256
  9
$CELTSCALE
 40
1.0
  9
$DELOBJ
 70
     1
  9
$DISPSILH
 70
     0
  9
$DIMSCALE
 40
1.0
  9
$DIMASZ
 40
0.18
  9
$DIMEXO
 40
0.0625
  9
$DIMDLI
 40
0.38
  9
$DIMRND
 40
0.0
  9
$DIMDLE
 40
0.0
  9
$DIMEXE
 40
0.18
  9
$DIMTP
 40
0.0
  9
$DIMTM
 40
0.0
  9
$DIMTXT
 40
0.18
  9
$DIMCEN
 40
0.09
  9
$DIMTSZ
 40
0.0
  9
$DIMTOL
 70
     0
  9
$DIMLIM
 70
     0
  9
$DIMTIH
 70
     1
  9
$DIMTOH
 70
     1
  9
$DIMSE1
 70
     0
  9
$DIMSE2
 70
     0
  9
$DIMTAD
 70
     0
  9
$DIMZIN
 70
     0
  9
$DIMBLK
  1

  9
$DIMASO
 70
     1
  9
$DIMSHO
 70
     1
  9
$DIMPOST
  1

  9
$DIMAPOST
  1

  9
$DIMALT
 70
     0
  9
$DIMALTD
 70
     2
  9
$DIMALTF
 40
25.4
  9
$DIMLFAC
 40
1.0
  9
$DIMTOFL
 70
     0
  9
$DIMTVP
 40
0.0
  9
$DIMTIX
 70
     0
  9
$DIMSOXD
 70
     0
  9
$DIMSAH
 70
     0
  9
$DIMBLK1
  1

  9
$DIMBLK2
  1

  9
$DIMSTYLE
  2
STANDARD
  9
$DIMCLRD
 70
     0
  9
$DIMCLRE
 70
     0
  9
$DIMCLRT
 70
     0
  9
$DIMTFAC
 40
1.0
  9
$DIMGAP
 40
0.09
  9
$DIMJUST
 70
     0
  9
$DIMSD1
 70
     0
  9
$DIMSD2
 70
     0
  9
$DIMTOLJ
 70
     1
  9
$DIMTZIN
 70
     0
  9
$DIMALTZ
 70
     0
  9
$DIMALTTZ
 70
     0
  9
$DIMFIT
 70
     3
  9
$DIMUPT
 70
     0
  9
$DIMUNIT
 70
     2
  9
$DIMDEC
 70
     4
  9
$DIMTDEC
 70
     4
  9
$DIMALTU
 70
     2
  9
$DIMALTTD
 70
     2
  9
$DIMTXSTY
  7
STANDARD
  9
$DIMAUNIT
 70
     0
  9
$LUNITS
 70
     2
  9
$LUPREC
 70
     4
  9
$SKETCHINC
 40
0.1
  9
$FILLETRAD
 40
0.0
  9
$AUNITS
 70
     0
  9
$AUPREC
 70
     0
  9
$MENU
  1
acad
  9
$ELEVATION
 40
0.0
  9
$PELEVATION
 40
0.0
  9
$THICKNESS
 40
0.0
  9
$LIMCHECK
 70
     0
  9
$BLIPMODE
 70
     1
  9
$CHAMFERA
 40
0.0
  9
$CHAMFERB
 40
0.0
  9
$CHAMFERC
 40
0.0
  9
$CHAMFERD
 40
0.0
  9
$SKPOLY
 70
     0
  9
$TDCREATE
 40
2455292.044245845
  9
$TDUPDATE
 40
2455292.044245845
  9
$TDINDWG
 40
0.0000000000
  9
$TDUSRTIMER
 40
0.0000000000
  9
$USRTIMER
 70
     1
  9
$ANGBASE
 50
0.0
  9
$ANGDIR
 70
     0
  9
$PDMODE
 70
     0
  9
$PDSIZE
 40
0.0
  9
$PLINEWID
 40
0.0
  9
$COORDS
 70
     1
  9
$SPLFRAME
 70
     0
  9
$SPLINETYPE
 70
     6
  9
$SPLINESEGS
 70
     8
  9
$ATTDIA
 70
     0
  9
$ATTREQ
 70
     1
  9
$HANDLING
 70
     1
  9
$HANDSEED
  5
A1E
  9
$SURFTAB1
 70
     6
  9
$SURFTAB2
 70
     6
  9
$SURFTYPE
 70
     6
  9
$SURFU
 70
     6
  9
$SURFV
 70
     6
  9
$UCSNAME
  2

  9
$UCSORG
 10
0.0
 20
0.0
 30
0.0
  9
$UCSXDIR
 10
1.0
 20
0.0
 30
0.0
  9
$UCSYDIR
 10
0.0
 20
1.0
 30
0.0
  9
$PUCSNAME
  2

  9
$PUCSORG
 10
0.0
 20
0.0
 30
0.0
  9
$PUCSXDIR
 10
1.0
 20
0.0
 30
0.0
  9
$PUCSYDIR
 10
0.0
 20
1.0
 30
0.0
  9
$USERI1
 70
     0
  9
$USERI2
 70
     0
  9
$USERI3
 70
     0
  9
$USERI4
 70
     0
  9
$USERI5
 70
     0
  9
$USERR1
 40
0.0
  9
$USERR2
 40
0.0
  9
$USERR3
 40
0.0
  9
$USERR4
 40
0.0
  9
$USERR5
 40
0.0
  9
$WORLDVIEW
 70
     1
  9
$SHADEDGE
 70
     3
  9
$SHADEDIF
 70
    70
  9
$TILEMODE
 70
     1
  9
$MAXACTVP
 70
    16
  9
$PINSBASE
 10
0.0
 20
0.0
 30
0.0
  9
$PLIMCHECK
 70
     0
  9
$PEXTMIN
 10
1.000000E+20
 20
1.000000E+20
 30
1.000000E+20
  9
$PEXTMAX
 10
-1.000000E+20
 20
-1.000000E+20
 30
-1.000000E+20
  9
$PLIMMIN
 10
0.0
 20
0.0
  9
$PLIMMAX
 10
12.0
 20
9.0
  9
$UNITMODE
 70
     0
  9
$VISRETAIN
 70
     0
  9
$PLINEGEN
 70
     1
  9
$PSLTSCALE
 70
     0
  9
$TREEDEPTH
 70
  3020
  9
$PICKSTYLE
 70
     1
  9
$CMLSTYLE
  2
Standard
  9
$CMLJUST
 70
     0
  9
$CMLSCALE
 40
1.0
  9
$PROXYGRAPHICS
 70
     0
  9
$MEASUREMENT
 70
     0
  0
ENDSEC
  0
SECTION
  2
CLASSES
  0
CLASS
  1
LWPOLYLINE
  2
AcDbPolyline
  3
"AutoCAD"
 90
        0
280
     0
281
     1
  0
CLASS
  1
IMAGE
  2
AcDbRasterImage
  3
ISM
 90
      127
280
     0
281
     1
  0
CLASS
  1
OLE2FRAME
  2
AcDbOle2Frame
  3
""
 90
        0
280
     0
281
     1
  0
CLASS
  1
HATCH
  2
AcDbHatch
  3
"ACAD_SEDONA"
 90
        0
280
     0
281
     1
  0
CLASS
  1
DICTIONARYVAR
  2
AcDbDictionaryVar
  3
"AutoCAD"
 90
        0
280
     0
281
     0
  0
CLASS
  1
RASTERVARIABLES
  2
AcDbRasterVariables
  3
ISM
 90
        0
280
     0
281
     0
  0
CLASS
  1
IMAGEDEF
  2
AcDbRasterImageDef
  3
ISM
 90
        0
280
     0
281
     0
  0
CLASS
  1
IMAGEDEF_REACTOR
  2
AcDbRasterImageDefReactor
  3
ISM
 90
        1
280
     0
281
     0
  0
CLASS
  1
IDBUFFER
  2
AcDbIdBuffer
  3
"Acad"
 90
        0
280
     0
281
     0
  0
CLASS
  1
SPATIAL_FILTER
  2
AcDbSpatialFilter
  3
"Acad"
 90
        0
280
     0
281
     0
  0
CLASS
  1
XRECORD
  2
AcDbXrecord
  3
"<Built In>"
 90
        0
280
     0
281
     0
  0
CLASS
  1
SORTENTSTABLE
  2
AcDbSortentsTable
  3
"AutoCAD"
 90
        0
280
     0
281
     0
  0
CLASS
  1
LAYER_INDEX
  2
AcDbLayerIndex
  3
"Acad"
 90
        0
280
     0
281
     0
  0
CLASS
  1
SPATIAL_INDEX
  2
AcDbSpatialIndex
  3
"Acad"
 90
        0
280
     0
281
     0
  0
CLASS
  1
OBJECT_PTR
  2
CAseDLPNTableRecord
  3
"ASE-LPNTableRecord"
 90
        1
280
     0
281
     0
  0
CLASS
  1
LAYOUT
  2
AcDbLayout
  3
"AutoCAD 2000"
 90
        1
280
     0
281
     0
  0
CLASS
  1
PLOTSETTINGS
  2
AcDbPlotSettings
  3
"AutoCAD 2000"
 90
        1
280
     0
281
     0
  0
CLASS
  1
ACDBDICTIONARYWDFLT
  2
AcDbDictionaryWithDefault
  3
"AutoCAD 2000"
 90
        1
280
     0
281
     0
  0
CLASS
  1
ACDBPLACEHOLDER
  2
AcDbPlaceHolder
  3
"AutoCAD 2000"
 90
        1
280
     0
281
     0
  0
CLASS
  1
VBA_PROJECT
  2
AcDbVbaProject
  3
"acadvba"
 90
        1
280
     0
281
     0
  0
CLASS
  1
WIPEOUT
  2
AcDbWipeout
  3
WipeOut|AutoCAD Express Tool|expresstools@autodesk.com
 90
      127
280
     0
281
     1
  0
CLASS
  1
WIPEOUTVARIABLES
  2
AcDbWipeoutVariables
  3
WipeOut|AutoCAD Express Tool|expresstools@autodesk.com
 90
        0
280
     0
281
     0
  0
CLASS
  1
RTEXT
  2
RText
  3
RText|AutoCAD Express Tool|expresstools@autodesk.com
 90
        0
280
     0
281
     1
  0
CLASS
  1
ARCALIGNEDTEXT
  2
AcDbArcAlignedText
  3
ATEXT|AutoCAD Express Tool|expresstools@autodesk.com
 90
        0
280
     0
281
     1
  0
ENDSEC
  0
SECTION
  2
TABLES
  0
TABLE
  2
VPORT
  5
7
100
AcDbSymbolTable
 70
     1
  0
VPORT
  5
15
100
AcDbSymbolTableRecord
100
AcDbViewportTableRecord
  2
*ACTIVE
 70
     0
 10
0.0
 20
0.0
 11
1.0
 21
1.0
 12
1000.0
 22
1515.0
 13
0.0
 23
0.0
 14
1.0
 24
1.0
 15
0.0
 25
0.0
 16
0.0
 26
0.0
 36
1.0
 17
0.0
 27
0.0
 37
0.0
 40
2800.0
 41
1.722533
 42
50.0
 43
0.0
 44
0.0
 50
0.0
 51
0.0
 71
     0
 72
   100
 73
     1
 74
     1
 75
     0
 76
     0
 77
     0
 78
     0
  0
ENDTAB
  0
TABLE
  2
LTYPE
  5
4
100
AcDbSymbolTable
 70
    14
  0
LTYPE
  5
11
100
AcDbSymbolTableRecord
100
AcDbLinetypeTableRecord
  2
BYBLOCK
 70
    64
  3

 72
    65
 73
     0
 40
0.0
  0
LTYPE
  5
12
100
AcDbSymbolTableRecord
100
AcDbLinetypeTableRecord
  2
BYLAYER
 70
    64
  3

 72
    65
 73
     0
 40
0.0
  0
LTYPE
  5
13
100
AcDbSymbolTableRecord
100
AcDbLinetypeTableRecord
  2
CONTINUOUS
 70
    64
  3
実線
 72
    65
 73
     0
 40
0.0
  0
LTYPE
  5
1D
100
AcDbSymbolTableRecord
100
AcDbLinetypeTableRecord
  2
EXLTYPE1
 70
    64
  3
破線
 72
    65
 73
     2
 40
3.0
 49
2.0
 74
     0
 49
-1.0
 74
     0
  0
LTYPE
  5
1E
100
AcDbSymbolTableRecord
100
AcDbLinetypeTableRecord
  2
EXLTYPE2
 70
    64
  3
点線
 72
    65
 73
     2
 40
2.0
 49
1.0
 74
     0
 49
-1.0
 74
     0
  0
LTYPE
  5
1F
100
AcDbSymbolTableRecord
100
AcDbLinetypeTableRecord
  2
EXLTYPE3
 70
    64
  3
一点鎖線
 72
    65
 73
     4
 40
10.0
 49
7.0
 74
     0
 49
-1.0
 74
     0
 49
1.0
 74
     0
 49
-1.0
 74
     0
  0
LTYPE
  5
20
100
AcDbSymbolTableRecord
100
AcDbLinetypeTableRecord
  2
EXLTYPE4
 70
    64
  3
二点鎖線
 72
    65
 73
     6
 40
12.0
 49
7.0
 74
     0
 49
-1.0
 74
     0
 49
1.0
 74
     0
 49
-1.0
 74
     0
 49
1.0
 74
     0
 49
-1.0
 74
     0
  0
LTYPE
  5
21
100
AcDbSymbolTableRecord
100
AcDbLinetypeTableRecord
  2
EXLTYPE5
 70
    64
  3
三点鎖線
 72
    65
 73
     8
 40
37.0
 49
30.0
 74
     0
 49
-1.0
 74
     0
 49
1.0
 74
     0
 49
-1.0
 74
     0
 49
1.0
 74
     0
 49
-1.0
 74
     0
 49
1.0
 74
     0
 49
-1.0
 74
     0
  0
LTYPE
  5
22
100
AcDbSymbolTableRecord
100
AcDbLinetypeTableRecord
  2
EXLTYPE6
 70
    64
  3
四点鎖線
 72
    65
 73
    10
 40
39.0
 49
30.0
 74
     0
 49
-1.0
 74
     0
 49
1.0
 74
     0
 49
-1.0
 74
     0
 49
1.0
 74
     0
 49
-1.0
 74
     0
 49
1.0
 74
     0
 49
-1.0
 74
     0
 49
1.0
 74
     0
 49
-1.0
 74
     0
  0
LTYPE
  5
23
100
AcDbSymbolTableRecord
100
AcDbLinetypeTableRecord
  2
EXLTYPE7
 70
    64
  3
二点鎖線3
 72
    65
 73
     6
 40
1.25
 49
0.625
 74
     0
 49
-0.125
 74
     0
 49
0.125
 74
     0
 49
-0.125
 74
     0
 49
0.125
 74
     0
 49
-0.125
 74
     0
  0
LTYPE
  5
24
100
AcDbSymbolTableRecord
100
AcDbLinetypeTableRecord
  2
EXLTYPE8
 70
    64
  3
破線3
 72
    65
 73
     2
 40
0.375
 49
0.25
 74
     0
 49
-0.125
 74
     0
  0
LTYPE
  5
25
100
AcDbSymbolTableRecord
100
AcDbLinetypeTableRecord
  2
EXLTYPE9
 70
    64
  3
破線2
 72
    65
 73
     2
 40
2.0
 49
1.0
 74
     0
 49
-1.0
 74
     0
  0
LTYPE
  5
26
100
AcDbSymbolTableRecord
100
AcDbLinetypeTableRecord
  2
EXLTYPE10
 70
    64
  3
一点鎖線3
 72
    65
 73
     4
 40
28.575
 49
19.05
 74
     0
 49
-3.175
 74
     0
 49
3.175
 74
     0
 49
-3.175
 74
     0
  0
LTYPE
  5
27
100
AcDbSymbolTableRecord
100
AcDbLinetypeTableRecord
  2
EXLTYPE11
 70
    64
  3
一点鎖線2
 72
    65
 73
     4
 40
1.25
 49
0.5
 74
     0
 49
-0.25
 74
     0
 49
0.25
 74
     0
 49
-0.25
 74
     0
  0
ENDTAB
  0
TABLE
  2
LAYER
  5
2
100
AcDbSymbolTable
 70
     9
  0
LAYER
  5
14
100
AcDbSymbolTableRecord
100
AcDbLayerTableRecord
  2
0
 70
     0
 62
     7
  6
CONTINUOUS
  0
LAYER
  5
2A
100
AcDbSymbolTableRecord
100
AcDbLayerTableRecord
  2
枠
 70
    64
 62
     7
  6
CONTINUOUS
  0
LAYER
  5
2B
100
AcDbSymbolTableRecord
100
AcDbLayerTableRecord
  2
便器
 70
    64
 62
     7
  6
CONTINUOUS
  0
LAYER
  5
2C
100
AcDbSymbolTableRecord
100
AcDbLayerTableRecord
  2
タンク
 70
    64
 62
     7
  6
CONTINUOUS
  0
LAYER
  5
2D
100
AcDbSymbolTableRecord
100
AcDbLayerTableRecord
  2
止水栓
 70
    64
 62
     7
  6
CONTINUOUS
  0
LAYER
  5
2E
100
AcDbSymbolTableRecord
100
AcDbLayerTableRecord
  2
便座
 70
    64
 62
     7
  6
CONTINUOUS
  0
LAYER
  5
2F
100
AcDbSymbolTableRecord
100
AcDbLayerTableRecord
  2
紙巻器
 70
    64
 62
     7
  6
CONTINUOUS
  0
LAYER
  5
30
100
AcDbSymbolTableRecord
100
AcDbLayerTableRecord
  2
寸法
 70
    64
 62
     7
  6
CONTINUOUS
  0
LAYER
  5
31
100
AcDbSymbolTableRecord
100
AcDbLayerTableRecord
  2
器具明細表
 70
    64
 62
     7
  6
CONTINUOUS
  0
ENDTAB
  0
TABLE
  2
STYLE
  5
3
100
AcDbSymbolTable
 70
     6
  0
STYLE
  5
17
100
AcDbSymbolTableRecord
100
AcDbTextStyleTableRecord
  2
STANDARD
 70
     0
 40
0.0
 41
1.0
 50
0.0
 71
     0
 42
0.0
  3
monotxt
  4
extfont
  0
STYLE
  5
28
100
AcDbSymbolTableRecord
100
AcDbTextStyleTableRecord
  2
EXCADSTD
 70
    64
 40
0.0
 41
1.0
 50
0.0
 71
     0
 42
0.2
  3
monotxt
  4
extfont
  0
STYLE
  5
29
100
AcDbSymbolTableRecord
100
AcDbTextStyleTableRecord
  2
EXCADVERT
 70
    68
 40
0.0
 41
1.0
 50
0.0
 71
     0
 42
0.286885
  3
monotxt
  4
extfont
  0
STYLE
  5
B1
100
AcDbSymbolTableRecord
100
AcDbTextStyleTableRecord
  2
EXCADTTF1
 70
    64
 40
0.0
 41
1.0
 50
0.0
 71
     0
 42
0.2
  3
MS Gothic.ttf
  4

1001
ACAD
1000
MS Gothic
1071
    32817
  0
STYLE
  5
DB
100
AcDbSymbolTableRecord
100
AcDbTextStyleTableRecord
  2
EXCADDIM1
 70
    64
 40
0.0
 41
0.84
 50
0.0
 71
     0
 42
0.2
  3
monotxt
  4
extfont
  0
STYLE
  5
27A
100
AcDbSymbolTableRecord
100
AcDbTextStyleTableRecord
  2
EXCADDIM2
 70
    64
 40
0.0
 41
0.95
 50
0.0
 71
     0
 42
0.2
  3
monotxt
  4
extfont
  0
ENDTAB
  0
TABLE
  2
VIEW
  5
5
100
AcDbSymbolTable
 70
     0
  0
ENDTAB
  0
TABLE
  2
UCS
  5
6
100
AcDbSymbolTable
 70
     0
  0
ENDTAB
  0
TABLE
  2
APPID
  5
8
100
AcDbSymbolTable
 70
     1
  0
APPID
  5
16
100
AcDbSymbolTableRecord
100
AcDbRegAppTableRecord
  2
ACAD
 70
     0
  0
ENDTAB
  0
TABLE
  2
DIMSTYLE
  5
9
100
AcDbSymbolTable
 70
     1
  0
DIMSTYLE
105
18
100
AcDbSymbolTableRecord
100
AcDbDimStyleTableRecord
  2
STANDARD
 70
     0
  3

  4

  5

  6

  7

 40
1.0
 41
0.18
 42
0.0625
 43
0.38
 44
0.18
 45
0.0
 46
0.0
 47
0.0
 48
0.0
 71
     0
 72
     0
 73
     1
 74
     1
 75
     0
 76
     0
 77
     0
 78
     0
140
0.18
141
0.09
142
0.0
143
25.4
144
1.0
145
0.0
146
1.0
147
0.09
170
     0
171
     2
172
     1
173
     0
174
     0
175
     0
176
     0
177
     0
178
     0
270
     2
271
     4
272
     4
273
     2
274
     2
275
     0
280
     0
281
     0
282
     0
283
     1
284
     0
285
     0
286
     0
287
     0
288
     0
340
17
  0
ENDTAB
  0
TABLE
  2
BLOCK_RECORD
  5
1
100
AcDbSymbolTable
 70
    30
  0
BLOCK_RECORD
  5
A
100
AcDbSymbolTableRecord
100
AcDbBlockTableRecord
  2
*MODEL_SPACE
  0
BLOCK_RECORD
  5
B
100
AcDbSymbolTableRecord
100
AcDbBlockTableRecord
  2
*PAPER_SPACE
  0
BLOCK_RECORD
  5
32
100
AcDbSymbolTableRecord
100
AcDbBlockTableRecord
  2
_EX_NORM
  0
BLOCK_RECORD
  5
33
100
AcDbSymbolTableRecord
100
AcDbBlockTableRecord
  2
_EX_BNORM
  0
BLOCK_RECORD
  5
34
100
AcDbSymbolTableRecord
100
AcDbBlockTableRecord
  2
_EX_BCIR
  0
BLOCK_RECORD
  5
35
100
AcDbSymbolTableRecord
100
AcDbBlockTableRecord
  2
_EX_RCIVIL
  0
BLOCK_RECORD
  5
36
100
AcDbSymbolTableRecord
100
AcDbBlockTableRecord
  2
_EX_SLANT
  0
BLOCK_RECORD
  5
37
100
AcDbSymbolTableRecord
100
AcDbBlockTableRecord
  2
_EX_NONE
  0
BLOCK_RECORD
  5
38
100
AcDbSymbolTableRecord
100
AcDbBlockTableRecord
  2
_EX_CIVIL
  0
BLOCK_RECORD
  5
39
100
AcDbSymbolTableRecord
100
AcDbBlockTableRecord
  2
_EX_WCIR
  0
BLOCK_RECORD
  5
3A
100
AcDbSymbolTableRecord
100
AcDbBlockTableRecord
  2
_EX_WCIR2
  0
BLOCK_RECORD
  5
3B
100
AcDbSymbolTableRecord
100
AcDbBlockTableRecord
  2
_EX_WNORM
  0
BLOCK_RECORD
  5
3C
100
AcDbSymbolTableRecord
100
AcDbBlockTableRecord
  2
_EX_NNORM
  0
BLOCK_RECORD
  5
3D
100
AcDbSymbolTableRecord
100
AcDbBlockTableRecord
  2
_EX_BBOX
  0
BLOCK_RECORD
  5
3E
100
AcDbSymbolTableRecord
100
AcDbBlockTableRecord
  2
_EX_WBOX
  0
BLOCK_RECORD
  5
3F
100
AcDbSymbolTableRecord
100
AcDbBlockTableRecord
  2
_EX_INTEGRAL
  0
BLOCK_RECORD
  5
D0
100
AcDbSymbolTableRecord
100
AcDbBlockTableRecord
  2
*D14
  0
BLOCK_RECORD
  5
DD
100
AcDbSymbolTableRecord
100
AcDbBlockTableRecord
  2
*D15
  0
BLOCK_RECORD
  5
1FF
100
AcDbSymbolTableRecord
100
AcDbBlockTableRecord
  2
*D16
  0
BLOCK_RECORD
  5
20B
100
AcDbSymbolTableRecord
100
AcDbBlockTableRecord
  2
*D17
  0
BLOCK_RECORD
  5
271
100
AcDbSymbolTableRecord
100
AcDbBlockTableRecord
  2
*D18
  0
BLOCK_RECORD
  5
989
100
AcDbSymbolTableRecord
100
AcDbBlockTableRecord
  2
*D19
  0
BLOCK_RECORD
  5
994
100
AcDbSymbolTableRecord
100
AcDbBlockTableRecord
  2
*D20
  0
BLOCK_RECORD
  5
99F
100
AcDbSymbolTableRecord
100
AcDbBlockTableRecord
  2
*D21
  0
BLOCK_RECORD
  5
9AB
100
AcDbSymbolTableRecord
100
AcDbBlockTableRecord
  2
*D22
  0
BLOCK_RECORD
  5
9B7
100
AcDbSymbolTableRecord
100
AcDbBlockTableRecord
  2
*D23
  0
BLOCK_RECORD
  5
9C2
100
AcDbSymbolTableRecord
100
AcDbBlockTableRecord
  2
*D24
  0
BLOCK_RECORD
  5
9CB
100
AcDbSymbolTableRecord
100
AcDbBlockTableRecord
  2
*D25
  0
BLOCK_RECORD
  5
9D7
100
AcDbSymbolTableRecord
100
AcDbBlockTableRecord
  2
*D26
  0
BLOCK_RECORD
  5
9E2
100
AcDbSymbolTableRecord
100
AcDbBlockTableRecord
  2
*D27
  0
BLOCK_RECORD
  5
9F4
100
AcDbSymbolTableRecord
100
AcDbBlockTableRecord
  2
*D28
  0
BLOCK_RECORD
  5
A00
100
AcDbSymbolTableRecord
100
AcDbBlockTableRecord
  2
*D29
  0
ENDTAB
  0
ENDSEC
  0
SECTION
  2
BLOCKS
  0
BLOCK
  5
D
100
AcDbEntity
  8
0
100
AcDbBlockBegin
  2
*MODEL_SPACE
 70
     0
 10
0.0
 20
0.0
 30
0.0
  3
*MODEL_SPACE
  1

  0
ENDBLK
  5
E
100
AcDbEntity
  8
0
100
AcDbBlockEnd
  0
BLOCK
  5
F
100
AcDbEntity
 67
     1
  8
0
100
AcDbBlockBegin
  2
*PAPER_SPACE
 70
     0
 10
0.0
 20
0.0
 30
0.0
  3
*PAPER_SPACE
  1

  0
ENDBLK
  5
10
100
AcDbEntity
 67
     1
  8
0
100
AcDbBlockEnd
  0
BLOCK
  5
40
100
AcDbEntity
  8
0
100
AcDbBlockBegin
  2
_EX_NORM
 70
     0
 10
0.0
 20
0.0
 30
0.0
  3
_EX_NORM
  1

  0
LINE
  5
41
100
AcDbEntity
  8
0
  6
CONTINUOUS
 62
     0
100
AcDbLine
 10
0.0
 20
0.0
 30
0.0
 11
-1.0
 21
0.0
 31
0.0
  0
LINE
  5
42
100
AcDbEntity
  8
0
  6
CONTINUOUS
 62
     0
100
AcDbLine
 10
0.0
 20
0.0
 30
0.0
 11
-1.0
 21
0.166667
 31
0.0
  0
LINE
  5
43
100
AcDbEntity
  8
0
  6
CONTINUOUS
 62
     0
100
AcDbLine
 10
0.0
 20
0.0
 30
0.0
 11
-1.0
 21
-0.166667
 31
0.0
  0
ENDBLK
  5
44
100
AcDbEntity
  8
0
100
AcDbBlockEnd
  0
BLOCK
  5
45
100
AcDbEntity
  8
0
100
AcDbBlockBegin
  2
_EX_BNORM
 70
     0
 10
0.0
 20
0.0
 30
0.0
  3
_EX_BNORM
  1

  0
LINE
  5
46
100
AcDbEntity
  8
0
  6
CONTINUOUS
 62
     0
100
AcDbLine
 10
0.0
 20
0.0
 30
0.0
 11
-1.0
 21
0.0
 31
0.0
  0
LINE
  5
47
100
AcDbEntity
  8
0
  6
CONTINUOUS
 62
     0
100
AcDbLine
 10
0.0
 20
0.0
 30
0.0
 11
-1.0
 21
0.166667
 31
0.0
  0
LINE
  5
48
100
AcDbEntity
  8
0
  6
CONTINUOUS
 62
     0
100
AcDbLine
 10
0.0
 20
0.0
 30
0.0
 11
-1.0
 21
-0.166667
 31
0.0
  0
LINE
  5
49
100
AcDbEntity
  8
0
  6
CONTINUOUS
 62
     0
100
AcDbLine
 10
0.0
 20
0.0
 30
0.0
 11
-1.0
 21
0.083333
 31
0.0
  0
LINE
  5
4A
100
AcDbEntity
  8
0
  6
CONTINUOUS
 62
     0
100
AcDbLine
 10
0.0
 20
0.0
 30
0.0
 11
-1.0
 21
-0.083333
 31
0.0
  0
LINE
  5
4B
100
AcDbEntity
  8
0
  6
CONTINUOUS
 62
     0
100
AcDbLine
 10
-1.0
 20
0.166667
 30
0.0
 11
-1.0
 21
-0.166667
 31
0.0
  0
ENDBLK
  5
4C
100
AcDbEntity
  8
0
100
AcDbBlockEnd
  0
BLOCK
  5
4D
100
AcDbEntity
  8
0
100
AcDbBlockBegin
  2
_EX_BCIR
 70
     0
 10
0.0
 20
0.0
 30
0.0
  3
_EX_BCIR
  1

  0
LINE
  5
4E
100
AcDbEntity
  8
0
  6
CONTINUOUS
 62
     0
100
AcDbLine
 10
0.0
 20
0.0
 30
0.0
 11
-1.0
 21
0.0
 31
0.0
  0
CIRCLE
  5
4F
100
AcDbEntity
  8
0
  6
CONTINUOUS
 62
     0
100
AcDbCircle
 10
0.0
 20
0.0
 30
0.0
 40
0.5
  0
CIRCLE
  5
50
100
AcDbEntity
  8
0
  6
CONTINUOUS
 62
     0
100
AcDbCircle
 10
0.0
 20
0.0
 30
0.0
 40
0.25
  0
ENDBLK
  5
51
100
AcDbEntity
  8
0
100
AcDbBlockEnd
  0
BLOCK
  5
52
100
AcDbEntity
  8
0
100
AcDbBlockBegin
  2
_EX_RCIVIL
 70
     0
 10
0.0
 20
0.0
 30
0.0
  3
_EX_RCIVIL
  1

  0
LINE
  5
53
100
AcDbEntity
  8
0
  6
CONTINUOUS
 62
     0
100
AcDbLine
 10
0.0
 20
0.0
 30
0.0
 11
-1.0
 21
0.0
 31
0.0
  0
LINE
  5
54
100
AcDbEntity
  8
0
  6
CONTINUOUS
 62
     0
100
AcDbLine
 10
-1.0
 20
-0.25
 30
0.0
 11
0.0
 21
-0.25
 31
0.0
  0
LINE
  5
55
100
AcDbEntity
  8
0
  6
CONTINUOUS
 62
     0
100
AcDbLine
 10
-1.0
 20
-0.125
 30
0.0
 11
0.0
 21
-0.125
 31
0.0
  0
ENDBLK
  5
56
100
AcDbEntity
  8
0
100
AcDbBlockEnd
  0
BLOCK
  5
57
100
AcDbEntity
  8
0
100
AcDbBlockBegin
  2
_EX_SLANT
 70
     0
 10
0.0
 20
0.0
 30
0.0
  3
_EX_SLANT
  1

  0
LINE
  5
58
100
AcDbEntity
  8
0
  6
CONTINUOUS
 62
     0
100
AcDbLine
 10
0.0
 20
0.0
 30
0.0
 11
-1.0
 21
0.0
 31
0.0
  0
LINE
  5
59
100
AcDbEntity
  8
0
  6
CONTINUOUS
 62
     0
100
AcDbLine
 10
0.707107
 20
0.707107
 30
0.0
 11
-0.707107
 21
-0.707107
 31
0.0
  0
ENDBLK
  5
5A
100
AcDbEntity
  8
0
100
AcDbBlockEnd
  0
BLOCK
  5
5B
100
AcDbEntity
  8
0
100
AcDbBlockBegin
  2
_EX_NONE
 70
     0
 10
0.0
 20
0.0
 30
0.0
  3
_EX_NONE
  1

  0
LINE
  5
5C
100
AcDbEntity
  8
0
  6
CONTINUOUS
 62
     0
100
AcDbLine
 10
0.0
 20
0.0
 30
0.0
 11
-1.0
 21
0.0
 31
0.0
  0
ENDBLK
  5
5D
100
AcDbEntity
  8
0
100
AcDbBlockEnd
  0
BLOCK
  5
5E
100
AcDbEntity
  8
0
100
AcDbBlockBegin
  2
_EX_CIVIL
 70
     0
 10
0.0
 20
0.0
 30
0.0
  3
_EX_CIVIL
  1

  0
LINE
  5
5F
100
AcDbEntity
  8
0
  6
CONTINUOUS
 62
     0
100
AcDbLine
 10
0.0
 20
0.0
 30
0.0
 11
-1.0
 21
0.0
 31
0.0
  0
LINE
  5
60
100
AcDbEntity
  8
0
  6
CONTINUOUS
 62
     0
100
AcDbLine
 10
-1.0
 20
0.25
 30
0.0
 11
0.0
 21
0.25
 31
0.0
  0
LINE
  5
61
100
AcDbEntity
  8
0
  6
CONTINUOUS
 62
     0
100
AcDbLine
 10
-1.0
 20
0.125
 30
0.0
 11
0.0
 21
0.125
 31
0.0
  0
ENDBLK
  5
62
100
AcDbEntity
  8
0
100
AcDbBlockEnd
  0
BLOCK
  5
63
100
AcDbEntity
  8
0
100
AcDbBlockBegin
  2
_EX_WCIR
 70
     0
 10
0.0
 20
0.0
 30
0.0
  3
_EX_WCIR
  1

  0
LINE
  5
64
100
AcDbEntity
  8
0
  6
CONTINUOUS
 62
     0
100
AcDbLine
 10
0.0
 20
0.0
 30
0.0
 11
-1.0
 21
0.0
 31
0.0
  0
CIRCLE
  5
65
100
AcDbEntity
  8
0
  6
CONTINUOUS
 62
     0
100
AcDbCircle
 10
0.0
 20
0.0
 30
0.0
 40
0.5
  0
ENDBLK
  5
66
100
AcDbEntity
  8
0
100
AcDbBlockEnd
  0
BLOCK
  5
67
100
AcDbEntity
  8
0
100
AcDbBlockBegin
  2
_EX_WCIR2
 70
     0
 10
0.0
 20
0.0
 30
0.0
  3
_EX_WCIR2
  1

  0
LINE
  5
68
100
AcDbEntity
  8
0
  6
CONTINUOUS
 62
     0
100
AcDbLine
 10
-0.5
 20
0.0
 30
0.0
 11
-1.0
 21
0.0
 31
0.0
  0
CIRCLE
  5
69
100
AcDbEntity
  8
0
  6
CONTINUOUS
 62
     0
100
AcDbCircle
 10
0.0
 20
0.0
 30
0.0
 40
0.5
  0
ENDBLK
  5
6A
100
AcDbEntity
  8
0
100
AcDbBlockEnd
  0
BLOCK
  5
6B
100
AcDbEntity
  8
0
100
AcDbBlockBegin
  2
_EX_WNORM
 70
     0
 10
0.0
 20
0.0
 30
0.0
  3
_EX_WNORM
  1

  0
LINE
  5
6C
100
AcDbEntity
  8
0
  6
CONTINUOUS
 62
     0
100
AcDbLine
 10
-1.0
 20
0.0
 30
0.0
 11
-1.0
 21
0.0
 31
0.0
  0
LINE
  5
6D
100
AcDbEntity
  8
0
  6
CONTINUOUS
 62
     0
100
AcDbLine
 10
0.0
 20
0.0
 30
0.0
 11
-1.0
 21
0.166667
 31
0.0
  0
LINE
  5
6E
100
AcDbEntity
  8
0
  6
CONTINUOUS
 62
     0
100
AcDbLine
 10
0.0
 20
0.0
 30
0.0
 11
-1.0
 21
-0.166667
 31
0.0
  0
LINE
  5
6F
100
AcDbEntity
  8
0
  6
CONTINUOUS
 62
     0
100
AcDbLine
 10
-1.0
 20
0.166667
 30
0.0
 11
-1.0
 21
-0.166667
 31
0.0
  0
ENDBLK
  5
70
100
AcDbEntity
  8
0
100
AcDbBlockEnd
  0
BLOCK
  5
71
100
AcDbEntity
  8
0
100
AcDbBlockBegin
  2
_EX_NNORM
 70
     0
 10
0.0
 20
0.0
 30
0.0
  3
_EX_NNORM
  1

  0
LINE
  5
72
100
AcDbEntity
  8
0
  6
CONTINUOUS
 62
     0
100
AcDbLine
 10
0.0
 20
0.0
 30
0.0
 11
-1.0
 21
0.0
 31
0.0
  0
LINE
  5
73
100
AcDbEntity
  8
0
  6
CONTINUOUS
 62
     0
100
AcDbLine
 10
0.0
 20
0.0
 30
0.0
 11
-1.0
 21
0.166667
 31
0.0
  0
LINE
  5
74
100
AcDbEntity
  8
0
  6
CONTINUOUS
 62
     0
100
AcDbLine
 10
0.0
 20
0.0
 30
0.0
 11
-1.0
 21
-0.166667
 31
0.0
  0
LINE
  5
75
100
AcDbEntity
  8
0
  6
CONTINUOUS
 62
     0
100
AcDbLine
 10
-1.0
 20
0.166667
 30
0.0
 11
-1.0
 21
-0.166667
 31
0.0
  0
ENDBLK
  5
76
100
AcDbEntity
  8
0
100
AcDbBlockEnd
  0
BLOCK
  5
77
100
AcDbEntity
  8
0
100
AcDbBlockBegin
  2
_EX_BBOX
 70
     0
 10
0.0
 20
0.0
 30
0.0
  3
_EX_BBOX
  1

  0
LINE
  5
78
100
AcDbEntity
  8
0
  6
CONTINUOUS
 62
     0
100
AcDbLine
 10
0.0
 20
0.0
 30
0.0
 11
-1.0
 21
0.0
 31
0.0
  0
LINE
  5
79
100
AcDbEntity
  8
0
  6
CONTINUOUS
 62
     0
100
AcDbLine
 10
-0.5
 20
0.5
 30
0.0
 11
0.5
 21
0.5
 31
0.0
  0
LINE
  5
7A
100
AcDbEntity
  8
0
  6
CONTINUOUS
 62
     0
100
AcDbLine
 10
0.5
 20
0.5
 30
0.0
 11
0.5
 21
-0.5
 31
0.0
  0
LINE
  5
7B
100
AcDbEntity
  8
0
  6
CONTINUOUS
 62
     0
100
AcDbLine
 10
0.5
 20
-0.5
 30
0.0
 11
-0.5
 21
-0.5
 31
0.0
  0
LINE
  5
7C
100
AcDbEntity
  8
0
  6
CONTINUOUS
 62
     0
100
AcDbLine
 10
-0.5
 20
-0.5
 30
0.0
 11
-0.5
 21
0.5
 31
0.0
  0
LINE
  5
7D
100
AcDbEntity
  8
0
  6
CONTINUOUS
 62
     0
100
AcDbLine
 10
-0.25
 20
0.25
 30
0.0
 11
0.25
 21
0.25
 31
0.0
  0
LINE
  5
7E
100
AcDbEntity
  8
0
  6
CONTINUOUS
 62
     0
100
AcDbLine
 10
0.25
 20
0.25
 30
0.0
 11
0.25
 21
-0.25
 31
0.0
  0
LINE
  5
7F
100
AcDbEntity
  8
0
  6
CONTINUOUS
 62
     0
100
AcDbLine
 10
0.25
 20
-0.25
 30
0.0
 11
-0.25
 21
-0.25
 31
0.0
  0
LINE
  5
80
100
AcDbEntity
  8
0
  6
CONTINUOUS
 62
     0
100
AcDbLine
 10
-0.25
 20
-0.25
 30
0.0
 11
-0.25
 21
0.25
 31
0.0
  0
ENDBLK
  5
81
100
AcDbEntity
  8
0
100
AcDbBlockEnd
  0
BLOCK
  5
82
100
AcDbEntity
  8
0
100
AcDbBlockBegin
  2
_EX_WBOX
 70
     0
 10
0.0
 20
0.0
 30
0.0
  3
_EX_WBOX
  1

  0
LINE
  5
83
100
AcDbEntity
  8
0
  6
CONTINUOUS
 62
     0
100
AcDbLine
 10
-0.5
 20
0.0
 30
0.0
 11
-1.0
 21
0.0
 31
0.0
  0
LINE
  5
84
100
AcDbEntity
  8
0
  6
CONTINUOUS
 62
     0
100
AcDbLine
 10
-0.5
 20
0.5
 30
0.0
 11
0.5
 21
0.5
 31
0.0
  0
LINE
  5
85
100
AcDbEntity
  8
0
  6
CONTINUOUS
 62
     0
100
AcDbLine
 10
0.5
 20
0.5
 30
0.0
 11
0.5
 21
-0.5
 31
0.0
  0
LINE
  5
86
100
AcDbEntity
  8
0
  6
CONTINUOUS
 62
     0
100
AcDbLine
 10
0.5
 20
-0.5
 30
0.0
 11
-0.5
 21
-0.5
 31
0.0
  0
LINE
  5
87
100
AcDbEntity
  8
0
  6
CONTINUOUS
 62
     0
100
AcDbLine
 10
-0.5
 20
-0.5
 30
0.0
 11
-0.5
 21
0.5
 31
0.0
  0
ENDBLK
  5
88
100
AcDbEntity
  8
0
100
AcDbBlockEnd
  0
BLOCK
  5
89
100
AcDbEntity
  8
0
100
AcDbBlockBegin
  2
_EX_INTEGRAL
 70
     0
 10
0.0
 20
0.0
 30
0.0
  3
_EX_INTEGRAL
  1

  0
LINE
  5
8A
100
AcDbEntity
  8
0
  6
CONTINUOUS
 62
     0
100
AcDbLine
 10
0.0
 20
0.0
 30
0.0
 11
-1.0
 21
0.0
 31
0.0
  0
ARC
  5
8B
100
AcDbEntity
  8
0
  6
CONTINUOUS
 62
     0
100
AcDbCircle
 10
0.542115
 20
0.164992
 30
0.0
 40
0.56667
100
AcDbArc
 50
73.07249
 51
196.927513
  0
ARC
  5
8C
100
AcDbEntity
  8
0
  6
CONTINUOUS
 62
     0
100
AcDbCircle
 10
-0.542115
 20
-0.164992
 30
0.0
 40
0.56667
100
AcDbArc
 50
253.072487
 51
16.927513
  0
ENDBLK
  5
8D
100
AcDbEntity
  8
0
100
AcDbBlockEnd
  0
BLOCK
  5
D1
100
AcDbEntity
  8
0
100
AcDbBlockBegin
  2
*D14
 70
    65
 10
0.0
 20
0.0
 30
0.0
  3
*D14
  1

  0
LINE
  5
D2
100
AcDbEntity
  8
便器
  6
CONTINUOUS
 62
     3
100
AcDbLine
 10
854.006811
 20
2620.500069
 30
0.0
 11
1218.0
 21
2620.500069
 31
0.0
  0
LINE
  5
D3
100
AcDbEntity
  8
便器
  6
CONTINUOUS
 62
     3
100
AcDbLine
 10
854.006811
 20
2265.49997
 30
0.0
 11
1218.0
 21
2265.49997
 31
0.0
  0
TEXT
  5
D4
100
AcDbEntity
  8
便器
  6
CONTINUOUS
 62
     2
100
AcDbText
 10
1204.5
 20
2401.000019
 30
0.0
 40
40.0
  1
355
 50
90.0
 41
0.84
  7
EXCADSTD
 72
     1
 11
1204.5
 21
2443.000019
 31
0.0
100
AcDbText
  0
LINE
  5
D5
100
AcDbEntity
  8
便器
  6
CONTINUOUS
 62
     3
100
AcDbLine
 10
1208.0
 20
2620.500069
 30
0.0
 11
1208.0
 21
2265.49997
 31
0.0
  0
LINE
  5
D6
100
AcDbEntity
  8
便器
  6
CONTINUOUS
 62
     3
100
AcDbLine
 10
1213.0
 20
2590.500069
 30
0.0
 11
1208.0
 21
2620.500069
 31
0.0
  0
LINE
  5
D7
100
AcDbEntity
  8
便器
  6
CONTINUOUS
 62
     3
100
AcDbLine
 10
1208.0
 20
2620.500069
 30
0.0
 11
1203.0
 21
2590.500069
 31
0.0
  0
LINE
  5
D8
100
AcDbEntity
  8
便器
  6
CONTINUOUS
 62
     3
100
AcDbLine
 10
1203.0
 20
2295.49997
 30
0.0
 11
1208.0
 21
2265.49997
 31
0.0
  0
LINE
  5
D9
100
AcDbEntity
  8
便器
  6
CONTINUOUS
 62
     3
100
AcDbLine
 10
1208.0
 20
2265.49997
 30
0.0
 11
1213.0
 21
2295.49997
 31
0.0
  0
ENDBLK
  5
DA
100
AcDbEntity
  8
0
100
AcDbBlockEnd
  0
BLOCK
  5
DE
100
AcDbEntity
  8
0
100
AcDbBlockBegin
  2
*D15
 70
    65
 10
0.0
 20
0.0
 30
0.0
  3
*D15
  1

  0
LINE
  5
DF
100
AcDbEntity
  8
便器
  6
CONTINUOUS
 62
     3
100
AcDbLine
 10
344.017073
 20
2013.0
 30
0.0
 11
1134.006811
 21
2013.0
 31
0.0
  0
LINE
  5
E0
100
AcDbEntity
  8
便器
  6
CONTINUOUS
 62
     3
100
AcDbLine
 10
374.017073
 20
2018.0
 30
0.0
 11
344.017073
 21
2013.0
 31
0.0
  0
LINE
  5
E1
100
AcDbEntity
  8
便器
  6
CONTINUOUS
 62
     3
100
AcDbLine
 10
344.017073
 20
2013.0
 30
0.0
 11
374.017073
 21
2008.0
 31
0.0
  0
LINE
  5
E2
100
AcDbEntity
  8
便器
  6
CONTINUOUS
 62
     3
100
AcDbLine
 10
1104.006811
 20
2008.0
 30
0.0
 11
1134.006811
 21
2013.0
 31
0.0
  0
LINE
  5
E3
100
AcDbEntity
  8
便器
  6
CONTINUOUS
 62
     3
100
AcDbLine
 10
1134.006811
 20
2013.0
 30
0.0
 11
1104.006811
 21
2018.0
 31
0.0
  0
TEXT
  5
E4
100
AcDbEntity
  8
便器
  6
CONTINUOUS
 62
     2
100
AcDbText
 10
697.011942
 20
2016.5
 30
0.0
 40
40.0
  1
790
 41
0.84
  7
EXCADSTD
 72
     1
 11
739.011942
 21
2016.5
 31
0.0
100
AcDbText
  0
LINE
  5
E5
100
AcDbEntity
  8
便器
  6
CONTINUOUS
 62
     3
100
AcDbLine
 10
1134.006811
 20
2090.0
 30
0.0
 11
1134.006811
 21
2003.0
 31
0.0
  0
ENDBLK
  5
E6
100
AcDbEntity
  8
0
100
AcDbBlockEnd
  0
BLOCK
  5
200
100
AcDbEntity
  8
0
100
AcDbBlockBegin
  2
*D16
 70
    65
 10
0.0
 20
0.0
 30
0.0
  3
*D16
  1

  0
LINE
  5
201
100
AcDbEntity
  8
タンク
  6
CONTINUOUS
 62
     3
100
AcDbLine
 10
344.017073
 20
496.700049
 30
0.0
 11
344.017073
 21
405.0
 31
0.0
  0
TEXT
  5
202
100
AcDbEntity
  8
タンク
  6
CONTINUOUS
 62
     2
100
AcDbText
 10
404.517073
 20
418.5
 30
0.0
 40
40.0
  1
205
 41
0.84
  7
EXCADSTD
 72
     1
 11
446.517073
 21
418.5
 31
0.0
100
AcDbText
  0
LINE
  5
203
100
AcDbEntity
  8
タンク
  6
CONTINUOUS
 62
     3
100
AcDbLine
 10
344.017073
 20
415.0
 30
0.0
 11
549.017073
 21
415.0
 31
0.0
  0
LINE
  5
204
100
AcDbEntity
  8
タンク
  6
CONTINUOUS
 62
     3
100
AcDbLine
 10
374.017073
 20
420.0
 30
0.0
 11
344.017073
 21
415.0
 31
0.0
  0
LINE
  5
205
100
AcDbEntity
  8
タンク
  6
CONTINUOUS
 62
     3
100
AcDbLine
 10
344.017073
 20
415.0
 30
0.0
 11
374.017073
 21
410.0
 31
0.0
  0
LINE
  5
206
100
AcDbEntity
  8
タンク
  6
CONTINUOUS
 62
     3
100
AcDbLine
 10
519.017073
 20
410.0
 30
0.0
 11
549.017073
 21
415.0
 31
0.0
  0
LINE
  5
207
100
AcDbEntity
  8
タンク
  6
CONTINUOUS
 62
     3
100
AcDbLine
 10
549.017073
 20
415.0
 30
0.0
 11
519.017073
 21
420.0
 31
0.0
  0
LINE
  5
208
100
AcDbEntity
  8
タンク
  6
CONTINUOUS
 62
     3
100
AcDbLine
 10
549.017073
 20
673.00013
 30
0.0
 11
549.017073
 21
405.0
 31
0.0
  0
ENDBLK
  5
209
100
AcDbEntity
  8
0
100
AcDbBlockEnd
  0
BLOCK
  5
20C
100
AcDbEntity
  8
0
100
AcDbBlockBegin
  2
*D17
 70
    65
 10
0.0
 20
0.0
 30
0.0
  3
*D17
  1

  0
LINE
  5
20D
100
AcDbEntity
  8
タンク
  6
CONTINUOUS
 62
     3
100
AcDbLine
 10
1548.000123
 20
463.900003
 30
0.0
 11
1548.000123
 21
398.0
 31
0.0
  0
LINE
  5
20E
100
AcDbEntity
  8
タンク
  6
CONTINUOUS
 62
     3
100
AcDbLine
 10
1767.999879
 20
463.900002
 30
0.0
 11
1767.999879
 21
398.0
 31
0.0
  0
TEXT
  5
20F
100
AcDbEntity
  8
タンク
  6
CONTINUOUS
 62
     2
100
AcDbText
 10
1616.000001
 20
411.5
 30
0.0
 40
40.0
  1
220
 41
0.84
  7
EXCADSTD
 72
     1
 11
1658.000001
 21
411.5
 31
0.0
100
AcDbText
  0
LINE
  5
210
100
AcDbEntity
  8
タンク
  6
CONTINUOUS
 62
     3
100
AcDbLine
 10
1548.000123
 20
408.0
 30
0.0
 11
1767.999879
 21
408.0
 31
0.0
  0
LINE
  5
211
100
AcDbEntity
  8
タンク
  6
CONTINUOUS
 62
     3
100
AcDbLine
 10
1578.000123
 20
413.0
 30
0.0
 11
1548.000123
 21
408.0
 31
0.0
  0
LINE
  5
212
100
AcDbEntity
  8
タンク
  6
CONTINUOUS
 62
     3
100
AcDbLine
 10
1548.000123
 20
408.0
 30
0.0
 11
1578.000123
 21
403.0
 31
0.0
  0
LINE
  5
213
100
AcDbEntity
  8
タンク
  6
CONTINUOUS
 62
     3
100
AcDbLine
 10
1737.999879
 20
403.0
 30
0.0
 11
1767.999879
 21
408.0
 31
0.0
  0
LINE
  5
214
100
AcDbEntity
  8
タンク
  6
CONTINUOUS
 62
     3
100
AcDbLine
 10
1767.999879
 20
408.0
 30
0.0
 11
1737.999879
 21
413.0
 31
0.0
  0
ENDBLK
  5
215
100
AcDbEntity
  8
0
100
AcDbBlockEnd
  0
BLOCK
  5
272
100
AcDbEntity
  8
0
100
AcDbBlockBegin
  2
*D18
 70
    65
 10
0.0
 20
0.0
 30
0.0
  3
*D18
  1

  0
LINE
  5
273
100
AcDbEntity
  8
タンク
  6
CONTINUOUS
 62
     3
100
AcDbLine
 10
243.0
 20
888.000004
 30
0.0
 11
243.0
 21
1448.00007
 31
0.0
  0
LINE
  5
274
100
AcDbEntity
  8
タンク
  6
CONTINUOUS
 62
     3
100
AcDbLine
 10
237.166667
 20
923.000004
 30
0.0
 11
243.0
 21
888.000004
 31
0.0
  0
LINE
  5
275
100
AcDbEntity
  8
タンク
  6
CONTINUOUS
 62
     3
100
AcDbLine
 10
243.0
 20
888.000004
 30
0.0
 11
248.833333
 21
923.000004
 31
0.0
  0
LINE
  5
276
100
AcDbEntity
  8
タンク
  6
CONTINUOUS
 62
     3
100
AcDbLine
 10
248.833333
 20
1413.00007
 30
0.0
 11
243.0
 21
1448.00007
 31
0.0
  0
LINE
  5
277
100
AcDbEntity
  8
タンク
  6
CONTINUOUS
 62
     3
100
AcDbLine
 10
243.0
 20
1448.00007
 30
0.0
 11
237.166667
 21
1413.00007
 31
0.0
  0
TEXT
  5
278
100
AcDbEntity
  8
タンク
  6
CONTINUOUS
 62
     2
100
AcDbText
 10
239.5
 20
1118.020037
 30
0.0
 40
40.0
  1
560
 50
90.0
 41
0.945
  7
EXCADSTD
 72
     1
 11
239.5
 21
1168.000037
 31
0.0
100
AcDbText
  0
ENDBLK
  5
279
100
AcDbEntity
  8
0
100
AcDbBlockEnd
  0
BLOCK
  5
98A
100
AcDbEntity
  8
0
100
AcDbBlockBegin
  2
*D19
 70
    65
 10
0.0
 20
0.0
 30
0.0
  3
*D19
  1

  0
LINE
  5
98B
100
AcDbEntity
  8
寸法
  6
CONTINUOUS
 62
     3
100
AcDbLine
 10
339.017073
 20
503.000004
 30
0.0
 11
233.0
 21
503.000004
 31
0.0
  0
TEXT
  5
98C
100
AcDbEntity
  8
寸法
  6
CONTINUOUS
 62
     2
100
AcDbText
 10
239.5
 20
653.500004
 30
0.0
 40
40.0
  1
385
 50
90.0
 41
0.84
  7
EXCADSTD
 72
     1
 11
239.5
 21
695.500004
 31
0.0
100
AcDbText
  0
LINE
  5
98D
100
AcDbEntity
  8
寸法
  6
CONTINUOUS
 62
     3
100
AcDbLine
 10
243.0
 20
888.000004
 30
0.0
 11
243.0
 21
503.000004
 31
0.0
  0
LINE
  5
98E
100
AcDbEntity
  8
寸法
  6
CONTINUOUS
 62
     3
100
AcDbLine
 10
248.0
 20
858.000004
 30
0.0
 11
243.0
 21
888.000004
 31
0.0
  0
LINE
  5
98F
100
AcDbEntity
  8
寸法
  6
CONTINUOUS
 62
     3
100
AcDbLine
 10
243.0
 20
888.000004
 30
0.0
 11
238.0
 21
858.000004
 31
0.0
  0
LINE
  5
990
100
AcDbEntity
  8
寸法
  6
CONTINUOUS
 62
     3
100
AcDbLine
 10
238.0
 20
533.000004
 30
0.0
 11
243.0
 21
503.000004
 31
0.0
  0
LINE
  5
991
100
AcDbEntity
  8
寸法
  6
CONTINUOUS
 62
     3
100
AcDbLine
 10
243.0
 20
503.000004
 30
0.0
 11
248.0
 21
533.000004
 31
0.0
  0
ENDBLK
  5
992
100
AcDbEntity
  8
0
100
AcDbBlockEnd
  0
BLOCK
  5
995
100
AcDbEntity
  8
0
100
AcDbBlockBegin
  2
*D20
 70
    65
 10
0.0
 20
0.0
 30
0.0
  3
*D20
  1

  0
LINE
  5
996
100
AcDbEntity
  8
寸法
  6
CONTINUOUS
 62
     3
100
AcDbLine
 10
1219.0
 20
873.000004
 30
0.0
 11
1219.0
 21
503.000324
 31
0.0
  0
LINE
  5
997
100
AcDbEntity
  8
寸法
  6
CONTINUOUS
 62
     3
100
AcDbLine
 10
1224.0
 20
843.000004
 30
0.0
 11
1219.0
 21
873.000004
 31
0.0
  0
LINE
  5
998
100
AcDbEntity
  8
寸法
  6
CONTINUOUS
 62
     3
100
AcDbLine
 10
1219.0
 20
873.000004
 30
0.0
 11
1214.0
 21
843.000004
 31
0.0
  0
LINE
  5
999
100
AcDbEntity
  8
寸法
  6
CONTINUOUS
 62
     3
100
AcDbLine
 10
1214.0
 20
533.000324
 30
0.0
 11
1219.0
 21
503.000324
 31
0.0
  0
LINE
  5
99A
100
AcDbEntity
  8
寸法
  6
CONTINUOUS
 62
     3
100
AcDbLine
 10
1219.0
 20
503.000324
 30
0.0
 11
1224.0
 21
533.000324
 31
0.0
  0
TEXT
  5
99B
100
AcDbEntity
  8
寸法
  6
CONTINUOUS
 62
     2
100
AcDbText
 10
1215.5
 20
646.000164
 30
0.0
 40
40.0
  1
370
 50
90.0
 41
0.84
  7
EXCADSTD
 72
     1
 11
1215.5
 21
688.000164
 31
0.0
100
AcDbText
  0
LINE
  5
99C
100
AcDbEntity
  8
寸法
  6
CONTINUOUS
 62
     3
100
AcDbLine
 10
1135.000006
 20
873.000004
 30
0.0
 11
1229.0
 21
873.000004
 31
0.0
  0
ENDBLK
  5
99D
100
AcDbEntity
  8
0
100
AcDbBlockEnd
  0
BLOCK
  5
9A0
100
AcDbEntity
  8
0
100
AcDbBlockBegin
  2
*D21
 70
    65
 10
0.0
 20
0.0
 30
0.0
  3
*D21
  1

  0
LINE
  5
9A1
100
AcDbEntity
  8
寸法
  6
CONTINUOUS
 62
     3
100
AcDbLine
 10
434.074076
 20
2448.0001
 30
0.0
 11
434.074076
 21
2713.0
 31
0.0
  0
LINE
  5
9A2
100
AcDbEntity
  8
寸法
  6
CONTINUOUS
 62
     3
100
AcDbLine
 10
1134.001471
 20
2448.0001
 30
0.0
 11
1134.001471
 21
2713.0
 31
0.0
  0
TEXT
  5
9A3
100
AcDbEntity
  8
寸法
  6
CONTINUOUS
 62
     2
100
AcDbText
 10
742.037773
 20
2706.5
 30
0.0
 40
40.0
  1
700
 41
0.84
  7
EXCADSTD
 72
     1
 11
784.037773
 21
2706.5
 31
0.0
100
AcDbText
  0
LINE
  5
9A4
100
AcDbEntity
  8
寸法
  6
CONTINUOUS
 62
     3
100
AcDbLine
 10
434.074076
 20
2703.0
 30
0.0
 11
1134.001471
 21
2703.0
 31
0.0
  0
LINE
  5
9A5
100
AcDbEntity
  8
寸法
  6
CONTINUOUS
 62
     3
100
AcDbLine
 10
464.074076
 20
2708.0
 30
0.0
 11
434.074076
 21
2703.0
 31
0.0
  0
LINE
  5
9A6
100
AcDbEntity
  8
寸法
  6
CONTINUOUS
 62
     3
100
AcDbLine
 10
434.074076
 20
2703.0
 30
0.0
 11
464.074076
 21
2698.0
 31
0.0
  0
LINE
  5
9A7
100
AcDbEntity
  8
寸法
  6
CONTINUOUS
 62
     3
100
AcDbLine
 10
1104.001471
 20
2698.0
 30
0.0
 11
1134.001471
 21
2703.0
 31
0.0
  0
LINE
  5
9A8
100
AcDbEntity
  8
寸法
  6
CONTINUOUS
 62
     3
100
AcDbLine
 10
1134.001471
 20
2703.0
 30
0.0
 11
1104.001471
 21
2708.0
 31
0.0
  0
ENDBLK
  5
9A9
100
AcDbEntity
  8
0
100
AcDbBlockEnd
  0
BLOCK
  5
9AC
100
AcDbEntity
  8
0
100
AcDbBlockBegin
  2
*D22
 70
    65
 10
0.0
 20
0.0
 30
0.0
  3
*D22
  1

  0
LINE
  5
9AD
100
AcDbEntity
  8
寸法
  6
CONTINUOUS
 62
     3
100
AcDbLine
 10
344.017073
 20
2443.000004
 30
0.0
 11
265.0
 21
2443.000004
 31
0.0
  0
LINE
  5
9AE
100
AcDbEntity
  8
寸法
  6
CONTINUOUS
 62
     3
100
AcDbLine
 10
330.716298
 20
2143.000004
 30
0.0
 11
265.0
 21
2143.000004
 31
0.0
  0
TEXT
  5
9AF
100
AcDbEntity
  8
寸法
  6
CONTINUOUS
 62
     2
100
AcDbText
 10
271.5
 20
2251.000004
 30
0.0
 40
40.0
  1
300
 50
90.0
 41
0.84
  7
EXCADSTD
 72
     1
 11
271.5
 21
2293.000004
 31
0.0
100
AcDbText
  0
LINE
  5
9B0
100
AcDbEntity
  8
寸法
  6
CONTINUOUS
 62
     3
100
AcDbLine
 10
275.0
 20
2443.000004
 30
0.0
 11
275.0
 21
2143.000004
 31
0.0
  0
LINE
  5
9B1
100
AcDbEntity
  8
寸法
  6
CONTINUOUS
 62
     3
100
AcDbLine
 10
280.0
 20
2413.000004
 30
0.0
 11
275.0
 21
2443.000004
 31
0.0
  0
LINE
  5
9B2
100
AcDbEntity
  8
寸法
  6
CONTINUOUS
 62
     3
100
AcDbLine
 10
275.0
 20
2443.000004
 30
0.0
 11
270.0
 21
2413.000004
 31
0.0
  0
LINE
  5
9B3
100
AcDbEntity
  8
寸法
  6
CONTINUOUS
 62
     3
100
AcDbLine
 10
270.0
 20
2173.000004
 30
0.0
 11
275.0
 21
2143.000004
 31
0.0
  0
LINE
  5
9B4
100
AcDbEntity
  8
寸法
  6
CONTINUOUS
 62
     3
100
AcDbLine
 10
275.0
 20
2143.000004
 30
0.0
 11
280.0
 21
2173.000004
 31
0.0
  0
ENDBLK
  5
9B5
100
AcDbEntity
  8
0
100
AcDbBlockEnd
  0
BLOCK
  5
9B8
100
AcDbEntity
  8
0
100
AcDbBlockBegin
  2
*D23
 70
    65
 10
0.0
 20
0.0
 30
0.0
  3
*D23
  1

  0
LINE
  5
9B9
100
AcDbEntity
  8
寸法
  6
CONTINUOUS
 62
     3
100
AcDbLine
 10
605.570491
 20
673.000207
 30
0.0
 11
774.0
 21
673.000207
 31
0.0
  0
TEXT
  5
9BA
100
AcDbEntity
  8
寸法
  6
CONTINUOUS
 62
     2
100
AcDbText
 10
760.5
 20
546.000266
 30
0.0
 40
40.0
  1
170
 50
90.0
 41
0.84
  7
EXCADSTD
 72
     1
 11
760.5
 21
588.000266
 31
0.0
100
AcDbText
  0
LINE
  5
9BB
100
AcDbEntity
  8
寸法
  6
CONTINUOUS
 62
     3
100
AcDbLine
 10
764.0
 20
673.000207
 30
0.0
 11
764.0
 21
503.000324
 31
0.0
  0
LINE
  5
9BC
100
AcDbEntity
  8
寸法
  6
CONTINUOUS
 62
     3
100
AcDbLine
 10
769.0
 20
643.000207
 30
0.0
 11
764.0
 21
673.000207
 31
0.0
  0
LINE
  5
9BD
100
AcDbEntity
  8
寸法
  6
CONTINUOUS
 62
     3
100
AcDbLine
 10
764.0
 20
673.000207
 30
0.0
 11
759.0
 21
643.000207
 31
0.0
  0
LINE
  5
9BE
100
AcDbEntity
  8
寸法
  6
CONTINUOUS
 62
     3
100
AcDbLine
 10
759.0
 20
533.000324
 30
0.0
 11
764.0
 21
503.000324
 31
0.0
  0
LINE
  5
9BF
100
AcDbEntity
  8
寸法
  6
CONTINUOUS
 62
     3
100
AcDbLine
 10
764.0
 20
503.000324
 30
0.0
 11
769.0
 21
533.000324
 31
0.0
  0
ENDBLK
  5
9C0
100
AcDbEntity
  8
0
100
AcDbBlockEnd
  0
BLOCK
  5
9C3
100
AcDbEntity
  8
0
100
AcDbBlockBegin
  2
*D24
 70
    65
 10
0.0
 20
0.0
 30
0.0
  3
*D24
  1

  0
LINE
  5
9C4
100
AcDbEntity
  8
寸法
  6
CONTINUOUS
 62
     3
100
AcDbLine
 10
654.201643
 20
691.547085
 30
0.0
 11
770.582004
 21
712.068083
 31
0.0
  0
TEXT
  5
9C5
100
AcDbEntity
  8
寸法
  6
CONTINUOUS
 62
     2
100
AcDbText
 10
763.740173
 20
725.514391
 30
0.0
 40
40.0
  1
10%%d
 50
275.0
 41
0.84
  7
EXCADSTD
 72
     1
 11
766.668606
 21
692.042249
 31
0.0
100
AcDbText
  0
ARC
  5
9C6
100
AcDbEntity
  8
寸法
  6
CONTINUOUS
 62
     3
100
AcDbCircle
 10
549.01836
 20
673.000411
 30
0.0
 40
214.98164
100
AcDbArc
 50
359.999946
 51
17.995449
  0
LINE
  5
9C7
100
AcDbEntity
  8
寸法
  6
CONTINUOUS
 62
     3
100
AcDbLine
 10
750.600442
 20
739.007593
 30
0.0
 11
760.733926
 21
710.331601
 31
0.0
  0
LINE
  5
9C8
100
AcDbEntity
  8
寸法
  6
CONTINUOUS
 62
     3
100
AcDbLine
 10
760.733926
 20
710.331601
 30
0.0
 11
760.44852
 21
740.744074
 31
0.0
  0
ENDBLK
  5
9C9
100
AcDbEntity
  8
0
100
AcDbBlockEnd
  0
BLOCK
  5
9CC
100
AcDbEntity
  8
0
100
AcDbBlockBegin
  2
*D25
 70
    65
 10
0.0
 20
0.0
 30
0.0
  3
*D25
  1

  0
LINE
  5
9CD
100
AcDbEntity
  8
寸法
  6
CONTINUOUS
 62
     3
100
AcDbLine
 10
344.017073
 20
498.000324
 30
0.0
 11
344.017073
 21
348.0
 31
0.0
  0
LINE
  5
9CE
100
AcDbEntity
  8
寸法
  6
CONTINUOUS
 62
     3
100
AcDbLine
 10
614.017073
 20
463.0
 30
0.0
 11
614.017073
 21
348.0
 31
0.0
  0
TEXT
  5
9CF
100
AcDbEntity
  8
寸法
  6
CONTINUOUS
 62
     2
100
AcDbText
 10
437.017073
 20
361.5
 30
0.0
 40
40.0
  1
270
 41
0.84
  7
EXCADSTD
 72
     1
 11
479.017073
 21
361.5
 31
0.0
100
AcDbText
  0
LINE
  5
9D0
100
AcDbEntity
  8
寸法
  6
CONTINUOUS
 62
     3
100
AcDbLine
 10
344.017073
 20
358.0
 30
0.0
 11
614.017073
 21
358.0
 31
0.0
  0
LINE
  5
9D1
100
AcDbEntity
  8
寸法
  6
CONTINUOUS
 62
     3
100
AcDbLine
 10
374.017073
 20
363.0
 30
0.0
 11
344.017073
 21
358.0
 31
0.0
  0
LINE
  5
9D2
100
AcDbEntity
  8
寸法
  6
CONTINUOUS
 62
     3
100
AcDbLine
 10
344.017073
 20
358.0
 30
0.0
 11
374.017073
 21
353.0
 31
0.0
  0
LINE
  5
9D3
100
AcDbEntity
  8
寸法
  6
CONTINUOUS
 62
     3
100
AcDbLine
 10
584.017073
 20
353.0
 30
0.0
 11
614.017073
 21
358.0
 31
0.0
  0
LINE
  5
9D4
100
AcDbEntity
  8
寸法
  6
CONTINUOUS
 62
     3
100
AcDbLine
 10
614.017073
 20
358.0
 30
0.0
 11
584.017073
 21
363.0
 31
0.0
  0
ENDBLK
  5
9D5
100
AcDbEntity
  8
0
100
AcDbBlockEnd
  0
BLOCK
  5
9D8
100
AcDbEntity
  8
0
100
AcDbBlockBegin
  2
*D26
 70
    65
 10
0.0
 20
0.0
 30
0.0
  3
*D26
  1

  0
LINE
  5
9D9
100
AcDbEntity
  8
寸法
  6
CONTINUOUS
 62
     3
100
AcDbLine
 10
664.079336
 20
2143.0
 30
0.0
 11
1134.006811
 21
2143.0
 31
0.0
  0
LINE
  5
9DA
100
AcDbEntity
  8
寸法
  6
CONTINUOUS
 62
     3
100
AcDbLine
 10
694.079336
 20
2148.0
 30
0.0
 11
664.079336
 21
2143.0
 31
0.0
  0
LINE
  5
9DB
100
AcDbEntity
  8
寸法
  6
CONTINUOUS
 62
     3
100
AcDbLine
 10
664.079336
 20
2143.0
 30
0.0
 11
694.079336
 21
2138.0
 31
0.0
  0
LINE
  5
9DC
100
AcDbEntity
  8
寸法
  6
CONTINUOUS
 62
     3
100
AcDbLine
 10
1104.006811
 20
2138.0
 30
0.0
 11
1134.006811
 21
2143.0
 31
0.0
  0
LINE
  5
9DD
100
AcDbEntity
  8
寸法
  6
CONTINUOUS
 62
     3
100
AcDbLine
 10
1134.006811
 20
2143.0
 30
0.0
 11
1104.006811
 21
2148.0
 31
0.0
  0
TEXT
  5
9DE
100
AcDbEntity
  8
寸法
  6
CONTINUOUS
 62
     2
100
AcDbText
 10
857.043073
 20
2146.5
 30
0.0
 40
40.0
  1
470
 41
0.84
  7
EXCADSTD
 72
     1
 11
899.043073
 21
2146.5
 31
0.0
100
AcDbText
  0
LINE
  5
9DF
100
AcDbEntity
  8
寸法
  6
CONTINUOUS
 62
     3
100
AcDbLine
 10
664.079336
 20
2347.800004
 30
0.0
 11
664.079336
 21
2133.0
 31
0.0
  0
ENDBLK
  5
9E0
100
AcDbEntity
  8
0
100
AcDbBlockEnd
  0
BLOCK
  5
9E3
100
AcDbEntity
  8
0
100
AcDbBlockBegin
  2
*D27
 70
    65
 10
0.0
 20
0.0
 30
0.0
  3
*D27
  1

  0
LINE
  5
9E4
100
AcDbEntity
  8
寸法
  6
CONTINUOUS
 62
     3
100
AcDbLine
 10
328.857073
 20
802.950324
 30
0.0
 11
281.017759
 21
802.950324
 31
0.0
  0
TEXT
  5
9E5
100
AcDbEntity
  8
寸法
  6
CONTINUOUS
 62
     2
100
AcDbText
 10
297.517759
 20
554.975322
 30
0.0
 40
40.0
  1
300（壁給水）
 50
90.0
 41
0.84
  7
EXCADSTD
 72
     1
 11
297.517759
 21
659.975322
 31
0.0
100
AcDbText
  0
LINE
  5
9E6
100
AcDbEntity
  8
寸法
  6
CONTINUOUS
 62
     3
100
AcDbLine
 10
301.017759
 20
802.950324
 30
0.0
 11
301.017759
 21
503.00032
 31
0.0
  0
LINE
  5
9E7
100
AcDbEntity
  8
寸法
  6
CONTINUOUS
 62
     3
100
AcDbLine
 10
306.851093
 20
767.950324
 30
0.0
 11
301.017759
 21
802.950324
 31
0.0
  0
LINE
  5
9E8
100
AcDbEntity
  8
寸法
  6
CONTINUOUS
 62
     3
100
AcDbLine
 10
301.017759
 20
802.950324
 30
0.0
 11
295.184426
 21
767.950324
 31
0.0
  0
LINE
  5
9E9
100
AcDbEntity
  8
寸法
  6
CONTINUOUS
 62
     3
100
AcDbLine
 10
295.184426
 20
538.00032
 30
0.0
 11
301.017759
 21
503.00032
 31
0.0
  0
LINE
  5
9EA
100
AcDbEntity
  8
寸法
  6
CONTINUOUS
 62
     3
100
AcDbLine
 10
301.017759
 20
503.00032
 30
0.0
 11
306.851093
 21
538.00032
 31
0.0
  0
ENDBLK
  5
9EB
100
AcDbEntity
  8
0
100
AcDbBlockEnd
  0
BLOCK
  5
9F5
100
AcDbEntity
  8
0
100
AcDbBlockBegin
  2
*D28
 70
    65
 10
0.0
 20
0.0
 30
0.0
  3
*D28
  1

  0
LINE
  5
9F6
100
AcDbEntity
  8
寸法
  6
CONTINUOUS
 62
     3
100
AcDbLine
 10
389.017073
 20
2231.965003
 30
0.0
 11
389.017073
 21
2068.0
 31
0.0
  0
LINE
  5
9F7
100
AcDbEntity
  8
寸法
  6
CONTINUOUS
 62
     3
100
AcDbLine
 10
1134.006811
 20
2438.000019
 30
0.0
 11
1134.006811
 21
2068.0
 31
0.0
  0
LINE
  5
9F8
100
AcDbEntity
  8
寸法
  6
CONTINUOUS
 62
     3
100
AcDbLine
 10
389.017073
 20
2078.0
 30
0.0
 11
1134.006811
 21
2078.0
 31
0.0
  0
LINE
  5
9F9
100
AcDbEntity
  8
寸法
  6
CONTINUOUS
 62
     3
100
AcDbLine
 10
419.017073
 20
2083.0
 30
0.0
 11
389.017073
 21
2078.0
 31
0.0
  0
LINE
  5
9FA
100
AcDbEntity
  8
寸法
  6
CONTINUOUS
 62
     3
100
AcDbLine
 10
389.017073
 20
2078.0
 30
0.0
 11
419.017073
 21
2073.0
 31
0.0
  0
LINE
  5
9FB
100
AcDbEntity
  8
寸法
  6
CONTINUOUS
 62
     3
100
AcDbLine
 10
1104.006811
 20
2073.0
 30
0.0
 11
1134.006811
 21
2078.0
 31
0.0
  0
LINE
  5
9FC
100
AcDbEntity
  8
寸法
  6
CONTINUOUS
 62
     3
100
AcDbLine
 10
1134.006811
 20
2078.0
 30
0.0
 11
1104.006811
 21
2083.0
 31
0.0
  0
TEXT
  5
9FD
100
AcDbEntity
  8
寸法
  6
CONTINUOUS
 62
     2
100
AcDbText
 10
719.511942
 20
2081.5
 30
0.0
 40
40.0
  1
745
 41
0.84
  7
EXCADSTD
 72
     1
 11
761.511942
 21
2081.5
 31
0.0
100
AcDbText
  0
ENDBLK
  5
9FE
100
AcDbEntity
  8
0
100
AcDbBlockEnd
  0
BLOCK
  5
A01
100
AcDbEntity
  8
0
100
AcDbBlockBegin
  2
*D29
 70
    65
 10
0.0
 20
0.0
 30
0.0
  3
*D29
  1

  0
LINE
  5
A02
100
AcDbEntity
  8
寸法
  6
CONTINUOUS
 62
     3
100
AcDbLine
 10
419.017073
 20
1504.536235
 30
0.0
 11
240.517069
 21
1504.536235
 31
0.0
  0
LINE
  5
A03
100
AcDbEntity
  8
寸法
  6
CONTINUOUS
 62
     3
100
AcDbLine
 10
419.017073
 20
1509.536235
 30
0.0
 11
389.017073
 21
1504.536235
 31
0.0
  0
LINE
  5
A04
100
AcDbEntity
  8
寸法
  6
CONTINUOUS
 62
     3
100
AcDbLine
 10
389.017073
 20
1504.536235
 30
0.0
 11
419.017073
 21
1499.536235
 31
0.0
  0
LINE
  5
A05
100
AcDbEntity
  8
寸法
  6
CONTINUOUS
 62
     3
100
AcDbLine
 10
314.017073
 20
1499.536235
 30
0.0
 11
344.017073
 21
1504.536235
 31
0.0
  0
LINE
  5
A06
100
AcDbEntity
  8
寸法
  6
CONTINUOUS
 62
     3
100
AcDbLine
 10
344.017073
 20
1504.536235
 30
0.0
 11
314.017073
 21
1509.536235
 31
0.0
  0
TEXT
  5
A07
100
AcDbEntity
  8
寸法
  6
CONTINUOUS
 62
     2
100
AcDbText
 10
249.617073
 20
1508.036235
 30
0.0
 40
40.0
  1
45
 41
0.84
  7
EXCADSTD
 72
     1
 11
279.017073
 21
1508.036235
 31
0.0
100
AcDbText
  0
LINE
  5
A08
100
AcDbEntity
  8
寸法
  6
CONTINUOUS
 62
     3
100
AcDbLine
 10
389.017073
 20
1499.536235
 30
0.0
 11
389.017073
 21
1494.536235
 31
0.0
  0
LINE
  5
A09
100
AcDbEntity
  8
寸法
  6
CONTINUOUS
 62
     3
100
AcDbLine
 10
344.017073
 20
1504.0
 30
0.0
 11
344.017073
 21
1514.536235
 31
0.0
  0
ENDBLK
  5
A0A
100
AcDbEntity
  8
0
100
AcDbBlockEnd
  0
ENDSEC
  0
SECTION
  2
ENTITIES
  0
LINE
  5
8E
100
AcDbEntity
  8
枠
  6
CONTINUOUS
 62
     7
100
AcDbLine
 10
180.0
 20
115.0
 30
0.0
 11
2000.0
 21
115.0
 31
0.0
  0
LINE
  5
8F
100
AcDbEntity
  8
枠
  6
CONTINUOUS
 62
     7
100
AcDbLine
 10
180.0
 20
335.0
 30
0.0
 11
2000.0
 21
335.0
 31
0.0
  0
LINE
  5
90
100
AcDbEntity
  8
枠
  6
CONTINUOUS
 62
     6
100
AcDbLine
 10
2000.0
 20
215.0
 30
0.0
 11
750.0
 21
215.0
 31
0.0
  0
LINE
  5
91
100
AcDbEntity
  8
枠
  6
CONTINUOUS
 62
     6
100
AcDbLine
 10
1860.0
 20
335.0
 30
0.0
 11
1860.0
 21
215.0
 31
0.0
  0
LINE
  5
92
100
AcDbEntity
  8
枠
  6
CONTINUOUS
 62
     6
100
AcDbLine
 10
1810.0
 20
335.0
 30
0.0
 11
1810.0
 21
215.0
 31
0.0
  0
LINE
  5
93
100
AcDbEntity
  8
枠
  6
CONTINUOUS
 62
     6
100
AcDbLine
 10
1440.0
 20
335.0
 30
0.0
 11
1440.0
 21
115.0
 31
0.0
  0
LINE
  5
94
100
AcDbEntity
  8
枠
  6
CONTINUOUS
 62
     6
100
AcDbLine
 10
1390.0
 20
335.0
 30
0.0
 11
1390.0
 21
115.0
 31
0.0
  0
LINE
  5
95
100
AcDbEntity
  8
枠
  6
CONTINUOUS
 62
     6
100
AcDbLine
 10
800.0
 20
335.0
 30
0.0
 11
800.0
 21
215.0
 31
0.0
  0
LINE
  5
96
100
AcDbEntity
  8
枠
  6
CONTINUOUS
 62
     6
100
AcDbLine
 10
750.0
 20
335.0
 30
0.0
 11
750.0
 21
115.0
 31
0.0
  0
LINE
  5
97
100
AcDbEntity
  8
枠
  6
CONTINUOUS
 62
     6
100
AcDbLine
 10
620.0
 20
335.0
 30
0.0
 11
620.0
 21
115.0
 31
0.0
  0
LINE
  5
98
100
AcDbEntity
  8
枠
  6
CONTINUOUS
 62
     6
100
AcDbLine
 10
490.0
 20
335.0
 30
0.0
 11
490.0
 21
115.0
 31
0.0
  0
LINE
  5
99
100
AcDbEntity
  8
枠
  6
CONTINUOUS
 62
     6
100
AcDbLine
 10
335.0
 20
335.0
 30
0.0
 11
335.0
 21
115.0
 31
0.0
  0
LINE
  5
9A
100
AcDbEntity
  8
枠
  6
CONTINUOUS
 62
     6
100
AcDbLine
 10
180.0
 20
285.0
 30
0.0
 11
750.0
 21
285.0
 31
0.0
  0
LINE
  5
9B
100
AcDbEntity
  8
枠
  6
CONTINUOUS
 62
     6
100
AcDbLine
 10
1892.653809
 20
238.00293
 30
0.0
 11
1969.993897
 21
316.699829
 31
0.0
  0
TEXT
  5
9C
100
AcDbEntity
  8
枠
  6
CONTINUOUS
 62
     2
100
AcDbText
 10
1890.537109
 20
282.722778
 30
0.0
 40
30.0
  1
１
 41
0.826
  7
EXCADSTD
 72
     5
 11
1914.13711
 21
282.722778
 31
0.0
100
AcDbText
  0
TEXT
  5
9D
100
AcDbEntity
  8
枠
  6
CONTINUOUS
 62
     2
100
AcDbText
 10
1931.279297
 20
238.348846
 30
0.0
 40
30.0
  1
１０
 41
0.791
  7
EXCADSTD
 72
     5
 11
1983.067198
 21
238.348846
 31
0.0
100
AcDbText
  0
TEXT
  5
9E
100
AcDbEntity
  8
枠
  6
CONTINUOUS
 62
     2
100
AcDbText
 10
202.5
 20
288.75
 30
0.0
 40
42.5
  1
製図
 41
1.087059
  7
EXCADSTD
 72
     5
 11
303.326
 21
288.75
 31
0.0
100
AcDbText
  0
TEXT
  5
9F
100
AcDbEntity
  8
枠
  6
CONTINUOUS
 62
     2
100
AcDbText
 10
357.5
 20
288.75
 30
0.0
 40
42.5
  1
写図
 41
1.087059
  7
EXCADSTD
 72
     5
 11
458.326
 21
288.75
 31
0.0
100
AcDbText
  0
TEXT
  5
A0
100
AcDbEntity
  8
枠
  6
CONTINUOUS
 62
     2
100
AcDbText
 10
507.5
 20
288.75
 30
0.0
 40
42.5
  1
検図
 41
0.938824
  7
EXCADSTD
 72
     5
 11
594.577
 21
288.75
 31
0.0
100
AcDbText
  0
TEXT
  5
A1
100
AcDbEntity
  8
枠
  6
CONTINUOUS
 62
     2
100
AcDbText
 10
637.5
 20
288.75
 30
0.0
 40
42.5
  1
承認
 41
0.938824
  7
EXCADSTD
 72
     5
 11
724.577
 21
288.75
 31
0.0
100
AcDbText
  0
TEXT
  5
A2
100
AcDbEntity
  8
枠
  6
CONTINUOUS
 62
     2
100
AcDbText
 10
755.75
 20
278.75
 30
0.0
 40
42.5
  1
品
 41
0.84
  7
EXCADSTD
 72
     5
 11
789.75
 21
278.75
 31
0.0
100
AcDbText
  0
TEXT
  5
A3
100
AcDbEntity
  8
枠
  6
CONTINUOUS
 62
     2
100
AcDbText
 10
755.75
 20
228.75
 30
0.0
 40
42.5
  1
名
 41
0.84
  7
EXCADSTD
 72
     5
 11
789.75
 21
228.75
 31
0.0
100
AcDbText
  0
TEXT
  5
A4
100
AcDbEntity
  8
枠
  6
CONTINUOUS
 62
     2
100
AcDbText
 10
1395.75
 20
278.75
 30
0.0
 40
42.5
  1
品
 41
0.84
  7
EXCADSTD
 72
     5
 11
1429.75
 21
278.75
 31
0.0
100
AcDbText
  0
TEXT
  5
A5
100
AcDbEntity
  8
枠
  6
CONTINUOUS
 62
     2
100
AcDbText
 10
1395.75
 20
228.75
 30
0.0
 40
42.5
  1
番
 41
0.84
  7
EXCADSTD
 72
     5
 11
1429.75
 21
228.75
 31
0.0
100
AcDbText
  0
TEXT
  5
A6
100
AcDbEntity
  8
枠
  6
CONTINUOUS
 62
     2
100
AcDbText
 10
1816.75
 20
278.75
 30
0.0
 40
42.5
  1
尺
 41
0.84
  7
EXCADSTD
 72
     5
 11
1850.75
 21
278.75
 31
0.0
100
AcDbText
  0
TEXT
  5
A7
100
AcDbEntity
  8
枠
  6
CONTINUOUS
 62
     2
100
AcDbText
 10
1816.75
 20
228.75
 30
0.0
 40
42.5
  1
度
 41
0.84
  7
EXCADSTD
 72
     5
 11
1850.75
 21
228.75
 31
0.0
100
AcDbText
  0
TEXT
  5
A8
100
AcDbEntity
  8
枠
  6
CONTINUOUS
 62
     2
100
AcDbText
 10
1395.75
 20
165.75
 30
0.0
 40
42.5
  1
図
 41
0.84
  7
EXCADSTD
 72
     5
 11
1429.75
 21
165.75
 31
0.0
100
AcDbText
  0
TEXT
  5
A9
100
AcDbEntity
  8
枠
  6
CONTINUOUS
 62
     2
100
AcDbText
 10
1395.75
 20
122.75
 30
0.0
 40
42.5
  1
番
 41
0.84
  7
EXCADSTD
 72
     5
 11
1429.75
 21
122.75
 31
0.0
100
AcDbText
  0
LINE
  5
AA
100
AcDbEntity
  8
枠
  6
EXLTYPE2
 62
     6
100
AcDbLine
 10
180.0
 20
165.0
 30
0.0
 11
490.0
 21
165.0
 31
0.0
  0
CIRCLE
  5
AB
100
AcDbEntity
  8
枠
  6
CONTINUOUS
 62
     6
100
AcDbCircle
 10
230.0
 20
140.0
 30
0.0
 40
1.0
  0
CIRCLE
  5
AC
100
AcDbEntity
  8
枠
  6
CONTINUOUS
 62
     6
100
AcDbCircle
 10
280.0
 20
140.0
 30
0.0
 40
1.0
  0
CIRCLE
  5
AD
100
AcDbEntity
  8
枠
  6
CONTINUOUS
 62
     6
100
AcDbCircle
 10
385.0
 20
140.0
 30
0.0
 40
1.0
  0
CIRCLE
  5
AE
100
AcDbEntity
  8
枠
  6
CONTINUOUS
 62
     6
100
AcDbCircle
 10
435.0
 20
140.0
 30
0.0
 40
1.0
  0
TEXT
  5
AF
100
AcDbEntity
  8
枠
  6
CONTINUOUS
 62
     6
100
AcDbText
 10
207.5
 20
200.0
 30
0.0
 40
50.0
  1
間瀬
 41
0.8736
  7
EXCADSTD
 72
     5
 11
302.8264
 21
200.0
 31
0.0
100
AcDbText
  0
TEXT
  5
B0
100
AcDbEntity
  8
枠
  6
CONTINUOUS
 62
     6
100
AcDbText
 10
635.5
 20
200.0
 30
0.0
 40
50.0
  1
古林
 41
0.8568
  7
EXCADSTD
 72
     5
 11
728.9932
 21
200.0
 31
0.0
100
AcDbText
  0
TEXT
  5
B2
100
AcDbEntity
  8
枠
  6
CONTINUOUS
 62
     2
100
AcDbText
 10
770.0
 20
135.0
 30
0.0
 40
45.0
  1
ジャニス工業株式会社
  7
EXCADTTF1
 72
     5
 11
1370.0
 21
135.0
 31
0.0
100
AcDbText
  0
LINE
  5
B3
100
AcDbEntity
  8
枠
  6
CONTINUOUS
 62
     7
100
AcDbLine
 10
2000.0
 20
115.0
 30
0.0
 11
2000.0
 21
2915.0
 31
0.0
  0
LINE
  5
B4
100
AcDbEntity
  8
枠
  6
CONTINUOUS
 62
     7
100
AcDbLine
 10
180.0
 20
115.0
 30
0.0
 11
180.0
 21
2915.0
 31
0.0
  0
LINE
  5
B5
100
AcDbEntity
  8
枠
  6
EXLTYPE2
 62
     6
100
AcDbLine
 10
0.0
 20
1515.0
 30
0.0
 11
180.0
 21
1515.0
 31
0.0
  0
LINE
  5
B6
100
AcDbEntity
  8
枠
  6
CONTINUOUS
 62
     7
100
AcDbLine
 10
180.0
 20
2915.0
 30
0.0
 11
2000.0
 21
2915.0
 31
0.0
  0
LINE
  5
B7
100
AcDbEntity
  8
枠
  6
CONTINUOUS
 62
     7
100
AcDbLine
 10
344.017073
 20
2843.000004
 30
0.0
 11
344.017073
 21
1971.0
 31
0.0
  0
TEXT
  5
B8
100
AcDbEntity
  8
枠
  6
CONTINUOUS
 62
     2
100
AcDbText
 10
719.104004
 20
2800.045902
 30
0.0
 40
40.0
  1
Ｗ．Ｌ
 41
0.7
  7
EXCADSTD
 72
     5
 11
819.104004
 21
2800.045902
 31
0.0
100
AcDbText
  0
LINE
  5
B9
100
AcDbEntity
  8
枠
  6
CONTINUOUS
 62
     7
100
AcDbLine
 10
1251.0
 20
2843.000004
 30
0.0
 11
344.017073
 21
2843.000004
 31
0.0
  0
LINE
  5
BA
100
AcDbEntity
  8
枠
  6
CONTINUOUS
 62
     7
100
AcDbLine
 10
344.017073
 20
1737.0
 30
0.0
 11
344.017073
 21
503.000324
 31
0.0
  0
TEXT
  5
BB
100
AcDbEntity
  8
枠
  6
CONTINUOUS
 62
     2
100
AcDbText
 10
386.971175
 20
1613.104008
 30
0.0
 40
40.0
  1
Ｗ．Ｌ
 50
90.0
 41
0.833
  7
EXCADSTD
 72
     5
 11
386.971175
 21
1732.104007
 31
0.0
100
AcDbText
  0
LINE
  5
BC
100
AcDbEntity
  8
枠
  6
CONTINUOUS
 62
     7
100
AcDbLine
 10
1300.0
 20
503.0
 30
0.0
 11
1960.0
 21
503.0
 31
0.0
  0
TEXT
  5
BD
100
AcDbEntity
  8
枠
  6
CONTINUOUS
 62
     2
100
AcDbText
 10
1074.0
 20
506.000324
 30
0.0
 40
40.0
  1
Ｆ．Ｌ
 41
0.833
  7
EXCADSTD
 72
     5
 11
1193.0
 21
506.000324
 31
0.0
100
AcDbText
  0
TEXT
  5
BE
100
AcDbEntity
  8
枠
  6
CONTINUOUS
 62
     2
100
AcDbText
 10
806.610718
 20
275.931519
 30
0.0
 40
50.0
  1
洋風タンク密結床上排水ネオボルテックス防露便器セット
 41
0.376062
  7
EXCADSTD
 72
     5
 11
1388.61073
 21
275.931519
 31
0.0
100
AcDbText
  0
TEXT
  5
BF
100
AcDbEntity
  8
枠
  6
CONTINUOUS
 62
     2
100
AcDbText
 10
808.61084
 20
218.271332
 30
0.0
 40
57.5
  1
樹脂製防露型手洗付密結ロータンクセット
 41
0.447487
  7
EXCADSTD
 72
     5
 11
1390.610795
 21
218.271332
 31
0.0
100
AcDbText
  0
TEXT
  5
C0
100
AcDbEntity
  8
枠
  6
CONTINUOUS
 62
     2
100
AcDbText
 10
1297.0
 20
2609.5
 30
0.0
 40
43.0
  1
ＮＣ８２２Ｗ
 41
0.56
  7
EXCADSTD
 72
     5
 11
1469.000006
 21
2609.5
 31
0.0
100
AcDbText
  0
LINE
  5
C1
100
AcDbEntity
  8
枠
  6
CONTINUOUS
 62
     6
100
AcDbLine
 10
1297.0
 20
2605.0
 30
0.0
 11
1978.0
 21
2605.0
 31
0.0
  0
TEXT
  5
C2
100
AcDbEntity
  8
枠
  6
CONTINUOUS
 62
     2
100
AcDbText
 10
1912.549241
 20
2607.315994
 30
0.0
 40
45.0
  1
１
 41
0.84
  7
EXCADSTD
 72
     5
 11
1948.549241
 21
2607.315994
 31
0.0
100
AcDbText
  0
TEXT
  5
C3
100
AcDbEntity
  8
枠
  6
CONTINUOUS
 62
     2
100
AcDbText
 10
1611.0
 20
2606.0
 30
0.0
 40
50.0
  1
前丸便座
 41
0.5964
  7
EXCADSTD
 72
     5
 11
1753.000008
 21
2606.0
 31
0.0
100
AcDbText
  0
TEXT
  5
C4
100
AcDbEntity
  8
枠
  6
CONTINUOUS
 62
     2
100
AcDbText
 10
1448.090395
 20
224.0
 30
0.0
 40
50.0
  1
ＳＴＶ１９０ＲＵ－１ＡＥ（Ｙ）０Ｆ＃
 41
0.3304
  7
EXCADSTD
 72
     5
 11
1802.09037
 21
224.0
 31
0.0
100
AcDbText
  0
TEXT
  5
C5
100
AcDbEntity
  8
枠
  6
CONTINUOUS
 62
     2
100
AcDbText
 10
1448.090395
 20
276.884501
 30
0.0
 40
50.0
  1
ＳＣ８４ＰＧ－ＢＴ（ＣＴ）Ｚ＃
 41
0.39984
  7
EXCADSTD
 72
     5
 11
1805.090388
 21
276.884501
 31
0.0
100
AcDbText
  0
TEXT
  5
C6
100
AcDbEntity
  8
枠
  6
CONTINUOUS
 62
     6
100
AcDbText
 10
182.044116
 20
126.950073
 30
0.0
 40
25.0
  1
２２
 41
0.75768
  7
EXCADSTD
 72
     5
 11
223.382775
 21
126.950073
 31
0.0
100
AcDbText
  0
TEXT
  5
C7
100
AcDbEntity
  8
枠
  6
CONTINUOUS
 62
     6
100
AcDbText
 10
244.544116
 20
126.950073
 30
0.0
 40
25.0
  1
４
 41
0.89208
  7
EXCADSTD
 72
     5
 11
265.784116
 21
126.950073
 31
0.0
100
AcDbText
  0
TEXT
  5
C8
100
AcDbEntity
  8
枠
  6
CONTINUOUS
 62
     6
100
AcDbText
 10
286.844116
 20
126.950073
 30
0.0
 40
25.0
  1
２３
 41
0.75768
  7
EXCADSTD
 72
     5
 11
328.182775
 21
126.950073
 31
0.0
100
AcDbText
  0
TEXT
  5
C9
100
AcDbEntity
  8
枠
  6
CONTINUOUS
 62
     7
100
AcDbText
 10
1454.25
 20
130.75
 30
0.0
 40
70.0
  1
Ｃ８４ＰＶ０８０
 41
0.795
  7
EXCADSTD
 72
     5
 11
1984.25
 21
130.75
 31
0.0
100
AcDbText
  0
TEXT
  5
CA
100
AcDbEntity
  8
枠
  6
CONTINUOUS
 62
     2
100
AcDbText
 10
1281.30001
 20
2548.477127
 30
0.0
 40
40.0
  1
・便器セットＣＴの場合はヒーター仕様
 41
0.681333
  7
EXCADSTD
 72
     5
 11
1865.300008
 21
2548.477127
 31
0.0
100
AcDbText
  0
TEXT
  5
CB
100
AcDbEntity
  8
枠
  6
CONTINUOUS
 62
     2
100
AcDbText
 10
1281.30001
 20
2508.477127
 30
0.0
 40
40.0
  1
　ヒ－タ－便器の仕様（ＣＴ・コード長さ１ｍ）
 41
0.679636
  7
EXCADSTD
 72
     5
 11
1993.300007
 21
2508.477127
 31
0.0
100
AcDbText
  0
TEXT
  5
CC
100
AcDbEntity
  8
枠
  6
CONTINUOUS
 62
     2
100
AcDbText
 10
1281.30001
 20
2468.477127
 30
0.0
 40
40.0
  1
　電源  　　　　 ＡＣ１００Ｖ  ５０／ ６０Ｈｚ
 41
0.617376
  7
EXCADSTD
 72
     5
 11
1989.300007
 21
2468.477127
 31
0.0
100
AcDbText
  0
TEXT
  5
CD
100
AcDbEntity
  8
枠
  6
CONTINUOUS
 62
     2
100
AcDbText
 10
1281.30001
 20
2428.477127
 30
0.0
 40
40.0
  1
　消費電力　  　    　　　 　 　     ２０.５Ｗ
 41
0.524409
  7
EXCADSTD
 72
     5
 11
1969.300007
 21
2428.477127
 31
0.0
100
AcDbText
  0
TEXT
  5
CE
100
AcDbEntity
  8
枠
  6
CONTINUOUS
 62
     2
100
AcDbText
 10
1281.30001
 20
2388.477127
 30
0.0
 40
40.0
  1
・タンクセットＹの場合水抜方式を示します。
 41
0.68
  7
EXCADSTD
 72
     5
 11
1961.300008
 21
2388.477127
 31
0.0
100
AcDbText
  0
TEXT
  5
CF
100
AcDbEntity
  8
枠
  6
CONTINUOUS
 62
     2
100
AcDbText
 10
1281.30001
 20
2348.477127
 30
0.0
 40
40.0
  1
（別途配管用水抜栓を設置してください）
 41
0.680842
  7
EXCADSTD
 72
     5
 11
1897.300008
 21
2348.477127
 31
0.0
100
AcDbText
  0
DIMENSION
  5
DC
100
AcDbEntity
  8
便器
  6
CONTINUOUS
 62
     3
100
AcDbDimension
  2
*D14
 10
1208.0
 20
2265.49997
 30
0.0
 11
1184.5
 21
2443.000019
 31
0.0
 70
   160
  1
355
  3
STANDARD
100
AcDbAlignedDimension
 13
849.006811
 23
2620.500069
 33
0.0
 14
849.006811
 24
2265.49997
 34
0.0
 50
90.0
100
AcDbRotatedDimension
1001
ACAD
1000
DSTYLE
1002
{
1070
     6
1000
_EX_NORM
1070
     7
1000
_EX_NORM
1070
    41
1040
30.0
1070
    42
1040
5.0
1070
    44
1040
10.0
1070
    73
1070
     0
1070
    74
1070
     0
1070
    75
1070
     0
1070
    76
1070
     0
1070
    77
1070
     1
1070
    78
1070
     8
1070
   140
1040
40.0
1070
   147
1040
3.5
1070
   173
1070
     1
1070
   176
1070
     3
1070
   177
1070
     3
1070
   178
1070
     2
1070
   271
1070
     2
1070
   279
1070
     2
1070
   280
1070
     0
1070
   287
1070
     5
1070
   340
1005
DB
1002
}
  0
DIMENSION
  5
E7
100
AcDbEntity
  8
便器
  6
CONTINUOUS
 62
     3
100
AcDbDimension
  2
*D15
 10
1134.006811
 20
2013.0
 30
0.0
 11
739.011942
 21
2036.5
 31
0.0
 70
   160
  1
790
  3
STANDARD
100
AcDbAlignedDimension
 13
344.017073
 23
1971.0
 33
0.0
 14
1134.006811
 24
2095.0
 34
0.0
100
AcDbRotatedDimension
1001
ACAD
1000
DSTYLE
1002
{
1070
     6
1000
_EX_NORM
1070
     7
1000
_EX_NORM
1070
    41
1040
30.0
1070
    42
1040
5.0
1070
    44
1040
10.0
1070
    73
1070
     0
1070
    74
1070
     0
1070
    75
1070
     1
1070
    76
1070
     0
1070
    77
1070
     1
1070
    78
1070
     8
1070
   140
1040
40.0
1070
   147
1040
3.5
1070
   173
1070
     1
1070
   176
1070
     3
1070
   177
1070
     3
1070
   178
1070
     2
1070
   271
1070
     2
1070
   279
1070
     2
1070
   280
1070
     0
1070
   287
1070
     5
1070
   340
1005
DB
1002
}
  0
ARC
  5
E8
100
AcDbEntity
  8
便器
  6
CONTINUOUS
 62
     7
100
AcDbCircle
 10
1000.295209
 20
-1376.448408
 30
0.0
 40
4000.0
100
AcDbArc
 50
96.8492
 51
96.856912
  0
LINE
  5
E9
100
AcDbEntity
  8
便器
  6
CONTINUOUS
 62
     7
100
AcDbLine
 10
437.666618
 20
2399.000004
 30
0.0
 11
437.805963
 21
2398.600004
 31
0.0
  0
ARC
  5
EA
100
AcDbEntity
  8
便器
  6
CONTINUOUS
 62
     7
100
AcDbCircle
 10
734.137439
 20
2444.880853
 30
0.0
 40
300.0
100
AcDbArc
 50
188.719824
 51
188.79712
  0
LINE
  5
EB
100
AcDbEntity
  8
便器
  6
CONTINUOUS
 62
     6
100
AcDbLine
 10
1134.079336
 20
2443.000019
 30
0.0
 11
1134.079336
 21
2443.000004
 31
0.0
  0
ARC
  5
EC
100
AcDbEntity
  8
便器
  6
CONTINUOUS
 62
     6
100
AcDbCircle
 10
371.983994
 20
2725.534568
 30
0.0
 40
443.698439
100
AcDbArc
 50
335.41222
 51
335.445155
  0
ARC
  5
ED
100
AcDbEntity
  8
便器
  6
CONTINUOUS
 62
     6
100
AcDbCircle
 10
371.983994
 20
2160.46547
 30
0.0
 40
443.698439
100
AcDbArc
 50
24.554845
 51
24.58778
  0
ARC
  5
EE
100
AcDbEntity
  8
便器
  6
EXLTYPE2
 62
     2
100
AcDbCircle
 10
613.921621
 20
2552.643234
 30
0.0
 40
25.0
100
AcDbArc
 50
94.270671
 51
164.409936
  0
ARC
  5
EF
100
AcDbEntity
  8
便器
  6
EXLTYPE2
 62
     2
100
AcDbCircle
 10
760.996442
 20
583.127051
 30
0.0
 40
2000.0
100
AcDbArc
 50
86.356166
 51
94.270671
  0
ARC
  5
F0
100
AcDbEntity
  8
便器
  6
EXLTYPE2
 62
     2
100
AcDbCircle
 10
1004.021342
 20
2443.798356
 30
0.0
 40
430.0
100
AcDbArc
 50
164.409936
 51
180.106377
  0
CIRCLE
  5
F1
100
AcDbEntity
  8
便器
  6
EXLTYPE2
 62
     2
100
AcDbCircle
 10
614.021342
 20
2553.000004
 30
0.0
 40
5.5
  0
ARC
  5
F2
100
AcDbEntity
  8
便器
  6
EXLTYPE2
 62
     2
100
AcDbCircle
 10
881.749126
 20
2479.286008
 30
0.0
 40
100.0
100
AcDbArc
 50
79.475887
 51
86.356166
  0
ARC
  5
F3
100
AcDbEntity
  8
便器
  6
EXLTYPE2
 62
     2
100
AcDbCircle
 10
717.364739
 20
1594.425695
 30
0.0
 40
1000.0
100
AcDbArc
 50
72.584965
 51
79.475887
  0
ARC
  5
F4
100
AcDbEntity
  8
便器
  6
EXLTYPE2
 62
     2
100
AcDbCircle
 10
1007.677188
 20
2366.037343
 30
0.0
 40
30.0
100
AcDbArc
 50
287.415035
 51
350.575353
  0
ARC
  5
F5
100
AcDbEntity
  8
便器
  6
EXLTYPE2
 62
     2
100
AcDbCircle
 10
544.021336
 20
2443.000004
 30
0.0
 40
500.0
100
AcDbArc
 50
350.575353
 51
9.424647
  0
ARC
  5
F6
100
AcDbEntity
  8
便器
  6
EXLTYPE2
 62
     2
100
AcDbCircle
 10
1007.677188
 20
2519.962664
 30
0.0
 40
30.0
100
AcDbArc
 50
9.424647
 51
72.584965
  0
ARC
  5
F7
100
AcDbEntity
  8
便器
  6
EXLTYPE2
 62
     2
100
AcDbCircle
 10
717.364739
 20
3291.574313
 30
0.0
 40
1000.0
100
AcDbArc
 50
280.524113
 51
287.415035
  0
ARC
  5
F8
100
AcDbEntity
  8
便器
  6
EXLTYPE2
 62
     2
100
AcDbCircle
 10
760.996442
 20
4302.872956
 30
0.0
 40
2000.0
100
AcDbArc
 50
265.729329
 51
273.643834
  0
ARC
  5
F9
100
AcDbEntity
  8
便器
  6
EXLTYPE2
 62
     2
100
AcDbCircle
 10
613.921621
 20
2333.356773
 30
0.0
 40
25.0
100
AcDbArc
 50
195.590064
 51
265.729329
  0
ARC
  5
FA
100
AcDbEntity
  8
便器
  6
EXLTYPE2
 62
     2
100
AcDbCircle
 10
1004.021342
 20
2442.201652
 30
0.0
 40
430.0
100
AcDbArc
 50
179.893623
 51
195.590064
  0
CIRCLE
  5
FB
100
AcDbEntity
  8
便器
  6
EXLTYPE2
 62
     2
100
AcDbCircle
 10
614.021342
 20
2333.000004
 30
0.0
 40
5.5
  0
ARC
  5
FC
100
AcDbEntity
  8
便器
  6
EXLTYPE2
 62
     2
100
AcDbCircle
 10
1000.295209
 20
-1376.448408
 30
0.0
 40
4000.0
100
AcDbArc
 50
95.941935
 51
96.8492
  0
ARC
  5
FD
100
AcDbEntity
  8
便器
  6
EXLTYPE2
 62
     2
100
AcDbCircle
 10
1000.295209
 20
-1376.448408
 30
0.0
 40
4000.0
100
AcDbArc
 50
96.8492
 51
97.280893
  0
ARC
  5
FE
100
AcDbEntity
  8
便器
  6
EXLTYPE2
 62
     2
100
AcDbCircle
 10
497.542143
 20
2558.564725
 30
0.0
 40
33.0
100
AcDbArc
 50
97.280893
 51
160.793579
  0
ARC
  5
FF
100
AcDbEntity
  8
便器
  6
EXLTYPE2
 62
     2
100
AcDbCircle
 10
734.137439
 20
2441.119155
 30
0.0
 40
300.0
100
AcDbArc
 50
171.381333
 51
179.640782
  0
ARC
  5
100
100
AcDbEntity
  8
便器
  6
EXLTYPE2
 62
     2
100
AcDbCircle
 10
734.137439
 20
2444.880853
 30
0.0
 40
300.0
100
AcDbArc
 50
180.359218
 51
188.618667
  0
LINE
  5
101
100
AcDbEntity
  8
便器
  6
EXLTYPE2
 62
     2
100
AcDbLine
 10
437.968836
 20
2398.132464
 30
0.0
 11
466.378939
 21
2316.579191
 31
0.0
  0
ARC
  5
102
100
AcDbEntity
  8
便器
  6
EXLTYPE2
 62
     2
100
AcDbCircle
 10
447.412231
 20
2401.422188
 30
0.0
 40
10.0
100
AcDbArc
 50
188.618667
 51
199.206421
  0
ARC
  5
103
100
AcDbEntity
  8
便器
  6
EXLTYPE2
 62
     2
100
AcDbCircle
 10
497.542143
 20
2327.435283
 30
0.0
 40
33.0
100
AcDbArc
 50
199.206421
 51
262.719107
  0
CIRCLE
  5
104
100
AcDbEntity
  8
便器
  6
EXLTYPE2
 62
     6
100
AcDbCircle
 10
1013.017073
 20
2413.037221
 30
0.0
 40
4.0
  0
CIRCLE
  5
105
100
AcDbEntity
  8
便器
  6
EXLTYPE2
 62
     6
100
AcDbCircle
 10
1013.017073
 20
2473.037221
 30
0.0
 40
4.0
  0
ARC
  5
106
100
AcDbEntity
  8
便器
  6
EXLTYPE2
 62
     6
100
AcDbCircle
 10
1013.017073
 20
2408.037221
 30
0.0
 40
16.0
100
AcDbArc
 50
69.635865
 51
110.364135
  0
ARC
  5
107
100
AcDbEntity
  8
便器
  6
EXLTYPE2
 62
     6
100
AcDbCircle
 10
1013.017073
 20
2478.037221
 30
0.0
 40
16.0
100
AcDbArc
 50
249.635865
 51
290.364135
  0
LINE
  5
108
100
AcDbEntity
  8
便器
  6
EXLTYPE2
 62
     6
100
AcDbLine
 10
1008.017073
 20
2424.037221
 30
0.0
 11
1008.017073
 21
2462.037221
 31
0.0
  0
LINE
  5
109
100
AcDbEntity
  8
便器
  6
EXLTYPE2
 62
     6
100
AcDbLine
 10
1018.017073
 20
2424.037221
 30
0.0
 11
1018.017073
 21
2462.037221
 31
0.0
  0
ARC
  5
10A
100
AcDbEntity
  8
便器
  6
EXLTYPE2
 62
     6
100
AcDbCircle
 10
1022.717073
 20
2426.156738
 30
0.0
 40
0.3
100
AcDbArc
 50
0.0
 51
75.068583
  0
LINE
  5
10B
100
AcDbEntity
  8
便器
  6
EXLTYPE2
 62
     6
100
AcDbLine
 10
1021.228598
 20
2478.180165
 30
0.0
 11
1022.971496
 21
2468.2957
 31
0.0
  0
ARC
  5
10C
100
AcDbEntity
  8
便器
  6
EXLTYPE2
 62
     6
100
AcDbCircle
 10
1013.017073
 20
2473.037221
 30
0.0
 40
10.0
100
AcDbArc
 50
41.321659
 51
138.678341
  0
LINE
  5
10D
100
AcDbEntity
  8
便器
  6
EXLTYPE2
 62
     6
100
AcDbLine
 10
1004.805547
 20
2478.180165
 30
0.0
 11
1003.062649
 21
2468.2957
 31
0.0
  0
LINE
  5
10E
100
AcDbEntity
  8
便器
  6
EXLTYPE2
 62
     6
100
AcDbLine
 10
1003.017073
 20
2418.299687
 30
0.0
 11
1003.017073
 21
2467.774755
 31
0.0
  0
LINE
  5
10F
100
AcDbEntity
  8
便器
  6
EXLTYPE2
 62
     6
100
AcDbLine
 10
1004.805547
 20
2407.894277
 30
0.0
 11
1003.062649
 21
2417.778743
 31
0.0
  0
ARC
  5
110
100
AcDbEntity
  8
便器
  6
EXLTYPE2
 62
     6
100
AcDbCircle
 10
1013.017073
 20
2413.037221
 30
0.0
 40
10.0
100
AcDbArc
 50
221.321659
 51
318.678341
  0
LINE
  5
111
100
AcDbEntity
  8
便器
  6
EXLTYPE2
 62
     6
100
AcDbLine
 10
1021.228598
 20
2407.894277
 30
0.0
 11
1022.971496
 21
2417.778743
 31
0.0
  0
LINE
  5
112
100
AcDbEntity
  8
便器
  6
EXLTYPE2
 62
     6
100
AcDbLine
 10
1023.017073
 20
2418.299687
 30
0.0
 11
1023.017073
 21
2467.774755
 31
0.0
  0
LINE
  5
113
100
AcDbEntity
  8
便器
  6
EXLTYPE2
 62
     6
100
AcDbLine
 10
1004.017073
 20
2423.037221
 30
0.0
 11
1007.449308
 21
2423.037221
 31
0.0
  0
LINE
  5
114
100
AcDbEntity
  8
便器
  6
EXLTYPE2
 62
     6
100
AcDbLine
 10
1018.584837
 20
2423.037221
 30
0.0
 11
1022.017073
 21
2423.037221
 31
0.0
  0
LINE
  5
115
100
AcDbEntity
  8
便器
  6
EXLTYPE2
 62
     6
100
AcDbLine
 10
1004.017073
 20
2463.037221
 30
0.0
 11
1007.449308
 21
2463.037221
 31
0.0
  0
LINE
  5
116
100
AcDbEntity
  8
便器
  6
EXLTYPE2
 62
     6
100
AcDbLine
 10
1018.584837
 20
2463.037221
 30
0.0
 11
1022.017073
 21
2463.037221
 31
0.0
  0
ARC
  5
117
100
AcDbEntity
  8
便器
  6
EXLTYPE2
 62
     6
100
AcDbCircle
 10
1020.017073
 20
2467.774755
 30
0.0
 40
3.0
100
AcDbArc
 50
0.0
 51
10.0
  0
ARC
  5
118
100
AcDbEntity
  8
便器
  6
EXLTYPE2
 62
     6
100
AcDbCircle
 10
1018.274175
 20
2477.659221
 30
0.0
 40
3.0
100
AcDbArc
 50
10.0
 51
41.321659
  0
ARC
  5
119
100
AcDbEntity
  8
便器
  6
EXLTYPE2
 62
     6
100
AcDbCircle
 10
1007.759971
 20
2477.659221
 30
0.0
 40
3.0
100
AcDbArc
 50
138.678341
 51
170.0
  0
ARC
  5
11A
100
AcDbEntity
  8
便器
  6
EXLTYPE2
 62
     6
100
AcDbCircle
 10
1006.017073
 20
2467.774755
 30
0.0
 40
3.0
100
AcDbArc
 50
170.0
 51
180.0
  0
ARC
  5
11B
100
AcDbEntity
  8
便器
  6
EXLTYPE2
 62
     6
100
AcDbCircle
 10
1006.017073
 20
2418.299687
 30
0.0
 40
3.0
100
AcDbArc
 50
180.0
 51
190.0
  0
ARC
  5
11C
100
AcDbEntity
  8
便器
  6
EXLTYPE2
 62
     6
100
AcDbCircle
 10
1007.759971
 20
2408.415222
 30
0.0
 40
3.0
100
AcDbArc
 50
190.0
 51
221.321659
  0
ARC
  5
11D
100
AcDbEntity
  8
便器
  6
EXLTYPE2
 62
     6
100
AcDbCircle
 10
1018.274175
 20
2408.415222
 30
0.0
 40
3.0
100
AcDbArc
 50
318.678341
 51
350.0
  0
ARC
  5
11E
100
AcDbEntity
  8
便器
  6
EXLTYPE2
 62
     6
100
AcDbCircle
 10
1020.017073
 20
2418.299687
 30
0.0
 40
3.0
100
AcDbArc
 50
350.0
 51
0.0
  0
ARC
  5
11F
100
AcDbEntity
  8
便器
  6
EXLTYPE2
 62
     6
100
AcDbCircle
 10
1004.017073
 20
2424.037221
 30
0.0
 40
1.0
100
AcDbArc
 50
180.0
 51
270.0
  0
ARC
  5
120
100
AcDbEntity
  8
便器
  6
EXLTYPE2
 62
     6
100
AcDbCircle
 10
1022.017073
 20
2424.037221
 30
0.0
 40
1.0
100
AcDbArc
 50
270.0
 51
0.0
  0
ARC
  5
121
100
AcDbEntity
  8
便器
  6
EXLTYPE2
 62
     6
100
AcDbCircle
 10
1004.017073
 20
2462.037221
 30
0.0
 40
1.0
100
AcDbArc
 50
90.0
 51
180.0
  0
ARC
  5
122
100
AcDbEntity
  8
便器
  6
EXLTYPE2
 62
     6
100
AcDbCircle
 10
1022.017073
 20
2462.037221
 30
0.0
 40
1.0
100
AcDbArc
 50
0.0
 51
90.0
  0
LINE
  5
123
100
AcDbEntity
  8
便器
  6
EXLTYPE3
 62
     6
100
AcDbLine
 10
344.017073
 20
2443.000004
 30
0.0
 11
1155.0
 21
2443.000004
 31
0.0
  0
LINE
  5
124
100
AcDbEntity
  8
便器
  6
CONTINUOUS
 62
     7
100
AcDbLine
 10
784.017073
 20
698.000123
 30
0.0
 11
784.017073
 21
698.0001
 31
0.0
  0
LINE
  5
125
100
AcDbEntity
  8
便器
  6
CONTINUOUS
 62
     7
100
AcDbLine
 10
708.95812
 20
873.000128
 30
0.0
 11
574.017073
 21
873.000128
 31
0.0
  0
ARC
  5
126
100
AcDbEntity
  8
便器
  6
CONTINUOUS
 62
     7
100
AcDbCircle
 10
2343.734021
 20
471.347015
 30
0.0
 40
1770.0
100
AcDbArc
 50
176.841008
 51
178.975316
  0
ARC
  5
127
100
AcDbEntity
  8
便器
  6
CONTINUOUS
 62
     7
100
AcDbCircle
 10
472.693834
 20
836.761117
 30
0.0
 40
13.0
100
AcDbArc
 50
219.214729
 51
259.94808
  0
ARC
  5
128
100
AcDbEntity
  8
便器
  6
CONTINUOUS
 62
     7
100
AcDbCircle
 10
626.347629
 20
566.130865
 30
0.0
 40
50.0
100
AcDbArc
 50
132.353584
 51
176.841008
  0
ARC
  5
129
100
AcDbEntity
  8
便器
  6
CONTINUOUS
 62
     7
100
AcDbCircle
 10
577.840946
 20
619.338963
 30
0.0
 40
22.0
100
AcDbArc
 50
312.353584
 51
355.502843
  0
LINE
  5
12A
100
AcDbEntity
  8
便器
  6
CONTINUOUS
 62
     7
100
AcDbLine
 10
600.713287
 20
629.566305
 30
0.0
 11
599.773213
 21
617.613951
 31
0.0
  0
ARC
  5
12B
100
AcDbEntity
  8
便器
  6
CONTINUOUS
 62
     7
100
AcDbCircle
 10
597.722523
 20
629.801534
 30
0.0
 40
3.0
100
AcDbArc
 50
355.502843
 51
100.0
  0
ARC
  5
12C
100
AcDbEntity
  8
便器
  6
CONTINUOUS
 62
     7
100
AcDbCircle
 10
543.012064
 20
735.85016
 30
0.0
 40
35.0
100
AcDbArc
 50
10.0
 51
43.369047
  0
ARC
  5
12D
100
AcDbEntity
  8
便器
  6
CONTINUOUS
 62
     7
100
AcDbCircle
 10
547.615736
 20
580.478643
 30
0.0
 40
180.0
100
AcDbArc
 50
32.655517
 51
38.646919
  0
ARC
  5
12E
100
AcDbEntity
  8
便器
  6
CONTINUOUS
 62
     7
100
AcDbCircle
 10
707.582428
 20
683.000139
 30
0.0
 40
10.0
100
AcDbArc
 50
212.655517
 51
269.999971
  0
ARC
  5
12F
100
AcDbEntity
  8
便器
  6
CONTINUOUS
 62
     7
100
AcDbCircle
 10
827.217073
 20
804.056575
 30
0.0
 40
178.0
100
AcDbArc
 50
193.249274
 51
218.646919
  0
ARC
  5
130
100
AcDbEntity
  8
便器
  6
CONTINUOUS
 62
     7
100
AcDbCircle
 10
676.342838
 20
768.532426
 30
0.0
 40
23.0
100
AcDbArc
 50
81.623948
 51
193.249274
  0
ARC
  5
131
100
AcDbEntity
  8
便器
  6
CONTINUOUS
 62
     7
100
AcDbCircle
 10
574.017073
 20
888.000128
 30
0.0
 40
15.0
100
AcDbArc
 50
180.0
 51
270.0
  0
ARC
  5
132
100
AcDbEntity
  8
便器
  6
CONTINUOUS
 62
     7
100
AcDbCircle
 10
574.281991
 20
731.272704
 30
0.0
 40
5.0
100
AcDbArc
 50
280.0
 51
10.0
  0
LINE
  5
133
100
AcDbEntity
  8
便器
  6
CONTINUOUS
 62
     7
100
AcDbLine
 10
579.20603
 20
732.140945
 30
0.0
 11
577.480335
 21
741.927846
 31
0.0
  0
ARC
  5
134
100
AcDbEntity
  8
便器
  6
CONTINUOUS
 62
     7
100
AcDbCircle
 10
694.692989
 20
778.97071
 30
0.0
 40
10.0
100
AcDbArc
 50
26.370179
 51
81.623948
  0
ARC
  5
135
100
AcDbEntity
  8
便器
  6
CONTINUOUS
 62
     7
100
AcDbCircle
 10
-653.449895
 20
410.23192
 30
0.0
 40
1700.0
100
AcDbArc
 50
3.128152
 51
10.453124
  0
LINE
  5
136
100
AcDbEntity
  8
便器
  6
CONTINUOUS
 62
     7
100
AcDbLine
 10
1129.017073
 20
873.000128
 30
0.0
 11
708.95812
 21
873.000128
 31
0.0
  0
LINE
  5
137
100
AcDbEntity
  8
便器
  6
EXLTYPE1
 62
     7
100
AcDbLine
 10
779.517073
 20
653.000103
 30
0.0
 11
779.517073
 21
653.000148
 31
0.0
  0
ARC
  5
138
100
AcDbEntity
  8
便器
  6
CONTINUOUS
 62
     7
100
AcDbCircle
 10
852.787275
 20
985.99207
 30
0.0
 40
308.0
100
AcDbArc
 50
315.579373
 51
332.337688
  0
ARC
  5
139
100
AcDbEntity
  8
便器
  6
CONTINUOUS
 62
     7
100
AcDbCircle
 10
924.209349
 20
916.000019
 30
0.0
 40
208.0
100
AcDbArc
 50
299.225125
 51
315.579373
  0
LINE
  5
13A
100
AcDbEntity
  8
便器
  6
CONTINUOUS
 62
     7
100
AcDbLine
 10
703.65242
 20
783.412399
 30
0.0
 11
750.036791
 21
694.966796
 31
0.0
  0
ARC
  5
13B
100
AcDbEntity
  8
便器
  6
CONTINUOUS
 62
     7
100
AcDbCircle
 10
1033.087404
 20
721.386121
 30
0.0
 40
15.0
100
AcDbArc
 50
119.225125
 51
190.453124
  0
ARC
  5
13C
100
AcDbEntity
  8
便器
  6
CONTINUOUS
 62
     7
100
AcDbCircle
 10
1036.047493
 20
887.536177
 30
0.0
 40
100.0
100
AcDbArc
 50
333.553595
 51
348.13288
  0
ARC
  5
13D
100
AcDbEntity
  8
便器
  6
CONTINUOUS
 62
     7
100
AcDbCircle
 10
1129.017073
 20
868.000128
 30
0.0
 40
5.0
100
AcDbArc
 50
348.13288
 51
90.0
  0
LINE
  5
13E
100
AcDbEntity
  8
便器
  6
EXLTYPE3
 62
     6
100
AcDbLine
 10
549.017073
 20
673.000207
 30
0.0
 11
600.570491
 21
673.000207
 31
0.0
  0
LINE
  5
13F
100
AcDbEntity
  8
便器
  6
CONTINUOUS
 62
     7
100
AcDbLine
 10
679.693237
 20
791.287092
 30
0.0
 11
696.149684
 21
788.864043
 31
0.0
  0
ARC
  5
140
100
AcDbEntity
  8
便器
  6
CONTINUOUS
 62
     7
100
AcDbCircle
 10
386.718729
 20
588.210757
 30
0.0
 40
250.0
100
AcDbArc
 50
43.369047
 51
70.919181
  0
LINE
  5
141
100
AcDbEntity
  8
便器
  6
CONTINUOUS
 62
     2
100
AcDbLine
 10
463.705522
 20
856.000264
 30
0.0
 11
518.017073
 21
856.000264
 31
0.0
  0
ARC
  5
142
100
AcDbEntity
  8
便器
  6
CONTINUOUS
 62
     2
100
AcDbCircle
 10
570.098952
 20
885.790831
 30
0.0
 40
60.0
100
AcDbArc
 50
209.769334
 51
263.368314
  0
ARC
  5
143
100
AcDbEntity
  8
便器
  6
CONTINUOUS
 62
     2
100
AcDbCircle
 10
794.142741
 20
2812.81039
 30
0.0
 40
2000.0
100
AcDbArc
 50
263.368314
 51
269.741986
  0
ARC
  5
144
100
AcDbEntity
  8
便器
  6
CONTINUOUS
 62
     2
100
AcDbCircle
 10
801.34784
 20
4412.794167
 30
0.0
 40
3600.0
100
AcDbArc
 50
269.741986
 51
270.69537
  0
ARC
  5
145
100
AcDbEntity
  8
便器
  6
CONTINUOUS
 62
     2
100
AcDbCircle
 10
826.833853
 20
2312.948825
 30
0.0
 40
1500.0
100
AcDbArc
 50
270.69537
 51
280.281084
  0
ARC
  5
146
100
AcDbEntity
  8
便器
  6
CONTINUOUS
 62
     2
100
AcDbCircle
 10
1.684166
 20
-31.369967
 30
0.0
 40
1000.0
100
AcDbArc
 50
48.258559
 51
53.17122
  0
ARC
  5
147
100
AcDbEntity
  8
便器
  6
CONTINUOUS
 62
     2
100
AcDbCircle
 10
541.167326
 20
689.017373
 30
0.0
 40
100.0
100
AcDbArc
 50
53.17122
 51
82.693367
  0
LINE
  5
148
100
AcDbEntity
  8
便器
  6
CONTINUOUS
 62
     2
100
AcDbLine
 10
590.09714
 20
533.000199
 30
0.0
 11
630.189247
 21
533.000178
 31
0.0
  0
ARC
  5
149
100
AcDbEntity
  8
便器
  6
CONTINUOUS
 62
     2
100
AcDbCircle
 10
630.189252
 20
543.000178
 30
0.0
 40
10.0
100
AcDbArc
 50
269.999971
 51
352.874983
  0
LINE
  5
14A
100
AcDbEntity
  8
便器
  6
CONTINUOUS
 62
     2
100
AcDbLine
 10
649.637245
 20
617.961538
 30
0.0
 11
640.112031
 21
541.759831
 31
0.0
  0
ARC
  5
14B
100
AcDbEntity
  8
便器
  6
CONTINUOUS
 62
     2
100
AcDbCircle
 10
689.32836
 20
613.000148
 30
0.0
 40
40.0
100
AcDbArc
 50
89.999971
 51
172.874983
  0
LINE
  5
14C
100
AcDbEntity
  8
便器
  6
CONTINUOUS
 62
     2
100
AcDbLine
 10
689.32838
 20
653.000148
 30
0.0
 11
760.895618
 21
653.000113
 31
0.0
  0
ARC
  5
14D
100
AcDbEntity
  8
便器
  6
CONTINUOUS
 62
     2
100
AcDbCircle
 10
760.895631
 20
678.000113
 30
0.0
 40
25.0
100
AcDbArc
 50
269.999971
 51
343.36174
  0
ARC
  5
14E
100
AcDbEntity
  8
便器
  6
CONTINUOUS
 62
     2
100
AcDbCircle
 10
827.284644
 20
725.530917
 30
0.0
 40
25.0
100
AcDbArc
 50
82.891603
 51
163.36174
  0
ARC
  5
14F
100
AcDbEntity
  8
便器
  6
CONTINUOUS
 62
     2
100
AcDbCircle
 10
892.251772
 20
1246.495669
 30
0.0
 40
500.0
100
AcDbArc
 50
262.891603
 51
287.492288
  0
ARC
  5
150
100
AcDbEntity
  8
便器
  6
CONTINUOUS
 62
     2
100
AcDbCircle
 10
547.615736
 20
580.478643
 30
0.0
 40
180.0
100
AcDbArc
 50
38.646919
 51
48.258559
  0
LINE
  5
151
100
AcDbEntity
  8
便器
  6
CONTINUOUS
 62
     7
100
AcDbLine
 10
707.582423
 20
673.000139
 30
0.0
 11
736.752752
 21
673.000125
 31
0.0
  0
ARC
  5
152
100
AcDbEntity
  8
便器
  6
CONTINUOUS
 62
     7
100
AcDbCircle
 10
736.752759
 20
688.000125
 30
0.0
 40
15.0
100
AcDbArc
 50
269.999972
 51
27.674293
  0
ARC
  5
153
100
AcDbEntity
  8
便器
  6
CONTINUOUS
 62
     7
100
AcDbCircle
 10
571.091147
 20
917.054136
 30
0.0
 40
140.0
100
AcDbArc
 50
191.977506
 51
202.769784
  0
ARC
  5
154
100
AcDbEntity
  8
便器
  6
CONTINUOUS
 62
     7
100
AcDbCircle
 10
571.091147
 20
917.054136
 30
0.0
 40
140.0
100
AcDbArc
 50
213.639285
 51
219.214729
  0
ARC
  5
155
100
AcDbEntity
  8
便器
  6
CONTINUOUS
 62
     6
100
AcDbCircle
 10
1023.06553
 20
537.99999
 30
0.0
 40
19.5
100
AcDbArc
 50
338.632188
 51
21.618195
  0
LINE
  5
156
100
AcDbEntity
  8
便器
  6
EXLTYPE2
 62
     6
100
AcDbLine
 10
1037.619958
 20
541.500248
 30
0.0
 11
1037.619958
 21
534.500248
 31
0.0
  0
LINE
  5
157
100
AcDbEntity
  8
便器
  6
EXLTYPE2
 62
     6
100
AcDbLine
 10
1037.619958
 20
534.500248
 30
0.0
 11
1041.225113
 21
530.895093
 31
0.0
  0
LINE
  5
158
100
AcDbEntity
  8
便器
  6
EXLTYPE2
 62
     6
100
AcDbLine
 10
1037.619958
 20
541.500248
 30
0.0
 11
1041.269857
 21
545.150148
 31
0.0
  0
LINE
  5
159
100
AcDbEntity
  8
便器
  6
CONTINUOUS
 62
     6
100
AcDbLine
 10
1015.916853
 20
483.044502
 30
0.0
 11
1015.916853
 21
503.000052
 31
0.0
  0
LINE
  5
15A
100
AcDbEntity
  8
便器
  6
CONTINUOUS
 62
     6
100
AcDbLine
 10
1010.116987
 20
483.044502
 30
0.0
 11
1010.116987
 21
503.000052
 31
0.0
  0
ARC
  5
15B
100
AcDbEntity
  8
便器
  6
CONTINUOUS
 62
     6
100
AcDbCircle
 10
1030.11363
 20
482.669899
 30
0.0
 40
20.0
100
AcDbArc
 50
178.926758
 51
211.259766
  0
ARC
  5
15C
100
AcDbEntity
  8
便器
  6
CONTINUOUS
 62
     6
100
AcDbCircle
 10
995.920515
 20
482.669899
 30
0.0
 40
20.0
100
AcDbArc
 50
328.740234
 51
1.073222
  0
LINE
  5
15D
100
AcDbEntity
  8
便器
  6
EXLTYPE2
 62
     6
100
AcDbLine
 10
1006.479855
 20
515.000324
 30
0.0
 11
1019.479855
 21
515.000324
 31
0.0
  0
ARC
  5
15E
100
AcDbEntity
  8
便器
  6
EXLTYPE2
 62
     6
100
AcDbCircle
 10
1021.979855
 20
514.000324
 30
0.0
 40
1.0
100
AcDbArc
 50
0.0
 51
90.0
  0
ARC
  5
15F
100
AcDbEntity
  8
便器
  6
EXLTYPE2
 62
     6
100
AcDbCircle
 10
1003.979855
 20
514.000324
 30
0.0
 40
1.0
100
AcDbArc
 50
90.0
 51
180.0
  0
ARC
  5
160
100
AcDbEntity
  8
便器
  6
EXLTYPE2
 62
     6
100
AcDbCircle
 10
1008.394068
 20
552.000324
 30
0.0
 40
1.0
100
AcDbArc
 50
90.0
 51
135.0
  0
ARC
  5
161
100
AcDbEntity
  8
便器
  6
EXLTYPE2
 62
     6
100
AcDbCircle
 10
1017.565641
 20
552.000324
 30
0.0
 40
1.0
100
AcDbArc
 50
45.0
 51
90.0
  0
LINE
  5
162
100
AcDbEntity
  8
便器
  6
EXLTYPE2
 62
     6
100
AcDbLine
 10
1003.979855
 20
515.000324
 30
0.0
 11
1021.979855
 21
515.000324
 31
0.0
  0
LINE
  5
163
100
AcDbEntity
  8
便器
  6
EXLTYPE2
 62
     6
100
AcDbLine
 10
1008.394068
 20
553.000324
 30
0.0
 11
1017.565641
 21
553.000324
 31
0.0
  0
LINE
  5
164
100
AcDbEntity
  8
便器
  6
EXLTYPE2
 62
     6
100
AcDbLine
 10
1007.686962
 20
552.707431
 30
0.0
 11
1003.272748
 21
548.293217
 31
0.0
  0
LINE
  5
165
100
AcDbEntity
  8
便器
  6
EXLTYPE2
 62
     6
100
AcDbLine
 10
1018.272748
 20
552.707431
 30
0.0
 11
1022.686962
 21
548.293217
 31
0.0
  0
ARC
  5
166
100
AcDbEntity
  8
便器
  6
EXLTYPE2
 62
     6
100
AcDbCircle
 10
1021.979855
 20
547.58611
 30
0.0
 40
1.0
100
AcDbArc
 50
0.0
 51
45.0
  0
LINE
  5
167
100
AcDbEntity
  8
便器
  6
EXLTYPE2
 62
     6
100
AcDbLine
 10
1022.979855
 20
547.58611
 30
0.0
 11
1022.979855
 21
503.000324
 31
0.0
  0
ARC
  5
168
100
AcDbEntity
  8
便器
  6
EXLTYPE2
 62
     6
100
AcDbCircle
 10
1003.979855
 20
547.58611
 30
0.0
 40
1.0
100
AcDbArc
 50
135.0
 51
180.0
  0
LINE
  5
169
100
AcDbEntity
  8
便器
  6
EXLTYPE2
 62
     6
100
AcDbLine
 10
1002.979855
 20
547.58611
 30
0.0
 11
1002.979855
 21
503.000324
 31
0.0
  0
LINE
  5
16A
100
AcDbEntity
  8
便器
  6
EXLTYPE2
 62
     6
100
AcDbLine
 10
1022.979855
 20
534.500256
 30
0.0
 11
1037.619958
 21
534.500248
 31
0.0
  0
LINE
  5
16B
100
AcDbEntity
  8
便器
  6
EXLTYPE2
 62
     6
100
AcDbLine
 10
1022.979855
 20
541.500256
 30
0.0
 11
1037.619958
 21
541.500248
 31
0.0
  0
ARC
  5
16C
100
AcDbEntity
  8
便器
  6
CONTINUOUS
 62
     6
100
AcDbCircle
 10
614.017073
 20
542.989361
 30
0.0
 40
7.0
100
AcDbArc
 50
38.942444
 51
90.0
  0
ARC
  5
16D
100
AcDbEntity
  8
便器
  6
CONTINUOUS
 62
     6
100
AcDbCircle
 10
600.017073
 20
531.675671
 30
0.0
 40
25.0
100
AcDbArc
 50
3.037016
 51
38.942444
  0
ARC
  5
16E
100
AcDbEntity
  8
便器
  6
CONTINUOUS
 62
     6
100
AcDbCircle
 10
628.017073
 20
531.675671
 30
0.0
 40
25.0
100
AcDbArc
 50
141.057556
 51
176.962984
  0
ARC
  5
16F
100
AcDbEntity
  8
便器
  6
CONTINUOUS
 62
     6
100
AcDbCircle
 10
614.017073
 20
542.989361
 30
0.0
 40
7.0
100
AcDbArc
 50
90.0
 51
141.057605
  0
LINE
  5
170
100
AcDbEntity
  8
便器
  6
CONTINUOUS
 62
     6
100
AcDbLine
 10
614.017073
 20
468.0
 30
0.0
 11
611.433699
 21
503.0
 31
0.0
  0
LINE
  5
171
100
AcDbEntity
  8
便器
  6
CONTINUOUS
 62
     6
100
AcDbLine
 10
614.017073
 20
468.0
 30
0.0
 11
616.600447
 21
503.0
 31
0.0
  0
LINE
  5
172
100
AcDbEntity
  8
便器
  6
CONTINUOUS
 62
     2
100
AcDbLine
 10
784.848921
 20
670.841907
 30
0.0
 11
785.967286
 21
674.58426
 31
0.0
  0
LINE
  5
173
100
AcDbEntity
  8
便器
  6
CONTINUOUS
 62
     6
100
AcDbLine
 10
498.029336
 20
844.600264
 30
0.0
 11
498.029336
 21
841.999474
 31
0.0
  0
LINE
  5
174
100
AcDbEntity
  8
便器
  6
CONTINUOUS
 62
     6
100
AcDbLine
 10
490.129336
 20
844.600264
 30
0.0
 11
490.129336
 21
841.999474
 31
0.0
  0
LINE
  5
175
100
AcDbEntity
  8
便器
  6
CONTINUOUS
 62
     6
100
AcDbLine
 10
497.129336
 20
844.600264
 30
0.0
 11
497.129336
 21
841.999474
 31
0.0
  0
LINE
  5
176
100
AcDbEntity
  8
便器
  6
CONTINUOUS
 62
     6
100
AcDbLine
 10
491.029336
 20
844.600264
 30
0.0
 11
491.029336
 21
841.999474
 31
0.0
  0
LINE
  5
177
100
AcDbEntity
  8
便器
  6
CONTINUOUS
 62
     6
100
AcDbLine
 10
483.079336
 20
852.000264
 30
0.0
 11
483.079336
 21
851.000264
 31
0.0
  0
LINE
  5
178
100
AcDbEntity
  8
便器
  6
CONTINUOUS
 62
     6
100
AcDbLine
 10
505.079336
 20
852.000264
 30
0.0
 11
505.079336
 21
851.000264
 31
0.0
  0
LINE
  5
179
100
AcDbEntity
  8
便器
  6
CONTINUOUS
 62
     6
100
AcDbLine
 10
480.579336
 20
852.000264
 30
0.0
 11
507.579336
 21
852.000264
 31
0.0
  0
LINE
  5
17A
100
AcDbEntity
  8
便器
  6
CONTINUOUS
 62
     6
100
AcDbLine
 10
507.579336
 20
856.000264
 30
0.0
 11
507.579336
 21
852.000264
 31
0.0
  0
LINE
  5
17B
100
AcDbEntity
  8
便器
  6
CONTINUOUS
 62
     6
100
AcDbLine
 10
480.579336
 20
856.000264
 30
0.0
 11
480.579336
 21
852.000264
 31
0.0
  0
LINE
  5
17C
100
AcDbEntity
  8
便器
  6
CONTINUOUS
 62
     6
100
AcDbLine
 10
483.079336
 20
852.000264
 30
0.0
 11
483.079336
 21
851.000264
 31
0.0
  0
LINE
  5
17D
100
AcDbEntity
  8
便器
  6
CONTINUOUS
 62
     6
100
AcDbLine
 10
486.729336
 20
851.000264
 30
0.0
 11
494.079336
 21
851.000264
 31
0.0
  0
LINE
  5
17E
100
AcDbEntity
  8
便器
  6
CONTINUOUS
 62
     6
100
AcDbLine
 10
483.079336
 20
851.000264
 30
0.0
 11
505.079336
 21
851.000264
 31
0.0
  0
ARC
  5
17F
100
AcDbEntity
  8
便器
  6
CONTINUOUS
 62
     6
100
AcDbCircle
 10
499.729336
 20
847.740264
 30
0.0
 40
3.14
100
AcDbArc
 50
237.220919
 51
302.779081
  0
LINE
  5
180
100
AcDbEntity
  8
便器
  6
CONTINUOUS
 62
     6
100
AcDbLine
 10
498.029336
 20
851.000264
 30
0.0
 11
498.029336
 21
845.100264
 31
0.0
  0
LINE
  5
181
100
AcDbEntity
  8
便器
  6
CONTINUOUS
 62
     6
100
AcDbLine
 10
501.429336
 20
851.000264
 30
0.0
 11
501.429336
 21
845.100264
 31
0.0
  0
LINE
  5
182
100
AcDbEntity
  8
便器
  6
CONTINUOUS
 62
     6
100
AcDbLine
 10
488.429336
 20
844.600264
 30
0.0
 11
499.729336
 21
844.600264
 31
0.0
  0
ARC
  5
183
100
AcDbEntity
  8
便器
  6
CONTINUOUS
 62
     6
100
AcDbCircle
 10
494.079336
 20
860.452764
 30
0.0
 40
15.8525
100
AcDbArc
 50
255.571476
 51
284.428524
  0
ARC
  5
184
100
AcDbEntity
  8
便器
  6
CONTINUOUS
 62
     6
100
AcDbCircle
 10
488.429336
 20
847.740264
 30
0.0
 40
3.14
100
AcDbArc
 50
237.220919
 51
302.779081
  0
LINE
  5
185
100
AcDbEntity
  8
便器
  6
CONTINUOUS
 62
     6
100
AcDbLine
 10
486.729336
 20
851.000264
 30
0.0
 11
486.729336
 21
845.100264
 31
0.0
  0
LINE
  5
186
100
AcDbEntity
  8
便器
  6
CONTINUOUS
 62
     6
100
AcDbLine
 10
490.129336
 20
851.000264
 30
0.0
 11
490.129336
 21
845.100264
 31
0.0
  0
LINE
  5
187
100
AcDbEntity
  8
便器
  6
CONTINUOUS
 62
     6
100
AcDbLine
 10
497.129336
 20
841.999474
 30
0.0
 11
496.579336
 21
837.999474
 31
0.0
  0
LINE
  5
188
100
AcDbEntity
  8
便器
  6
CONTINUOUS
 62
     6
100
AcDbLine
 10
491.029336
 20
841.999474
 30
0.0
 11
491.579336
 21
837.999474
 31
0.0
  0
LINE
  5
189
100
AcDbEntity
  8
便器
  6
CONTINUOUS
 62
     6
100
AcDbLine
 10
490.129336
 20
841.999474
 30
0.0
 11
498.029336
 21
841.999474
 31
0.0
  0
LINE
  5
18A
100
AcDbEntity
  8
便器
  6
CONTINUOUS
 62
     6
100
AcDbLine
 10
491.579336
 20
837.999474
 30
0.0
 11
496.579336
 21
837.999474
 31
0.0
  0
LINE
  5
18B
100
AcDbEntity
  8
便器
  6
CONTINUOUS
 62
     6
100
AcDbLine
 10
1630.936998
 20
483.044178
 30
0.0
 11
1630.936998
 21
502.999728
 31
0.0
  0
LINE
  5
18C
100
AcDbEntity
  8
便器
  6
CONTINUOUS
 62
     6
100
AcDbLine
 10
1625.137132
 20
483.044178
 30
0.0
 11
1625.137132
 21
502.999728
 31
0.0
  0
ARC
  5
18D
100
AcDbEntity
  8
便器
  6
CONTINUOUS
 62
     6
100
AcDbCircle
 10
1610.94066
 20
482.669575
 30
0.0
 40
20.0
100
AcDbArc
 50
328.740234
 51
1.073222
  0
LINE
  5
18E
100
AcDbEntity
  8
便器
  6
CONTINUOUS
 62
     6
100
AcDbLine
 10
1690.936998
 20
483.044178
 30
0.0
 11
1690.936998
 21
502.999728
 31
0.0
  0
LINE
  5
18F
100
AcDbEntity
  8
便器
  6
CONTINUOUS
 62
     6
100
AcDbLine
 10
1685.137132
 20
483.044178
 30
0.0
 11
1685.137132
 21
502.999728
 31
0.0
  0
ARC
  5
190
100
AcDbEntity
  8
便器
  6
CONTINUOUS
 62
     6
100
AcDbCircle
 10
1705.133775
 20
482.669575
 30
0.0
 40
20.0
100
AcDbArc
 50
178.926758
 51
211.259766
  0
ARC
  5
191
100
AcDbEntity
  8
便器
  6
CONTINUOUS
 62
     6
100
AcDbCircle
 10
1670.94066
 20
482.669575
 30
0.0
 40
20.0
100
AcDbArc
 50
328.740234
 51
1.073222
  0
CIRCLE
  5
192
100
AcDbEntity
  8
便器
  6
CONTINUOUS
 62
     6
100
AcDbCircle
 10
1658.0
 20
538.0
 30
0.0
 40
8.0
  0
ARC
  5
193
100
AcDbEntity
  8
便器
  6
EXLTYPE2
 62
     6
100
AcDbCircle
 10
1681.0
 20
518.0
 30
0.0
 40
3.0
100
AcDbArc
 50
180.0
 51
270.0
  0
ARC
  5
194
100
AcDbEntity
  8
便器
  6
EXLTYPE2
 62
     6
100
AcDbCircle
 10
1635.0
 20
518.0
 30
0.0
 40
3.0
100
AcDbArc
 50
270.0
 51
0.0
  0
LINE
  5
195
100
AcDbEntity
  8
便器
  6
EXLTYPE2
 62
     6
100
AcDbLine
 10
1619.0
 20
515.0
 30
0.0
 11
1635.0
 21
515.0
 31
0.0
  0
LINE
  5
196
100
AcDbEntity
  8
便器
  6
EXLTYPE2
 62
     6
100
AcDbLine
 10
1698.0
 20
514.0
 30
0.0
 11
1698.0
 21
503.0
 31
0.0
  0
LINE
  5
197
100
AcDbEntity
  8
便器
  6
EXLTYPE2
 62
     6
100
AcDbLine
 10
1638.0
 20
552.0
 30
0.0
 11
1638.0
 21
518.0
 31
0.0
  0
LINE
  5
198
100
AcDbEntity
  8
便器
  6
EXLTYPE2
 62
     6
100
AcDbLine
 10
1639.0
 20
553.0
 30
0.0
 11
1677.0
 21
553.0
 31
0.0
  0
LINE
  5
199
100
AcDbEntity
  8
便器
  6
EXLTYPE2
 62
     6
100
AcDbLine
 10
1678.0
 20
552.0
 30
0.0
 11
1678.0
 21
518.0
 31
0.0
  0
ARC
  5
19A
100
AcDbEntity
  8
便器
  6
EXLTYPE2
 62
     6
100
AcDbCircle
 10
1619.0
 20
514.0
 30
0.0
 40
1.0
100
AcDbArc
 50
90.0
 51
180.0
  0
ARC
  5
19B
100
AcDbEntity
  8
便器
  6
EXLTYPE2
 62
     6
100
AcDbCircle
 10
1697.0
 20
514.0
 30
0.0
 40
1.0
100
AcDbArc
 50
0.0
 51
90.0
  0
ARC
  5
19C
100
AcDbEntity
  8
便器
  6
EXLTYPE2
 62
     6
100
AcDbCircle
 10
1639.0
 20
552.0
 30
0.0
 40
1.0
100
AcDbArc
 50
90.0
 51
180.0
  0
ARC
  5
19D
100
AcDbEntity
  8
便器
  6
EXLTYPE2
 62
     6
100
AcDbCircle
 10
1677.0
 20
552.0
 30
0.0
 40
1.0
100
AcDbArc
 50
0.0
 51
90.0
  0
LINE
  5
19E
100
AcDbEntity
  8
便器
  6
EXLTYPE2
 62
     6
100
AcDbLine
 10
1618.0
 20
514.0
 30
0.0
 11
1618.0
 21
503.0
 31
0.0
  0
LINE
  5
19F
100
AcDbEntity
  8
便器
  6
EXLTYPE2
 62
     6
100
AcDbLine
 10
1697.0
 20
515.0
 30
0.0
 11
1681.0
 21
515.0
 31
0.0
  0
ARC
  5
1A0
100
AcDbEntity
  8
便器
  6
CONTINUOUS
 62
     7
100
AcDbCircle
 10
3501.861815
 20
249.440211
 30
0.0
 40
2000.0
100
AcDbArc
 50
168.862579
 51
172.716461
  0
ARC
  5
1A1
100
AcDbEntity
  8
便器
  6
CONTINUOUS
 62
     7
100
AcDbCircle
 10
1490.500001
 20
862.442571
 30
0.0
 40
10.0
100
AcDbArc
 50
96.37937
 51
179.550678
  0
ARC
  5
1A2
100
AcDbEntity
  8
便器
  6
CONTINUOUS
 62
     7
100
AcDbCircle
 10
1630.495697
 20
861.344682
 30
0.0
 40
150.0
100
AcDbArc
 50
179.550678
 51
196.891403
  0
ARC
  5
1A3
100
AcDbEntity
  8
便器
  6
CONTINUOUS
 62
     7
100
AcDbCircle
 10
1496.53569
 20
820.666473
 30
0.0
 40
10.0
100
AcDbArc
 50
196.891403
 51
249.443955
  0
LINE
  5
1A4
100
AcDbEntity
  8
便器
  6
CONTINUOUS
 62
     7
100
AcDbLine
 10
1493.024456
 20
811.303182
 30
0.0
 11
1501.928956
 21
807.963994
 31
0.0
  0
ARC
  5
1A5
100
AcDbEntity
  8
便器
  6
CONTINUOUS
 62
     7
100
AcDbCircle
 10
1500.173339
 20
803.282348
 30
0.0
 40
5.0
100
AcDbArc
 50
12.28103
 51
69.443955
  0
ARC
  5
1A6
100
AcDbEntity
  8
便器
  6
CONTINUOUS
 62
     7
100
AcDbCircle
 10
1700.48213
 20
846.887261
 30
0.0
 40
200.0
100
AcDbArc
 50
192.28103
 51
215.489246
  0
ARC
  5
1A7
100
AcDbEntity
  8
便器
  6
CONTINUOUS
 62
     7
100
AcDbCircle
 10
1547.235007
 20
694.152353
 30
0.0
 40
15.0
100
AcDbArc
 50
345.778018
 51
39.920153
  0
ARC
  5
1A8
100
AcDbEntity
  8
便器
  6
CONTINUOUS
 62
     7
100
AcDbCircle
 10
1863.32703
 20
962.997288
 30
0.0
 40
400.0
100
AcDbArc
 50
215.489246
 51
220.536113
  0
ARC
  5
1A9
100
AcDbEntity
  8
便器
  6
CONTINUOUS
 62
     7
100
AcDbCircle
 10
1825.500001
 20
862.442571
 30
0.0
 40
10.0
100
AcDbArc
 50
0.449322
 51
83.62063
  0
ARC
  5
1AA
100
AcDbEntity
  8
便器
  6
CONTINUOUS
 62
     7
100
AcDbCircle
 10
1685.504305
 20
861.344682
 30
0.0
 40
150.0
100
AcDbArc
 50
343.108597
 51
0.449322
  0
ARC
  5
1AB
100
AcDbEntity
  8
便器
  6
CONTINUOUS
 62
     7
100
AcDbCircle
 10
1819.464312
 20
820.666473
 30
0.0
 40
10.0
100
AcDbArc
 50
290.556045
 51
343.108597
  0
LINE
  5
1AC
100
AcDbEntity
  8
便器
  6
CONTINUOUS
 62
     7
100
AcDbLine
 10
1822.975546
 20
811.303182
 30
0.0
 11
1814.071046
 21
807.963994
 31
0.0
  0
ARC
  5
1AD
100
AcDbEntity
  8
便器
  6
CONTINUOUS
 62
     7
100
AcDbCircle
 10
1815.826663
 20
803.282348
 30
0.0
 40
5.0
100
AcDbArc
 50
110.556045
 51
167.71897
  0
ARC
  5
1AE
100
AcDbEntity
  8
便器
  6
CONTINUOUS
 62
     7
100
AcDbCircle
 10
1615.517872
 20
846.887261
 30
0.0
 40
200.0
100
AcDbArc
 50
324.510754
 51
347.71897
  0
ARC
  5
1AF
100
AcDbEntity
  8
便器
  6
CONTINUOUS
 62
     7
100
AcDbCircle
 10
1768.764995
 20
694.152353
 30
0.0
 40
15.0
100
AcDbArc
 50
140.079847
 51
194.221982
  0
LINE
  5
1B0
100
AcDbEntity
  8
便器
  6
CONTINUOUS
 62
     7
100
AcDbLine
 10
1797.999868
 20
503.000519
 30
0.0
 11
1518.000001
 21
502.999481
 31
0.0
  0
ARC
  5
1B1
100
AcDbEntity
  8
便器
  6
CONTINUOUS
 62
     7
100
AcDbCircle
 10
-185.861813
 20
249.440211
 30
0.0
 40
2000.0
100
AcDbArc
 50
7.283569
 51
11.137421
  0
ARC
  5
1B2
100
AcDbEntity
  8
便器
  6
CONTINUOUS
 62
     7
100
AcDbCircle
 10
1500.500001
 20
772.999852
 30
0.0
 40
100.0
100
AcDbArc
 50
90.0
 51
96.37937
  0
LINE
  5
1B3
100
AcDbEntity
  8
便器
  6
CONTINUOUS
 62
     7
100
AcDbLine
 10
1500.500001
 20
872.999852
 30
0.0
 11
1815.500001
 21
872.999852
 31
0.0
  0
ARC
  5
1B4
100
AcDbEntity
  8
便器
  6
CONTINUOUS
 62
     7
100
AcDbCircle
 10
1815.500001
 20
772.999852
 30
0.0
 40
100.0
100
AcDbArc
 50
83.62063
 51
90.0
  0
ARC
  5
1B5
100
AcDbEntity
  8
便器
  6
CONTINUOUS
 62
     7
100
AcDbCircle
 10
1568.963385
 20
629.970967
 30
0.0
 40
30.0
100
AcDbArc
 50
121.577538
 51
168.862579
  0
LINE
  5
1B6
100
AcDbEntity
  8
便器
  6
CONTINUOUS
 62
     2
100
AcDbLine
 10
1497.000001
 20
811.303182
 30
0.0
 11
1818.000001
 21
811.303182
 31
0.0
  0
ARC
  5
1B7
100
AcDbEntity
  8
便器
  6
CONTINUOUS
 62
     7
100
AcDbCircle
 10
-184.477601
 20
199.108556
 30
0.0
 40
2000.0
100
AcDbArc
 50
8.739715
 51
14.221982
  0
ARC
  5
1B8
100
AcDbEntity
  8
便器
  6
CONTINUOUS
 62
     7
100
AcDbCircle
 10
1747.036617
 20
629.970967
 30
0.0
 40
30.0
100
AcDbArc
 50
11.137421
 51
58.422462
  0
ARC
  5
1B9
100
AcDbEntity
  8
便器
  6
CONTINUOUS
 62
     2
100
AcDbCircle
 10
1658.000001
 20
964.152353
 30
0.0
 40
270.0
100
AcDbArc
 50
258.627822
 51
281.372178
  0
ARC
  5
1BA
100
AcDbEntity
  8
便器
  6
CONTINUOUS
 62
     2
100
AcDbCircle
 10
1634.338245
 20
846.508308
 30
0.0
 40
150.0
100
AcDbArc
 50
248.527485
 51
258.627822
  0
ARC
  5
1BB
100
AcDbEntity
  8
便器
  6
CONTINUOUS
 62
     7
100
AcDbCircle
 10
3500.477603
 20
199.108556
 30
0.0
 40
2000.0
100
AcDbArc
 50
165.778018
 51
171.260314
  0
ARC
  5
1BC
100
AcDbEntity
  8
便器
  6
CONTINUOUS
 62
     2
100
AcDbCircle
 10
1575.187598
 20
696.134141
 30
0.0
 40
11.58957
100
AcDbArc
 50
68.527485
 51
165.52478
  0
ARC
  5
1BD
100
AcDbEntity
  8
便器
  6
CONTINUOUS
 62
     2
100
AcDbCircle
 10
3500.477603
 20
199.108556
 30
0.0
 40
2000.0
100
AcDbArc
 50
165.52478
 51
165.778018
  0
ARC
  5
1BE
100
AcDbEntity
  8
便器
  6
CONTINUOUS
 62
     7
100
AcDbCircle
 10
1452.672972
 20
962.997288
 30
0.0
 40
400.0
100
AcDbArc
 50
319.463887
 51
324.510754
  0
ARC
  5
1BF
100
AcDbEntity
  8
便器
  6
CONTINUOUS
 62
     7
100
AcDbCircle
 10
1768.764995
 20
694.152353
 30
0.0
 40
15.0
100
AcDbArc
 50
140.079847
 51
194.221982
  0
ARC
  5
1C0
100
AcDbEntity
  8
便器
  6
CONTINUOUS
 62
     2
100
AcDbCircle
 10
1740.812405
 20
696.134141
 30
0.0
 40
11.58957
100
AcDbArc
 50
14.47522
 51
111.472515
  0
ARC
  5
1C1
100
AcDbEntity
  8
便器
  6
CONTINUOUS
 62
     2
100
AcDbCircle
 10
-184.477601
 20
199.108556
 30
0.0
 40
2000.0
100
AcDbArc
 50
14.221982
 51
14.47522
  0
ARC
  5
1C2
100
AcDbEntity
  8
便器
  6
CONTINUOUS
 62
     2
100
AcDbCircle
 10
1681.661758
 20
846.508308
 30
0.0
 40
150.0
100
AcDbArc
 50
281.372178
 51
291.472515
  0
LINE
  5
1C3
100
AcDbEntity
  8
便器
  6
CONTINUOUS
 62
     6
100
AcDbLine
 10
1548.000123
 20
468.0
 30
0.0
 11
1545.416749
 21
503.0
 31
0.0
  0
LINE
  5
1C4
100
AcDbEntity
  8
便器
  6
CONTINUOUS
 62
     6
100
AcDbLine
 10
1548.000123
 20
468.0
 30
0.0
 11
1550.583497
 21
503.0
 31
0.0
  0
LINE
  5
1C5
100
AcDbEntity
  8
便器
  6
CONTINUOUS
 62
     6
100
AcDbLine
 10
1767.999877
 20
468.0
 30
0.0
 11
1770.583251
 21
503.0
 31
0.0
  0
LINE
  5
1C6
100
AcDbEntity
  8
便器
  6
CONTINUOUS
 62
     6
100
AcDbLine
 10
1767.999877
 20
468.0
 30
0.0
 11
1765.416503
 21
503.0
 31
0.0
  0
ARC
  5
1C7
100
AcDbEntity
  8
便器
  6
CONTINUOUS
 62
     6
100
AcDbCircle
 10
1645.133598
 20
482.669575
 30
0.0
 40
20.0
100
AcDbArc
 50
178.926758
 51
211.259766
  0
LINE
  5
1C8
100
AcDbEntity
  8
便器
  6
CONTINUOUS
 62
     6
100
AcDbLine
 10
543.587658
 20
723.423438
 30
0.0
 11
544.138345
 21
726.059105
 31
0.0
  0
LINE
  5
1C9
100
AcDbEntity
  8
便器
  6
CONTINUOUS
 62
     6
100
AcDbLine
 10
563.255273
 20
729.937649
 30
0.0
 11
564.732484
 21
730.198121
 31
0.0
  0
LINE
  5
1CA
100
AcDbEntity
  8
便器
  6
CONTINUOUS
 62
     6
100
AcDbLine
 10
544.138345
 20
726.059105
 30
0.0
 11
545.123153
 21
726.232754
 31
0.0
  0
LINE
  5
1CB
100
AcDbEntity
  8
便器
  6
CONTINUOUS
 62
     6
100
AcDbLine
 10
570.728155
 20
730.747606
 30
0.0
 11
569.250943
 21
730.487134
 31
0.0
  0
LINE
  5
1CC
100
AcDbEntity
  8
便器
  6
CONTINUOUS
 62
     6
100
AcDbLine
 10
561.748318
 20
724.087086
 30
0.0
 11
563.255273
 21
729.937649
 31
0.0
  0
LINE
  5
1CD
100
AcDbEntity
  8
便器
  6
CONTINUOUS
 62
     6
100
AcDbLine
 10
569.250943
 20
730.487134
 30
0.0
 11
567.657165
 21
725.128975
 31
0.0
  0
LINE
  5
1CE
100
AcDbEntity
  8
便器
  6
CONTINUOUS
 62
     6
100
AcDbLine
 10
566.179953
 20
724.868502
 30
0.0
 11
567.657165
 21
725.128975
 31
0.0
  0
ARC
  5
1CF
100
AcDbEntity
  8
便器
  6
CONTINUOUS
 62
     6
100
AcDbCircle
 10
566.093129
 20
725.360906
 30
0.0
 40
0.5
100
AcDbArc
 50
190.0
 51
280.0
  0
LINE
  5
1D0
100
AcDbEntity
  8
便器
  6
CONTINUOUS
 62
     6
100
AcDbLine
 10
560.271107
 20
723.826613
 30
0.0
 11
561.748318
 21
724.087086
 31
0.0
  0
ARC
  5
1D1
100
AcDbEntity
  8
便器
  6
CONTINUOUS
 62
     6
100
AcDbCircle
 10
560.184282
 20
724.319017
 30
0.0
 40
0.5
100
AcDbArc
 50
190.0
 51
280.0
  0
LINE
  5
1D2
100
AcDbEntity
  8
便器
  6
CONTINUOUS
 62
     6
100
AcDbLine
 10
545.557274
 20
723.770734
 30
0.0
 11
556.390159
 21
725.680864
 31
0.0
  0
LINE
  5
1D3
100
AcDbEntity
  8
便器
  6
CONTINUOUS
 62
     6
100
AcDbLine
 10
557.346426
 20
728.89576
 30
0.0
 11
558.823638
 21
729.156232
 31
0.0
  0
LINE
  5
1D4
100
AcDbEntity
  8
便器
  6
CONTINUOUS
 62
     6
100
AcDbLine
 10
556.390159
 20
725.680864
 30
0.0
 11
557.346426
 21
728.89576
 31
0.0
  0
LINE
  5
1D5
100
AcDbEntity
  8
便器
  6
CONTINUOUS
 62
     6
100
AcDbLine
 10
587.692378
 20
625.900558
 30
0.0
 11
569.250943
 21
730.487134
 31
0.0
  0
LINE
  5
1D6
100
AcDbEntity
  8
便器
  6
CONTINUOUS
 62
     6
100
AcDbLine
 10
589.16959
 20
626.16103
 30
0.0
 11
570.728155
 21
730.747606
 31
0.0
  0
LINE
  5
1D7
100
AcDbEntity
  8
便器
  6
CONTINUOUS
 62
     6
100
AcDbLine
 10
584.362118
 20
630.390476
 30
0.0
 11
567.657165
 21
725.128975
 31
0.0
  0
LINE
  5
1D8
100
AcDbEntity
  8
便器
  6
CONTINUOUS
 62
     6
100
AcDbLine
 10
581.870356
 20
624.366265
 30
0.0
 11
563.255273
 21
729.937649
 31
0.0
  0
LINE
  5
1D9
100
AcDbEntity
  8
便器
  6
CONTINUOUS
 62
     6
100
AcDbLine
 10
564.732484
 20
730.198121
 30
0.0
 11
583.347568
 21
624.626737
 31
0.0
  0
LINE
  5
1DA
100
AcDbEntity
  8
便器
  6
CONTINUOUS
 62
     6
100
AcDbLine
 10
558.823638
 20
729.156232
 30
0.0
 11
577.438721
 21
623.584848
 31
0.0
  0
LINE
  5
1DB
100
AcDbEntity
  8
便器
  6
CONTINUOUS
 62
     6
100
AcDbLine
 10
573.963353
 20
626.018327
 30
0.0
 11
556.390159
 21
725.680864
 31
0.0
  0
LINE
  5
1DC
100
AcDbEntity
  8
便器
  6
CONTINUOUS
 62
     6
100
AcDbLine
 10
545.123153
 20
726.232754
 30
0.0
 11
563.564588
 21
621.646177
 31
0.0
  0
LINE
  5
1DD
100
AcDbEntity
  8
便器
  6
CONTINUOUS
 62
     6
100
AcDbLine
 10
543.587658
 20
723.423438
 30
0.0
 11
561.160852
 21
623.7609
 31
0.0
  0
LINE
  5
1DE
100
AcDbEntity
  8
便器
  6
CONTINUOUS
 62
     6
100
AcDbLine
 10
589.16959
 20
626.16103
 30
0.0
 11
587.692378
 21
625.900558
 31
0.0
  0
LINE
  5
1DF
100
AcDbEntity
  8
便器
  6
CONTINUOUS
 62
     6
100
AcDbLine
 10
587.692378
 20
625.900558
 30
0.0
 11
584.362118
 21
630.390476
 31
0.0
  0
LINE
  5
1E0
100
AcDbEntity
  8
便器
  6
CONTINUOUS
 62
     6
100
AcDbLine
 10
561.160852
 20
623.7609
 30
0.0
 11
562.579781
 21
621.472529
 31
0.0
  0
LINE
  5
1E1
100
AcDbEntity
  8
便器
  6
CONTINUOUS
 62
     6
100
AcDbLine
 10
581.870356
 20
624.366265
 30
0.0
 11
583.347568
 21
624.626737
 31
0.0
  0
LINE
  5
1E2
100
AcDbEntity
  8
便器
  6
CONTINUOUS
 62
     6
100
AcDbLine
 10
562.579781
 20
621.472529
 30
0.0
 11
563.564588
 21
621.646177
 31
0.0
  0
LINE
  5
1E3
100
AcDbEntity
  8
便器
  6
CONTINUOUS
 62
     6
100
AcDbLine
 10
582.884906
 20
630.130004
 30
0.0
 11
584.362118
 21
630.390476
 31
0.0
  0
ARC
  5
1E4
100
AcDbEntity
  8
便器
  6
CONTINUOUS
 62
     6
100
AcDbCircle
 10
582.971731
 20
629.6376
 30
0.0
 40
0.5
100
AcDbArc
 50
100.0
 51
190.0
  0
LINE
  5
1E5
100
AcDbEntity
  8
便器
  6
CONTINUOUS
 62
     6
100
AcDbLine
 10
563.130468
 20
624.108197
 30
0.0
 11
565.779596
 21
624.57531
 31
0.0
  0
LINE
  5
1E6
100
AcDbEntity
  8
便器
  6
CONTINUOUS
 62
     6
100
AcDbLine
 10
565.779596
 20
624.57531
 30
0.0
 11
573.963353
 21
626.018327
 31
0.0
  0
LINE
  5
1E7
100
AcDbEntity
  8
便器
  6
CONTINUOUS
 62
     6
100
AcDbLine
 10
575.961509
 20
623.324376
 30
0.0
 11
577.438721
 21
623.584848
 31
0.0
  0
LINE
  5
1E8
100
AcDbEntity
  8
便器
  6
CONTINUOUS
 62
     6
100
AcDbLine
 10
573.963353
 20
626.018327
 30
0.0
 11
575.961509
 21
623.324376
 31
0.0
  0
LINE
  5
1E9
100
AcDbEntity
  8
便器
  6
CONTINUOUS
 62
     6
100
AcDbLine
 10
578.453272
 20
629.348587
 30
0.0
 11
581.870356
 21
624.366265
 31
0.0
  0
LINE
  5
1EA
100
AcDbEntity
  8
便器
  6
CONTINUOUS
 62
     6
100
AcDbLine
 10
576.97606
 20
629.088115
 30
0.0
 11
578.453272
 21
629.348587
 31
0.0
  0
ARC
  5
1EB
100
AcDbEntity
  8
便器
  6
CONTINUOUS
 62
     6
100
AcDbCircle
 10
577.062884
 20
628.595711
 30
0.0
 40
0.5
100
AcDbArc
 50
100.0
 51
190.0
  0
LINE
  5
1EC
100
AcDbEntity
  8
便器
  6
CONTINUOUS
 62
     7
100
AcDbLine
 10
589.375966
 20
631.376091
 30
0.0
 11
597.201578
 21
632.755958
 31
0.0
  0
LINE
  5
1ED
100
AcDbEntity
  8
便器
  6
CONTINUOUS
 62
     7
100
AcDbLine
 10
575.150232
 20
726.348665
 30
0.0
 11
572.553307
 21
725.890757
 31
0.0
  0
LINE
  5
1EE
100
AcDbEntity
  8
便器
  6
CONTINUOUS
 62
     6
100
AcDbLine
 10
578.453272
 20
629.348587
 30
0.0
 11
561.748318
 21
724.087086
 31
0.0
  0
LINE
  5
1EF
100
AcDbEntity
  8
便器
  6
EXLTYPE3
 62
     6
100
AcDbLine
 10
543.416378
 20
672.012654
 30
0.0
 11
649.277605
 21
690.678844
 31
0.0
  0
LINE
  5
1F0
100
AcDbEntity
  8
便器
  6
CONTINUOUS
 62
     7
100
AcDbLine
 10
344.017073
 20
503.000324
 30
0.0
 11
1241.0
 21
503.000324
 31
0.0
  0
LINE
  5
1F1
100
AcDbEntity
  8
便器
  6
EXLTYPE2
 62
     2
100
AcDbLine
 10
437.364379
 20
2486.132405
 30
0.0
 11
466.378939
 21
2569.420817
 31
0.0
  0
LINE
  5
1F2
100
AcDbEntity
  8
便器
  6
EXLTYPE3
 62
     1
100
AcDbLine
 10
1658.0
 20
488.2
 30
0.0
 11
1658.0
 21
1460.7
 31
0.0
  0
ARC
  5
1F3
100
AcDbEntity
  8
便器
  6
CONTINUOUS
 62
     7
100
AcDbCircle
 10
1000.295209
 20
-1376.448408
 30
0.0
 40
4000.0
100
AcDbArc
 50
93.531642
 51
95.941935
  0
ARC
  5
1F4
100
AcDbEntity
  8
便器
  6
EXLTYPE2
 62
     2
100
AcDbCircle
 10
1000.295209
 20
6262.448416
 30
0.0
 40
4000.0
100
AcDbArc
 50
262.719107
 51
264.025714
  0
ARC
  5
1F5
100
AcDbEntity
  8
便器
  6
CONTINUOUS
 62
     7
100
AcDbCircle
 10
1000.295209
 20
6262.448416
 30
0.0
 40
4000.0
100
AcDbArc
 50
264.025714
 51
266.468358
  0
ARC
  5
1F6
100
AcDbEntity
  8
便器
  6
EXLTYPE2
 62
     2
100
AcDbCircle
 10
1000.295209
 20
6262.448416
 30
0.0
 40
4000.0
100
AcDbArc
 50
266.468358
 51
267.758585
  0
ARC
  5
1F7
100
AcDbEntity
  8
便器
  6
EXLTYPE2
 62
     2
100
AcDbCircle
 10
849.006811
 20
3765.49997
 30
0.0
 40
1500.0
100
AcDbArc
 50
269.803174
 51
272.774468
  0
ARC
  5
1F8
100
AcDbEntity
  8
便器
  6
EXLTYPE2
 62
     2
100
AcDbCircle
 10
909.512669
 20
2516.965261
 30
0.0
 40
250.0
100
AcDbArc
 50
272.774468
 51
321.947955
  0
ARC
  5
1F9
100
AcDbEntity
  8
便器
  6
EXLTYPE2
 62
     2
100
AcDbCircle
 10
1004.006811
 20
2443.000019
 30
0.0
 40
130.0
100
AcDbArc
 50
321.947955
 51
0.0
  0
ARC
  5
1FA
100
AcDbEntity
  8
便器
  6
EXLTYPE2
 62
     2
100
AcDbCircle
 10
1004.006811
 20
2443.000019
 30
0.0
 40
130.0
100
AcDbArc
 50
0.0
 51
38.052045
  0
ARC
  5
1FB
100
AcDbEntity
  8
便器
  6
EXLTYPE2
 62
     2
100
AcDbCircle
 10
909.512669
 20
2369.034777
 30
0.0
 40
250.0
100
AcDbArc
 50
38.052045
 51
87.225532
  0
ARC
  5
1FC
100
AcDbEntity
  8
便器
  6
EXLTYPE2
 62
     2
100
AcDbCircle
 10
849.006811
 20
1120.500069
 30
0.0
 40
1500.0
100
AcDbArc
 50
87.225532
 51
90.196792
  0
ARC
  5
1FD
100
AcDbEntity
  8
便器
  6
EXLTYPE2
 62
     2
100
AcDbCircle
 10
1000.295209
 20
-1376.448408
 30
0.0
 40
4000.0
100
AcDbArc
 50
92.241415
 51
93.531642
  0
LINE
  5
1FE
100
AcDbEntity
  8
タンク
  6
CONTINUOUS
 62
     3
100
AcDbLine
 10
403.062263
 20
888.000264
 30
0.0
 11
270.062263
 21
888.000264
 31
0.0
  0
DIMENSION
  5
20A
100
AcDbEntity
  8
タンク
  6
CONTINUOUS
 62
     3
100
AcDbDimension
  2
*D16
 10
549.017073
 20
415.0
 30
0.0
 11
446.517073
 21
438.5
 31
0.0
 70
   160
  1
205
  3
STANDARD
100
AcDbAlignedDimension
 13
344.017073
 23
512.700049
 33
0.0
 14
549.017073
 24
512.700049
 34
0.0
100
AcDbRotatedDimension
1001
ACAD
1000
DSTYLE
1002
{
1070
     6
1000
_EX_NORM
1070
     7
1000
_EX_NORM
1070
    41
1040
30.0
1070
    42
1040
16.0
1070
    44
1040
10.0
1070
    73
1070
     0
1070
    74
1070
     0
1070
    75
1070
     0
1070
    76
1070
     0
1070
    77
1070
     1
1070
    78
1070
     8
1070
   140
1040
40.0
1070
   147
1040
3.5
1070
   173
1070
     1
1070
   176
1070
     3
1070
   177
1070
     3
1070
   178
1070
     2
1070
   271
1070
     2
1070
   279
1070
     2
1070
   280
1070
     0
1070
   287
1070
     5
1070
   340
1005
DB
1002
}
  0
DIMENSION
  5
216
100
AcDbEntity
  8
タンク
  6
CONTINUOUS
 62
     3
100
AcDbDimension
  2
*D17
 10
1767.999879
 20
408.0
 30
0.0
 11
1658.000001
 21
431.5
 31
0.0
 70
   160
  1
220
  3
STANDARD
100
AcDbAlignedDimension
 13
1548.000123
 23
493.699562
 33
0.0
 14
1767.999879
 24
487.699562
 34
0.0
100
AcDbRotatedDimension
1001
ACAD
1000
DSTYLE
1002
{
1070
     6
1000
_EX_NORM
1070
     7
1000
_EX_NORM
1070
    41
1040
30.0
1070
    42
1040
29.799559
1070
    44
1040
10.0
1070
    73
1070
     0
1070
    74
1070
     0
1070
    75
1070
     0
1070
    76
1070
     0
1070
    77
1070
     1
1070
    78
1070
     8
1070
   140
1040
40.0
1070
   147
1040
3.5
1070
   173
1070
     1
1070
   176
1070
     3
1070
   177
1070
     3
1070
   178
1070
     2
1070
   271
1070
     2
1070
   279
1070
     2
1070
   280
1070
     0
1070
   287
1070
     5
1070
   340
1005
DB
1002
}
  0
ARC
  5
217
100
AcDbEntity
  8
タンク
  6
CONTINUOUS
 62
     6
100
AcDbCircle
 10
1476.084188
 20
608.160494
 30
0.0
 40
45.0
100
AcDbArc
 50
270.0
 51
0.0
  0
ARC
  5
218
100
AcDbEntity
  8
タンク
  6
CONTINUOUS
 62
     6
100
AcDbCircle
 10
1476.084188
 20
608.160494
 30
0.0
 40
58.0
100
AcDbArc
 50
270.0
 51
341.130824
  0
ARC
  5
219
100
AcDbEntity
  8
タンク
  6
CONTINUOUS
 62
     6
100
AcDbCircle
 10
1476.084188
 20
608.160494
 30
0.0
 40
58.0
100
AcDbArc
 50
358.785742
 51
0.0
  0
LINE
  5
21A
100
AcDbEntity
  8
タンク
  6
CONTINUOUS
 62
     6
100
AcDbLine
 10
1521.084188
 20
758.476977
 30
0.0
 11
1521.084188
 21
608.160494
 31
0.0
  0
LINE
  5
21B
100
AcDbEntity
  8
タンク
  6
CONTINUOUS
 62
     6
100
AcDbLine
 10
1534.084188
 20
735.929049
 30
0.0
 11
1534.084188
 21
608.160494
 31
0.0
  0
LINE
  5
21C
100
AcDbEntity
  8
タンク
  6
CONTINUOUS
 62
     7
100
AcDbLine
 10
549.65901
 20
2653.000004
 30
0.0
 11
393.016707
 21
2653.000004
 31
0.0
  0
ARC
  5
21D
100
AcDbEntity
  8
タンク
  6
CONTINUOUS
 62
     7
100
AcDbCircle
 10
393.016707
 20
2649.000065
 30
0.0
 40
3.999939
100
AcDbArc
 50
89.999969
 51
180.000015
  0
LINE
  5
21E
100
AcDbEntity
  8
タンク
  6
CONTINUOUS
 62
     6
100
AcDbLine
 10
547.305163
 20
2653.000004
 30
0.0
 11
547.305162
 21
2668.543959
 31
0.0
  0
LINE
  5
21F
100
AcDbEntity
  8
タンク
  6
CONTINUOUS
 62
     6
100
AcDbLine
 10
510.815561
 20
2653.000004
 30
0.0
 11
510.815562
 21
2668.54395
 31
0.0
  0
ARC
  5
220
100
AcDbEntity
  8
タンク
  6
CONTINUOUS
 62
     6
100
AcDbCircle
 10
522.978731
 20
2674.819455
 30
0.0
 40
4.0544
100
AcDbArc
 50
122.196686
 51
161.721527
  0
ARC
  5
221
100
AcDbEntity
  8
タンク
  6
CONTINUOUS
 62
     6
100
AcDbCircle
 10
535.141468
 20
2674.819779
 30
0.0
 40
4.0544
100
AcDbArc
 50
18.280151
 51
57.805664
  0
ARC
  5
222
100
AcDbEntity
  8
タンク
  6
CONTINUOUS
 62
     6
100
AcDbCircle
 10
527.580948
 20
2662.811213
 30
0.0
 40
18.2448
100
AcDbArc
 50
57.805664
 51
80.66687
  0
ARC
  5
223
100
AcDbEntity
  8
タンク
  6
CONTINUOUS
 62
     6
100
AcDbCircle
 10
530.539776
 20
2662.811208
 30
0.0
 40
18.2448
100
AcDbArc
 50
99.33316
 51
122.196716
  0
ARC
  5
224
100
AcDbEntity
  8
タンク
  6
CONTINUOUS
 62
     6
100
AcDbCircle
 10
542.276383
 20
2668.264737
 30
0.0
 40
5.068
100
AcDbArc
 50
15.989868
 51
62.588623
  0
ARC
  5
225
100
AcDbEntity
  8
タンク
  6
CONTINUOUS
 62
     6
100
AcDbCircle
 10
542.276383
 20
2668.264737
 30
0.0
 40
5.068
100
AcDbArc
 50
15.989868
 51
62.588623
  0
ARC
  5
226
100
AcDbEntity
  8
タンク
  6
CONTINUOUS
 62
     6
100
AcDbCircle
 10
537.609983
 20
2659.266772
 30
0.0
 40
15.204
100
AcDbArc
 50
62.588623
 51
66.453674
  0
ARC
  5
227
100
AcDbEntity
  8
タンク
  6
CONTINUOUS
 62
     6
100
AcDbCircle
 10
555.836624
 20
2697.098405
 30
0.0
 40
26.926876
100
AcDbArc
 50
231.274048
 51
234.443848
  0
ARC
  5
228
100
AcDbEntity
  8
タンク
  6
CONTINUOUS
 62
     6
100
AcDbCircle
 10
551.377411
 20
2690.859741
 30
0.0
 40
19.2584
100
AcDbArc
 50
234.443848
 51
246.453674
  0
ARC
  5
229
100
AcDbEntity
  8
タンク
  6
CONTINUOUS
 62
     6
100
AcDbCircle
 10
514.869962
 20
2668.543953
 30
0.0
 40
4.0544
100
AcDbArc
 50
164.010132
 51
180.0
  0
ARC
  5
22A
100
AcDbEntity
  8
タンク
  6
CONTINUOUS
 62
     6
100
AcDbCircle
 10
515.844371
 20
2668.264748
 30
0.0
 40
5.068
100
AcDbArc
 50
117.411407
 51
164.010132
  0
ARC
  5
22B
100
AcDbEntity
  8
タンク
  6
CONTINUOUS
 62
     6
100
AcDbCircle
 10
520.510742
 20
2659.266771
 30
0.0
 40
15.204
100
AcDbArc
 50
113.546326
 51
117.411407
  0
ARC
  5
22C
100
AcDbEntity
  8
タンク
  6
CONTINUOUS
 62
     6
100
AcDbCircle
 10
506.743315
 20
2690.859739
 30
0.0
 40
19.2584
100
AcDbArc
 50
293.546326
 51
305.556152
  0
ARC
  5
22D
100
AcDbEntity
  8
タンク
  6
CONTINUOUS
 62
     6
100
AcDbCircle
 10
502.284098
 20
2697.098416
 30
0.0
 40
26.926876
100
AcDbArc
 50
305.556152
 51
308.724487
  0
ARC
  5
22E
100
AcDbEntity
  8
タンク
  6
CONTINUOUS
 62
     6
100
AcDbCircle
 10
543.250762
 20
2668.543957
 30
0.0
 40
4.0544
100
AcDbArc
 50
0.0
 51
15.989868
  0
ARC
  5
22F
100
AcDbEntity
  8
タンク
  6
CONTINUOUS
 62
     6
100
AcDbCircle
 10
529.060368
 20
2671.812852
 30
0.0
 40
9.1224
100
AcDbArc
 50
80.66687
 51
90.0
  0
ARC
  5
230
100
AcDbEntity
  8
タンク
  6
CONTINUOUS
 62
     6
100
AcDbCircle
 10
529.060368
 20
2671.812852
 30
0.0
 40
9.1224
100
AcDbArc
 50
90.0
 51
99.33316
  0
ARC
  5
231
100
AcDbEntity
  8
タンク
  6
CONTINUOUS
 62
     7
100
AcDbCircle
 10
549.65901
 20
2619.999973
 30
0.0
 40
33.000088
100
AcDbArc
 50
4.114417
 51
89.999969
  0
ARC
  5
232
100
AcDbEntity
  8
タンク
  6
CONTINUOUS
 62
     7
100
AcDbCircle
 10
-1910.98308
 20
2442.998478
 30
0.0
 40
2500.0
100
AcDbArc
 50
355.885805
 51
4.114318
  0
ARC
  5
233
100
AcDbEntity
  8
タンク
  6
CONTINUOUS
 62
     7
100
AcDbCircle
 10
729.009543
 20
2445.0145
 30
0.0
 40
300.0
100
AcDbArc
 50
180.384705
 51
180.384743
  0
ARC
  5
234
100
AcDbEntity
  8
タンク
  6
CONTINUOUS
 62
     7
100
AcDbCircle
 10
729.009543
 20
2440.985539
 30
0.0
 40
300.0
100
AcDbArc
 50
179.61526
 51
179.615295
  0
ARC
  5
235
100
AcDbEntity
  8
タンク
  6
CONTINUOUS
 62
     7
100
AcDbCircle
 10
494.01692
 20
2443.000004
 30
0.0
 40
8.999957
100
AcDbArc
 50
286.169205
 51
73.830795
  0
ARC
  5
236
100
AcDbEntity
  8
タンク
  6
CONTINUOUS
 62
     6
100
AcDbCircle
 10
462.902113
 20
2626.076176
 30
0.0
 40
200.0
100
AcDbArc
 50
271.17012
 51
275.743774
  0
LINE
  5
237
100
AcDbEntity
  8
タンク
  6
CONTINUOUS
 62
     6
100
AcDbLine
 10
466.986128
 20
2426.117985
 30
0.0
 11
412.246138
 21
2424.999973
 31
0.0
  0
ARC
  5
238
100
AcDbEntity
  8
タンク
  6
CONTINUOUS
 62
     6
100
AcDbCircle
 10
462.902419
 20
2259.923832
 30
0.0
 40
200.0
100
AcDbArc
 50
84.256393
 51
88.830109
  0
ARC
  5
239
100
AcDbEntity
  8
タンク
  6
CONTINUOUS
 62
     6
100
AcDbCircle
 10
481.316725
 20
2443.000004
 30
0.0
 40
15.999975
100
AcDbArc
 50
275.743713
 51
84.256287
  0
LINE
  5
23A
100
AcDbEntity
  8
タンク
  6
CONTINUOUS
 62
     6
100
AcDbLine
 10
466.986128
 20
2459.882023
 30
0.0
 11
412.246138
 21
2461.000034
 31
0.0
  0
ARC
  5
23B
100
AcDbEntity
  8
タンク
  6
CONTINUOUS
 62
     7
100
AcDbCircle
 10
442.245985
 20
2623.000004
 30
0.0
 40
30.0
100
AcDbArc
 50
118.647873
 51
180.000015
  0
LINE
  5
23C
100
AcDbEntity
  8
タンク
  6
CONTINUOUS
 62
     7
100
AcDbLine
 10
412.246291
 20
2263.000004
 30
0.0
 11
412.245985
 21
2623.000004
 31
0.0
  0
LINE
  5
23D
100
AcDbEntity
  8
タンク
  6
CONTINUOUS
 62
     7
100
AcDbLine
 10
389.017073
 20
2236.999943
 30
0.0
 11
389.016768
 21
2649.000065
 31
0.0
  0
ARC
  5
23E
100
AcDbEntity
  8
タンク
  6
CONTINUOUS
 62
     7
100
AcDbCircle
 10
393.017012
 20
2236.999943
 30
0.0
 40
4.000092
100
AcDbArc
 50
180.000015
 51
270.0
  0
ARC
  5
23F
100
AcDbEntity
  8
タンク
  6
CONTINUOUS
 62
     7
100
AcDbCircle
 10
442.246291
 20
2263.000004
 30
0.0
 40
30.0
100
AcDbArc
 50
180.000015
 51
241.352081
  0
LINE
  5
240
100
AcDbEntity
  8
タンク
  6
CONTINUOUS
 62
     7
100
AcDbLine
 10
549.659315
 20
2233.000004
 30
0.0
 11
393.017012
 21
2233.000004
 31
0.0
  0
ARC
  5
241
100
AcDbEntity
  8
タンク
  6
CONTINUOUS
 62
     7
100
AcDbCircle
 10
549.659315
 20
2266.000034
 30
0.0
 40
33.000031
100
AcDbArc
 50
270.000031
 51
355.885559
  0
TEXT
  5
242
100
AcDbEntity
  8
タンク
  6
CONTINUOUS
 62
     2
100
AcDbText
 10
429.516997
 20
1508.036235
 30
0.0
 40
40.0
  1
２００
 41
0.833
  7
EXCADSTD
 72
     5
 11
548.516997
 21
1508.036235
 31
0.0
100
AcDbText
  0
LINE
  5
243
100
AcDbEntity
  8
タンク
  6
CONTINUOUS
 62
     3
100
AcDbLine
 10
389.017073
 20
1504.536235
 30
0.0
 11
589.01692
 21
1504.536235
 31
0.0
  0
LINE
  5
244
100
AcDbEntity
  8
タンク
  6
CONTINUOUS
 62
     3
100
AcDbLine
 10
424.017073
 20
1510.369568
 30
0.0
 11
389.017073
 21
1504.536235
 31
0.0
  0
LINE
  5
245
100
AcDbEntity
  8
タンク
  6
CONTINUOUS
 62
     3
100
AcDbLine
 10
389.017073
 20
1504.536235
 30
0.0
 11
424.017073
 21
1498.702902
 31
0.0
  0
LINE
  5
246
100
AcDbEntity
  8
タンク
  6
CONTINUOUS
 62
     3
100
AcDbLine
 10
554.01692
 20
1498.702902
 30
0.0
 11
589.01692
 21
1504.536235
 31
0.0
  0
LINE
  5
247
100
AcDbEntity
  8
タンク
  6
CONTINUOUS
 62
     3
100
AcDbLine
 10
589.01692
 20
1504.536235
 30
0.0
 11
554.01692
 21
1510.369568
 31
0.0
  0
LINE
  5
248
100
AcDbEntity
  8
タンク
  6
CONTINUOUS
 62
     3
100
AcDbLine
 10
589.01692
 20
1524.536235
 30
0.0
 11
589.01692
 21
1298.986736
 31
0.0
  0
ARC
  5
249
100
AcDbEntity
  8
タンク
  6
CONTINUOUS
 62
     7
100
AcDbCircle
 10
409.352784
 20
1230.471782
 30
0.0
 40
20.000019
100
AcDbArc
 50
180.780273
 51
209.999924
  0
LINE
  5
24A
100
AcDbEntity
  8
タンク
  6
CONTINUOUS
 62
     7
100
AcDbLine
 10
399.155183
 20
1208.134593
 30
0.0
 11
392.032228
 21
1220.471782
 31
0.0
  0
LINE
  5
24B
100
AcDbEntity
  8
タンク
  6
CONTINUOUS
 62
     7
100
AcDbLine
 10
582.283235
 20
1145.01707
 30
0.0
 11
584.342408
 21
1262.986736
 31
0.0
  0
LINE
  5
24C
100
AcDbEntity
  8
タンク
  6
CONTINUOUS
 62
     7
100
AcDbLine
 10
398.516908
 20
1254.986705
 30
0.0
 11
389.016938
 21
1254.986705
 31
0.0
  0
LINE
  5
24D
100
AcDbEntity
  8
タンク
  6
CONTINUOUS
 62
     7
100
AcDbLine
 10
396.016908
 20
1262.986736
 30
0.0
 11
396.016908
 21
1254.986705
 31
0.0
  0
LINE
  5
24E
100
AcDbEntity
  8
タンク
  6
CONTINUOUS
 62
     7
100
AcDbLine
 10
589.016938
 20
1262.986736
 30
0.0
 11
389.016938
 21
1262.986736
 31
0.0
  0
ARC
  5
24F
100
AcDbEntity
  8
タンク
  6
CONTINUOUS
 62
     7
100
AcDbCircle
 10
89.01938
 20
1264.203319
 30
0.0
 40
500.0
100
AcDbArc
 50
359.860642
 51
6.603516
  0
ARC
  5
250
100
AcDbEntity
  8
タンク
  6
CONTINUOUS
 62
     7
100
AcDbCircle
 10
579.741884
 20
1321.013164
 30
0.0
 40
6.000043
100
AcDbArc
 50
6.603601
 51
90.935547
  0
ARC
  5
251
100
AcDbEntity
  8
タンク
  6
CONTINUOUS
 62
     7
100
AcDbCircle
 10
573.767762
 20
1686.964397
 30
0.0
 40
360.0
100
AcDbArc
 50
252.337982
 51
270.935379
  0
ARC
  5
252
100
AcDbEntity
  8
タンク
  6
CONTINUOUS
 62
     7
100
AcDbCircle
 10
485.78116
 20
1410.634135
 30
0.0
 40
69.999962
100
AcDbArc
 50
185.000015
 51
252.337982
  0
LINE
  5
253
100
AcDbEntity
  8
タンク
  6
CONTINUOUS
 62
     7
100
AcDbLine
 10
412.724977
 20
1442.509746
 30
0.0
 11
416.047578
 21
1404.533214
 31
0.0
  0
ARC
  5
254
100
AcDbEntity
  8
タンク
  6
CONTINUOUS
 62
     7
100
AcDbCircle
 10
406.747804
 20
1441.986675
 30
0.0
 40
6.000017
100
AcDbArc
 50
5.001296
 51
89.999969
  0
LINE
  5
255
100
AcDbEntity
  8
タンク
  6
CONTINUOUS
 62
     7
100
AcDbLine
 10
406.747804
 20
1447.986736
 30
0.0
 11
396.176973
 21
1447.986736
 31
0.0
  0
ARC
  5
256
100
AcDbEntity
  8
タンク
  6
CONTINUOUS
 62
     7
100
AcDbCircle
 10
396.176973
 20
1443.986797
 30
0.0
 40
3.999939
100
AcDbArc
 50
89.999969
 51
179.001114
  0
LINE
  5
257
100
AcDbEntity
  8
タンク
  6
CONTINUOUS
 62
     7
100
AcDbLine
 10
392.177491
 20
1444.056529
 30
0.0
 11
389.016938
 21
1262.986736
 31
0.0
  0
LINE
  5
258
100
AcDbEntity
  8
タンク
  6
CONTINUOUS
 62
     7
100
AcDbLine
 10
389.016938
 20
1262.986736
 30
0.0
 11
389.016938
 21
1254.986705
 31
0.0
  0
ARC
  5
259
100
AcDbEntity
  8
タンク
  6
CONTINUOUS
 62
     6
100
AcDbCircle
 10
428.159852
 20
1405.45103
 30
0.0
 40
1.999937
100
AcDbArc
 50
276.672852
 51
319.21048
  0
ARC
  5
25A
100
AcDbEntity
  8
タンク
  6
CONTINUOUS
 62
     6
100
AcDbCircle
 10
448.601594
 20
1387.81187
 30
0.0
 40
24.999924
100
AcDbArc
 50
95.000214
 51
139.20903
  0
LINE
  5
25B
100
AcDbEntity
  8
タンク
  6
CONTINUOUS
 62
     6
100
AcDbLine
 10
428.392244
 20
1403.464488
 30
0.0
 11
416.265168
 21
1402.046336
 31
0.0
  0
ARC
  5
25C
100
AcDbEntity
  8
タンク
  6
CONTINUOUS
 62
     6
100
AcDbCircle
 10
495.061403
 20
1418.979778
 30
0.0
 40
1.999946
100
AcDbArc
 50
274.998581
 51
8.184509
  0
LINE
  5
25D
100
AcDbEntity
  8
タンク
  6
CONTINUOUS
 62
     6
100
AcDbLine
 10
495.235658
 20
1416.987437
 30
0.0
 11
415.567842
 21
1410.017375
 31
0.0
  0
ARC
  5
25E
100
AcDbEntity
  8
タンク
  6
CONTINUOUS
 62
     6
100
AcDbCircle
 10
489.693208
 20
1413.490886
 30
0.0
 40
1.999946
100
AcDbArc
 50
274.998581
 51
343.197769
  0
LINE
  5
25F
100
AcDbEntity
  8
タンク
  6
CONTINUOUS
 62
     6
100
AcDbLine
 10
491.607728
 20
1412.91273
 30
0.0
 11
492.773042
 21
1416.771831
 31
0.0
  0
ARC
  5
260
100
AcDbEntity
  8
タンク
  6
CONTINUOUS
 62
     6
100
AcDbCircle
 10
473.463197
 20
1412.071056
 30
0.0
 40
1.999977
100
AcDbArc
 50
206.801605
 51
274.998581
  0
LINE
  5
261
100
AcDbEntity
  8
タンク
  6
CONTINUOUS
 62
     6
100
AcDbLine
 10
489.867463
 20
1411.498546
 30
0.0
 11
473.637452
 21
1410.078563
 31
0.0
  0
LINE
  5
262
100
AcDbEntity
  8
タンク
  6
CONTINUOUS
 62
     6
100
AcDbLine
 10
469.860444
 20
1414.767284
 30
0.0
 11
471.678071
 21
1411.169261
 31
0.0
  0
LINE
  5
263
100
AcDbEntity
  8
タンク
  6
CONTINUOUS
 62
     6
100
AcDbLine
 10
460.701661
 20
1436.673717
 30
0.0
 11
413.476014
 21
1433.925914
 31
0.0
  0
ARC
  5
264
100
AcDbEntity
  8
タンク
  6
CONTINUOUS
 62
     6
100
AcDbCircle
 10
467.672029
 20
1316.876353
 30
0.0
 40
119.999943
100
AcDbArc
 50
84.506805
 51
93.330048
  0
ARC
  5
265
100
AcDbEntity
  8
タンク
  6
CONTINUOUS
 62
     6
100
AcDbCircle
 10
477.244783
 20
1416.417064
 30
0.0
 40
20.000029
100
AcDbArc
 50
8.185121
 51
84.506866
  0
LINE
  5
266
100
AcDbEntity
  8
タンク
  6
EXLTYPE2
 62
     2
100
AcDbLine
 10
398.516908
 20
1272.986736
 30
0.0
 11
584.516969
 21
1272.986736
 31
0.0
  0
LINE
  5
267
100
AcDbEntity
  8
タンク
  6
EXLTYPE2
 62
     2
100
AcDbLine
 10
398.516908
 20
1272.986736
 30
0.0
 11
398.516908
 21
1262.986736
 31
0.0
  0
LINE
  5
268
100
AcDbEntity
  8
タンク
  6
EXLTYPE2
 62
     2
100
AcDbLine
 10
584.342408
 20
1262.986736
 30
0.0
 11
584.516969
 21
1272.986736
 31
0.0
  0
ARC
  5
269
100
AcDbEntity
  8
タンク
  6
CONTINUOUS
 62
     7
100
AcDbCircle
 10
-3417.109618
 20
1214.827708
 30
0.0
 40
4000.0
100
AcDbArc
 50
355.366
 51
359.000043
  0
ARC
  5
26A
100
AcDbEntity
  8
タンク
  6
CONTINUOUS
 62
     7
100
AcDbCircle
 10
407.462831
 20
891.986675
 30
0.0
 40
4.000005
100
AcDbArc
 50
180.780273
 51
270.000031
  0
ARC
  5
26B
100
AcDbEntity
  8
タンク
  6
CONTINUOUS
 62
     7
100
AcDbCircle
 10
397.962861
 20
891.986675
 30
0.0
 40
4.000005
100
AcDbArc
 50
180.780273
 51
270.000031
  0
ARC
  5
26C
100
AcDbEntity
  8
タンク
  6
CONTINUOUS
 62
     7
100
AcDbCircle
 10
565.829683
 20
891.986675
 30
0.0
 40
3.999939
100
AcDbArc
 50
270.000031
 51
355.36795
  0
LINE
  5
26D
100
AcDbEntity
  8
タンク
  6
CONTINUOUS
 62
     7
100
AcDbLine
 10
397.985857
 20
887.986736
 30
0.0
 11
565.829685
 21
887.986736
 31
0.0
  0
LINE
  5
26E
100
AcDbEntity
  8
タンク
  6
CONTINUOUS
 62
     2
100
AcDbLine
 10
393.676379
 20
912.986736
 30
0.0
 11
571.485627
 21
912.986736
 31
0.0
  0
LINE
  5
26F
100
AcDbEntity
  8
タンク
  6
CONTINUOUS
 62
     7
100
AcDbLine
 10
398.40796
 20
1262.986736
 30
0.0
 11
403.463197
 21
891.932203
 31
0.0
  0
LINE
  5
270
100
AcDbEntity
  8
タンク
  6
CONTINUOUS
 62
     7
100
AcDbLine
 10
389.016938
 20
1254.986705
 30
0.0
 11
393.963228
 21
891.932203
 31
0.0
  0
DIMENSION
  5
27B
100
AcDbEntity
  8
タンク
  6
CONTINUOUS
 62
     2
100
AcDbDimension
  2
*D18
 10
243.0
 20
1448.00007
 30
0.0
 11
219.5
 21
1168.000037
 31
0.0
 70
   160
  1
560
  3
STANDARD
100
AcDbAlignedDimension
 13
273.017144
 23
888.000004
 33
0.0
 14
273.016729
 24
1448.00007
 34
0.0
 50
90.0
100
AcDbRotatedDimension
1001
ACAD
1000
DSTYLE
1002
{
1070
     6
1000
_EX_NORM
1070
     7
1000
_EX_NORM
1070
    41
1040
35.0
1070
    42
1040
0.0
1070
    44
1040
0.0
1070
    73
1070
     0
1070
    74
1070
     0
1070
    75
1070
     1
1070
    76
1070
     1
1070
    77
1070
     1
1070
    78
1070
     0
1070
   140
1040
40.0
1070
   147
1040
3.5
1070
   173
1070
     1
1070
   176
1070
     3
1070
   177
1070
     3
1070
   178
1070
     2
1070
   271
1070
     0
1070
   279
1070
     2
1070
   280
1070
     0
1070
   287
1070
     5
1070
   340
1005
27A
1002
}
  0
LINE
  5
27C
100
AcDbEntity
  8
タンク
  6
CONTINUOUS
 62
     3
100
AcDbLine
 10
389.017073
 20
1524.536235
 30
0.0
 11
389.017073
 21
1281.986736
 31
0.0
  0
LINE
  5
27D
100
AcDbEntity
  8
タンク
  6
CONTINUOUS
 62
     3
100
AcDbLine
 10
391.41691
 20
1448.000004
 30
0.0
 11
233.0
 21
1448.000004
 31
0.0
  0
TEXT
  5
27E
100
AcDbEntity
  8
タンク
  6
CONTINUOUS
 62
     2
100
AcDbText
 10
1598.5
 20
1508.044925
 30
0.0
 40
40.0
  1
４２０
 41
0.833
  7
EXCADSTD
 72
     5
 11
1717.5
 21
1508.044925
 31
0.0
100
AcDbText
  0
LINE
  5
27F
100
AcDbEntity
  8
タンク
  6
CONTINUOUS
 62
     3
100
AcDbLine
 10
1448.0
 20
1504.544926
 30
0.0
 11
1868.0
 21
1504.544926
 31
0.0
  0
LINE
  5
280
100
AcDbEntity
  8
タンク
  6
CONTINUOUS
 62
     3
100
AcDbLine
 10
1483.0
 20
1510.378259
 30
0.0
 11
1448.0
 21
1504.544926
 31
0.0
  0
LINE
  5
281
100
AcDbEntity
  8
タンク
  6
CONTINUOUS
 62
     3
100
AcDbLine
 10
1448.0
 20
1504.544926
 30
0.0
 11
1483.0
 21
1498.711592
 31
0.0
  0
LINE
  5
282
100
AcDbEntity
  8
タンク
  6
CONTINUOUS
 62
     3
100
AcDbLine
 10
1833.0
 20
1498.711592
 30
0.0
 11
1868.0
 21
1504.544926
 31
0.0
  0
LINE
  5
283
100
AcDbEntity
  8
タンク
  6
CONTINUOUS
 62
     3
100
AcDbLine
 10
1868.0
 20
1504.544926
 30
0.0
 11
1833.0
 21
1510.378259
 31
0.0
  0
LINE
  5
284
100
AcDbEntity
  8
タンク
  6
CONTINUOUS
 62
     7
100
AcDbLine
 10
1453.840042
 20
1196.227695
 30
0.0
 11
1452.674576
 21
1263.000156
 31
0.0
  0
LINE
  5
285
100
AcDbEntity
  8
タンク
  6
CONTINUOUS
 62
     7
100
AcDbLine
 10
1862.159897
 20
1196.226322
 30
0.0
 11
1863.325516
 21
1263.000156
 31
0.0
  0
ARC
  5
286
100
AcDbEntity
  8
タンク
  6
CONTINUOUS
 62
     7
100
AcDbCircle
 10
1858.724075
 20
1321.026584
 30
0.0
 40
6.000043
100
AcDbArc
 50
6.6036
 51
92.297058
  0
ARC
  5
287
100
AcDbEntity
  8
タンク
  6
CONTINUOUS
 62
     7
100
AcDbCircle
 10
1657.99852
 20
6323.000004
 30
0.0
 40
5000.0
100
AcDbArc
 50
267.701904
 51
272.297974
  0
ARC
  5
288
100
AcDbEntity
  8
タンク
  6
CONTINUOUS
 62
     7
100
AcDbCircle
 10
1457.276016
 20
1321.025822
 30
0.0
 40
5.999999
100
AcDbArc
 50
87.702957
 51
173.387573
  0
LINE
  5
289
100
AcDbEntity
  8
タンク
  6
CONTINUOUS
 62
     7
100
AcDbLine
 10
1448.000046
 20
1263.000004
 30
0.0
 11
1868.000046
 21
1263.000156
 31
0.0
  0
ARC
  5
28A
100
AcDbEntity
  8
タンク
  6
CONTINUOUS
 62
     7
100
AcDbCircle
 10
1368.001572
 20
1264.216434
 30
0.0
 40
500.0
100
AcDbArc
 50
359.860607
 51
11.682686
  0
ARC
  5
28B
100
AcDbEntity
  8
タンク
  6
CONTINUOUS
 62
     7
100
AcDbCircle
 10
1798.886581
 20
1353.312656
 30
0.0
 40
59.999991
100
AcDbArc
 50
11.682703
 51
58.114258
  0
ARC
  5
28C
100
AcDbEntity
  8
タンク
  6
CONTINUOUS
 62
     7
100
AcDbCircle
 10
1693.241287
 20
1183.491947
 30
0.0
 40
260.0
100
AcDbArc
 50
58.114258
 51
75.420471
  0
ARC
  5
28D
100
AcDbEntity
  8
タンク
  6
CONTINUOUS
 62
     7
100
AcDbCircle
 10
1658.000198
 20
1048.000004
 30
0.0
 40
400.0
100
AcDbArc
 50
75.420532
 51
104.579529
  0
ARC
  5
28E
100
AcDbEntity
  8
タンク
  6
CONTINUOUS
 62
     7
100
AcDbCircle
 10
1622.758804
 20
1183.491947
 30
0.0
 40
260.0
100
AcDbArc
 50
104.579529
 51
121.885757
  0
ARC
  5
28F
100
AcDbEntity
  8
タンク
  6
CONTINUOUS
 62
     7
100
AcDbCircle
 10
1517.11351
 20
1353.312656
 30
0.0
 40
59.999991
100
AcDbArc
 50
121.885757
 51
168.317429
  0
ARC
  5
290
100
AcDbEntity
  8
タンク
  6
CONTINUOUS
 62
     7
100
AcDbCircle
 10
1947.99852
 20
1264.216587
 30
0.0
 40
500.0
100
AcDbArc
 50
168.317429
 51
180.13945
  0
POLYLINE
  5
291
100
AcDbEntity
  8
タンク
  6
CONTINUOUS
 62
     6
100
AcDb2dPolyline
 66
     1
 10
0.0
 20
0.0
 30
0.0
 70
   128
  0
VERTEX
  5
292
100
AcDbEntity
  8
タンク
  6
CONTINUOUS
 62
     6
100
AcDbVertex
100
AcDb2dVertex
 10
1648.500076
 20
1410.802128
 30
0.0
  0
VERTEX
  5
293
100
AcDbEntity
  8
タンク
  6
CONTINUOUS
 62
     6
100
AcDbVertex
100
AcDb2dVertex
 10
1648.536239
 20
1410.729954
 30
0.0
  0
VERTEX
  5
294
100
AcDbEntity
  8
タンク
  6
CONTINUOUS
 62
     6
100
AcDbVertex
100
AcDb2dVertex
 10
1648.644424
 20
1410.658542
 30
0.0
  0
VERTEX
  5
295
100
AcDbEntity
  8
タンク
  6
CONTINUOUS
 62
     6
100
AcDbVertex
100
AcDb2dVertex
 10
1648.823868
 20
1410.587589
 30
0.0
  0
VERTEX
  5
296
100
AcDbEntity
  8
タンク
  6
CONTINUOUS
 62
     6
100
AcDbVertex
100
AcDb2dVertex
 10
1649.073196
 20
1410.518772
 30
0.0
  0
VERTEX
  5
297
100
AcDbEntity
  8
タンク
  6
CONTINUOUS
 62
     6
100
AcDbVertex
100
AcDb2dVertex
 10
1649.390274
 20
1410.451938
 30
0.0
  0
VERTEX
  5
298
100
AcDbEntity
  8
タンク
  6
CONTINUOUS
 62
     6
100
AcDbVertex
100
AcDb2dVertex
 10
1649.772812
 20
1410.387852
 30
0.0
  0
VERTEX
  5
299
100
AcDbEntity
  8
タンク
  6
CONTINUOUS
 62
     6
100
AcDbVertex
100
AcDb2dVertex
 10
1650.218216
 20
1410.326969
 30
0.0
  0
VERTEX
  5
29A
100
AcDbEntity
  8
タンク
  6
CONTINUOUS
 62
     6
100
AcDbVertex
100
AcDb2dVertex
 10
1650.722671
 20
1410.269443
 30
0.0
  0
VERTEX
  5
29B
100
AcDbEntity
  8
タンク
  6
CONTINUOUS
 62
     6
100
AcDbVertex
100
AcDb2dVertex
 10
1651.282516
 20
1410.216495
 30
0.0
  0
VERTEX
  5
29C
100
AcDbEntity
  8
タンク
  6
CONTINUOUS
 62
     6
100
AcDbVertex
100
AcDb2dVertex
 10
1651.893631
 20
1410.167667
 30
0.0
  0
VERTEX
  5
29D
100
AcDbEntity
  8
タンク
  6
CONTINUOUS
 62
     6
100
AcDbVertex
100
AcDb2dVertex
 10
1652.551132
 20
1410.123722
 30
0.0
  0
VERTEX
  5
29E
100
AcDbEntity
  8
タンク
  6
CONTINUOUS
 62
     6
100
AcDbVertex
100
AcDb2dVertex
 10
1653.250137
 20
1410.085117
 30
0.0
  0
VERTEX
  5
29F
100
AcDbEntity
  8
タンク
  6
CONTINUOUS
 62
     6
100
AcDbVertex
100
AcDb2dVertex
 10
1653.985306
 20
1410.051853
 30
0.0
  0
VERTEX
  5
2A0
100
AcDbEntity
  8
タンク
  6
CONTINUOUS
 62
     6
100
AcDbVertex
100
AcDb2dVertex
 10
1654.750992
 20
1410.024235
 30
0.0
  0
VERTEX
  5
2A1
100
AcDbEntity
  8
タンク
  6
CONTINUOUS
 62
     6
100
AcDbVertex
100
AcDb2dVertex
 10
1655.541244
 20
1410.001957
 30
0.0
  0
VERTEX
  5
2A2
100
AcDbEntity
  8
タンク
  6
CONTINUOUS
 62
     6
100
AcDbVertex
100
AcDb2dVertex
 10
1656.350418
 20
1409.98624
 30
0.0
  0
VERTEX
  5
2A3
100
AcDbEntity
  8
タンク
  6
CONTINUOUS
 62
     6
100
AcDbVertex
100
AcDb2dVertex
 10
1657.171951
 20
1409.976627
 30
0.0
  0
VERTEX
  5
2A4
100
AcDbEntity
  8
タンク
  6
CONTINUOUS
 62
     6
100
AcDbVertex
100
AcDb2dVertex
 10
1658.000046
 20
1409.974033
 30
0.0
  0
VERTEX
  5
2A5
100
AcDbEntity
  8
タンク
  6
CONTINUOUS
 62
     6
100
AcDbVertex
100
AcDb2dVertex
 10
1658.827988
 20
1409.977238
 30
0.0
  0
VERTEX
  5
2A6
100
AcDbEntity
  8
タンク
  6
CONTINUOUS
 62
     6
100
AcDbVertex
100
AcDb2dVertex
 10
1659.649673
 20
1409.986698
 30
0.0
  0
VERTEX
  5
2A7
100
AcDbEntity
  8
タンク
  6
CONTINUOUS
 62
     6
100
AcDbVertex
100
AcDb2dVertex
 10
1660.458847
 20
1410.001957
 30
0.0
  0
VERTEX
  5
2A8
100
AcDbEntity
  8
タンク
  6
CONTINUOUS
 62
     6
100
AcDbVertex
100
AcDb2dVertex
 10
1661.249252
 20
1410.023624
 30
0.0
  0
VERTEX
  5
2A9
100
AcDbEntity
  8
タンク
  6
CONTINUOUS
 62
     6
100
AcDbVertex
100
AcDb2dVertex
 10
1662.014938
 20
1410.05109
 30
0.0
  0
VERTEX
  5
2AA
100
AcDbEntity
  8
タンク
  6
CONTINUOUS
 62
     6
100
AcDbVertex
100
AcDb2dVertex
 10
1662.750107
 20
1410.085117
 30
0.0
  0
VERTEX
  5
2AB
100
AcDbEntity
  8
タンク
  6
CONTINUOUS
 62
     6
100
AcDbVertex
100
AcDb2dVertex
 10
1663.448959
 20
1410.124027
 30
0.0
  0
VERTEX
  5
2AC
100
AcDbEntity
  8
タンク
  6
CONTINUOUS
 62
     6
100
AcDbVertex
100
AcDb2dVertex
 10
1664.10646
 20
1410.168125
 30
0.0
  0
VERTEX
  5
2AD
100
AcDbEntity
  8
タンク
  6
CONTINUOUS
 62
     6
100
AcDbVertex
100
AcDb2dVertex
 10
1664.717575
 20
1410.216495
 30
0.0
  0
VERTEX
  5
2AE
100
AcDbEntity
  8
タンク
  6
CONTINUOUS
 62
     6
100
AcDbVertex
100
AcDb2dVertex
 10
1665.27742
 20
1410.269749
 30
0.0
  0
VERTEX
  5
2AF
100
AcDbEntity
  8
タンク
  6
CONTINUOUS
 62
     6
100
AcDbVertex
100
AcDb2dVertex
 10
1665.781875
 20
1410.326969
 30
0.0
  0
VERTEX
  5
2B0
100
AcDbEntity
  8
タンク
  6
CONTINUOUS
 62
     6
100
AcDbVertex
100
AcDb2dVertex
 10
1666.22728
 20
1410.387852
 30
0.0
  0
VERTEX
  5
2B1
100
AcDbEntity
  8
タンク
  6
CONTINUOUS
 62
     6
100
AcDbVertex
100
AcDb2dVertex
 10
1666.609817
 20
1410.451938
 30
0.0
  0
VERTEX
  5
2B2
100
AcDbEntity
  8
タンク
  6
CONTINUOUS
 62
     6
100
AcDbVertex
100
AcDb2dVertex
 10
1666.927048
 20
1410.518467
 30
0.0
  0
VERTEX
  5
2B3
100
AcDbEntity
  8
タンク
  6
CONTINUOUS
 62
     6
100
AcDbVertex
100
AcDb2dVertex
 10
1667.176376
 20
1410.587589
 30
0.0
  0
VERTEX
  5
2B4
100
AcDbEntity
  8
タンク
  6
CONTINUOUS
 62
     6
100
AcDbVertex
100
AcDb2dVertex
 10
1667.355667
 20
1410.658085
 30
0.0
  0
VERTEX
  5
2B5
100
AcDbEntity
  8
タンク
  6
CONTINUOUS
 62
     6
100
AcDbVertex
100
AcDb2dVertex
 10
1667.463852
 20
1410.729648
 30
0.0
  0
VERTEX
  5
2B6
100
AcDbEntity
  8
タンク
  6
CONTINUOUS
 62
     6
100
AcDbVertex
100
AcDb2dVertex
 10
1667.500015
 20
1410.802128
 30
0.0
  0
VERTEX
  5
2B7
100
AcDbEntity
  8
タンク
  6
CONTINUOUS
 62
     6
100
AcDbVertex
100
AcDb2dVertex
 10
1667.463852
 20
1410.874302
 30
0.0
  0
VERTEX
  5
2B8
100
AcDbEntity
  8
タンク
  6
CONTINUOUS
 62
     6
100
AcDbVertex
100
AcDb2dVertex
 10
1667.355667
 20
1410.946171
 30
0.0
  0
VERTEX
  5
2B9
100
AcDbEntity
  8
タンク
  6
CONTINUOUS
 62
     6
100
AcDbVertex
100
AcDb2dVertex
 10
1667.176376
 20
1411.016361
 30
0.0
  0
VERTEX
  5
2BA
100
AcDbEntity
  8
タンク
  6
CONTINUOUS
 62
     6
100
AcDbVertex
100
AcDb2dVertex
 10
1666.927048
 20
1411.085178
 30
0.0
  0
VERTEX
  5
2BB
100
AcDbEntity
  8
タンク
  6
CONTINUOUS
 62
     6
100
AcDbVertex
100
AcDb2dVertex
 10
1666.60997
 20
1411.151859
 30
0.0
  0
VERTEX
  5
2BC
100
AcDbEntity
  8
タンク
  6
CONTINUOUS
 62
     6
100
AcDbVertex
100
AcDb2dVertex
 10
1666.22728
 20
1411.215946
 30
0.0
  0
VERTEX
  5
2BD
100
AcDbEntity
  8
タンク
  6
CONTINUOUS
 62
     6
100
AcDbVertex
100
AcDb2dVertex
 10
1665.781875
 20
1411.276829
 30
0.0
  0
VERTEX
  5
2BE
100
AcDbEntity
  8
タンク
  6
CONTINUOUS
 62
     6
100
AcDbVertex
100
AcDb2dVertex
 10
1665.27742
 20
1411.334202
 30
0.0
  0
VERTEX
  5
2BF
100
AcDbEntity
  8
タンク
  6
CONTINUOUS
 62
     6
100
AcDbVertex
100
AcDb2dVertex
 10
1664.717575
 20
1411.387455
 30
0.0
  0
VERTEX
  5
2C0
100
AcDbEntity
  8
タンク
  6
CONTINUOUS
 62
     6
100
AcDbVertex
100
AcDb2dVertex
 10
1664.10646
 20
1411.436283
 30
0.0
  0
VERTEX
  5
2C1
100
AcDbEntity
  8
タンク
  6
CONTINUOUS
 62
     6
100
AcDbVertex
100
AcDb2dVertex
 10
1663.448959
 20
1411.480076
 30
0.0
  0
VERTEX
  5
2C2
100
AcDbEntity
  8
タンク
  6
CONTINUOUS
 62
     6
100
AcDbVertex
100
AcDb2dVertex
 10
1662.750107
 20
1411.519138
 30
0.0
  0
VERTEX
  5
2C3
100
AcDbEntity
  8
タンク
  6
CONTINUOUS
 62
     6
100
AcDbVertex
100
AcDb2dVertex
 10
1662.014938
 20
1411.552555
 30
0.0
  0
VERTEX
  5
2C4
100
AcDbEntity
  8
タンク
  6
CONTINUOUS
 62
     6
100
AcDbVertex
100
AcDb2dVertex
 10
1661.249252
 20
1411.580479
 30
0.0
  0
VERTEX
  5
2C5
100
AcDbEntity
  8
タンク
  6
CONTINUOUS
 62
     6
100
AcDbVertex
100
AcDb2dVertex
 10
1660.458847
 20
1411.601841
 30
0.0
  0
VERTEX
  5
2C6
100
AcDbEntity
  8
タンク
  6
CONTINUOUS
 62
     6
100
AcDbVertex
100
AcDb2dVertex
 10
1659.649673
 20
1411.617557
 30
0.0
  0
VERTEX
  5
2C7
100
AcDbEntity
  8
タンク
  6
CONTINUOUS
 62
     6
100
AcDbVertex
100
AcDb2dVertex
 10
1658.82814
 20
1411.627018
 30
0.0
  0
VERTEX
  5
2C8
100
AcDbEntity
  8
タンク
  6
CONTINUOUS
 62
     6
100
AcDbVertex
100
AcDb2dVertex
 10
1658.000046
 20
1411.629917
 30
0.0
  0
VERTEX
  5
2C9
100
AcDbEntity
  8
タンク
  6
CONTINUOUS
 62
     6
100
AcDbVertex
100
AcDb2dVertex
 10
1657.172104
 20
1411.626713
 30
0.0
  0
VERTEX
  5
2CA
100
AcDbEntity
  8
タンク
  6
CONTINUOUS
 62
     6
100
AcDbVertex
100
AcDb2dVertex
 10
1656.350418
 20
1411.6171
 30
0.0
  0
VERTEX
  5
2CB
100
AcDbEntity
  8
タンク
  6
CONTINUOUS
 62
     6
100
AcDbVertex
100
AcDb2dVertex
 10
1655.541244
 20
1411.601841
 30
0.0
  0
VERTEX
  5
2CC
100
AcDbEntity
  8
タンク
  6
CONTINUOUS
 62
     6
100
AcDbVertex
100
AcDb2dVertex
 10
1654.750839
 20
1411.580173
 30
0.0
  0
VERTEX
  5
2CD
100
AcDbEntity
  8
タンク
  6
CONTINUOUS
 62
     6
100
AcDbVertex
100
AcDb2dVertex
 10
1653.985153
 20
1411.552555
 30
0.0
  0
SEQEND
  5
2CE
100
AcDbEntity
  8
タンク
  6
CONTINUOUS
 62
     6
  0
POLYLINE
  5
2CF
100
AcDbEntity
  8
タンク
  6
CONTINUOUS
 62
     6
100
AcDb2dPolyline
 66
     1
 10
0.0
 20
0.0
 30
0.0
 70
   128
  0
VERTEX
  5
2D0
100
AcDbEntity
  8
タンク
  6
CONTINUOUS
 62
     6
100
AcDbVertex
100
AcDb2dVertex
 10
1653.985153
 20
1411.552555
 30
0.0
  0
VERTEX
  5
2D1
100
AcDbEntity
  8
タンク
  6
CONTINUOUS
 62
     6
100
AcDbVertex
100
AcDb2dVertex
 10
1653.250137
 20
1411.519138
 30
0.0
  0
VERTEX
  5
2D2
100
AcDbEntity
  8
タンク
  6
CONTINUOUS
 62
     6
100
AcDbVertex
100
AcDb2dVertex
 10
1652.551285
 20
1411.480381
 30
0.0
  0
VERTEX
  5
2D3
100
AcDbEntity
  8
タンク
  6
CONTINUOUS
 62
     6
100
AcDbVertex
100
AcDb2dVertex
 10
1651.893783
 20
1411.436588
 30
0.0
  0
VERTEX
  5
2D4
100
AcDbEntity
  8
タンク
  6
CONTINUOUS
 62
     6
100
AcDbVertex
100
AcDb2dVertex
 10
1651.282516
 20
1411.387455
 30
0.0
  0
VERTEX
  5
2D5
100
AcDbEntity
  8
タンク
  6
CONTINUOUS
 62
     6
100
AcDbVertex
100
AcDb2dVertex
 10
1650.722671
 20
1411.334202
 30
0.0
  0
VERTEX
  5
2D6
100
AcDbEntity
  8
タンク
  6
CONTINUOUS
 62
     6
100
AcDbVertex
100
AcDb2dVertex
 10
1650.218216
 20
1411.276829
 30
0.0
  0
VERTEX
  5
2D7
100
AcDbEntity
  8
タンク
  6
CONTINUOUS
 62
     6
100
AcDbVertex
100
AcDb2dVertex
 10
1649.772812
 20
1411.215946
 30
0.0
  0
VERTEX
  5
2D8
100
AcDbEntity
  8
タンク
  6
CONTINUOUS
 62
     6
100
AcDbVertex
100
AcDb2dVertex
 10
1649.390274
 20
1411.151859
 30
0.0
  0
VERTEX
  5
2D9
100
AcDbEntity
  8
タンク
  6
CONTINUOUS
 62
     6
100
AcDbVertex
100
AcDb2dVertex
 10
1649.073044
 20
1411.085178
 30
0.0
  0
VERTEX
  5
2DA
100
AcDbEntity
  8
タンク
  6
CONTINUOUS
 62
     6
100
AcDbVertex
100
AcDb2dVertex
 10
1648.823868
 20
1411.016361
 30
0.0
  0
SEQEND
  5
2DB
100
AcDbEntity
  8
タンク
  6
CONTINUOUS
 62
     6
  0
POLYLINE
  5
2DC
100
AcDbEntity
  8
タンク
  6
CONTINUOUS
 62
     6
100
AcDb2dPolyline
 66
     1
 10
0.0
 20
0.0
 30
0.0
 70
   128
  0
VERTEX
  5
2DD
100
AcDbEntity
  8
タンク
  6
CONTINUOUS
 62
     6
100
AcDbVertex
100
AcDb2dVertex
 10
1648.823868
 20
1411.016361
 30
0.0
  0
VERTEX
  5
2DE
100
AcDbEntity
  8
タンク
  6
CONTINUOUS
 62
     6
100
AcDbVertex
100
AcDb2dVertex
 10
1648.644577
 20
1410.945865
 30
0.0
  0
VERTEX
  5
2DF
100
AcDbEntity
  8
タンク
  6
CONTINUOUS
 62
     6
100
AcDbVertex
100
AcDb2dVertex
 10
1648.536392
 20
1410.874149
 30
0.0
  0
VERTEX
  5
2E0
100
AcDbEntity
  8
タンク
  6
CONTINUOUS
 62
     6
100
AcDbVertex
100
AcDb2dVertex
 10
1648.500076
 20
1410.801823
 30
0.0
  0
SEQEND
  5
2E1
100
AcDbEntity
  8
タンク
  6
CONTINUOUS
 62
     6
  0
POLYLINE
  5
2E2
100
AcDbEntity
  8
タンク
  6
CONTINUOUS
 62
     6
100
AcDb2dPolyline
 66
     1
 10
0.0
 20
0.0
 30
0.0
 70
   128
  0
VERTEX
  5
2E3
100
AcDbEntity
  8
タンク
  6
CONTINUOUS
 62
     6
100
AcDbVertex
100
AcDb2dVertex
 10
1669.500137
 20
1415.783054
 30
0.0
  0
VERTEX
  5
2E4
100
AcDbEntity
  8
タンク
  6
CONTINUOUS
 62
     6
100
AcDbVertex
100
AcDb2dVertex
 10
1669.456344
 20
1415.870334
 30
0.0
  0
VERTEX
  5
2E5
100
AcDbEntity
  8
タンク
  6
CONTINUOUS
 62
     6
100
AcDbVertex
100
AcDb2dVertex
 10
1669.325271
 20
1415.957004
 30
0.0
  0
VERTEX
  5
2E6
100
AcDbEntity
  8
タンク
  6
CONTINUOUS
 62
     6
100
AcDbVertex
100
AcDb2dVertex
 10
1669.108139
 20
1416.042606
 30
0.0
  0
VERTEX
  5
2E7
100
AcDbEntity
  8
タンク
  6
CONTINUOUS
 62
     6
100
AcDbVertex
100
AcDb2dVertex
 10
1668.80632
 20
1416.126072
 30
0.0
  0
VERTEX
  5
2E8
100
AcDbEntity
  8
タンク
  6
CONTINUOUS
 62
     6
100
AcDbVertex
100
AcDb2dVertex
 10
1668.422409
 20
1416.206943
 30
0.0
  0
VERTEX
  5
2E9
100
AcDbEntity
  8
タンク
  6
CONTINUOUS
 62
     6
100
AcDbVertex
100
AcDb2dVertex
 10
1667.959305
 20
1416.284153
 30
0.0
  0
VERTEX
  5
2EA
100
AcDbEntity
  8
タンク
  6
CONTINUOUS
 62
     6
100
AcDbVertex
100
AcDb2dVertex
 10
1667.420212
 20
1416.357853
 30
0.0
  0
VERTEX
  5
2EB
100
AcDbEntity
  8
タンク
  6
CONTINUOUS
 62
     6
100
AcDbVertex
100
AcDb2dVertex
 10
1666.809402
 20
1416.427128
 30
0.0
  0
VERTEX
  5
2EC
100
AcDbEntity
  8
タンク
  6
CONTINUOUS
 62
     6
100
AcDbVertex
100
AcDb2dVertex
 10
1666.13176
 20
1416.491672
 30
0.0
  0
VERTEX
  5
2ED
100
AcDbEntity
  8
タンク
  6
CONTINUOUS
 62
     6
100
AcDbVertex
100
AcDb2dVertex
 10
1665.392013
 20
1416.550724
 30
0.0
  0
VERTEX
  5
2EE
100
AcDbEntity
  8
タンク
  6
CONTINUOUS
 62
     6
100
AcDbVertex
100
AcDb2dVertex
 10
1664.596115
 20
1416.603824
 30
0.0
  0
VERTEX
  5
2EF
100
AcDbEntity
  8
タンク
  6
CONTINUOUS
 62
     6
100
AcDbVertex
100
AcDb2dVertex
 10
1663.750015
 20
1416.651127
 30
0.0
  0
VERTEX
  5
2F0
100
AcDbEntity
  8
タンク
  6
CONTINUOUS
 62
     6
100
AcDbVertex
100
AcDb2dVertex
 10
1662.860123
 20
1416.691563
 30
0.0
  0
VERTEX
  5
2F1
100
AcDbEntity
  8
タンク
  6
CONTINUOUS
 62
     6
100
AcDbVertex
100
AcDb2dVertex
 10
1661.933151
 20
1416.724979
 30
0.0
  0
VERTEX
  5
2F2
100
AcDbEntity
  8
タンク
  6
CONTINUOUS
 62
     6
100
AcDbVertex
100
AcDb2dVertex
 10
1660.976425
 20
1416.751224
 30
0.0
  0
VERTEX
  5
2F3
100
AcDbEntity
  8
タンク
  6
CONTINUOUS
 62
     6
100
AcDbVertex
100
AcDb2dVertex
 10
1659.996963
 20
1416.770145
 30
0.0
  0
VERTEX
  5
2F4
100
AcDbEntity
  8
タンク
  6
CONTINUOUS
 62
     6
100
AcDbVertex
100
AcDb2dVertex
 10
1659.002243
 20
1416.781589
 30
0.0
  0
VERTEX
  5
2F5
100
AcDbEntity
  8
タンク
  6
CONTINUOUS
 62
     6
100
AcDbVertex
100
AcDb2dVertex
 10
1658.000046
 20
1416.785099
 30
0.0
  0
VERTEX
  5
2F6
100
AcDbEntity
  8
タンク
  6
CONTINUOUS
 62
     6
100
AcDbVertex
100
AcDb2dVertex
 10
1656.997848
 20
1416.781284
 30
0.0
  0
VERTEX
  5
2F7
100
AcDbEntity
  8
タンク
  6
CONTINUOUS
 62
     6
100
AcDbVertex
100
AcDb2dVertex
 10
1656.003128
 20
1416.769688
 30
0.0
  0
VERTEX
  5
2F8
100
AcDbEntity
  8
タンク
  6
CONTINUOUS
 62
     6
100
AcDbVertex
100
AcDb2dVertex
 10
1655.023666
 20
1416.751224
 30
0.0
  0
VERTEX
  5
2F9
100
AcDbEntity
  8
タンク
  6
CONTINUOUS
 62
     6
100
AcDbVertex
100
AcDb2dVertex
 10
1654.06694
 20
1416.724979
 30
0.0
  0
VERTEX
  5
2FA
100
AcDbEntity
  8
タンク
  6
CONTINUOUS
 62
     6
100
AcDbVertex
100
AcDb2dVertex
 10
1653.139969
 20
1416.69141
 30
0.0
  0
VERTEX
  5
2FB
100
AcDbEntity
  8
タンク
  6
CONTINUOUS
 62
     6
100
AcDbVertex
100
AcDb2dVertex
 10
1652.250076
 20
1416.651127
 30
0.0
  0
VERTEX
  5
2FC
100
AcDbEntity
  8
タンク
  6
CONTINUOUS
 62
     6
100
AcDbVertex
100
AcDb2dVertex
 10
1651.403976
 20
1416.60413
 30
0.0
  0
VERTEX
  5
2FD
100
AcDbEntity
  8
タンク
  6
CONTINUOUS
 62
     6
100
AcDbVertex
100
AcDb2dVertex
 10
1650.608078
 20
1416.551029
 30
0.0
  0
VERTEX
  5
2FE
100
AcDbEntity
  8
タンク
  6
CONTINUOUS
 62
     6
100
AcDbVertex
100
AcDb2dVertex
 10
1649.868332
 20
1416.491672
 30
0.0
  0
VERTEX
  5
2FF
100
AcDbEntity
  8
タンク
  6
CONTINUOUS
 62
     6
100
AcDbVertex
100
AcDb2dVertex
 10
1649.190689
 20
1416.427128
 30
0.0
  0
VERTEX
  5
300
100
AcDbEntity
  8
タンク
  6
CONTINUOUS
 62
     6
100
AcDbVertex
100
AcDb2dVertex
 10
1648.57988
 20
1416.3577
 30
0.0
  0
VERTEX
  5
301
100
AcDbEntity
  8
タンク
  6
CONTINUOUS
 62
     6
100
AcDbVertex
100
AcDb2dVertex
 10
1648.040787
 20
1416.284153
 30
0.0
  0
VERTEX
  5
302
100
AcDbEntity
  8
タンク
  6
CONTINUOUS
 62
     6
100
AcDbVertex
100
AcDb2dVertex
 10
1647.577682
 20
1416.206638
 30
0.0
  0
VERTEX
  5
303
100
AcDbEntity
  8
タンク
  6
CONTINUOUS
 62
     6
100
AcDbVertex
100
AcDb2dVertex
 10
1647.193619
 20
1416.125767
 30
0.0
  0
VERTEX
  5
304
100
AcDbEntity
  8
タンク
  6
CONTINUOUS
 62
     6
100
AcDbVertex
100
AcDb2dVertex
 10
1646.8918
 20
1416.042606
 30
0.0
  0
VERTEX
  5
305
100
AcDbEntity
  8
タンク
  6
CONTINUOUS
 62
     6
100
AcDbVertex
100
AcDb2dVertex
 10
1646.67482
 20
1415.95731
 30
0.0
  0
VERTEX
  5
306
100
AcDbEntity
  8
タンク
  6
CONTINUOUS
 62
     6
100
AcDbVertex
100
AcDb2dVertex
 10
1646.543747
 20
1415.87064
 30
0.0
  0
VERTEX
  5
307
100
AcDbEntity
  8
タンク
  6
CONTINUOUS
 62
     6
100
AcDbVertex
100
AcDb2dVertex
 10
1646.499954
 20
1415.783512
 30
0.0
  0
SEQEND
  5
308
100
AcDbEntity
  8
タンク
  6
CONTINUOUS
 62
     6
  0
LINE
  5
309
100
AcDbEntity
  8
タンク
  6
CONTINUOUS
 62
     6
100
AcDbLine
 10
1669.499985
 20
1415.782902
 30
0.0
 11
1667.500015
 21
1410.801823
 31
0.0
  0
LINE
  5
30A
100
AcDbEntity
  8
タンク
  6
CONTINUOUS
 62
     6
100
AcDbLine
 10
1648.500076
 20
1410.801823
 30
0.0
 11
1646.500107
 21
1415.782902
 31
0.0
  0
POLYLINE
  5
30B
100
AcDbEntity
  8
タンク
  6
CONTINUOUS
 62
     6
100
AcDb2dPolyline
 66
     1
 10
0.0
 20
0.0
 30
0.0
 70
   128
  0
VERTEX
  5
30C
100
AcDbEntity
  8
タンク
  6
CONTINUOUS
 62
     6
100
AcDbVertex
100
AcDb2dVertex
 10
1673.999954
 20
1415.783054
 30
0.0
  0
VERTEX
  5
30D
100
AcDbEntity
  8
タンク
  6
CONTINUOUS
 62
     6
100
AcDbVertex
100
AcDb2dVertex
 10
1673.938919
 20
1415.904667
 30
0.0
  0
VERTEX
  5
30E
100
AcDbEntity
  8
タンク
  6
CONTINUOUS
 62
     6
100
AcDbVertex
100
AcDb2dVertex
 10
1673.756729
 20
1416.025211
 30
0.0
  0
VERTEX
  5
30F
100
AcDbEntity
  8
タンク
  6
CONTINUOUS
 62
     6
100
AcDbVertex
100
AcDb2dVertex
 10
1673.45491
 20
1416.143925
 30
0.0
  0
VERTEX
  5
310
100
AcDbEntity
  8
タンク
  6
CONTINUOUS
 62
     6
100
AcDbVertex
100
AcDb2dVertex
 10
1673.035141
 20
1416.259891
 30
0.0
  0
VERTEX
  5
311
100
AcDbEntity
  8
タンク
  6
CONTINUOUS
 62
     6
100
AcDbVertex
100
AcDb2dVertex
 10
1672.500931
 20
1416.372349
 30
0.0
  0
VERTEX
  5
312
100
AcDbEntity
  8
タンク
  6
CONTINUOUS
 62
     6
100
AcDbVertex
100
AcDb2dVertex
 10
1671.856552
 20
1416.480228
 30
0.0
  0
VERTEX
  5
313
100
AcDbEntity
  8
タンク
  6
CONTINUOUS
 62
     6
100
AcDbVertex
100
AcDb2dVertex
 10
1671.10643
 20
1416.582767
 30
0.0
  0
VERTEX
  5
314
100
AcDbEntity
  8
タンク
  6
CONTINUOUS
 62
     6
100
AcDbVertex
100
AcDb2dVertex
 10
1670.256668
 20
1416.679203
 30
0.0
  0
VERTEX
  5
315
100
AcDbEntity
  8
タンク
  6
CONTINUOUS
 62
     6
100
AcDbVertex
100
AcDb2dVertex
 10
1669.313675
 20
1416.768925
 30
0.0
  0
VERTEX
  5
316
100
AcDbEntity
  8
タンク
  6
CONTINUOUS
 62
     6
100
AcDbVertex
100
AcDb2dVertex
 10
1668.284469
 20
1416.851017
 30
0.0
  0
VERTEX
  5
317
100
AcDbEntity
  8
タンク
  6
CONTINUOUS
 62
     6
100
AcDbVertex
100
AcDb2dVertex
 10
1667.177139
 20
1416.925022
 30
0.0
  0
VERTEX
  5
318
100
AcDbEntity
  8
タンク
  6
CONTINUOUS
 62
     6
100
AcDbVertex
100
AcDb2dVertex
 10
1665.999924
 20
1416.990787
 30
0.0
  0
VERTEX
  5
319
100
AcDbEntity
  8
タンク
  6
CONTINUOUS
 62
     6
100
AcDbVertex
100
AcDb2dVertex
 10
1664.761825
 20
1417.04694
 30
0.0
  0
VERTEX
  5
31A
100
AcDbEntity
  8
タンク
  6
CONTINUOUS
 62
     6
100
AcDbVertex
100
AcDb2dVertex
 10
1663.472153
 20
1417.093784
 30
0.0
  0
VERTEX
  5
31B
100
AcDbEntity
  8
タンク
  6
CONTINUOUS
 62
     6
100
AcDbVertex
100
AcDb2dVertex
 10
1662.141128
 20
1417.129948
 30
0.0
  0
VERTEX
  5
31C
100
AcDbEntity
  8
タンク
  6
CONTINUOUS
 62
     6
100
AcDbVertex
100
AcDb2dVertex
 10
1660.778366
 20
1417.156193
 30
0.0
  0
VERTEX
  5
31D
100
AcDbEntity
  8
タンク
  6
CONTINUOUS
 62
     6
100
AcDbVertex
100
AcDb2dVertex
 10
1659.394546
 20
1417.172062
 30
0.0
  0
VERTEX
  5
31E
100
AcDbEntity
  8
タンク
  6
CONTINUOUS
 62
     6
100
AcDbVertex
100
AcDb2dVertex
 10
1658.000046
 20
1417.177555
 30
0.0
  0
VERTEX
  5
31F
100
AcDbEntity
  8
タンク
  6
CONTINUOUS
 62
     6
100
AcDbVertex
100
AcDb2dVertex
 10
1656.605545
 20
1417.172214
 30
0.0
  0
VERTEX
  5
320
100
AcDbEntity
  8
タンク
  6
CONTINUOUS
 62
     6
100
AcDbVertex
100
AcDb2dVertex
 10
1655.221725
 20
1417.156193
 30
0.0
  0
VERTEX
  5
321
100
AcDbEntity
  8
タンク
  6
CONTINUOUS
 62
     6
100
AcDbVertex
100
AcDb2dVertex
 10
1653.858963
 20
1417.129948
 30
0.0
  0
VERTEX
  5
322
100
AcDbEntity
  8
タンク
  6
CONTINUOUS
 62
     6
100
AcDbVertex
100
AcDb2dVertex
 10
1652.527786
 20
1417.093326
 30
0.0
  0
VERTEX
  5
323
100
AcDbEntity
  8
タンク
  6
CONTINUOUS
 62
     6
100
AcDbVertex
100
AcDb2dVertex
 10
1651.238266
 20
1417.046635
 30
0.0
  0
VERTEX
  5
324
100
AcDbEntity
  8
タンク
  6
CONTINUOUS
 62
     6
100
AcDbVertex
100
AcDb2dVertex
 10
1650.000015
 20
1416.990787
 30
0.0
  0
VERTEX
  5
325
100
AcDbEntity
  8
タンク
  6
CONTINUOUS
 62
     6
100
AcDbVertex
100
AcDb2dVertex
 10
1648.822952
 20
1416.92548
 30
0.0
  0
VERTEX
  5
326
100
AcDbEntity
  8
タンク
  6
CONTINUOUS
 62
     6
100
AcDbVertex
100
AcDb2dVertex
 10
1647.715469
 20
1416.851475
 30
0.0
  0
VERTEX
  5
327
100
AcDbEntity
  8
タンク
  6
CONTINUOUS
 62
     6
100
AcDbVertex
100
AcDb2dVertex
 10
1646.686264
 20
1416.768925
 30
0.0
  0
VERTEX
  5
328
100
AcDbEntity
  8
タンク
  6
CONTINUOUS
 62
     6
100
AcDbVertex
100
AcDb2dVertex
 10
1645.743423
 20
1416.679203
 30
0.0
  0
VERTEX
  5
329
100
AcDbEntity
  8
タンク
  6
CONTINUOUS
 62
     6
100
AcDbVertex
100
AcDb2dVertex
 10
1644.893661
 20
1416.582615
 30
0.0
  0
VERTEX
  5
32A
100
AcDbEntity
  8
タンク
  6
CONTINUOUS
 62
     6
100
AcDbVertex
100
AcDb2dVertex
 10
1644.143692
 20
1416.480228
 30
0.0
  0
VERTEX
  5
32B
100
AcDbEntity
  8
タンク
  6
CONTINUOUS
 62
     6
100
AcDbVertex
100
AcDb2dVertex
 10
1643.499313
 20
1416.372349
 30
0.0
  0
VERTEX
  5
32C
100
AcDbEntity
  8
タンク
  6
CONTINUOUS
 62
     6
100
AcDbVertex
100
AcDb2dVertex
 10
1642.965256
 20
1416.259891
 30
0.0
  0
VERTEX
  5
32D
100
AcDbEntity
  8
タンク
  6
CONTINUOUS
 62
     6
100
AcDbVertex
100
AcDb2dVertex
 10
1642.545334
 20
1416.143925
 30
0.0
  0
VERTEX
  5
32E
100
AcDbEntity
  8
タンク
  6
CONTINUOUS
 62
     6
100
AcDbVertex
100
AcDb2dVertex
 10
1642.243362
 20
1416.025211
 30
0.0
  0
VERTEX
  5
32F
100
AcDbEntity
  8
タンク
  6
CONTINUOUS
 62
     6
100
AcDbVertex
100
AcDb2dVertex
 10
1642.061172
 20
1415.904514
 30
0.0
  0
VERTEX
  5
330
100
AcDbEntity
  8
タンク
  6
CONTINUOUS
 62
     6
100
AcDbVertex
100
AcDb2dVertex
 10
1642.000137
 20
1415.782902
 30
0.0
  0
SEQEND
  5
331
100
AcDbEntity
  8
タンク
  6
CONTINUOUS
 62
     6
  0
LINE
  5
332
100
AcDbEntity
  8
タンク
  6
CONTINUOUS
 62
     6
100
AcDbLine
 10
1674.000107
 20
1415.782902
 30
0.0
 11
1676.000076
 21
1410.030643
 31
0.0
  0
LINE
  5
333
100
AcDbEntity
  8
タンク
  6
CONTINUOUS
 62
     6
100
AcDbLine
 10
1641.999985
 20
1415.782902
 30
0.0
 11
1640.000015
 21
1410.030643
 31
0.0
  0
ARC
  5
334
100
AcDbEntity
  8
タンク
  6
CONTINUOUS
 62
     6
100
AcDbCircle
 10
1658.000046
 20
1418.000004
 30
0.0
 40
16.000061
100
AcDbArc
 50
0.0
 51
180.000015
  0
ARC
  5
335
100
AcDbEntity
  8
タンク
  6
CONTINUOUS
 62
     6
100
AcDbCircle
 10
1673.938309
 20
1410.835087
 30
0.0
 40
2.000038
100
AcDbArc
 50
316.425064
 51
4.037964
  0
ARC
  5
336
100
AcDbEntity
  8
タンク
  6
CONTINUOUS
 62
     6
100
AcDbCircle
 10
1642.061783
 20
1410.835087
 30
0.0
 40
2.000052
100
AcDbArc
 50
175.962051
 51
223.574844
  0
ARC
  5
337
100
AcDbEntity
  8
タンク
  6
CONTINUOUS
 62
     6
100
AcDbCircle
 10
1658.000046
 20
1425.999882
 30
0.0
 40
24.000025
100
AcDbArc
 50
223.575394
 51
316.424576
  0
LINE
  5
338
100
AcDbEntity
  8
タンク
  6
CONTINUOUS
 62
     6
100
AcDbLine
 10
1675.933395
 20
1410.975925
 30
0.0
 11
1675.456711
 21
1417.731754
 31
0.0
  0
ARC
  5
339
100
AcDbEntity
  8
タンク
  6
CONTINUOUS
 62
     6
100
AcDbCircle
 10
1658.000046
 20
1416.500065
 30
0.0
 40
17.500067
100
AcDbArc
 50
4.035928
 51
175.964081
  0
LINE
  5
33A
100
AcDbEntity
  8
タンク
  6
CONTINUOUS
 62
     6
100
AcDbLine
 10
1640.066696
 20
1410.975925
 30
0.0
 11
1640.543381
 21
1417.731754
 31
0.0
  0
LINE
  5
33B
100
AcDbEntity
  8
タンク
  6
CONTINUOUS
 62
     6
100
AcDbLine
 10
1674.000107
 20
1418.000004
 30
0.0
 11
1674.000107
 21
1415.782902
 31
0.0
  0
LINE
  5
33C
100
AcDbEntity
  8
タンク
  6
CONTINUOUS
 62
     6
100
AcDbLine
 10
1641.999985
 20
1418.000004
 30
0.0
 11
1641.999985
 21
1415.782902
 31
0.0
  0
LINE
  5
33D
100
AcDbEntity
  8
タンク
  6
EXLTYPE2
 62
     2
100
AcDbLine
 10
1863.325516
 20
1263.000156
 30
0.0
 11
1863.500076
 21
1273.000156
 31
0.0
  0
LINE
  5
33E
100
AcDbEntity
  8
タンク
  6
EXLTYPE2
 62
     2
100
AcDbLine
 10
1452.500015
 20
1273.000156
 30
0.0
 11
1863.500076
 21
1273.000156
 31
0.0
  0
LINE
  5
33F
100
AcDbEntity
  8
タンク
  6
EXLTYPE2
 62
     2
100
AcDbLine
 10
1452.500015
 20
1273.000156
 30
0.0
 11
1452.674576
 21
1263.000156
 31
0.0
  0
LINE
  5
340
100
AcDbEntity
  8
タンク
  6
CONTINUOUS
 62
     3
100
AcDbLine
 10
1868.0
 20
1326.544926
 30
0.0
 11
1868.0
 21
1524.544926
 31
0.0
  0
LINE
  5
341
100
AcDbEntity
  8
タンク
  6
CONTINUOUS
 62
     3
100
AcDbLine
 10
1448.0
 20
1326.544926
 30
0.0
 11
1448.0
 21
1524.544926
 31
0.0
  0
LINE
  5
342
100
AcDbEntity
  8
タンク
  6
CONTINUOUS
 62
     6
100
AcDbLine
 10
1864.135759
 20
1210.054694
 30
0.0
 11
1864.135759
 21
1245.936143
 31
0.0
  0
LINE
  5
343
100
AcDbEntity
  8
タンク
  6
CONTINUOUS
 62
     6
100
AcDbLine
 10
1889.412657
 20
1177.315426
 30
0.0
 11
1869.203759
 21
1177.315426
 31
0.0
  0
LINE
  5
344
100
AcDbEntity
  8
タンク
  6
CONTINUOUS
 62
     6
100
AcDbLine
 10
1883.166062
 20
1246.240226
 30
0.0
 11
1864.439827
 21
1246.240226
 31
0.0
  0
LINE
  5
345
100
AcDbEntity
  8
タンク
  6
CONTINUOUS
 62
     6
100
AcDbLine
 10
1869.203759
 20
1194.516498
 30
0.0
 11
1869.203759
 21
1177.315426
 31
0.0
  0
ARC
  5
346
100
AcDbEntity
  8
タンク
  6
CONTINUOUS
 62
     6
100
AcDbCircle
 10
1869.507827
 20
1177.619432
 30
0.0
 40
0.30408
100
AcDbArc
 50
180.005127
 51
270.056458
  0
ARC
  5
347
100
AcDbEntity
  8
タンク
  6
CONTINUOUS
 62
     6
100
AcDbCircle
 10
1853.999759
 20
1227.995426
 30
0.0
 40
36.4896
100
AcDbArc
 50
10.758698
 51
25.944489
  0
ARC
  5
348
100
AcDbEntity
  8
タンク
  6
CONTINUOUS
 62
     6
100
AcDbCircle
 10
1883.166062
 20
1242.185826
 30
0.0
 40
4.0544
100
AcDbArc
 50
25.944489
 51
90.0
  0
ARC
  5
349
100
AcDbEntity
  8
タンク
  6
CONTINUOUS
 62
     6
100
AcDbCircle
 10
1889.412657
 20
1181.369826
 30
0.0
 40
4.0544
100
AcDbArc
 50
270.0
 51
328.506104
  0
ARC
  5
34A
100
AcDbEntity
  8
タンク
  6
CONTINUOUS
 62
     6
100
AcDbCircle
 10
1877.312559
 20
1188.783014
 30
0.0
 40
18.2448
100
AcDbArc
 50
328.506104
 51
3.653961
  0
ARC
  5
34B
100
AcDbEntity
  8
タンク
  6
CONTINUOUS
 62
     6
100
AcDbCircle
 10
1531.366066
 20
1166.690752
 30
0.0
 40
364.896
100
AcDbArc
 50
3.653961
 51
10.758698
  0
ARC
  5
34C
100
AcDbEntity
  8
タンク
  6
CONTINUOUS
 62
     6
100
AcDbCircle
 10
1842.850191
 20
1194.516498
 30
0.0
 40
26.353569
100
AcDbArc
 50
0.0
 51
36.128998
  0
ARC
  5
34D
100
AcDbEntity
  8
タンク
  6
CONTINUOUS
 62
     7
100
AcDbCircle
 10
3153.5811
 20
1225.896122
 30
0.0
 40
1700.0
100
AcDbArc
 50
180.999985
 51
190.177427
  0
ARC
  5
34E
100
AcDbEntity
  8
タンク
  6
CONTINUOUS
 62
     7
100
AcDbCircle
 10
162.418838
 20
1225.895817
 30
0.0
 40
1700.0
100
AcDbArc
 50
349.822584
 51
359.0
  0
LINE
  5
34F
100
AcDbEntity
  8
止水栓
  6
EXLTYPE2
 62
     6
100
AcDbLine
 10
344.017073
 20
2132.701224
 30
0.0
 11
338.337073
 21
2132.701224
 31
0.0
  0
LINE
  5
350
100
AcDbEntity
  8
止水栓
  6
EXLTYPE2
 62
     6
100
AcDbLine
 10
336.177589
 20
2133.930708
 30
0.0
 11
344.017073
 21
2133.685724
 31
0.0
  0
LINE
  5
351
100
AcDbEntity
  8
止水栓
  6
EXLTYPE2
 62
     6
100
AcDbLine
 10
338.337073
 20
2132.701224
 30
0.0
 11
337.357073
 21
2132.731849
 31
0.0
  0
LINE
  5
352
100
AcDbEntity
  8
止水栓
  6
EXLTYPE2
 62
     6
100
AcDbLine
 10
337.356073
 20
2132.732849
 30
0.0
 11
335.857073
 21
2134.231849
 31
0.0
  0
LINE
  5
353
100
AcDbEntity
  8
止水栓
  6
EXLTYPE2
 62
     6
100
AcDbLine
 10
335.857073
 20
2134.231849
 30
0.0
 11
335.857073
 21
2151.770599
 31
0.0
  0
LINE
  5
354
100
AcDbEntity
  8
止水栓
  6
EXLTYPE2
 62
     6
100
AcDbLine
 10
336.177589
 20
2152.07174
 30
0.0
 11
344.017073
 21
2152.316724
 31
0.0
  0
LINE
  5
355
100
AcDbEntity
  8
止水栓
  6
EXLTYPE2
 62
     6
100
AcDbLine
 10
337.356073
 20
2153.269599
 30
0.0
 11
335.857073
 21
2151.770599
 31
0.0
  0
LINE
  5
356
100
AcDbEntity
  8
止水栓
  6
EXLTYPE2
 62
     6
100
AcDbLine
 10
344.017073
 20
2153.301224
 30
0.0
 11
338.337073
 21
2153.301224
 31
0.0
  0
LINE
  5
357
100
AcDbEntity
  8
止水栓
  6
EXLTYPE2
 62
     6
100
AcDbLine
 10
338.337073
 20
2153.301224
 30
0.0
 11
337.357073
 21
2153.270599
 31
0.0
  0
LINE
  5
358
100
AcDbEntity
  8
止水栓
  6
EXLTYPE2
 62
     6
100
AcDbLine
 10
360.017073
 20
2156.501224
 30
0.0
 11
360.017073
 21
2129.501224
 31
0.0
  0
ARC
  5
359
100
AcDbEntity
  8
止水栓
  6
EXLTYPE2
 62
     6
100
AcDbCircle
 10
346.017073
 20
2156.501224
 30
0.0
 40
14.0
100
AcDbArc
 50
0.0
 51
90.0
  0
LINE
  5
35A
100
AcDbEntity
  8
止水栓
  6
EXLTYPE2
 62
     6
100
AcDbLine
 10
344.017073
 20
2170.501224
 30
0.0
 11
346.017073
 21
2170.501224
 31
0.0
  0
ARC
  5
35B
100
AcDbEntity
  8
止水栓
  6
EXLTYPE2
 62
     6
100
AcDbCircle
 10
346.017073
 20
2129.501224
 30
0.0
 40
14.0
100
AcDbArc
 50
270.0
 51
0.0
  0
LINE
  5
35C
100
AcDbEntity
  8
止水栓
  6
EXLTYPE2
 62
     6
100
AcDbLine
 10
344.017073
 20
2115.501224
 30
0.0
 11
346.017073
 21
2115.501224
 31
0.0
  0
LINE
  5
35D
100
AcDbEntity
  8
止水栓
  6
EXLTYPE2
 62
     6
100
AcDbLine
 10
368.484396
 20
2133.534474
 30
0.0
 11
367.041164
 21
2132.701224
 31
0.0
  0
LINE
  5
35E
100
AcDbEntity
  8
止水栓
  6
EXLTYPE2
 62
     6
100
AcDbLine
 10
368.484396
 20
2132.701224
 30
0.0
 11
368.484396
 21
2153.301224
 31
0.0
  0
LINE
  5
35F
100
AcDbEntity
  8
止水栓
  6
EXLTYPE2
 62
     6
100
AcDbLine
 10
368.484396
 20
2152.467974
 30
0.0
 11
367.041164
 21
2153.301224
 31
0.0
  0
LINE
  5
360
100
AcDbEntity
  8
止水栓
  6
EXLTYPE2
 62
     6
100
AcDbLine
 10
337.357073
 20
2132.731849
 30
0.0
 11
337.357073
 21
2143.000004
 31
0.0
  0
LINE
  5
361
100
AcDbEntity
  8
止水栓
  6
EXLTYPE2
 62
     6
100
AcDbLine
 10
419.378325
 20
2142.10124
 30
0.0
 11
419.378325
 21
2134.00124
 31
0.0
  0
LINE
  5
362
100
AcDbEntity
  8
止水栓
  6
EXLTYPE2
 62
     6
100
AcDbLine
 10
419.378325
 20
2143.90124
 30
0.0
 11
419.378325
 21
2152.00124
 31
0.0
  0
LINE
  5
363
100
AcDbEntity
  8
止水栓
  6
EXLTYPE2
 62
     6
100
AcDbLine
 10
419.378325
 20
2143.90124
 30
0.0
 11
418.678325
 21
2143.90124
 31
0.0
  0
LINE
  5
364
100
AcDbEntity
  8
止水栓
  6
EXLTYPE2
 62
     6
100
AcDbLine
 10
419.378325
 20
2142.10124
 30
0.0
 11
418.678325
 21
2142.10124
 31
0.0
  0
LINE
  5
365
100
AcDbEntity
  8
止水栓
  6
EXLTYPE2
 62
     6
100
AcDbLine
 10
419.378325
 20
2152.00124
 30
0.0
 11
418.678325
 21
2152.00124
 31
0.0
  0
LINE
  5
366
100
AcDbEntity
  8
止水栓
  6
EXLTYPE2
 62
     6
100
AcDbLine
 10
419.378325
 20
2134.00124
 30
0.0
 11
418.678325
 21
2134.00124
 31
0.0
  0
LINE
  5
367
100
AcDbEntity
  8
止水栓
  6
EXLTYPE2
 62
     6
100
AcDbLine
 10
418.678325
 20
2155.00124
 30
0.0
 11
418.678325
 21
2131.00124
 31
0.0
  0
LINE
  5
368
100
AcDbEntity
  8
止水栓
  6
EXLTYPE2
 62
     6
100
AcDbLine
 10
418.678325
 20
2155.00124
 30
0.0
 11
382.204089
 21
2155.00124
 31
0.0
  0
LINE
  5
369
100
AcDbEntity
  8
止水栓
  6
EXLTYPE2
 62
     6
100
AcDbLine
 10
418.678325
 20
2131.00124
 30
0.0
 11
381.167094
 21
2131.00124
 31
0.0
  0
LINE
  5
36A
100
AcDbEntity
  8
止水栓
  6
EXLTYPE2
 62
     6
100
AcDbLine
 10
369.679089
 20
2130.00124
 30
0.0
 11
369.679089
 21
2156.00124
 31
0.0
  0
ARC
  5
36B
100
AcDbEntity
  8
止水栓
  6
EXLTYPE2
 62
     6
100
AcDbCircle
 10
353.603524
 20
2143.00124
 30
0.0
 40
25.78689
100
AcDbArc
 50
343.078523
 51
16.828962
  0
LINE
  5
36C
100
AcDbEntity
  8
止水栓
  6
EXLTYPE2
 62
     6
100
AcDbLine
 10
370.795544
 20
2150.466949
 30
0.0
 11
378.273959
 21
2150.466949
 31
0.0
  0
ARC
  5
36D
100
AcDbEntity
  8
止水栓
  6
EXLTYPE2
 62
     6
100
AcDbCircle
 10
395.465979
 20
2143.00124
 30
0.0
 40
25.78689
100
AcDbArc
 50
163.141624
 51
196.921477
  0
ARC
  5
36E
100
AcDbEntity
  8
止水栓
  6
EXLTYPE2
 62
     6
100
AcDbCircle
 10
376.544327
 20
2154.2197
 30
0.0
 40
6.865249
100
AcDbArc
 50
156.844796
 51
213.136123
  0
ARC
  5
36F
100
AcDbEntity
  8
止水栓
  6
EXLTYPE2
 62
     6
100
AcDbCircle
 10
372.525176
 20
2154.2197
 30
0.0
 40
6.865249
100
AcDbArc
 50
326.863877
 51
33.136123
  0
ARC
  5
370
100
AcDbEntity
  8
止水栓
  6
EXLTYPE2
 62
     6
100
AcDbCircle
 10
372.525176
 20
2131.742935
 30
0.0
 40
6.865249
100
AcDbArc
 50
326.863877
 51
33.136123
  0
LINE
  5
371
100
AcDbEntity
  8
止水栓
  6
EXLTYPE2
 62
     6
100
AcDbLine
 10
370.795544
 20
2135.495686
 30
0.0
 11
378.273959
 21
2135.495686
 31
0.0
  0
ARC
  5
372
100
AcDbEntity
  8
止水栓
  6
EXLTYPE2
 62
     6
100
AcDbCircle
 10
376.544327
 20
2131.742935
 30
0.0
 40
6.865249
100
AcDbArc
 50
146.863877
 51
203.155204
  0
LINE
  5
373
100
AcDbEntity
  8
止水栓
  6
EXLTYPE2
 62
     6
100
AcDbLine
 10
370.795544
 20
2128.067483
 30
0.0
 11
369.679089
 21
2130.00124
 31
0.0
  0
LINE
  5
374
100
AcDbEntity
  8
止水栓
  6
EXLTYPE2
 62
     6
100
AcDbLine
 10
370.840173
 20
2158.012296
 30
0.0
 11
369.679089
 21
2156.00124
 31
0.0
  0
LINE
  5
375
100
AcDbEntity
  8
止水栓
  6
EXLTYPE2
 62
     6
100
AcDbLine
 10
378.273959
 20
2127.990183
 30
0.0
 11
379.435043
 21
2130.00124
 31
0.0
  0
LINE
  5
376
100
AcDbEntity
  8
止水栓
  6
EXLTYPE2
 62
     6
100
AcDbLine
 10
370.795544
 20
2127.990183
 30
0.0
 11
378.273959
 21
2127.990183
 31
0.0
  0
ARC
  5
377
100
AcDbEntity
  8
止水栓
  6
EXLTYPE2
 62
     6
100
AcDbCircle
 10
381.167094
 20
2129.00124
 30
0.0
 40
2.0
100
AcDbArc
 50
90.0
 51
150.0
  0
ARC
  5
378
100
AcDbEntity
  8
止水栓
  6
EXLTYPE2
 62
     6
100
AcDbCircle
 10
381.167094
 20
2157.00124
 30
0.0
 40
2.0
100
AcDbArc
 50
210.0
 51
270.0
  0
LINE
  5
379
100
AcDbEntity
  8
止水栓
  6
EXLTYPE2
 62
     6
100
AcDbLine
 10
382.204089
 20
2155.00124
 30
0.0
 11
381.167094
 21
2155.00124
 31
0.0
  0
LINE
  5
37A
100
AcDbEntity
  8
止水栓
  6
EXLTYPE2
 62
     6
100
AcDbLine
 10
378.273959
 20
2158.012296
 30
0.0
 11
379.435043
 21
2156.00124
 31
0.0
  0
LINE
  5
37B
100
AcDbEntity
  8
止水栓
  6
EXLTYPE2
 62
     6
100
AcDbLine
 10
370.840173
 20
2158.012296
 30
0.0
 11
378.273959
 21
2158.012296
 31
0.0
  0
LINE
  5
37C
100
AcDbEntity
  8
止水栓
  6
EXLTYPE2
 62
     6
100
AcDbLine
 10
369.679089
 20
2153.301224
 30
0.0
 11
360.017073
 21
2153.301224
 31
0.0
  0
LINE
  5
37D
100
AcDbEntity
  8
止水栓
  6
EXLTYPE2
 62
     6
100
AcDbLine
 10
369.679089
 20
2132.701224
 30
0.0
 11
360.017073
 21
2132.701224
 31
0.0
  0
LINE
  5
37E
100
AcDbEntity
  8
止水栓
  6
EXLTYPE2
 62
     6
100
AcDbLine
 10
369.679089
 20
2152.43064
 30
0.0
 11
368.484396
 21
2152.467974
 31
0.0
  0
LINE
  5
37F
100
AcDbEntity
  8
止水栓
  6
EXLTYPE2
 62
     6
100
AcDbLine
 10
369.679089
 20
2133.571808
 30
0.0
 11
368.484396
 21
2133.534474
 31
0.0
  0
ARC
  5
380
100
AcDbEntity
  8
止水栓
  6
CONTINUOUS
 62
     6
100
AcDbCircle
 10
444.017073
 20
2143.000004
 30
0.0
 40
27.5
100
AcDbArc
 50
202.867054
 51
64.996095
  0
ARC
  5
381
100
AcDbEntity
  8
止水栓
  6
CONTINUOUS
 62
     6
100
AcDbCircle
 10
444.017073
 20
2143.000004
 30
0.0
 40
27.5
100
AcDbArc
 50
114.999267
 51
157.132946
  0
LINE
  5
382
100
AcDbEntity
  8
止水栓
  6
CONTINUOUS
 62
     6
100
AcDbLine
 10
453.236523
 20
2142.001469
 30
0.0
 11
434.797623
 21
2142.001469
 31
0.0
  0
LINE
  5
383
100
AcDbEntity
  8
止水栓
  6
CONTINUOUS
 62
     6
100
AcDbLine
 10
434.797888
 20
2144.00098
 30
0.0
 11
453.236258
 21
2144.00098
 31
0.0
  0
ARC
  5
384
100
AcDbEntity
  8
止水栓
  6
CONTINUOUS
 62
     6
100
AcDbCircle
 10
499.994573
 20
2156.144185
 30
0.0
 40
45.5
100
AcDbArc
 50
180.0
 51
193.214335
  0
ARC
  5
385
100
AcDbEntity
  8
止水栓
  6
CONTINUOUS
 62
     6
100
AcDbCircle
 10
388.039573
 20
2156.144185
 30
0.0
 40
45.5
100
AcDbArc
 50
346.785665
 51
0.0
  0
CIRCLE
  5
386
100
AcDbEntity
  8
止水栓
  6
CONTINUOUS
 62
     6
100
AcDbCircle
 10
444.017073
 20
2143.000004
 30
0.0
 40
9.273367
  0
CIRCLE
  5
387
100
AcDbEntity
  8
止水栓
  6
CONTINUOUS
 62
     6
100
AcDbCircle
 10
444.017073
 20
2143.000004
 30
0.0
 40
9.959438
  0
LINE
  5
388
100
AcDbEntity
  8
止水栓
  6
CONTINUOUS
 62
     6
100
AcDbLine
 10
454.494573
 20
2163.000004
 30
0.0
 11
433.539573
 21
2163.000004
 31
0.0
  0
LINE
  5
389
100
AcDbEntity
  8
止水栓
  6
CONTINUOUS
 62
     6
100
AcDbLine
 10
453.332573
 20
2163.000004
 30
0.0
 11
454.546271
 21
2160.897787
 31
0.0
  0
LINE
  5
38A
100
AcDbEntity
  8
止水栓
  6
CONTINUOUS
 62
     6
100
AcDbLine
 10
434.701573
 20
2163.000004
 30
0.0
 11
433.487875
 21
2160.897787
 31
0.0
  0
LINE
  5
38B
100
AcDbEntity
  8
止水栓
  6
CONTINUOUS
 62
     6
100
AcDbLine
 10
433.539573
 20
2156.144185
 30
0.0
 11
433.539573
 21
2166.774565
 31
0.0
  0
LINE
  5
38C
100
AcDbEntity
  8
止水栓
  6
CONTINUOUS
 62
     6
100
AcDbLine
 10
434.701573
 20
2166.774565
 30
0.0
 11
434.701573
 21
2163.000004
 31
0.0
  0
LINE
  5
38D
100
AcDbEntity
  8
止水栓
  6
CONTINUOUS
 62
     6
100
AcDbLine
 10
453.332573
 20
2166.774565
 30
0.0
 11
453.332573
 21
2163.000004
 31
0.0
  0
LINE
  5
38E
100
AcDbEntity
  8
止水栓
  6
CONTINUOUS
 62
     6
100
AcDbLine
 10
454.494573
 20
2156.144185
 30
0.0
 11
454.494573
 21
2166.774565
 31
0.0
  0
ARC
  5
38F
100
AcDbEntity
  8
止水栓
  6
CONTINUOUS
 62
     6
100
AcDbCircle
 10
445.769545
 20
2172.7731
 30
0.0
 40
10.998535
100
AcDbArc
 50
326.94841
 51
33.059082
  0
ARC
  5
390
100
AcDbEntity
  8
止水栓
  6
CONTINUOUS
 62
     6
100
AcDbCircle
 10
442.268568
 20
2172.7731
 30
0.0
 40
10.99987
100
AcDbArc
 50
146.937744
 51
213.054688
  0
LINE
  5
391
100
AcDbEntity
  8
止水栓
  6
CONTINUOUS
 62
     6
100
AcDbLine
 10
454.988295
 20
2166.774565
 30
0.0
 11
433.048293
 21
2166.774565
 31
0.0
  0
POLYLINE
  5
392
100
AcDbEntity
  8
止水栓
  6
CONTINUOUS
 62
     6
100
AcDb2dPolyline
 66
     1
 10
0.0
 20
0.0
 30
0.0
 70
   128
  0
VERTEX
  5
393
100
AcDbEntity
  8
止水栓
  6
CONTINUOUS
 62
     6
100
AcDbVertex
100
AcDb2dVertex
 10
435.000502
 20
2168.835112
 30
0.0
  0
VERTEX
  5
394
100
AcDbEntity
  8
止水栓
  6
CONTINUOUS
 62
     6
100
AcDbVertex
100
AcDb2dVertex
 10
435.190932
 20
2169.020659
 30
0.0
  0
VERTEX
  5
395
100
AcDbEntity
  8
止水栓
  6
CONTINUOUS
 62
     6
100
AcDbVertex
100
AcDb2dVertex
 10
435.371596
 20
2169.237944
 30
0.0
  0
VERTEX
  5
396
100
AcDbEntity
  8
止水栓
  6
CONTINUOUS
 62
     6
100
AcDbVertex
100
AcDb2dVertex
 10
435.540053
 20
2169.484526
 30
0.0
  0
VERTEX
  5
397
100
AcDbEntity
  8
止水栓
  6
CONTINUOUS
 62
     6
100
AcDbVertex
100
AcDb2dVertex
 10
435.698744
 20
2169.757963
 30
0.0
  0
VERTEX
  5
398
100
AcDbEntity
  8
止水栓
  6
CONTINUOUS
 62
     6
100
AcDbVertex
100
AcDb2dVertex
 10
435.842787
 20
2170.055815
 30
0.0
  0
VERTEX
  5
399
100
AcDbEntity
  8
止水栓
  6
CONTINUOUS
 62
     6
100
AcDbVertex
100
AcDb2dVertex
 10
435.972182
 20
2170.375639
 30
0.0
  0
VERTEX
  5
39A
100
AcDbEntity
  8
止水栓
  6
CONTINUOUS
 62
     6
100
AcDbVertex
100
AcDb2dVertex
 10
436.086928
 20
2170.714995
 30
0.0
  0
VERTEX
  5
39B
100
AcDbEntity
  8
止水栓
  6
CONTINUOUS
 62
     6
100
AcDbVertex
100
AcDb2dVertex
 10
436.187025
 20
2171.073881
 30
0.0
  0
VERTEX
  5
39C
100
AcDbEntity
  8
止水栓
  6
CONTINUOUS
 62
     6
100
AcDbVertex
100
AcDb2dVertex
 10
436.267592
 20
2171.447416
 30
0.0
  0
VERTEX
  5
39D
100
AcDbEntity
  8
止水栓
  6
CONTINUOUS
 62
     6
100
AcDbVertex
100
AcDb2dVertex
 10
436.331068
 20
2171.833159
 30
0.0
  0
SEQEND
  5
39E
100
AcDbEntity
  8
止水栓
  6
CONTINUOUS
 62
     6
  0
POLYLINE
  5
39F
100
AcDbEntity
  8
止水栓
  6
CONTINUOUS
 62
     6
100
AcDb2dPolyline
 66
     1
 10
0.0
 20
0.0
 30
0.0
 70
   128
  0
VERTEX
  5
3A0
100
AcDbEntity
  8
止水栓
  6
CONTINUOUS
 62
     6
100
AcDbVertex
100
AcDb2dVertex
 10
436.331068
 20
2171.833159
 30
0.0
  0
VERTEX
  5
3A1
100
AcDbEntity
  8
止水栓
  6
CONTINUOUS
 62
     6
100
AcDbVertex
100
AcDb2dVertex
 10
436.377455
 20
2172.226225
 30
0.0
  0
VERTEX
  5
3A2
100
AcDbEntity
  8
止水栓
  6
CONTINUOUS
 62
     6
100
AcDbVertex
100
AcDb2dVertex
 10
436.406752
 20
2172.626616
 30
0.0
  0
VERTEX
  5
3A3
100
AcDbEntity
  8
止水栓
  6
CONTINUOUS
 62
     6
100
AcDbVertex
100
AcDb2dVertex
 10
436.416518
 20
2173.029448
 30
0.0
  0
SEQEND
  5
3A4
100
AcDbEntity
  8
止水栓
  6
CONTINUOUS
 62
     6
  0
POLYLINE
  5
3A5
100
AcDbEntity
  8
止水栓
  6
CONTINUOUS
 62
     6
100
AcDb2dPolyline
 66
     1
 10
0.0
 20
0.0
 30
0.0
 70
   128
  0
VERTEX
  5
3A6
100
AcDbEntity
  8
止水栓
  6
CONTINUOUS
 62
     6
100
AcDbVertex
100
AcDb2dVertex
 10
436.416518
 20
2173.031889
 30
0.0
  0
VERTEX
  5
3A7
100
AcDbEntity
  8
止水栓
  6
CONTINUOUS
 62
     6
100
AcDbVertex
100
AcDb2dVertex
 10
436.406752
 20
2173.434721
 30
0.0
  0
VERTEX
  5
3A8
100
AcDbEntity
  8
止水栓
  6
CONTINUOUS
 62
     6
100
AcDbVertex
100
AcDb2dVertex
 10
436.377455
 20
2173.835112
 30
0.0
  0
VERTEX
  5
3A9
100
AcDbEntity
  8
止水栓
  6
CONTINUOUS
 62
     6
100
AcDbVertex
100
AcDb2dVertex
 10
436.331068
 20
2174.23062
 30
0.0
  0
VERTEX
  5
3AA
100
AcDbEntity
  8
止水栓
  6
CONTINUOUS
 62
     6
100
AcDbVertex
100
AcDb2dVertex
 10
436.267592
 20
2174.61392
 30
0.0
  0
VERTEX
  5
3AB
100
AcDbEntity
  8
止水栓
  6
CONTINUOUS
 62
     6
100
AcDbVertex
100
AcDb2dVertex
 10
436.187025
 20
2174.987456
 30
0.0
  0
VERTEX
  5
3AC
100
AcDbEntity
  8
止水栓
  6
CONTINUOUS
 62
     6
100
AcDbVertex
100
AcDb2dVertex
 10
436.086928
 20
2175.346342
 30
0.0
  0
VERTEX
  5
3AD
100
AcDbEntity
  8
止水栓
  6
CONTINUOUS
 62
     6
100
AcDbVertex
100
AcDb2dVertex
 10
435.972182
 20
2175.685698
 30
0.0
  0
VERTEX
  5
3AE
100
AcDbEntity
  8
止水栓
  6
CONTINUOUS
 62
     6
100
AcDbVertex
100
AcDb2dVertex
 10
435.842787
 20
2176.007963
 30
0.0
  0
VERTEX
  5
3AF
100
AcDbEntity
  8
止水栓
  6
CONTINUOUS
 62
     6
100
AcDbVertex
100
AcDb2dVertex
 10
435.698744
 20
2176.305815
 30
0.0
  0
VERTEX
  5
3B0
100
AcDbEntity
  8
止水栓
  6
CONTINUOUS
 62
     6
100
AcDbVertex
100
AcDb2dVertex
 10
435.540053
 20
2176.576811
 30
0.0
  0
VERTEX
  5
3B1
100
AcDbEntity
  8
止水栓
  6
CONTINUOUS
 62
     6
100
AcDbVertex
100
AcDb2dVertex
 10
435.371596
 20
2176.823393
 30
0.0
  0
VERTEX
  5
3B2
100
AcDbEntity
  8
止水栓
  6
CONTINUOUS
 62
     6
100
AcDbVertex
100
AcDb2dVertex
 10
435.190932
 20
2177.040678
 30
0.0
  0
VERTEX
  5
3B3
100
AcDbEntity
  8
止水栓
  6
CONTINUOUS
 62
     6
100
AcDbVertex
100
AcDb2dVertex
 10
435.000502
 20
2177.228666
 30
0.0
  0
VERTEX
  5
3B4
100
AcDbEntity
  8
止水栓
  6
CONTINUOUS
 62
     6
100
AcDbVertex
100
AcDb2dVertex
 10
434.802748
 20
2177.382475
 30
0.0
  0
VERTEX
  5
3B5
100
AcDbEntity
  8
止水栓
  6
CONTINUOUS
 62
     6
100
AcDbVertex
100
AcDb2dVertex
 10
434.600111
 20
2177.502104
 30
0.0
  0
VERTEX
  5
3B6
100
AcDbEntity
  8
止水栓
  6
CONTINUOUS
 62
     6
100
AcDbVertex
100
AcDb2dVertex
 10
434.39015
 20
2177.589995
 30
0.0
  0
VERTEX
  5
3B7
100
AcDbEntity
  8
止水栓
  6
CONTINUOUS
 62
     6
100
AcDbVertex
100
AcDb2dVertex
 10
434.18019
 20
2177.643706
 30
0.0
  0
VERTEX
  5
3B8
100
AcDbEntity
  8
止水栓
  6
CONTINUOUS
 62
     6
100
AcDbVertex
100
AcDb2dVertex
 10
433.965346
 20
2177.660795
 30
0.0
  0
VERTEX
  5
3B9
100
AcDbEntity
  8
止水栓
  6
CONTINUOUS
 62
     6
100
AcDbVertex
100
AcDb2dVertex
 10
433.752943
 20
2177.643706
 30
0.0
  0
VERTEX
  5
3BA
100
AcDbEntity
  8
止水栓
  6
CONTINUOUS
 62
     6
100
AcDbVertex
100
AcDb2dVertex
 10
433.540541
 20
2177.589995
 30
0.0
  0
VERTEX
  5
3BB
100
AcDbEntity
  8
止水栓
  6
CONTINUOUS
 62
     6
100
AcDbVertex
100
AcDb2dVertex
 10
433.33058
 20
2177.502104
 30
0.0
  0
VERTEX
  5
3BC
100
AcDbEntity
  8
止水栓
  6
CONTINUOUS
 62
     6
100
AcDbVertex
100
AcDb2dVertex
 10
433.127943
 20
2177.382475
 30
0.0
  0
VERTEX
  5
3BD
100
AcDbEntity
  8
止水栓
  6
CONTINUOUS
 62
     6
100
AcDbVertex
100
AcDb2dVertex
 10
432.93019
 20
2177.226225
 30
0.0
  0
VERTEX
  5
3BE
100
AcDbEntity
  8
止水栓
  6
CONTINUOUS
 62
     6
100
AcDbVertex
100
AcDb2dVertex
 10
432.742201
 20
2177.040678
 30
0.0
  0
VERTEX
  5
3BF
100
AcDbEntity
  8
止水栓
  6
CONTINUOUS
 62
     6
100
AcDbVertex
100
AcDb2dVertex
 10
432.561537
 20
2176.823393
 30
0.0
  0
VERTEX
  5
3C0
100
AcDbEntity
  8
止水栓
  6
CONTINUOUS
 62
     6
100
AcDbVertex
100
AcDb2dVertex
 10
432.390639
 20
2176.579252
 30
0.0
  0
VERTEX
  5
3C1
100
AcDbEntity
  8
止水栓
  6
CONTINUOUS
 62
     6
100
AcDbVertex
100
AcDb2dVertex
 10
432.234389
 20
2176.305815
 30
0.0
  0
VERTEX
  5
3C2
100
AcDbEntity
  8
止水栓
  6
CONTINUOUS
 62
     6
100
AcDbVertex
100
AcDb2dVertex
 10
432.090346
 20
2176.007963
 30
0.0
  0
VERTEX
  5
3C3
100
AcDbEntity
  8
止水栓
  6
CONTINUOUS
 62
     6
100
AcDbVertex
100
AcDb2dVertex
 10
431.95851
 20
2175.685698
 30
0.0
  0
VERTEX
  5
3C4
100
AcDbEntity
  8
止水栓
  6
CONTINUOUS
 62
     6
100
AcDbVertex
100
AcDb2dVertex
 10
431.843764
 20
2175.346342
 30
0.0
  0
VERTEX
  5
3C5
100
AcDbEntity
  8
止水栓
  6
CONTINUOUS
 62
     6
100
AcDbVertex
100
AcDb2dVertex
 10
431.746107
 20
2174.987456
 30
0.0
  0
VERTEX
  5
3C6
100
AcDbEntity
  8
止水栓
  6
CONTINUOUS
 62
     6
100
AcDbVertex
100
AcDb2dVertex
 10
431.665541
 20
2174.616362
 30
0.0
  0
VERTEX
  5
3C7
100
AcDbEntity
  8
止水栓
  6
CONTINUOUS
 62
     6
100
AcDbVertex
100
AcDb2dVertex
 10
431.599623
 20
2174.23062
 30
0.0
  0
VERTEX
  5
3C8
100
AcDbEntity
  8
止水栓
  6
CONTINUOUS
 62
     6
100
AcDbVertex
100
AcDb2dVertex
 10
431.553236
 20
2173.835112
 30
0.0
  0
VERTEX
  5
3C9
100
AcDbEntity
  8
止水栓
  6
CONTINUOUS
 62
     6
100
AcDbVertex
100
AcDb2dVertex
 10
431.526381
 20
2173.434721
 30
0.0
  0
VERTEX
  5
3CA
100
AcDbEntity
  8
止水栓
  6
CONTINUOUS
 62
     6
100
AcDbVertex
100
AcDb2dVertex
 10
431.516615
 20
2173.031889
 30
0.0
  0
VERTEX
  5
3CB
100
AcDbEntity
  8
止水栓
  6
CONTINUOUS
 62
     6
100
AcDbVertex
100
AcDb2dVertex
 10
431.526381
 20
2172.629057
 30
0.0
  0
VERTEX
  5
3CC
100
AcDbEntity
  8
止水栓
  6
CONTINUOUS
 62
     6
100
AcDbVertex
100
AcDb2dVertex
 10
431.553236
 20
2172.228666
 30
0.0
  0
VERTEX
  5
3CD
100
AcDbEntity
  8
止水栓
  6
CONTINUOUS
 62
     6
100
AcDbVertex
100
AcDb2dVertex
 10
431.599623
 20
2171.833159
 30
0.0
  0
VERTEX
  5
3CE
100
AcDbEntity
  8
止水栓
  6
CONTINUOUS
 62
     6
100
AcDbVertex
100
AcDb2dVertex
 10
431.6631
 20
2171.447416
 30
0.0
  0
VERTEX
  5
3CF
100
AcDbEntity
  8
止水栓
  6
CONTINUOUS
 62
     6
100
AcDbVertex
100
AcDb2dVertex
 10
431.746107
 20
2171.073881
 30
0.0
  0
VERTEX
  5
3D0
100
AcDbEntity
  8
止水栓
  6
CONTINUOUS
 62
     6
100
AcDbVertex
100
AcDb2dVertex
 10
431.843764
 20
2170.714995
 30
0.0
  0
VERTEX
  5
3D1
100
AcDbEntity
  8
止水栓
  6
CONTINUOUS
 62
     6
100
AcDbVertex
100
AcDb2dVertex
 10
431.95851
 20
2170.375639
 30
0.0
  0
VERTEX
  5
3D2
100
AcDbEntity
  8
止水栓
  6
CONTINUOUS
 62
     6
100
AcDbVertex
100
AcDb2dVertex
 10
432.090346
 20
2170.053373
 30
0.0
  0
VERTEX
  5
3D3
100
AcDbEntity
  8
止水栓
  6
CONTINUOUS
 62
     6
100
AcDbVertex
100
AcDb2dVertex
 10
432.234389
 20
2169.757963
 30
0.0
  0
VERTEX
  5
3D4
100
AcDbEntity
  8
止水栓
  6
CONTINUOUS
 62
     6
100
AcDbVertex
100
AcDb2dVertex
 10
432.390639
 20
2169.484526
 30
0.0
  0
VERTEX
  5
3D5
100
AcDbEntity
  8
止水栓
  6
CONTINUOUS
 62
     6
100
AcDbVertex
100
AcDb2dVertex
 10
432.561537
 20
2169.237944
 30
0.0
  0
VERTEX
  5
3D6
100
AcDbEntity
  8
止水栓
  6
CONTINUOUS
 62
     6
100
AcDbVertex
100
AcDb2dVertex
 10
432.73976
 20
2169.020659
 30
0.0
  0
VERTEX
  5
3D7
100
AcDbEntity
  8
止水栓
  6
CONTINUOUS
 62
     6
100
AcDbVertex
100
AcDb2dVertex
 10
432.93019
 20
2168.835112
 30
0.0
  0
VERTEX
  5
3D8
100
AcDbEntity
  8
止水栓
  6
CONTINUOUS
 62
     6
100
AcDbVertex
100
AcDb2dVertex
 10
433.127943
 20
2168.681303
 30
0.0
  0
VERTEX
  5
3D9
100
AcDbEntity
  8
止水栓
  6
CONTINUOUS
 62
     6
100
AcDbVertex
100
AcDb2dVertex
 10
433.33058
 20
2168.559233
 30
0.0
  0
VERTEX
  5
3DA
100
AcDbEntity
  8
止水栓
  6
CONTINUOUS
 62
     6
100
AcDbVertex
100
AcDb2dVertex
 10
433.540541
 20
2168.471342
 30
0.0
  0
VERTEX
  5
3DB
100
AcDbEntity
  8
止水栓
  6
CONTINUOUS
 62
     6
100
AcDbVertex
100
AcDb2dVertex
 10
433.752943
 20
2168.417631
 30
0.0
  0
VERTEX
  5
3DC
100
AcDbEntity
  8
止水栓
  6
CONTINUOUS
 62
     6
100
AcDbVertex
100
AcDb2dVertex
 10
433.965346
 20
2168.400541
 30
0.0
  0
VERTEX
  5
3DD
100
AcDbEntity
  8
止水栓
  6
CONTINUOUS
 62
     6
100
AcDbVertex
100
AcDb2dVertex
 10
434.18019
 20
2168.420073
 30
0.0
  0
VERTEX
  5
3DE
100
AcDbEntity
  8
止水栓
  6
CONTINUOUS
 62
     6
100
AcDbVertex
100
AcDb2dVertex
 10
434.39015
 20
2168.471342
 30
0.0
  0
VERTEX
  5
3DF
100
AcDbEntity
  8
止水栓
  6
CONTINUOUS
 62
     6
100
AcDbVertex
100
AcDb2dVertex
 10
434.600111
 20
2168.559233
 30
0.0
  0
VERTEX
  5
3E0
100
AcDbEntity
  8
止水栓
  6
CONTINUOUS
 62
     6
100
AcDbVertex
100
AcDb2dVertex
 10
434.802748
 20
2168.681303
 30
0.0
  0
VERTEX
  5
3E1
100
AcDbEntity
  8
止水栓
  6
CONTINUOUS
 62
     6
100
AcDbVertex
100
AcDb2dVertex
 10
435.000502
 20
2168.835112
 30
0.0
  0
SEQEND
  5
3E2
100
AcDbEntity
  8
止水栓
  6
CONTINUOUS
 62
     6
  0
LINE
  5
3E3
100
AcDbEntity
  8
止水栓
  6
CONTINUOUS
 62
     6
100
AcDbLine
 10
433.519057
 20
2178.774077
 30
0.0
 11
433.519057
 21
2183.774077
 31
0.0
  0
POLYLINE
  5
3E4
100
AcDbEntity
  8
止水栓
  6
CONTINUOUS
 62
     6
100
AcDb2dPolyline
 66
     1
 10
0.0
 20
0.0
 30
0.0
 70
   128
  0
VERTEX
  5
3E5
100
AcDbEntity
  8
止水栓
  6
CONTINUOUS
 62
     6
100
AcDbVertex
100
AcDb2dVertex
 10
456.514174
 20
2173.024565
 30
0.0
  0
VERTEX
  5
3E6
100
AcDbEntity
  8
止水栓
  6
CONTINUOUS
 62
     6
100
AcDbVertex
100
AcDb2dVertex
 10
456.504408
 20
2173.461577
 30
0.0
  0
VERTEX
  5
3E7
100
AcDbEntity
  8
止水栓
  6
CONTINUOUS
 62
     6
100
AcDbVertex
100
AcDb2dVertex
 10
456.477553
 20
2173.893706
 30
0.0
  0
VERTEX
  5
3E8
100
AcDbEntity
  8
止水栓
  6
CONTINUOUS
 62
     6
100
AcDbVertex
100
AcDb2dVertex
 10
456.431166
 20
2174.31851
 30
0.0
  0
VERTEX
  5
3E9
100
AcDbEntity
  8
止水栓
  6
CONTINUOUS
 62
     6
100
AcDbVertex
100
AcDb2dVertex
 10
456.365248
 20
2174.733549
 30
0.0
  0
VERTEX
  5
3EA
100
AcDbEntity
  8
止水栓
  6
CONTINUOUS
 62
     6
100
AcDbVertex
100
AcDb2dVertex
 10
456.284682
 20
2175.13394
 30
0.0
  0
VERTEX
  5
3EB
100
AcDbEntity
  8
止水栓
  6
CONTINUOUS
 62
     6
100
AcDbVertex
100
AcDb2dVertex
 10
456.187025
 20
2175.519682
 30
0.0
  0
VERTEX
  5
3EC
100
AcDbEntity
  8
止水栓
  6
CONTINUOUS
 62
     6
100
AcDbVertex
100
AcDb2dVertex
 10
456.069838
 20
2175.888334
 30
0.0
  0
VERTEX
  5
3ED
100
AcDbEntity
  8
止水栓
  6
CONTINUOUS
 62
     6
100
AcDbVertex
100
AcDb2dVertex
 10
455.940443
 20
2176.232573
 30
0.0
  0
VERTEX
  5
3EE
100
AcDbEntity
  8
止水栓
  6
CONTINUOUS
 62
     6
100
AcDbVertex
100
AcDb2dVertex
 10
455.7964
 20
2176.554838
 30
0.0
  0
VERTEX
  5
3EF
100
AcDbEntity
  8
止水栓
  6
CONTINUOUS
 62
     6
100
AcDbVertex
100
AcDb2dVertex
 10
455.637709
 20
2176.847807
 30
0.0
  0
VERTEX
  5
3F0
100
AcDbEntity
  8
止水栓
  6
CONTINUOUS
 62
     6
100
AcDbVertex
100
AcDb2dVertex
 10
455.469252
 20
2177.11392
 30
0.0
  0
VERTEX
  5
3F1
100
AcDbEntity
  8
止水栓
  6
CONTINUOUS
 62
     6
100
AcDbVertex
100
AcDb2dVertex
 10
455.288588
 20
2177.345854
 30
0.0
  0
VERTEX
  5
3F2
100
AcDbEntity
  8
止水栓
  6
CONTINUOUS
 62
     6
100
AcDbVertex
100
AcDb2dVertex
 10
455.1006
 20
2177.548491
 30
0.0
  0
VERTEX
  5
3F3
100
AcDbEntity
  8
止水栓
  6
CONTINUOUS
 62
     6
100
AcDbVertex
100
AcDb2dVertex
 10
454.902846
 20
2177.714506
 30
0.0
  0
VERTEX
  5
3F4
100
AcDbEntity
  8
止水栓
  6
CONTINUOUS
 62
     6
100
AcDbVertex
100
AcDb2dVertex
 10
454.697768
 20
2177.846342
 30
0.0
  0
VERTEX
  5
3F5
100
AcDbEntity
  8
止水栓
  6
CONTINUOUS
 62
     6
100
AcDbVertex
100
AcDb2dVertex
 10
454.490248
 20
2177.939116
 30
0.0
  0
VERTEX
  5
3F6
100
AcDbEntity
  8
止水栓
  6
CONTINUOUS
 62
     6
100
AcDbVertex
100
AcDb2dVertex
 10
454.277846
 20
2177.997709
 30
0.0
  0
VERTEX
  5
3F7
100
AcDbEntity
  8
止水栓
  6
CONTINUOUS
 62
     6
100
AcDbVertex
100
AcDb2dVertex
 10
454.065443
 20
2178.014799
 30
0.0
  0
VERTEX
  5
3F8
100
AcDbEntity
  8
止水栓
  6
CONTINUOUS
 62
     6
100
AcDbVertex
100
AcDb2dVertex
 10
453.8506
 20
2177.995268
 30
0.0
  0
VERTEX
  5
3F9
100
AcDbEntity
  8
止水栓
  6
CONTINUOUS
 62
     6
100
AcDbVertex
100
AcDb2dVertex
 10
453.638197
 20
2177.939116
 30
0.0
  0
VERTEX
  5
3FA
100
AcDbEntity
  8
止水栓
  6
CONTINUOUS
 62
     6
100
AcDbVertex
100
AcDb2dVertex
 10
453.430678
 20
2177.846342
 30
0.0
  0
VERTEX
  5
3FB
100
AcDbEntity
  8
止水栓
  6
CONTINUOUS
 62
     6
100
AcDbVertex
100
AcDb2dVertex
 10
453.2256
 20
2177.714506
 30
0.0
  0
VERTEX
  5
3FC
100
AcDbEntity
  8
止水栓
  6
CONTINUOUS
 62
     6
100
AcDbVertex
100
AcDb2dVertex
 10
453.027846
 20
2177.548491
 30
0.0
  0
VERTEX
  5
3FD
100
AcDbEntity
  8
止水栓
  6
CONTINUOUS
 62
     6
100
AcDbVertex
100
AcDb2dVertex
 10
452.839857
 20
2177.345854
 30
0.0
  0
VERTEX
  5
3FE
100
AcDbEntity
  8
止水栓
  6
CONTINUOUS
 62
     6
100
AcDbVertex
100
AcDb2dVertex
 10
452.659193
 20
2177.111479
 30
0.0
  0
VERTEX
  5
3FF
100
AcDbEntity
  8
止水栓
  6
CONTINUOUS
 62
     6
100
AcDbVertex
100
AcDb2dVertex
 10
452.490736
 20
2176.847807
 30
0.0
  0
VERTEX
  5
400
100
AcDbEntity
  8
止水栓
  6
CONTINUOUS
 62
     6
100
AcDbVertex
100
AcDb2dVertex
 10
452.332045
 20
2176.554838
 30
0.0
  0
VERTEX
  5
401
100
AcDbEntity
  8
止水栓
  6
CONTINUOUS
 62
     6
100
AcDbVertex
100
AcDb2dVertex
 10
452.188002
 20
2176.232573
 30
0.0
  0
VERTEX
  5
402
100
AcDbEntity
  8
止水栓
  6
CONTINUOUS
 62
     6
100
AcDbVertex
100
AcDb2dVertex
 10
452.058607
 20
2175.888334
 30
0.0
  0
VERTEX
  5
403
100
AcDbEntity
  8
止水栓
  6
CONTINUOUS
 62
     6
100
AcDbVertex
100
AcDb2dVertex
 10
451.943861
 20
2175.519682
 30
0.0
  0
VERTEX
  5
404
100
AcDbEntity
  8
止水栓
  6
CONTINUOUS
 62
     6
100
AcDbVertex
100
AcDb2dVertex
 10
451.843764
 20
2175.13394
 30
0.0
  0
VERTEX
  5
405
100
AcDbEntity
  8
止水栓
  6
CONTINUOUS
 62
     6
100
AcDbVertex
100
AcDb2dVertex
 10
451.763197
 20
2174.731108
 30
0.0
  0
VERTEX
  5
406
100
AcDbEntity
  8
止水栓
  6
CONTINUOUS
 62
     6
100
AcDbVertex
100
AcDb2dVertex
 10
451.697279
 20
2174.316069
 30
0.0
  0
VERTEX
  5
407
100
AcDbEntity
  8
止水栓
  6
CONTINUOUS
 62
     6
100
AcDbVertex
100
AcDb2dVertex
 10
451.650893
 20
2173.891264
 30
0.0
  0
VERTEX
  5
408
100
AcDbEntity
  8
止水栓
  6
CONTINUOUS
 62
     6
100
AcDbVertex
100
AcDb2dVertex
 10
451.624037
 20
2173.459135
 30
0.0
  0
VERTEX
  5
409
100
AcDbEntity
  8
止水栓
  6
CONTINUOUS
 62
     6
100
AcDbVertex
100
AcDb2dVertex
 10
451.614272
 20
2173.024565
 30
0.0
  0
VERTEX
  5
40A
100
AcDbEntity
  8
止水栓
  6
CONTINUOUS
 62
     6
100
AcDbVertex
100
AcDb2dVertex
 10
451.624037
 20
2172.589995
 30
0.0
  0
VERTEX
  5
40B
100
AcDbEntity
  8
止水栓
  6
CONTINUOUS
 62
     6
100
AcDbVertex
100
AcDb2dVertex
 10
451.653334
 20
2172.157866
 30
0.0
  0
VERTEX
  5
40C
100
AcDbEntity
  8
止水栓
  6
CONTINUOUS
 62
     6
100
AcDbVertex
100
AcDb2dVertex
 10
451.699721
 20
2171.733061
 30
0.0
  0
VERTEX
  5
40D
100
AcDbEntity
  8
止水栓
  6
CONTINUOUS
 62
     6
100
AcDbVertex
100
AcDb2dVertex
 10
451.763197
 20
2171.318022
 30
0.0
  0
VERTEX
  5
40E
100
AcDbEntity
  8
止水栓
  6
CONTINUOUS
 62
     6
100
AcDbVertex
100
AcDb2dVertex
 10
451.843764
 20
2170.91519
 30
0.0
  0
VERTEX
  5
40F
100
AcDbEntity
  8
止水栓
  6
CONTINUOUS
 62
     6
100
AcDbVertex
100
AcDb2dVertex
 10
451.943861
 20
2170.529448
 30
0.0
  0
VERTEX
  5
410
100
AcDbEntity
  8
止水栓
  6
CONTINUOUS
 62
     6
100
AcDbVertex
100
AcDb2dVertex
 10
452.058607
 20
2170.163237
 30
0.0
  0
VERTEX
  5
411
100
AcDbEntity
  8
止水栓
  6
CONTINUOUS
 62
     6
100
AcDbVertex
100
AcDb2dVertex
 10
452.188002
 20
2169.816557
 30
0.0
  0
VERTEX
  5
412
100
AcDbEntity
  8
止水栓
  6
CONTINUOUS
 62
     6
100
AcDbVertex
100
AcDb2dVertex
 10
452.332045
 20
2169.496733
 30
0.0
  0
VERTEX
  5
413
100
AcDbEntity
  8
止水栓
  6
CONTINUOUS
 62
     6
100
AcDbVertex
100
AcDb2dVertex
 10
452.490736
 20
2169.201323
 30
0.0
  0
VERTEX
  5
414
100
AcDbEntity
  8
止水栓
  6
CONTINUOUS
 62
     6
100
AcDbVertex
100
AcDb2dVertex
 10
452.659193
 20
2168.937651
 30
0.0
  0
VERTEX
  5
415
100
AcDbEntity
  8
止水栓
  6
CONTINUOUS
 62
     6
100
AcDbVertex
100
AcDb2dVertex
 10
452.839857
 20
2168.703276
 30
0.0
  0
VERTEX
  5
416
100
AcDbEntity
  8
止水栓
  6
CONTINUOUS
 62
     6
100
AcDbVertex
100
AcDb2dVertex
 10
453.027846
 20
2168.503081
 30
0.0
  0
VERTEX
  5
417
100
AcDbEntity
  8
止水栓
  6
CONTINUOUS
 62
     6
100
AcDbVertex
100
AcDb2dVertex
 10
453.2256
 20
2168.334623
 30
0.0
  0
VERTEX
  5
418
100
AcDbEntity
  8
止水栓
  6
CONTINUOUS
 62
     6
100
AcDbVertex
100
AcDb2dVertex
 10
453.430678
 20
2168.205229
 30
0.0
  0
VERTEX
  5
419
100
AcDbEntity
  8
止水栓
  6
CONTINUOUS
 62
     6
100
AcDbVertex
100
AcDb2dVertex
 10
453.638197
 20
2168.110014
 30
0.0
  0
VERTEX
  5
41A
100
AcDbEntity
  8
止水栓
  6
CONTINUOUS
 62
     6
100
AcDbVertex
100
AcDb2dVertex
 10
453.8506
 20
2168.053862
 30
0.0
  0
VERTEX
  5
41B
100
AcDbEntity
  8
止水栓
  6
CONTINUOUS
 62
     6
100
AcDbVertex
100
AcDb2dVertex
 10
454.065443
 20
2168.034331
 30
0.0
  0
VERTEX
  5
41C
100
AcDbEntity
  8
止水栓
  6
CONTINUOUS
 62
     6
100
AcDbVertex
100
AcDb2dVertex
 10
454.277846
 20
2168.053862
 30
0.0
  0
VERTEX
  5
41D
100
AcDbEntity
  8
止水栓
  6
CONTINUOUS
 62
     6
100
AcDbVertex
100
AcDb2dVertex
 10
454.490248
 20
2168.110014
 30
0.0
  0
VERTEX
  5
41E
100
AcDbEntity
  8
止水栓
  6
CONTINUOUS
 62
     6
100
AcDbVertex
100
AcDb2dVertex
 10
454.697768
 20
2168.205229
 30
0.0
  0
VERTEX
  5
41F
100
AcDbEntity
  8
止水栓
  6
CONTINUOUS
 62
     6
100
AcDbVertex
100
AcDb2dVertex
 10
454.902846
 20
2168.334623
 30
0.0
  0
VERTEX
  5
420
100
AcDbEntity
  8
止水栓
  6
CONTINUOUS
 62
     6
100
AcDbVertex
100
AcDb2dVertex
 10
455.1006
 20
2168.503081
 30
0.0
  0
SEQEND
  5
421
100
AcDbEntity
  8
止水栓
  6
CONTINUOUS
 62
     6
  0
POLYLINE
  5
422
100
AcDbEntity
  8
止水栓
  6
CONTINUOUS
 62
     6
100
AcDb2dPolyline
 66
     1
 10
0.0
 20
0.0
 30
0.0
 70
   128
  0
VERTEX
  5
423
100
AcDbEntity
  8
止水栓
  6
CONTINUOUS
 62
     6
100
AcDbVertex
100
AcDb2dVertex
 10
455.1006
 20
2168.503081
 30
0.0
  0
VERTEX
  5
424
100
AcDbEntity
  8
止水栓
  6
CONTINUOUS
 62
     6
100
AcDbVertex
100
AcDb2dVertex
 10
455.288588
 20
2168.703276
 30
0.0
  0
VERTEX
  5
425
100
AcDbEntity
  8
止水栓
  6
CONTINUOUS
 62
     6
100
AcDbVertex
100
AcDb2dVertex
 10
455.469252
 20
2168.937651
 30
0.0
  0
VERTEX
  5
426
100
AcDbEntity
  8
止水栓
  6
CONTINUOUS
 62
     6
100
AcDbVertex
100
AcDb2dVertex
 10
455.64015
 20
2169.201323
 30
0.0
  0
VERTEX
  5
427
100
AcDbEntity
  8
止水栓
  6
CONTINUOUS
 62
     6
100
AcDbVertex
100
AcDb2dVertex
 10
455.7964
 20
2169.496733
 30
0.0
  0
VERTEX
  5
428
100
AcDbEntity
  8
止水栓
  6
CONTINUOUS
 62
     6
100
AcDbVertex
100
AcDb2dVertex
 10
455.940443
 20
2169.816557
 30
0.0
  0
VERTEX
  5
429
100
AcDbEntity
  8
止水栓
  6
CONTINUOUS
 62
     6
100
AcDbVertex
100
AcDb2dVertex
 10
456.072279
 20
2170.163237
 30
0.0
  0
VERTEX
  5
42A
100
AcDbEntity
  8
止水栓
  6
CONTINUOUS
 62
     6
100
AcDbVertex
100
AcDb2dVertex
 10
456.187025
 20
2170.529448
 30
0.0
  0
VERTEX
  5
42B
100
AcDbEntity
  8
止水栓
  6
CONTINUOUS
 62
     6
100
AcDbVertex
100
AcDb2dVertex
 10
456.284682
 20
2170.91519
 30
0.0
  0
VERTEX
  5
42C
100
AcDbEntity
  8
止水栓
  6
CONTINUOUS
 62
     6
100
AcDbVertex
100
AcDb2dVertex
 10
456.365248
 20
2171.318022
 30
0.0
  0
VERTEX
  5
42D
100
AcDbEntity
  8
止水栓
  6
CONTINUOUS
 62
     6
100
AcDbVertex
100
AcDb2dVertex
 10
456.431166
 20
2171.733061
 30
0.0
  0
SEQEND
  5
42E
100
AcDbEntity
  8
止水栓
  6
CONTINUOUS
 62
     6
  0
POLYLINE
  5
42F
100
AcDbEntity
  8
止水栓
  6
CONTINUOUS
 62
     6
100
AcDb2dPolyline
 66
     1
 10
0.0
 20
0.0
 30
0.0
 70
   128
  0
VERTEX
  5
430
100
AcDbEntity
  8
止水栓
  6
CONTINUOUS
 62
     6
100
AcDbVertex
100
AcDb2dVertex
 10
456.431166
 20
2171.733061
 30
0.0
  0
VERTEX
  5
431
100
AcDbEntity
  8
止水栓
  6
CONTINUOUS
 62
     6
100
AcDbVertex
100
AcDb2dVertex
 10
456.477553
 20
2172.157866
 30
0.0
  0
VERTEX
  5
432
100
AcDbEntity
  8
止水栓
  6
CONTINUOUS
 62
     6
100
AcDbVertex
100
AcDb2dVertex
 10
456.504408
 20
2172.589995
 30
0.0
  0
VERTEX
  5
433
100
AcDbEntity
  8
止水栓
  6
CONTINUOUS
 62
     6
100
AcDbVertex
100
AcDb2dVertex
 10
456.514174
 20
2173.024565
 30
0.0
  0
SEQEND
  5
434
100
AcDbEntity
  8
止水栓
  6
CONTINUOUS
 62
     6
  0
LINE
  5
435
100
AcDbEntity
  8
止水栓
  6
CONTINUOUS
 62
     6
100
AcDbLine
 10
454.519057
 20
2178.774077
 30
0.0
 11
454.519057
 21
2183.774077
 31
0.0
  0
LINE
  5
436
100
AcDbEntity
  8
止水栓
  6
CONTINUOUS
 62
     6
100
AcDbLine
 10
454.988295
 20
2178.774077
 30
0.0
 11
433.049818
 21
2178.774077
 31
0.0
  0
LINE
  5
437
100
AcDbEntity
  8
止水栓
  6
CONTINUOUS
 62
     6
100
AcDbLine
 10
454.519057
 20
2183.774077
 30
0.0
 11
433.519057
 21
2183.774077
 31
0.0
  0
POLYLINE
  5
438
100
AcDbEntity
  8
止水栓
  6
CONTINUOUS
 62
     6
100
AcDb2dPolyline
 66
     1
 10
0.0
 20
0.0
 30
0.0
 70
   128
  0
VERTEX
  5
439
100
AcDbEntity
  8
止水栓
  6
CONTINUOUS
 62
     6
100
AcDbVertex
100
AcDb2dVertex
 10
444.019057
 20
2178.559233
 30
0.0
  0
VERTEX
  5
43A
100
AcDbEntity
  8
止水栓
  6
CONTINUOUS
 62
     6
100
AcDbVertex
100
AcDb2dVertex
 10
443.52101
 20
2178.53726
 30
0.0
  0
VERTEX
  5
43B
100
AcDbEntity
  8
止水栓
  6
CONTINUOUS
 62
     6
100
AcDbVertex
100
AcDb2dVertex
 10
443.025404
 20
2178.471342
 30
0.0
  0
VERTEX
  5
43C
100
AcDbEntity
  8
止水栓
  6
CONTINUOUS
 62
     6
100
AcDbVertex
100
AcDb2dVertex
 10
442.537123
 20
2178.368803
 30
0.0
  0
VERTEX
  5
43D
100
AcDbEntity
  8
止水栓
  6
CONTINUOUS
 62
     6
100
AcDbVertex
100
AcDb2dVertex
 10
442.051283
 20
2178.222319
 30
0.0
  0
VERTEX
  5
43E
100
AcDbEntity
  8
止水栓
  6
CONTINUOUS
 62
     6
100
AcDbVertex
100
AcDb2dVertex
 10
441.582533
 20
2178.036772
 30
0.0
  0
VERTEX
  5
43F
100
AcDbEntity
  8
止水栓
  6
CONTINUOUS
 62
     6
100
AcDbVertex
100
AcDb2dVertex
 10
441.130873
 20
2177.814604
 30
0.0
  0
VERTEX
  5
440
100
AcDbEntity
  8
止水栓
  6
CONTINUOUS
 62
     6
100
AcDbVertex
100
AcDb2dVertex
 10
440.701186
 20
2177.553373
 30
0.0
  0
VERTEX
  5
441
100
AcDbEntity
  8
止水栓
  6
CONTINUOUS
 62
     6
100
AcDbVertex
100
AcDb2dVertex
 10
440.298354
 20
2177.257963
 30
0.0
  0
VERTEX
  5
442
100
AcDbEntity
  8
止水栓
  6
CONTINUOUS
 62
     6
100
AcDbVertex
100
AcDb2dVertex
 10
439.922377
 20
2176.930815
 30
0.0
  0
VERTEX
  5
443
100
AcDbEntity
  8
止水栓
  6
CONTINUOUS
 62
     6
100
AcDbVertex
100
AcDb2dVertex
 10
439.58058
 20
2176.571928
 30
0.0
  0
VERTEX
  5
444
100
AcDbEntity
  8
止水栓
  6
CONTINUOUS
 62
     6
100
AcDbVertex
100
AcDb2dVertex
 10
439.270522
 20
2176.186186
 30
0.0
  0
VERTEX
  5
445
100
AcDbEntity
  8
止水栓
  6
CONTINUOUS
 62
     6
100
AcDbVertex
100
AcDb2dVertex
 10
438.997084
 20
2175.778471
 30
0.0
  0
VERTEX
  5
446
100
AcDbEntity
  8
止水栓
  6
CONTINUOUS
 62
     6
100
AcDbVertex
100
AcDb2dVertex
 10
438.760268
 20
2175.348784
 30
0.0
  0
VERTEX
  5
447
100
AcDbEntity
  8
止水栓
  6
CONTINUOUS
 62
     6
100
AcDbVertex
100
AcDb2dVertex
 10
438.567397
 20
2174.899565
 30
0.0
  0
VERTEX
  5
448
100
AcDbEntity
  8
止水栓
  6
CONTINUOUS
 62
     6
100
AcDbVertex
100
AcDb2dVertex
 10
438.413588
 20
2174.435698
 30
0.0
  0
VERTEX
  5
449
100
AcDbEntity
  8
止水栓
  6
CONTINUOUS
 62
     6
100
AcDbVertex
100
AcDb2dVertex
 10
438.303725
 20
2173.962065
 30
0.0
  0
VERTEX
  5
44A
100
AcDbEntity
  8
止水栓
  6
CONTINUOUS
 62
     6
100
AcDbVertex
100
AcDb2dVertex
 10
438.237807
 20
2173.481108
 30
0.0
  0
VERTEX
  5
44B
100
AcDbEntity
  8
止水栓
  6
CONTINUOUS
 62
     6
100
AcDbVertex
100
AcDb2dVertex
 10
438.213393
 20
2172.997709
 30
0.0
  0
VERTEX
  5
44C
100
AcDbEntity
  8
止水栓
  6
CONTINUOUS
 62
     6
100
AcDbVertex
100
AcDb2dVertex
 10
438.237807
 20
2172.51187
 30
0.0
  0
VERTEX
  5
44D
100
AcDbEntity
  8
止水栓
  6
CONTINUOUS
 62
     6
100
AcDbVertex
100
AcDb2dVertex
 10
438.303725
 20
2172.030913
 30
0.0
  0
VERTEX
  5
44E
100
AcDbEntity
  8
止水栓
  6
CONTINUOUS
 62
     6
100
AcDbVertex
100
AcDb2dVertex
 10
438.413588
 20
2171.55728
 30
0.0
  0
VERTEX
  5
44F
100
AcDbEntity
  8
止水栓
  6
CONTINUOUS
 62
     6
100
AcDbVertex
100
AcDb2dVertex
 10
438.567397
 20
2171.095854
 30
0.0
  0
VERTEX
  5
450
100
AcDbEntity
  8
止水栓
  6
CONTINUOUS
 62
     6
100
AcDbVertex
100
AcDb2dVertex
 10
438.760268
 20
2170.646635
 30
0.0
  0
VERTEX
  5
451
100
AcDbEntity
  8
止水栓
  6
CONTINUOUS
 62
     6
100
AcDbVertex
100
AcDb2dVertex
 10
438.997084
 20
2170.216948
 30
0.0
  0
VERTEX
  5
452
100
AcDbEntity
  8
止水栓
  6
CONTINUOUS
 62
     6
100
AcDbVertex
100
AcDb2dVertex
 10
439.270522
 20
2169.806791
 30
0.0
  0
VERTEX
  5
453
100
AcDbEntity
  8
止水栓
  6
CONTINUOUS
 62
     6
100
AcDbVertex
100
AcDb2dVertex
 10
439.58058
 20
2169.423491
 30
0.0
  0
VERTEX
  5
454
100
AcDbEntity
  8
止水栓
  6
CONTINUOUS
 62
     6
100
AcDbVertex
100
AcDb2dVertex
 10
439.922377
 20
2169.064604
 30
0.0
  0
VERTEX
  5
455
100
AcDbEntity
  8
止水栓
  6
CONTINUOUS
 62
     6
100
AcDbVertex
100
AcDb2dVertex
 10
440.298354
 20
2168.737456
 30
0.0
  0
VERTEX
  5
456
100
AcDbEntity
  8
止水栓
  6
CONTINUOUS
 62
     6
100
AcDbVertex
100
AcDb2dVertex
 10
440.701186
 20
2168.442045
 30
0.0
  0
VERTEX
  5
457
100
AcDbEntity
  8
止水栓
  6
CONTINUOUS
 62
     6
100
AcDbVertex
100
AcDb2dVertex
 10
441.130873
 20
2168.180815
 30
0.0
  0
VERTEX
  5
458
100
AcDbEntity
  8
止水栓
  6
CONTINUOUS
 62
     6
100
AcDbVertex
100
AcDb2dVertex
 10
441.582533
 20
2167.956206
 30
0.0
  0
VERTEX
  5
459
100
AcDbEntity
  8
止水栓
  6
CONTINUOUS
 62
     6
100
AcDbVertex
100
AcDb2dVertex
 10
442.051283
 20
2167.770659
 30
0.0
  0
VERTEX
  5
45A
100
AcDbEntity
  8
止水栓
  6
CONTINUOUS
 62
     6
100
AcDbVertex
100
AcDb2dVertex
 10
442.537123
 20
2167.626616
 30
0.0
  0
VERTEX
  5
45B
100
AcDbEntity
  8
止水栓
  6
CONTINUOUS
 62
     6
100
AcDbVertex
100
AcDb2dVertex
 10
443.032729
 20
2167.521635
 30
0.0
  0
VERTEX
  5
45C
100
AcDbEntity
  8
止水栓
  6
CONTINUOUS
 62
     6
100
AcDbVertex
100
AcDb2dVertex
 10
443.5381
 20
2167.458159
 30
0.0
  0
VERTEX
  5
45D
100
AcDbEntity
  8
止水栓
  6
CONTINUOUS
 62
     6
100
AcDbVertex
100
AcDb2dVertex
 10
444.045912
 20
2167.436186
 30
0.0
  0
VERTEX
  5
45E
100
AcDbEntity
  8
止水栓
  6
CONTINUOUS
 62
     6
100
AcDbVertex
100
AcDb2dVertex
 10
444.553725
 20
2167.458159
 30
0.0
  0
VERTEX
  5
45F
100
AcDbEntity
  8
止水栓
  6
CONTINUOUS
 62
     6
100
AcDbVertex
100
AcDb2dVertex
 10
445.059096
 20
2167.521635
 30
0.0
  0
VERTEX
  5
460
100
AcDbEntity
  8
止水栓
  6
CONTINUOUS
 62
     6
100
AcDbVertex
100
AcDb2dVertex
 10
445.554701
 20
2167.626616
 30
0.0
  0
VERTEX
  5
461
100
AcDbEntity
  8
止水栓
  6
CONTINUOUS
 62
     6
100
AcDbVertex
100
AcDb2dVertex
 10
446.040541
 20
2167.770659
 30
0.0
  0
VERTEX
  5
462
100
AcDbEntity
  8
止水栓
  6
CONTINUOUS
 62
     6
100
AcDbVertex
100
AcDb2dVertex
 10
446.509291
 20
2167.956206
 30
0.0
  0
VERTEX
  5
463
100
AcDbEntity
  8
止水栓
  6
CONTINUOUS
 62
     6
100
AcDbVertex
100
AcDb2dVertex
 10
446.960951
 20
2168.180815
 30
0.0
  0
VERTEX
  5
464
100
AcDbEntity
  8
止水栓
  6
CONTINUOUS
 62
     6
100
AcDbVertex
100
AcDb2dVertex
 10
447.390639
 20
2168.442045
 30
0.0
  0
VERTEX
  5
465
100
AcDbEntity
  8
止水栓
  6
CONTINUOUS
 62
     6
100
AcDbVertex
100
AcDb2dVertex
 10
447.793471
 20
2168.737456
 30
0.0
  0
VERTEX
  5
466
100
AcDbEntity
  8
止水栓
  6
CONTINUOUS
 62
     6
100
AcDbVertex
100
AcDb2dVertex
 10
448.169447
 20
2169.064604
 30
0.0
  0
VERTEX
  5
467
100
AcDbEntity
  8
止水栓
  6
CONTINUOUS
 62
     6
100
AcDbVertex
100
AcDb2dVertex
 10
448.511244
 20
2169.423491
 30
0.0
  0
VERTEX
  5
468
100
AcDbEntity
  8
止水栓
  6
CONTINUOUS
 62
     6
100
AcDbVertex
100
AcDb2dVertex
 10
448.821303
 20
2169.806791
 30
0.0
  0
VERTEX
  5
469
100
AcDbEntity
  8
止水栓
  6
CONTINUOUS
 62
     6
100
AcDbVertex
100
AcDb2dVertex
 10
449.09474
 20
2170.216948
 30
0.0
  0
VERTEX
  5
46A
100
AcDbEntity
  8
止水栓
  6
CONTINUOUS
 62
     6
100
AcDbVertex
100
AcDb2dVertex
 10
449.331557
 20
2170.646635
 30
0.0
  0
VERTEX
  5
46B
100
AcDbEntity
  8
止水栓
  6
CONTINUOUS
 62
     6
100
AcDbVertex
100
AcDb2dVertex
 10
449.524428
 20
2171.095854
 30
0.0
  0
VERTEX
  5
46C
100
AcDbEntity
  8
止水栓
  6
CONTINUOUS
 62
     6
100
AcDbVertex
100
AcDb2dVertex
 10
449.678236
 20
2171.55728
 30
0.0
  0
VERTEX
  5
46D
100
AcDbEntity
  8
止水栓
  6
CONTINUOUS
 62
     6
100
AcDbVertex
100
AcDb2dVertex
 10
449.7881
 20
2172.030913
 30
0.0
  0
VERTEX
  5
46E
100
AcDbEntity
  8
止水栓
  6
CONTINUOUS
 62
     6
100
AcDbVertex
100
AcDb2dVertex
 10
449.854018
 20
2172.51187
 30
0.0
  0
VERTEX
  5
46F
100
AcDbEntity
  8
止水栓
  6
CONTINUOUS
 62
     6
100
AcDbVertex
100
AcDb2dVertex
 10
449.87599
 20
2172.995268
 30
0.0
  0
SEQEND
  5
470
100
AcDbEntity
  8
止水栓
  6
CONTINUOUS
 62
     6
  0
POLYLINE
  5
471
100
AcDbEntity
  8
止水栓
  6
CONTINUOUS
 62
     6
100
AcDb2dPolyline
 66
     1
 10
0.0
 20
0.0
 30
0.0
 70
   128
  0
VERTEX
  5
472
100
AcDbEntity
  8
止水栓
  6
CONTINUOUS
 62
     6
100
AcDbVertex
100
AcDb2dVertex
 10
449.87599
 20
2172.997709
 30
0.0
  0
VERTEX
  5
473
100
AcDbEntity
  8
止水栓
  6
CONTINUOUS
 62
     6
100
AcDbVertex
100
AcDb2dVertex
 10
449.854018
 20
2173.481108
 30
0.0
  0
VERTEX
  5
474
100
AcDbEntity
  8
止水栓
  6
CONTINUOUS
 62
     6
100
AcDbVertex
100
AcDb2dVertex
 10
449.7881
 20
2173.962065
 30
0.0
  0
VERTEX
  5
475
100
AcDbEntity
  8
止水栓
  6
CONTINUOUS
 62
     6
100
AcDbVertex
100
AcDb2dVertex
 10
449.678236
 20
2174.435698
 30
0.0
  0
VERTEX
  5
476
100
AcDbEntity
  8
止水栓
  6
CONTINUOUS
 62
     6
100
AcDbVertex
100
AcDb2dVertex
 10
449.524428
 20
2174.899565
 30
0.0
  0
VERTEX
  5
477
100
AcDbEntity
  8
止水栓
  6
CONTINUOUS
 62
     6
100
AcDbVertex
100
AcDb2dVertex
 10
449.331557
 20
2175.346342
 30
0.0
  0
VERTEX
  5
478
100
AcDbEntity
  8
止水栓
  6
CONTINUOUS
 62
     6
100
AcDbVertex
100
AcDb2dVertex
 10
449.09474
 20
2175.778471
 30
0.0
  0
VERTEX
  5
479
100
AcDbEntity
  8
止水栓
  6
CONTINUOUS
 62
     6
100
AcDbVertex
100
AcDb2dVertex
 10
448.821303
 20
2176.186186
 30
0.0
  0
VERTEX
  5
47A
100
AcDbEntity
  8
止水栓
  6
CONTINUOUS
 62
     6
100
AcDbVertex
100
AcDb2dVertex
 10
448.511244
 20
2176.571928
 30
0.0
  0
VERTEX
  5
47B
100
AcDbEntity
  8
止水栓
  6
CONTINUOUS
 62
     6
100
AcDbVertex
100
AcDb2dVertex
 10
448.169447
 20
2176.928373
 30
0.0
  0
VERTEX
  5
47C
100
AcDbEntity
  8
止水栓
  6
CONTINUOUS
 62
     6
100
AcDbVertex
100
AcDb2dVertex
 10
447.793471
 20
2177.257963
 30
0.0
  0
VERTEX
  5
47D
100
AcDbEntity
  8
止水栓
  6
CONTINUOUS
 62
     6
100
AcDbVertex
100
AcDb2dVertex
 10
447.390639
 20
2177.550932
 30
0.0
  0
VERTEX
  5
47E
100
AcDbEntity
  8
止水栓
  6
CONTINUOUS
 62
     6
100
AcDbVertex
100
AcDb2dVertex
 10
446.960951
 20
2177.814604
 30
0.0
  0
VERTEX
  5
47F
100
AcDbEntity
  8
止水栓
  6
CONTINUOUS
 62
     6
100
AcDbVertex
100
AcDb2dVertex
 10
446.509291
 20
2178.039213
 30
0.0
  0
VERTEX
  5
480
100
AcDbEntity
  8
止水栓
  6
CONTINUOUS
 62
     6
100
AcDbVertex
100
AcDb2dVertex
 10
446.040541
 20
2178.22476
 30
0.0
  0
VERTEX
  5
481
100
AcDbEntity
  8
止水栓
  6
CONTINUOUS
 62
     6
100
AcDbVertex
100
AcDb2dVertex
 10
445.554701
 20
2178.368803
 30
0.0
  0
VERTEX
  5
482
100
AcDbEntity
  8
止水栓
  6
CONTINUOUS
 62
     6
100
AcDbVertex
100
AcDb2dVertex
 10
445.059096
 20
2178.473784
 30
0.0
  0
VERTEX
  5
483
100
AcDbEntity
  8
止水栓
  6
CONTINUOUS
 62
     6
100
AcDbVertex
100
AcDb2dVertex
 10
444.553725
 20
2178.53726
 30
0.0
  0
VERTEX
  5
484
100
AcDbEntity
  8
止水栓
  6
CONTINUOUS
 62
     6
100
AcDbVertex
100
AcDb2dVertex
 10
444.045912
 20
2178.559233
 30
0.0
  0
VERTEX
  5
485
100
AcDbEntity
  8
止水栓
  6
CONTINUOUS
 62
     6
100
AcDbVertex
100
AcDb2dVertex
 10
444.036147
 20
2178.559233
 30
0.0
  0
VERTEX
  5
486
100
AcDbEntity
  8
止水栓
  6
CONTINUOUS
 62
     6
100
AcDbVertex
100
AcDb2dVertex
 10
444.028822
 20
2178.559233
 30
0.0
  0
VERTEX
  5
487
100
AcDbEntity
  8
止水栓
  6
CONTINUOUS
 62
     6
100
AcDbVertex
100
AcDb2dVertex
 10
444.019057
 20
2178.559233
 30
0.0
  0
SEQEND
  5
488
100
AcDbEntity
  8
止水栓
  6
CONTINUOUS
 62
     6
  0
CIRCLE
  5
489
100
AcDbEntity
  8
止水栓
  6
CONTINUOUS
 62
     6
100
AcDbCircle
 10
444.017073
 20
2143.000004
 30
0.0
 40
12.0
  0
LINE
  5
48A
100
AcDbEntity
  8
止水栓
  6
EXLTYPE3
 62
     1
100
AcDbLine
 10
335.857073
 20
2143.001224
 30
0.0
 11
481.0
 21
2143.001224
 31
0.0
  0
ARC
  5
48B
100
AcDbEntity
  8
止水栓
  6
CONTINUOUS
 62
     6
100
AcDbCircle
 10
439.269057
 20
2191.274157
 30
0.0
 40
2.5
100
AcDbArc
 50
180.0
 51
270.0
  0
ARC
  5
48C
100
AcDbEntity
  8
止水栓
  6
CONTINUOUS
 62
     6
100
AcDbCircle
 10
439.269057
 20
2191.274157
 30
0.0
 40
2.5
100
AcDbArc
 50
90.0
 51
180.0
  0
LINE
  5
48D
100
AcDbEntity
  8
止水栓
  6
CONTINUOUS
 62
     6
100
AcDbLine
 10
438.269057
 20
2201.774157
 30
0.0
 11
438.269057
 21
2204.774157
 31
0.0
  0
ARC
  5
48E
100
AcDbEntity
  8
止水栓
  6
CONTINUOUS
 62
     6
100
AcDbCircle
 10
439.269057
 20
2199.274157
 30
0.0
 40
2.5
100
AcDbArc
 50
180.0
 51
270.0
  0
ARC
  5
48F
100
AcDbEntity
  8
止水栓
  6
CONTINUOUS
 62
     6
100
AcDbCircle
 10
439.269057
 20
2199.274157
 30
0.0
 40
2.5
100
AcDbArc
 50
90.0
 51
180.0
  0
LINE
  5
490
100
AcDbEntity
  8
止水栓
  6
CONTINUOUS
 62
     6
100
AcDbLine
 10
438.269057
 20
2193.774157
 30
0.0
 11
438.269057
 21
2196.774157
 31
0.0
  0
LINE
  5
491
100
AcDbEntity
  8
止水栓
  6
CONTINUOUS
 62
     6
100
AcDbLine
 10
440.019057
 20
2183.774157
 30
0.0
 11
440.019057
 21
2185.774157
 31
0.0
  0
LINE
  5
492
100
AcDbEntity
  8
止水栓
  6
CONTINUOUS
 62
     6
100
AcDbLine
 10
438.269057
 20
2185.774157
 30
0.0
 11
438.269057
 21
2188.774157
 31
0.0
  0
LINE
  5
493
100
AcDbEntity
  8
止水栓
  6
CONTINUOUS
 62
     6
100
AcDbLine
 10
437.269057
 20
2204.774157
 30
0.0
 11
437.269057
 21
2212.774157
 31
0.0
  0
ARC
  5
494
100
AcDbEntity
  8
止水栓
  6
CONTINUOUS
 62
     6
100
AcDbCircle
 10
448.769057
 20
2191.274157
 30
0.0
 40
2.5
100
AcDbArc
 50
270.0
 51
0.0
  0
LINE
  5
495
100
AcDbEntity
  8
止水栓
  6
CONTINUOUS
 62
     6
100
AcDbLine
 10
449.769057
 20
2201.774157
 30
0.0
 11
449.769057
 21
2204.774157
 31
0.0
  0
LINE
  5
496
100
AcDbEntity
  8
止水栓
  6
CONTINUOUS
 62
     6
100
AcDbLine
 10
449.769057
 20
2193.774157
 30
0.0
 11
449.769057
 21
2196.774157
 31
0.0
  0
ARC
  5
497
100
AcDbEntity
  8
止水栓
  6
CONTINUOUS
 62
     6
100
AcDbCircle
 10
448.769057
 20
2191.274157
 30
0.0
 40
2.5
100
AcDbArc
 50
0.0
 51
90.0
  0
ARC
  5
498
100
AcDbEntity
  8
止水栓
  6
CONTINUOUS
 62
     6
100
AcDbCircle
 10
448.769057
 20
2199.274157
 30
0.0
 40
2.5
100
AcDbArc
 50
270.0
 51
0.0
  0
ARC
  5
499
100
AcDbEntity
  8
止水栓
  6
CONTINUOUS
 62
     6
100
AcDbCircle
 10
448.769057
 20
2199.274157
 30
0.0
 40
2.5
100
AcDbArc
 50
0.0
 51
90.0
  0
LINE
  5
49A
100
AcDbEntity
  8
止水栓
  6
CONTINUOUS
 62
     6
100
AcDbLine
 10
448.019057
 20
2183.774157
 30
0.0
 11
448.019057
 21
2185.774157
 31
0.0
  0
LINE
  5
49B
100
AcDbEntity
  8
止水栓
  6
CONTINUOUS
 62
     6
100
AcDbLine
 10
449.769057
 20
2185.774157
 30
0.0
 11
449.769057
 21
2188.774157
 31
0.0
  0
LINE
  5
49C
100
AcDbEntity
  8
止水栓
  6
CONTINUOUS
 62
     6
100
AcDbLine
 10
450.769057
 20
2204.774157
 30
0.0
 11
450.769057
 21
2212.774157
 31
0.0
  0
LINE
  5
49D
100
AcDbEntity
  8
止水栓
  6
CONTINUOUS
 62
     6
100
AcDbLine
 10
450.769057
 20
2204.774157
 30
0.0
 11
437.269057
 21
2204.774157
 31
0.0
  0
LINE
  5
49E
100
AcDbEntity
  8
止水栓
  6
CONTINUOUS
 62
     6
100
AcDbLine
 10
448.769057
 20
2193.774157
 30
0.0
 11
439.269057
 21
2193.774157
 31
0.0
  0
LINE
  5
49F
100
AcDbEntity
  8
止水栓
  6
CONTINUOUS
 62
     6
100
AcDbLine
 10
448.769057
 20
2201.774157
 30
0.0
 11
439.269057
 21
2201.774157
 31
0.0
  0
LINE
  5
4A0
100
AcDbEntity
  8
止水栓
  6
CONTINUOUS
 62
     6
100
AcDbLine
 10
448.769057
 20
2196.774157
 30
0.0
 11
439.269057
 21
2196.774157
 31
0.0
  0
LINE
  5
4A1
100
AcDbEntity
  8
止水栓
  6
CONTINUOUS
 62
     6
100
AcDbLine
 10
449.769057
 20
2185.774157
 30
0.0
 11
438.269057
 21
2185.774157
 31
0.0
  0
LINE
  5
4A2
100
AcDbEntity
  8
止水栓
  6
CONTINUOUS
 62
     6
100
AcDbLine
 10
448.769057
 20
2188.774157
 30
0.0
 11
439.269057
 21
2188.774157
 31
0.0
  0
LINE
  5
4A3
100
AcDbEntity
  8
止水栓
  6
CONTINUOUS
 62
     6
100
AcDbLine
 10
450.769057
 20
2212.774157
 30
0.0
 11
437.269057
 21
2212.774157
 31
0.0
  0
LINE
  5
4A4
100
AcDbEntity
  8
止水栓
  6
CONTINUOUS
 62
     6
100
AcDbLine
 10
437.518294
 20
2212.774157
 30
0.0
 11
438.42811
 21
2235.870109
 31
0.0
  0
LINE
  5
4A5
100
AcDbEntity
  8
止水栓
  6
CONTINUOUS
 62
     6
100
AcDbLine
 10
450.518294
 20
2212.774157
 30
0.0
 11
451.337331
 21
2233.565657
 31
0.0
  0
LINE
  5
4A6
100
AcDbEntity
  8
止水栓
  6
EXLTYPE3
 62
     1
100
AcDbLine
 10
444.017073
 20
572.499827
 30
0.0
 11
444.017073
 21
494.699549
 31
0.0
  0
LINE
  5
4A7
100
AcDbEntity
  8
止水栓
  6
CONTINUOUS
 62
     6
100
AcDbLine
 10
444.917058
 20
578.361576
 30
0.0
 11
453.017058
 21
578.361576
 31
0.0
  0
LINE
  5
4A8
100
AcDbEntity
  8
止水栓
  6
CONTINUOUS
 62
     6
100
AcDbLine
 10
443.117058
 20
578.361576
 30
0.0
 11
435.017058
 21
578.361576
 31
0.0
  0
LINE
  5
4A9
100
AcDbEntity
  8
止水栓
  6
CONTINUOUS
 62
     6
100
AcDbLine
 10
443.117058
 20
578.361576
 30
0.0
 11
443.117058
 21
577.661576
 31
0.0
  0
LINE
  5
4AA
100
AcDbEntity
  8
止水栓
  6
CONTINUOUS
 62
     6
100
AcDbLine
 10
444.917058
 20
578.361576
 30
0.0
 11
444.917058
 21
577.661576
 31
0.0
  0
LINE
  5
4AB
100
AcDbEntity
  8
止水栓
  6
CONTINUOUS
 62
     6
100
AcDbLine
 10
435.017058
 20
578.361576
 30
0.0
 11
435.017058
 21
577.661576
 31
0.0
  0
LINE
  5
4AC
100
AcDbEntity
  8
止水栓
  6
CONTINUOUS
 62
     6
100
AcDbLine
 10
453.017058
 20
578.361576
 30
0.0
 11
453.017058
 21
577.661576
 31
0.0
  0
LINE
  5
4AD
100
AcDbEntity
  8
止水栓
  6
CONTINUOUS
 62
     6
100
AcDbLine
 10
432.017058
 20
577.661576
 30
0.0
 11
456.017058
 21
577.661576
 31
0.0
  0
LINE
  5
4AE
100
AcDbEntity
  8
止水栓
  6
CONTINUOUS
 62
     6
100
AcDbLine
 10
432.017058
 20
577.661576
 30
0.0
 11
432.017058
 21
541.18734
 31
0.0
  0
LINE
  5
4AF
100
AcDbEntity
  8
止水栓
  6
CONTINUOUS
 62
     6
100
AcDbLine
 10
456.017058
 20
577.661576
 30
0.0
 11
456.017058
 21
540.150345
 31
0.0
  0
LINE
  5
4B0
100
AcDbEntity
  8
止水栓
  6
CONTINUOUS
 62
     6
100
AcDbLine
 10
433.840706
 20
527.455618
 30
0.0
 11
454.233254
 21
527.455618
 31
0.0
  0
LINE
  5
4B1
100
AcDbEntity
  8
止水栓
  6
CONTINUOUS
 62
     6
100
AcDbLine
 10
457.017058
 20
528.66234
 30
0.0
 11
431.017058
 21
528.66234
 31
0.0
  0
ARC
  5
4B2
100
AcDbEntity
  8
止水栓
  6
CONTINUOUS
 62
     6
100
AcDbCircle
 10
444.017058
 20
512.586775
 30
0.0
 40
25.78689
100
AcDbArc
 50
73.078523
 51
106.828962
  0
LINE
  5
4B3
100
AcDbEntity
  8
止水栓
  6
CONTINUOUS
 62
     6
100
AcDbLine
 10
436.551349
 20
529.778795
 30
0.0
 11
436.551349
 21
537.25721
 31
0.0
  0
ARC
  5
4B4
100
AcDbEntity
  8
止水栓
  6
CONTINUOUS
 62
     6
100
AcDbCircle
 10
444.017058
 20
554.44923
 30
0.0
 40
25.78689
100
AcDbArc
 50
253.141624
 51
286.921477
  0
LINE
  5
4B5
100
AcDbEntity
  8
止水栓
  6
CONTINUOUS
 62
     6
100
AcDbLine
 10
433.876579
 20
528.66234
 30
0.0
 11
433.78698
 21
525.648295
 31
0.0
  0
LINE
  5
4B6
100
AcDbEntity
  8
止水栓
  6
CONTINUOUS
 62
     6
100
AcDbLine
 10
434.87702
 20
528.66234
 30
0.0
 11
434.841148
 21
527.455618
 31
0.0
  0
LINE
  5
4B7
100
AcDbEntity
  8
止水栓
  6
CONTINUOUS
 62
     6
100
AcDbLine
 10
433.78698
 20
525.648295
 30
0.0
 11
434.841148
 21
527.455618
 31
0.0
  0
ARC
  5
4B8
100
AcDbEntity
  8
止水栓
  6
CONTINUOUS
 62
     6
100
AcDbCircle
 10
432.798598
 20
535.527578
 30
0.0
 40
6.865249
100
AcDbArc
 50
246.844796
 51
303.136123
  0
ARC
  5
4B9
100
AcDbEntity
  8
止水栓
  6
CONTINUOUS
 62
     6
100
AcDbCircle
 10
432.798598
 20
531.508427
 30
0.0
 40
6.865249
100
AcDbArc
 50
56.863877
 51
123.136123
  0
ARC
  5
4BA
100
AcDbEntity
  8
止水栓
  6
CONTINUOUS
 62
     6
100
AcDbCircle
 10
455.275363
 20
531.508427
 30
0.0
 40
6.865249
100
AcDbArc
 50
56.863877
 51
123.136123
  0
LINE
  5
4BB
100
AcDbEntity
  8
止水栓
  6
CONTINUOUS
 62
     6
100
AcDbLine
 10
451.522611
 20
529.778795
 30
0.0
 11
451.522611
 21
537.25721
 31
0.0
  0
ARC
  5
4BC
100
AcDbEntity
  8
止水栓
  6
CONTINUOUS
 62
     6
100
AcDbCircle
 10
455.275363
 20
535.527578
 30
0.0
 40
6.865249
100
AcDbArc
 50
236.863877
 51
293.155204
  0
LINE
  5
4BD
100
AcDbEntity
  8
止水栓
  6
CONTINUOUS
 62
     6
100
AcDbLine
 10
454.197382
 20
528.66234
 30
0.0
 11
454.28698
 21
525.648295
 31
0.0
  0
LINE
  5
4BE
100
AcDbEntity
  8
止水栓
  6
CONTINUOUS
 62
     6
100
AcDbLine
 10
458.950815
 20
529.778795
 30
0.0
 11
457.017058
 21
528.66234
 31
0.0
  0
LINE
  5
4BF
100
AcDbEntity
  8
止水栓
  6
CONTINUOUS
 62
     6
100
AcDbLine
 10
429.006001
 20
529.823424
 30
0.0
 11
431.017058
 21
528.66234
 31
0.0
  0
LINE
  5
4C0
100
AcDbEntity
  8
止水栓
  6
CONTINUOUS
 62
     6
100
AcDbLine
 10
459.028115
 20
537.25721
 30
0.0
 11
457.017058
 21
538.418294
 31
0.0
  0
LINE
  5
4C1
100
AcDbEntity
  8
止水栓
  6
CONTINUOUS
 62
     6
100
AcDbLine
 10
459.028115
 20
529.778795
 30
0.0
 11
459.028115
 21
537.25721
 31
0.0
  0
ARC
  5
4C2
100
AcDbEntity
  8
止水栓
  6
CONTINUOUS
 62
     6
100
AcDbCircle
 10
458.017058
 20
540.150345
 30
0.0
 40
2.0
100
AcDbArc
 50
180.0
 51
240.0
  0
ARC
  5
4C3
100
AcDbEntity
  8
止水栓
  6
CONTINUOUS
 62
     6
100
AcDbCircle
 10
430.017058
 20
540.150345
 30
0.0
 40
2.0
100
AcDbArc
 50
300.0
 51
0.0
  0
LINE
  5
4C4
100
AcDbEntity
  8
止水栓
  6
CONTINUOUS
 62
     6
100
AcDbLine
 10
432.017058
 20
541.18734
 30
0.0
 11
432.017058
 21
540.150345
 31
0.0
  0
LINE
  5
4C5
100
AcDbEntity
  8
止水栓
  6
CONTINUOUS
 62
     6
100
AcDbLine
 10
429.006001
 20
537.25721
 30
0.0
 11
431.017058
 21
538.418294
 31
0.0
  0
LINE
  5
4C6
100
AcDbEntity
  8
止水栓
  6
CONTINUOUS
 62
     6
100
AcDbLine
 10
429.006001
 20
529.823424
 30
0.0
 11
429.006001
 21
537.25721
 31
0.0
  0
LINE
  5
4C7
100
AcDbEntity
  8
止水栓
  6
CONTINUOUS
 62
     6
100
AcDbLine
 10
453.19694
 20
528.66234
 30
0.0
 11
453.232812
 21
527.455618
 31
0.0
  0
LINE
  5
4C8
100
AcDbEntity
  8
止水栓
  6
CONTINUOUS
 62
     6
100
AcDbLine
 10
454.28698
 20
525.648295
 30
0.0
 11
453.232812
 21
527.455618
 31
0.0
  0
ARC
  5
4C9
100
AcDbEntity
  8
止水栓
  6
CONTINUOUS
 62
     6
100
AcDbCircle
 10
429.51512
 20
504.999842
 30
0.0
 40
12.999535
100
AcDbArc
 50
113.146301
 51
188.848084
  0
LINE
  5
4CA
100
AcDbEntity
  8
止水栓
  6
CONTINUOUS
 62
     6
100
AcDbLine
 10
452.767073
 20
494.699549
 30
0.0
 11
454.305159
 21
496.240077
 31
0.0
  0
LINE
  5
4CB
100
AcDbEntity
  8
止水栓
  6
CONTINUOUS
 62
     6
100
AcDbLine
 10
453.331038
 20
503.000331
 30
0.0
 11
453.082014
 21
495.014491
 31
0.0
  0
LINE
  5
4CC
100
AcDbEntity
  8
止水栓
  6
CONTINUOUS
 62
     6
100
AcDbLine
 10
454.51512
 20
503.000331
 30
0.0
 11
454.305159
 21
496.240077
 31
0.0
  0
LINE
  5
4CD
100
AcDbEntity
  8
止水栓
  6
CONTINUOUS
 62
     6
100
AcDbLine
 10
433.516585
 20
503.000331
 30
0.0
 11
433.726546
 21
496.237635
 31
0.0
  0
LINE
  5
4CE
100
AcDbEntity
  8
止水栓
  6
CONTINUOUS
 62
     6
100
AcDbLine
 10
434.700667
 20
503.000331
 30
0.0
 11
434.952132
 21
495.014491
 31
0.0
  0
LINE
  5
4CF
100
AcDbEntity
  8
止水栓
  6
CONTINUOUS
 62
     6
100
AcDbLine
 10
454.305159
 20
496.240077
 30
0.0
 11
433.726546
 21
496.237635
 31
0.0
  0
LINE
  5
4D0
100
AcDbEntity
  8
止水栓
  6
CONTINUOUS
 62
     6
100
AcDbLine
 10
435.267073
 20
494.699549
 30
0.0
 11
452.767073
 21
494.699549
 31
0.0
  0
ARC
  5
4D1
100
AcDbEntity
  8
止水栓
  6
CONTINUOUS
 62
     6
100
AcDbCircle
 10
458.516585
 20
504.999842
 30
0.0
 40
13.000488
100
AcDbArc
 50
0.000031
 51
66.852539
  0
LINE
  5
4D2
100
AcDbEntity
  8
止水栓
  6
CONTINUOUS
 62
     6
100
AcDbLine
 10
471.517073
 20
504.999842
 30
0.0
 11
471.517073
 21
503.000331
 31
0.0
  0
LINE
  5
4D3
100
AcDbEntity
  8
止水栓
  6
CONTINUOUS
 62
     6
100
AcDbLine
 10
433.726546
 20
496.237635
 30
0.0
 11
435.267702
 21
494.699549
 31
0.0
  0
LINE
  5
4D4
100
AcDbEntity
  8
止水栓
  6
CONTINUOUS
 62
     6
100
AcDbLine
 10
434.373518
 20
519.001307
 30
0.0
 11
453.658186
 21
519.001307
 31
0.0
  0
ARC
  5
4D5
100
AcDbEntity
  8
止水栓
  6
CONTINUOUS
 62
     6
100
AcDbCircle
 10
434.373518
 20
493.701014
 30
0.0
 40
25.30016
100
AcDbArc
 50
90.0
 51
113.202393
  0
ARC
  5
4D6
100
AcDbEntity
  8
止水栓
  6
CONTINUOUS
 62
     6
100
AcDbCircle
 10
453.658186
 20
493.701014
 30
0.0
 40
25.298605
100
AcDbArc
 50
66.794876
 51
90.0
  0
LINE
  5
4D7
100
AcDbEntity
  8
止水栓
  6
CONTINUOUS
 62
     6
100
AcDbLine
 10
433.78698
 20
525.648295
 30
0.0
 11
433.78698
 21
518.985095
 31
0.0
  0
LINE
  5
4D8
100
AcDbEntity
  8
止水栓
  6
CONTINUOUS
 62
     6
100
AcDbLine
 10
454.28698
 20
525.648295
 30
0.0
 11
454.28698
 21
518.985095
 31
0.0
  0
LINE
  5
4D9
100
AcDbEntity
  8
止水栓
  6
EXLTYPE2
 62
     6
100
AcDbLine
 10
419.378325
 20
803.900324
 30
0.0
 11
419.378325
 21
812.000324
 31
0.0
  0
LINE
  5
4DA
100
AcDbEntity
  8
止水栓
  6
EXLTYPE2
 62
     6
100
AcDbLine
 10
419.378325
 20
802.100324
 30
0.0
 11
419.378325
 21
794.000324
 31
0.0
  0
LINE
  5
4DB
100
AcDbEntity
  8
止水栓
  6
EXLTYPE2
 62
     6
100
AcDbLine
 10
419.378325
 20
802.100324
 30
0.0
 11
418.678325
 21
802.100324
 31
0.0
  0
LINE
  5
4DC
100
AcDbEntity
  8
止水栓
  6
EXLTYPE2
 62
     6
100
AcDbLine
 10
419.378325
 20
803.900324
 30
0.0
 11
418.678325
 21
803.900324
 31
0.0
  0
LINE
  5
4DD
100
AcDbEntity
  8
止水栓
  6
EXLTYPE2
 62
     6
100
AcDbLine
 10
419.378325
 20
794.000324
 30
0.0
 11
418.678325
 21
794.000324
 31
0.0
  0
LINE
  5
4DE
100
AcDbEntity
  8
止水栓
  6
EXLTYPE2
 62
     6
100
AcDbLine
 10
419.378325
 20
812.000324
 30
0.0
 11
418.678325
 21
812.000324
 31
0.0
  0
LINE
  5
4DF
100
AcDbEntity
  8
止水栓
  6
EXLTYPE2
 62
     6
100
AcDbLine
 10
418.678325
 20
791.000324
 30
0.0
 11
418.678325
 21
815.000324
 31
0.0
  0
LINE
  5
4E0
100
AcDbEntity
  8
止水栓
  6
EXLTYPE2
 62
     6
100
AcDbLine
 10
418.678325
 20
791.000324
 30
0.0
 11
410.931822
 21
791.000324
 31
0.0
  0
ARC
  5
4E1
100
AcDbEntity
  8
止水栓
  6
EXLTYPE2
 62
     6
100
AcDbCircle
 10
413.113692
 20
786.501497
 30
0.0
 40
5.0
100
AcDbArc
 50
115.872755
 51
172.555023
  0
LINE
  5
4E2
100
AcDbEntity
  8
止水栓
  6
EXLTYPE2
 62
     6
100
AcDbLine
 10
408.155841
 20
785.126413
 30
0.0
 11
406.928317
 21
783.000284
 31
0.0
  0
LINE
  5
4E3
100
AcDbEntity
  8
止水栓
  6
EXLTYPE2
 62
     6
100
AcDbLine
 10
382.06829
 20
815.000324
 30
0.0
 11
418.678325
 21
815.000324
 31
0.0
  0
ARC
  5
4E4
100
AcDbEntity
  8
止水栓
  6
EXLTYPE2
 62
     6
100
AcDbCircle
 10
382.200835
 20
786.000324
 30
0.0
 40
5.0
100
AcDbArc
 50
0.0
 51
90.0
  0
LINE
  5
4E5
100
AcDbEntity
  8
止水栓
  6
EXLTYPE2
 62
     6
100
AcDbLine
 10
382.188873
 20
791.000324
 30
0.0
 11
382.06829
 21
791.000324
 31
0.0
  0
LINE
  5
4E6
100
AcDbEntity
  8
止水栓
  6
EXLTYPE2
 62
     6
100
AcDbLine
 10
366.665058
 20
813.270246
 30
0.0
 11
368.47238
 21
812.216078
 31
0.0
  0
LINE
  5
4E7
100
AcDbEntity
  8
止水栓
  6
EXLTYPE2
 62
     6
100
AcDbLine
 10
369.679102
 20
812.180206
 30
0.0
 11
368.47238
 21
812.216078
 31
0.0
  0
LINE
  5
4E8
100
AcDbEntity
  8
止水栓
  6
EXLTYPE2
 62
     6
100
AcDbLine
 10
369.679102
 20
813.180648
 30
0.0
 11
366.665058
 21
813.270246
 31
0.0
  0
LINE
  5
4E9
100
AcDbEntity
  8
止水栓
  6
EXLTYPE2
 62
     6
100
AcDbLine
 10
366.665058
 20
792.770246
 30
0.0
 11
368.47238
 21
793.824414
 31
0.0
  0
LINE
  5
4EA
100
AcDbEntity
  8
止水栓
  6
EXLTYPE2
 62
     6
100
AcDbLine
 10
369.679102
 20
793.860287
 30
0.0
 11
368.47238
 21
793.824414
 31
0.0
  0
LINE
  5
4EB
100
AcDbEntity
  8
止水栓
  6
EXLTYPE2
 62
     6
100
AcDbLine
 10
369.679102
 20
792.859845
 30
0.0
 11
366.665058
 21
792.770246
 31
0.0
  0
LINE
  5
4EC
100
AcDbEntity
  8
止水栓
  6
EXLTYPE2
 62
     6
100
AcDbLine
 10
368.47238
 20
792.823973
 30
0.0
 11
368.47238
 21
813.21652
 31
0.0
  0
LINE
  5
4ED
100
AcDbEntity
  8
止水栓
  6
EXLTYPE2
 62
     6
100
AcDbLine
 10
369.675902
 20
815.250324
 30
0.0
 11
369.675902
 21
790.750324
 31
0.0
  0
LINE
  5
4EE
100
AcDbEntity
  8
止水栓
  6
EXLTYPE2
 62
     6
100
AcDbLine
 10
379.037201
 20
815.750324
 30
0.0
 11
369.964577
 21
815.750324
 31
0.0
  0
LINE
  5
4EF
100
AcDbEntity
  8
止水栓
  6
EXLTYPE2
 62
     6
100
AcDbLine
 10
379.037201
 20
790.250324
 30
0.0
 11
369.964577
 21
790.250324
 31
0.0
  0
LINE
  5
4F0
100
AcDbEntity
  8
止水栓
  6
EXLTYPE2
 62
     6
100
AcDbLine
 10
369.675902
 20
790.750324
 30
0.0
 11
369.964577
 21
790.250324
 31
0.0
  0
LINE
  5
4F1
100
AcDbEntity
  8
止水栓
  6
EXLTYPE2
 62
     6
100
AcDbLine
 10
369.675902
 20
815.250324
 30
0.0
 11
369.964577
 21
815.750324
 31
0.0
  0
ARC
  5
4F2
100
AcDbEntity
  8
止水栓
  6
EXLTYPE2
 62
     6
100
AcDbCircle
 10
368.854248
 20
809.375324
 30
0.0
 40
10.182953
100
AcDbArc
 50
321.240977
 51
38.759023
  0
ARC
  5
4F3
100
AcDbEntity
  8
止水栓
  6
EXLTYPE2
 62
     6
100
AcDbCircle
 10
368.854248
 20
796.625324
 30
0.0
 40
10.182953
100
AcDbArc
 50
321.240977
 51
38.759023
  0
ARC
  5
4F4
100
AcDbEntity
  8
止水栓
  6
EXLTYPE2
 62
     6
100
AcDbCircle
 10
388.576629
 20
809.375324
 30
0.0
 40
18.612052
100
AcDbArc
 50
159.969519
 51
200.030481
  0
ARC
  5
4F5
100
AcDbEntity
  8
止水栓
  6
EXLTYPE2
 62
     6
100
AcDbCircle
 10
388.576629
 20
796.625324
 30
0.0
 40
18.612052
100
AcDbArc
 50
159.969519
 51
200.030481
  0
ARC
  5
4F6
100
AcDbEntity
  8
止水栓
  6
EXLTYPE2
 62
     6
100
AcDbCircle
 10
382.06829
 20
784.500324
 30
0.0
 40
6.5
100
AcDbArc
 50
90.0
 51
117.795772
  0
ARC
  5
4F7
100
AcDbEntity
  8
止水栓
  6
EXLTYPE2
 62
     6
100
AcDbCircle
 10
382.06829
 20
821.500324
 30
0.0
 40
6.5
100
AcDbArc
 50
242.204228
 51
270.0
  0
LINE
  5
4F8
100
AcDbEntity
  8
止水栓
  6
EXLTYPE2
 62
     6
100
AcDbLine
 10
387.200835
 20
785.126415
 30
0.0
 11
388.428359
 21
783.000286
 31
0.0
  0
LINE
  5
4F9
100
AcDbEntity
  8
止水栓
  6
EXLTYPE2
 62
     6
100
AcDbLine
 10
408.155825
 20
783.000284
 30
0.0
 11
387.200835
 21
783.000284
 31
0.0
  0
LINE
  5
4FA
100
AcDbEntity
  8
止水栓
  6
EXLTYPE2
 62
     6
100
AcDbLine
 10
387.200835
 20
786.000324
 30
0.0
 11
387.200835
 21
779.000324
 31
0.0
  0
LINE
  5
4FB
100
AcDbEntity
  8
止水栓
  6
EXLTYPE2
 62
     6
100
AcDbLine
 10
408.155844
 20
779.000324
 30
0.0
 11
408.155844
 21
787.149367
 31
0.0
  0
LINE
  5
4FC
100
AcDbEntity
  8
止水栓
  6
EXLTYPE2
 62
     6
100
AcDbLine
 10
388.42836
 20
783.000284
 30
0.0
 11
388.42836
 21
779.000324
 31
0.0
  0
LINE
  5
4FD
100
AcDbEntity
  8
止水栓
  6
EXLTYPE2
 62
     6
100
AcDbLine
 10
406.953875
 20
783.000284
 30
0.0
 11
406.953875
 21
779.000324
 31
0.0
  0
LINE
  5
4FE
100
AcDbEntity
  8
止水栓
  6
EXLTYPE2
 62
     6
100
AcDbLine
 10
404.190363
 20
722.170613
 30
0.0
 11
404.190363
 21
720.287612
 31
0.0
  0
LINE
  5
4FF
100
AcDbEntity
  8
止水栓
  6
EXLTYPE2
 62
     6
100
AcDbLine
 10
391.190363
 20
722.170613
 30
0.0
 11
391.190363
 21
720.287612
 31
0.0
  0
LINE
  5
500
100
AcDbEntity
  8
止水栓
  6
EXLTYPE2
 62
     6
100
AcDbLine
 10
404.190363
 20
724.995204
 30
0.0
 11
404.190363
 21
720.287612
 31
0.0
  0
LINE
  5
501
100
AcDbEntity
  8
止水栓
  6
EXLTYPE2
 62
     6
100
AcDbLine
 10
391.190363
 20
724.995204
 30
0.0
 11
391.190363
 21
720.287612
 31
0.0
  0
LINE
  5
502
100
AcDbEntity
  8
止水栓
  6
EXLTYPE2
 62
     6
100
AcDbLine
 10
404.190358
 20
732.001985
 30
0.0
 11
404.190358
 21
720.287612
 31
0.0
  0
LINE
  5
503
100
AcDbEntity
  8
止水栓
  6
EXLTYPE2
 62
     6
100
AcDbLine
 10
391.190358
 20
732.001985
 30
0.0
 11
391.190358
 21
720.287612
 31
0.0
  0
ARC
  5
504
100
AcDbEntity
  8
止水栓
  6
EXLTYPE2
 62
     6
100
AcDbCircle
 10
399.440851
 20
772.002962
 30
0.0
 40
10.99987
100
AcDbArc
 50
326.937744
 51
33.054687
  0
POLYLINE
  5
505
100
AcDbEntity
  8
止水栓
  6
EXLTYPE2
 62
     6
100
AcDb2dPolyline
 66
     1
 10
0.0
 20
0.0
 30
0.0
 70
   128
  0
VERTEX
  5
506
100
AcDbEntity
  8
止水栓
  6
EXLTYPE2
 62
     6
100
AcDbVertex
100
AcDb2dVertex
 10
406.708918
 20
775.94095
 30
0.0
  0
VERTEX
  5
507
100
AcDbEntity
  8
止水栓
  6
EXLTYPE2
 62
     6
100
AcDbVertex
100
AcDb2dVertex
 10
406.518488
 20
775.755403
 30
0.0
  0
VERTEX
  5
508
100
AcDbEntity
  8
止水栓
  6
EXLTYPE2
 62
     6
100
AcDbVertex
100
AcDb2dVertex
 10
406.337824
 20
775.538118
 30
0.0
  0
VERTEX
  5
509
100
AcDbEntity
  8
止水栓
  6
EXLTYPE2
 62
     6
100
AcDbVertex
100
AcDb2dVertex
 10
406.169367
 20
775.291536
 30
0.0
  0
VERTEX
  5
50A
100
AcDbEntity
  8
止水栓
  6
EXLTYPE2
 62
     6
100
AcDbVertex
100
AcDb2dVertex
 10
406.010675
 20
775.018099
 30
0.0
  0
VERTEX
  5
50B
100
AcDbEntity
  8
止水栓
  6
EXLTYPE2
 62
     6
100
AcDbVertex
100
AcDb2dVertex
 10
405.866632
 20
774.720247
 30
0.0
  0
VERTEX
  5
50C
100
AcDbEntity
  8
止水栓
  6
EXLTYPE2
 62
     6
100
AcDbVertex
100
AcDb2dVertex
 10
405.737238
 20
774.400423
 30
0.0
  0
VERTEX
  5
50D
100
AcDbEntity
  8
止水栓
  6
EXLTYPE2
 62
     6
100
AcDbVertex
100
AcDb2dVertex
 10
405.622492
 20
774.061068
 30
0.0
  0
VERTEX
  5
50E
100
AcDbEntity
  8
止水栓
  6
EXLTYPE2
 62
     6
100
AcDbVertex
100
AcDb2dVertex
 10
405.522394
 20
773.702181
 30
0.0
  0
VERTEX
  5
50F
100
AcDbEntity
  8
止水栓
  6
EXLTYPE2
 62
     6
100
AcDbVertex
100
AcDb2dVertex
 10
405.441828
 20
773.328646
 30
0.0
  0
VERTEX
  5
510
100
AcDbEntity
  8
止水栓
  6
EXLTYPE2
 62
     6
100
AcDbVertex
100
AcDb2dVertex
 10
405.378351
 20
772.942903
 30
0.0
  0
SEQEND
  5
511
100
AcDbEntity
  8
止水栓
  6
EXLTYPE2
 62
     6
  0
POLYLINE
  5
512
100
AcDbEntity
  8
止水栓
  6
EXLTYPE2
 62
     6
100
AcDb2dPolyline
 66
     1
 10
0.0
 20
0.0
 30
0.0
 70
   128
  0
VERTEX
  5
513
100
AcDbEntity
  8
止水栓
  6
EXLTYPE2
 62
     6
100
AcDbVertex
100
AcDb2dVertex
 10
405.378351
 20
772.942903
 30
0.0
  0
VERTEX
  5
514
100
AcDbEntity
  8
止水栓
  6
EXLTYPE2
 62
     6
100
AcDbVertex
100
AcDb2dVertex
 10
405.331964
 20
772.549837
 30
0.0
  0
VERTEX
  5
515
100
AcDbEntity
  8
止水栓
  6
EXLTYPE2
 62
     6
100
AcDbVertex
100
AcDb2dVertex
 10
405.302668
 20
772.149446
 30
0.0
  0
VERTEX
  5
516
100
AcDbEntity
  8
止水栓
  6
EXLTYPE2
 62
     6
100
AcDbVertex
100
AcDb2dVertex
 10
405.292902
 20
771.746614
 30
0.0
  0
SEQEND
  5
517
100
AcDbEntity
  8
止水栓
  6
EXLTYPE2
 62
     6
  0
POLYLINE
  5
518
100
AcDbEntity
  8
止水栓
  6
EXLTYPE2
 62
     6
100
AcDb2dPolyline
 66
     1
 10
0.0
 20
0.0
 30
0.0
 70
   128
  0
VERTEX
  5
519
100
AcDbEntity
  8
止水栓
  6
EXLTYPE2
 62
     6
100
AcDbVertex
100
AcDb2dVertex
 10
405.292902
 20
771.744173
 30
0.0
  0
VERTEX
  5
51A
100
AcDbEntity
  8
止水栓
  6
EXLTYPE2
 62
     6
100
AcDbVertex
100
AcDb2dVertex
 10
405.302668
 20
771.341341
 30
0.0
  0
VERTEX
  5
51B
100
AcDbEntity
  8
止水栓
  6
EXLTYPE2
 62
     6
100
AcDbVertex
100
AcDb2dVertex
 10
405.331964
 20
770.94095
 30
0.0
  0
VERTEX
  5
51C
100
AcDbEntity
  8
止水栓
  6
EXLTYPE2
 62
     6
100
AcDbVertex
100
AcDb2dVertex
 10
405.378351
 20
770.545443
 30
0.0
  0
VERTEX
  5
51D
100
AcDbEntity
  8
止水栓
  6
EXLTYPE2
 62
     6
100
AcDbVertex
100
AcDb2dVertex
 10
405.441828
 20
770.162142
 30
0.0
  0
VERTEX
  5
51E
100
AcDbEntity
  8
止水栓
  6
EXLTYPE2
 62
     6
100
AcDbVertex
100
AcDb2dVertex
 10
405.522394
 20
769.788607
 30
0.0
  0
VERTEX
  5
51F
100
AcDbEntity
  8
止水栓
  6
EXLTYPE2
 62
     6
100
AcDbVertex
100
AcDb2dVertex
 10
405.622492
 20
769.42972
 30
0.0
  0
VERTEX
  5
520
100
AcDbEntity
  8
止水栓
  6
EXLTYPE2
 62
     6
100
AcDbVertex
100
AcDb2dVertex
 10
405.737238
 20
769.090364
 30
0.0
  0
VERTEX
  5
521
100
AcDbEntity
  8
止水栓
  6
EXLTYPE2
 62
     6
100
AcDbVertex
100
AcDb2dVertex
 10
405.866632
 20
768.768099
 30
0.0
  0
VERTEX
  5
522
100
AcDbEntity
  8
止水栓
  6
EXLTYPE2
 62
     6
100
AcDbVertex
100
AcDb2dVertex
 10
406.010675
 20
768.470247
 30
0.0
  0
VERTEX
  5
523
100
AcDbEntity
  8
止水栓
  6
EXLTYPE2
 62
     6
100
AcDbVertex
100
AcDb2dVertex
 10
406.169367
 20
768.199251
 30
0.0
  0
VERTEX
  5
524
100
AcDbEntity
  8
止水栓
  6
EXLTYPE2
 62
     6
100
AcDbVertex
100
AcDb2dVertex
 10
406.337824
 20
767.952669
 30
0.0
  0
VERTEX
  5
525
100
AcDbEntity
  8
止水栓
  6
EXLTYPE2
 62
     6
100
AcDbVertex
100
AcDb2dVertex
 10
406.518488
 20
767.735384
 30
0.0
  0
VERTEX
  5
526
100
AcDbEntity
  8
止水栓
  6
EXLTYPE2
 62
     6
100
AcDbVertex
100
AcDb2dVertex
 10
406.708918
 20
767.547396
 30
0.0
  0
VERTEX
  5
527
100
AcDbEntity
  8
止水栓
  6
EXLTYPE2
 62
     6
100
AcDbVertex
100
AcDb2dVertex
 10
406.906671
 20
767.393587
 30
0.0
  0
VERTEX
  5
528
100
AcDbEntity
  8
止水栓
  6
EXLTYPE2
 62
     6
100
AcDbVertex
100
AcDb2dVertex
 10
407.109308
 20
767.273958
 30
0.0
  0
VERTEX
  5
529
100
AcDbEntity
  8
止水栓
  6
EXLTYPE2
 62
     6
100
AcDbVertex
100
AcDb2dVertex
 10
407.319269
 20
767.186068
 30
0.0
  0
VERTEX
  5
52A
100
AcDbEntity
  8
止水栓
  6
EXLTYPE2
 62
     6
100
AcDbVertex
100
AcDb2dVertex
 10
407.52923
 20
767.132357
 30
0.0
  0
VERTEX
  5
52B
100
AcDbEntity
  8
止水栓
  6
EXLTYPE2
 62
     6
100
AcDbVertex
100
AcDb2dVertex
 10
407.744074
 20
767.115267
 30
0.0
  0
VERTEX
  5
52C
100
AcDbEntity
  8
止水栓
  6
EXLTYPE2
 62
     6
100
AcDbVertex
100
AcDb2dVertex
 10
407.956476
 20
767.132357
 30
0.0
  0
VERTEX
  5
52D
100
AcDbEntity
  8
止水栓
  6
EXLTYPE2
 62
     6
100
AcDbVertex
100
AcDb2dVertex
 10
408.168879
 20
767.186068
 30
0.0
  0
VERTEX
  5
52E
100
AcDbEntity
  8
止水栓
  6
EXLTYPE2
 62
     6
100
AcDbVertex
100
AcDb2dVertex
 10
408.378839
 20
767.273958
 30
0.0
  0
VERTEX
  5
52F
100
AcDbEntity
  8
止水栓
  6
EXLTYPE2
 62
     6
100
AcDbVertex
100
AcDb2dVertex
 10
408.581476
 20
767.393587
 30
0.0
  0
VERTEX
  5
530
100
AcDbEntity
  8
止水栓
  6
EXLTYPE2
 62
     6
100
AcDbVertex
100
AcDb2dVertex
 10
408.77923
 20
767.549837
 30
0.0
  0
VERTEX
  5
531
100
AcDbEntity
  8
止水栓
  6
EXLTYPE2
 62
     6
100
AcDbVertex
100
AcDb2dVertex
 10
408.967218
 20
767.735384
 30
0.0
  0
VERTEX
  5
532
100
AcDbEntity
  8
止水栓
  6
EXLTYPE2
 62
     6
100
AcDbVertex
100
AcDb2dVertex
 10
409.147882
 20
767.952669
 30
0.0
  0
VERTEX
  5
533
100
AcDbEntity
  8
止水栓
  6
EXLTYPE2
 62
     6
100
AcDbVertex
100
AcDb2dVertex
 10
409.318781
 20
768.19681
 30
0.0
  0
VERTEX
  5
534
100
AcDbEntity
  8
止水栓
  6
EXLTYPE2
 62
     6
100
AcDbVertex
100
AcDb2dVertex
 10
409.475031
 20
768.470247
 30
0.0
  0
VERTEX
  5
535
100
AcDbEntity
  8
止水栓
  6
EXLTYPE2
 62
     6
100
AcDbVertex
100
AcDb2dVertex
 10
409.619074
 20
768.768099
 30
0.0
  0
VERTEX
  5
536
100
AcDbEntity
  8
止水栓
  6
EXLTYPE2
 62
     6
100
AcDbVertex
100
AcDb2dVertex
 10
409.75091
 20
769.090364
 30
0.0
  0
VERTEX
  5
537
100
AcDbEntity
  8
止水栓
  6
EXLTYPE2
 62
     6
100
AcDbVertex
100
AcDb2dVertex
 10
409.865656
 20
769.42972
 30
0.0
  0
VERTEX
  5
538
100
AcDbEntity
  8
止水栓
  6
EXLTYPE2
 62
     6
100
AcDbVertex
100
AcDb2dVertex
 10
409.963312
 20
769.788607
 30
0.0
  0
VERTEX
  5
539
100
AcDbEntity
  8
止水栓
  6
EXLTYPE2
 62
     6
100
AcDbVertex
100
AcDb2dVertex
 10
410.043879
 20
770.1597
 30
0.0
  0
VERTEX
  5
53A
100
AcDbEntity
  8
止水栓
  6
EXLTYPE2
 62
     6
100
AcDbVertex
100
AcDb2dVertex
 10
410.109796
 20
770.545443
 30
0.0
  0
VERTEX
  5
53B
100
AcDbEntity
  8
止水栓
  6
EXLTYPE2
 62
     6
100
AcDbVertex
100
AcDb2dVertex
 10
410.156183
 20
770.94095
 30
0.0
  0
VERTEX
  5
53C
100
AcDbEntity
  8
止水栓
  6
EXLTYPE2
 62
     6
100
AcDbVertex
100
AcDb2dVertex
 10
410.183039
 20
771.341341
 30
0.0
  0
VERTEX
  5
53D
100
AcDbEntity
  8
止水栓
  6
EXLTYPE2
 62
     6
100
AcDbVertex
100
AcDb2dVertex
 10
410.192804
 20
771.744173
 30
0.0
  0
VERTEX
  5
53E
100
AcDbEntity
  8
止水栓
  6
EXLTYPE2
 62
     6
100
AcDbVertex
100
AcDb2dVertex
 10
410.183039
 20
772.147005
 30
0.0
  0
VERTEX
  5
53F
100
AcDbEntity
  8
止水栓
  6
EXLTYPE2
 62
     6
100
AcDbVertex
100
AcDb2dVertex
 10
410.156183
 20
772.547396
 30
0.0
  0
VERTEX
  5
540
100
AcDbEntity
  8
止水栓
  6
EXLTYPE2
 62
     6
100
AcDbVertex
100
AcDb2dVertex
 10
410.109796
 20
772.942903
 30
0.0
  0
VERTEX
  5
541
100
AcDbEntity
  8
止水栓
  6
EXLTYPE2
 62
     6
100
AcDbVertex
100
AcDb2dVertex
 10
410.04632
 20
773.328646
 30
0.0
  0
VERTEX
  5
542
100
AcDbEntity
  8
止水栓
  6
EXLTYPE2
 62
     6
100
AcDbVertex
100
AcDb2dVertex
 10
409.963312
 20
773.702181
 30
0.0
  0
VERTEX
  5
543
100
AcDbEntity
  8
止水栓
  6
EXLTYPE2
 62
     6
100
AcDbVertex
100
AcDb2dVertex
 10
409.865656
 20
774.061068
 30
0.0
  0
VERTEX
  5
544
100
AcDbEntity
  8
止水栓
  6
EXLTYPE2
 62
     6
100
AcDbVertex
100
AcDb2dVertex
 10
409.75091
 20
774.400423
 30
0.0
  0
VERTEX
  5
545
100
AcDbEntity
  8
止水栓
  6
EXLTYPE2
 62
     6
100
AcDbVertex
100
AcDb2dVertex
 10
409.619074
 20
774.722689
 30
0.0
  0
VERTEX
  5
546
100
AcDbEntity
  8
止水栓
  6
EXLTYPE2
 62
     6
100
AcDbVertex
100
AcDb2dVertex
 10
409.475031
 20
775.018099
 30
0.0
  0
VERTEX
  5
547
100
AcDbEntity
  8
止水栓
  6
EXLTYPE2
 62
     6
100
AcDbVertex
100
AcDb2dVertex
 10
409.318781
 20
775.291536
 30
0.0
  0
VERTEX
  5
548
100
AcDbEntity
  8
止水栓
  6
EXLTYPE2
 62
     6
100
AcDbVertex
100
AcDb2dVertex
 10
409.147882
 20
775.538118
 30
0.0
  0
VERTEX
  5
549
100
AcDbEntity
  8
止水栓
  6
EXLTYPE2
 62
     6
100
AcDbVertex
100
AcDb2dVertex
 10
408.96966
 20
775.755403
 30
0.0
  0
VERTEX
  5
54A
100
AcDbEntity
  8
止水栓
  6
EXLTYPE2
 62
     6
100
AcDbVertex
100
AcDb2dVertex
 10
408.77923
 20
775.94095
 30
0.0
  0
VERTEX
  5
54B
100
AcDbEntity
  8
止水栓
  6
EXLTYPE2
 62
     6
100
AcDbVertex
100
AcDb2dVertex
 10
408.581476
 20
776.094759
 30
0.0
  0
VERTEX
  5
54C
100
AcDbEntity
  8
止水栓
  6
EXLTYPE2
 62
     6
100
AcDbVertex
100
AcDb2dVertex
 10
408.378839
 20
776.216829
 30
0.0
  0
VERTEX
  5
54D
100
AcDbEntity
  8
止水栓
  6
EXLTYPE2
 62
     6
100
AcDbVertex
100
AcDb2dVertex
 10
408.168879
 20
776.30472
 30
0.0
  0
VERTEX
  5
54E
100
AcDbEntity
  8
止水栓
  6
EXLTYPE2
 62
     6
100
AcDbVertex
100
AcDb2dVertex
 10
407.956476
 20
776.358431
 30
0.0
  0
VERTEX
  5
54F
100
AcDbEntity
  8
止水栓
  6
EXLTYPE2
 62
     6
100
AcDbVertex
100
AcDb2dVertex
 10
407.744074
 20
776.375521
 30
0.0
  0
VERTEX
  5
550
100
AcDbEntity
  8
止水栓
  6
EXLTYPE2
 62
     6
100
AcDbVertex
100
AcDb2dVertex
 10
407.52923
 20
776.355989
 30
0.0
  0
VERTEX
  5
551
100
AcDbEntity
  8
止水栓
  6
EXLTYPE2
 62
     6
100
AcDbVertex
100
AcDb2dVertex
 10
407.319269
 20
776.30472
 30
0.0
  0
VERTEX
  5
552
100
AcDbEntity
  8
止水栓
  6
EXLTYPE2
 62
     6
100
AcDbVertex
100
AcDb2dVertex
 10
407.109308
 20
776.216829
 30
0.0
  0
VERTEX
  5
553
100
AcDbEntity
  8
止水栓
  6
EXLTYPE2
 62
     6
100
AcDbVertex
100
AcDb2dVertex
 10
406.906671
 20
776.094759
 30
0.0
  0
VERTEX
  5
554
100
AcDbEntity
  8
止水栓
  6
EXLTYPE2
 62
     6
100
AcDbVertex
100
AcDb2dVertex
 10
406.708918
 20
775.94095
 30
0.0
  0
SEQEND
  5
555
100
AcDbEntity
  8
止水栓
  6
EXLTYPE2
 62
     6
  0
POLYLINE
  5
556
100
AcDbEntity
  8
止水栓
  6
EXLTYPE2
 62
     6
100
AcDb2dPolyline
 66
     1
 10
0.0
 20
0.0
 30
0.0
 70
   128
  0
VERTEX
  5
557
100
AcDbEntity
  8
止水栓
  6
EXLTYPE2
 62
     6
100
AcDbVertex
100
AcDb2dVertex
 10
385.195246
 20
771.751497
 30
0.0
  0
VERTEX
  5
558
100
AcDbEntity
  8
止水栓
  6
EXLTYPE2
 62
     6
100
AcDbVertex
100
AcDb2dVertex
 10
385.205011
 20
771.314485
 30
0.0
  0
VERTEX
  5
559
100
AcDbEntity
  8
止水栓
  6
EXLTYPE2
 62
     6
100
AcDbVertex
100
AcDb2dVertex
 10
385.231867
 20
770.882357
 30
0.0
  0
VERTEX
  5
55A
100
AcDbEntity
  8
止水栓
  6
EXLTYPE2
 62
     6
100
AcDbVertex
100
AcDb2dVertex
 10
385.278254
 20
770.457552
 30
0.0
  0
VERTEX
  5
55B
100
AcDbEntity
  8
止水栓
  6
EXLTYPE2
 62
     6
100
AcDbVertex
100
AcDb2dVertex
 10
385.344171
 20
770.042513
 30
0.0
  0
VERTEX
  5
55C
100
AcDbEntity
  8
止水栓
  6
EXLTYPE2
 62
     6
100
AcDbVertex
100
AcDb2dVertex
 10
385.424738
 20
769.642122
 30
0.0
  0
VERTEX
  5
55D
100
AcDbEntity
  8
止水栓
  6
EXLTYPE2
 62
     6
100
AcDbVertex
100
AcDb2dVertex
 10
385.522394
 20
769.25638
 30
0.0
  0
VERTEX
  5
55E
100
AcDbEntity
  8
止水栓
  6
EXLTYPE2
 62
     6
100
AcDbVertex
100
AcDb2dVertex
 10
385.639582
 20
768.887728
 30
0.0
  0
VERTEX
  5
55F
100
AcDbEntity
  8
止水栓
  6
EXLTYPE2
 62
     6
100
AcDbVertex
100
AcDb2dVertex
 10
385.768976
 20
768.543489
 30
0.0
  0
VERTEX
  5
560
100
AcDbEntity
  8
止水栓
  6
EXLTYPE2
 62
     6
100
AcDbVertex
100
AcDb2dVertex
 10
385.913019
 20
768.221224
 30
0.0
  0
VERTEX
  5
561
100
AcDbEntity
  8
止水栓
  6
EXLTYPE2
 62
     6
100
AcDbVertex
100
AcDb2dVertex
 10
386.071711
 20
767.928255
 30
0.0
  0
VERTEX
  5
562
100
AcDbEntity
  8
止水栓
  6
EXLTYPE2
 62
     6
100
AcDbVertex
100
AcDb2dVertex
 10
386.240168
 20
767.662142
 30
0.0
  0
VERTEX
  5
563
100
AcDbEntity
  8
止水栓
  6
EXLTYPE2
 62
     6
100
AcDbVertex
100
AcDb2dVertex
 10
386.420832
 20
767.430208
 30
0.0
  0
VERTEX
  5
564
100
AcDbEntity
  8
止水栓
  6
EXLTYPE2
 62
     6
100
AcDbVertex
100
AcDb2dVertex
 10
386.60882
 20
767.227571
 30
0.0
  0
VERTEX
  5
565
100
AcDbEntity
  8
止水栓
  6
EXLTYPE2
 62
     6
100
AcDbVertex
100
AcDb2dVertex
 10
386.806574
 20
767.061556
 30
0.0
  0
VERTEX
  5
566
100
AcDbEntity
  8
止水栓
  6
EXLTYPE2
 62
     6
100
AcDbVertex
100
AcDb2dVertex
 10
387.011652
 20
766.92972
 30
0.0
  0
VERTEX
  5
567
100
AcDbEntity
  8
止水栓
  6
EXLTYPE2
 62
     6
100
AcDbVertex
100
AcDb2dVertex
 10
387.219171
 20
766.836946
 30
0.0
  0
VERTEX
  5
568
100
AcDbEntity
  8
止水栓
  6
EXLTYPE2
 62
     6
100
AcDbVertex
100
AcDb2dVertex
 10
387.431574
 20
766.778353
 30
0.0
  0
VERTEX
  5
569
100
AcDbEntity
  8
止水栓
  6
EXLTYPE2
 62
     6
100
AcDbVertex
100
AcDb2dVertex
 10
387.643976
 20
766.761263
 30
0.0
  0
VERTEX
  5
56A
100
AcDbEntity
  8
止水栓
  6
EXLTYPE2
 62
     6
100
AcDbVertex
100
AcDb2dVertex
 10
387.85882
 20
766.780794
 30
0.0
  0
VERTEX
  5
56B
100
AcDbEntity
  8
止水栓
  6
EXLTYPE2
 62
     6
100
AcDbVertex
100
AcDb2dVertex
 10
388.071222
 20
766.836946
 30
0.0
  0
VERTEX
  5
56C
100
AcDbEntity
  8
止水栓
  6
EXLTYPE2
 62
     6
100
AcDbVertex
100
AcDb2dVertex
 10
388.278742
 20
766.92972
 30
0.0
  0
VERTEX
  5
56D
100
AcDbEntity
  8
止水栓
  6
EXLTYPE2
 62
     6
100
AcDbVertex
100
AcDb2dVertex
 10
388.48382
 20
767.061556
 30
0.0
  0
VERTEX
  5
56E
100
AcDbEntity
  8
止水栓
  6
EXLTYPE2
 62
     6
100
AcDbVertex
100
AcDb2dVertex
 10
388.681574
 20
767.227571
 30
0.0
  0
VERTEX
  5
56F
100
AcDbEntity
  8
止水栓
  6
EXLTYPE2
 62
     6
100
AcDbVertex
100
AcDb2dVertex
 10
388.869562
 20
767.430208
 30
0.0
  0
VERTEX
  5
570
100
AcDbEntity
  8
止水栓
  6
EXLTYPE2
 62
     6
100
AcDbVertex
100
AcDb2dVertex
 10
389.050226
 20
767.664583
 30
0.0
  0
VERTEX
  5
571
100
AcDbEntity
  8
止水栓
  6
EXLTYPE2
 62
     6
100
AcDbVertex
100
AcDb2dVertex
 10
389.218683
 20
767.928255
 30
0.0
  0
VERTEX
  5
572
100
AcDbEntity
  8
止水栓
  6
EXLTYPE2
 62
     6
100
AcDbVertex
100
AcDb2dVertex
 10
389.377375
 20
768.221224
 30
0.0
  0
VERTEX
  5
573
100
AcDbEntity
  8
止水栓
  6
EXLTYPE2
 62
     6
100
AcDbVertex
100
AcDb2dVertex
 10
389.521418
 20
768.543489
 30
0.0
  0
VERTEX
  5
574
100
AcDbEntity
  8
止水栓
  6
EXLTYPE2
 62
     6
100
AcDbVertex
100
AcDb2dVertex
 10
389.650812
 20
768.887728
 30
0.0
  0
VERTEX
  5
575
100
AcDbEntity
  8
止水栓
  6
EXLTYPE2
 62
     6
100
AcDbVertex
100
AcDb2dVertex
 10
389.765558
 20
769.25638
 30
0.0
  0
VERTEX
  5
576
100
AcDbEntity
  8
止水栓
  6
EXLTYPE2
 62
     6
100
AcDbVertex
100
AcDb2dVertex
 10
389.865656
 20
769.642122
 30
0.0
  0
VERTEX
  5
577
100
AcDbEntity
  8
止水栓
  6
EXLTYPE2
 62
     6
100
AcDbVertex
100
AcDb2dVertex
 10
389.946222
 20
770.044954
 30
0.0
  0
VERTEX
  5
578
100
AcDbEntity
  8
止水栓
  6
EXLTYPE2
 62
     6
100
AcDbVertex
100
AcDb2dVertex
 10
390.01214
 20
770.459993
 30
0.0
  0
VERTEX
  5
579
100
AcDbEntity
  8
止水栓
  6
EXLTYPE2
 62
     6
100
AcDbVertex
100
AcDb2dVertex
 10
390.058527
 20
770.884798
 30
0.0
  0
VERTEX
  5
57A
100
AcDbEntity
  8
止水栓
  6
EXLTYPE2
 62
     6
100
AcDbVertex
100
AcDb2dVertex
 10
390.085382
 20
771.316927
 30
0.0
  0
VERTEX
  5
57B
100
AcDbEntity
  8
止水栓
  6
EXLTYPE2
 62
     6
100
AcDbVertex
100
AcDb2dVertex
 10
390.095148
 20
771.751497
 30
0.0
  0
VERTEX
  5
57C
100
AcDbEntity
  8
止水栓
  6
EXLTYPE2
 62
     6
100
AcDbVertex
100
AcDb2dVertex
 10
390.085382
 20
772.186068
 30
0.0
  0
VERTEX
  5
57D
100
AcDbEntity
  8
止水栓
  6
EXLTYPE2
 62
     6
100
AcDbVertex
100
AcDb2dVertex
 10
390.056086
 20
772.618196
 30
0.0
  0
VERTEX
  5
57E
100
AcDbEntity
  8
止水栓
  6
EXLTYPE2
 62
     6
100
AcDbVertex
100
AcDb2dVertex
 10
390.009699
 20
773.043001
 30
0.0
  0
VERTEX
  5
57F
100
AcDbEntity
  8
止水栓
  6
EXLTYPE2
 62
     6
100
AcDbVertex
100
AcDb2dVertex
 10
389.946222
 20
773.45804
 30
0.0
  0
VERTEX
  5
580
100
AcDbEntity
  8
止水栓
  6
EXLTYPE2
 62
     6
100
AcDbVertex
100
AcDb2dVertex
 10
389.865656
 20
773.860872
 30
0.0
  0
VERTEX
  5
581
100
AcDbEntity
  8
止水栓
  6
EXLTYPE2
 62
     6
100
AcDbVertex
100
AcDb2dVertex
 10
389.765558
 20
774.246614
 30
0.0
  0
VERTEX
  5
582
100
AcDbEntity
  8
止水栓
  6
EXLTYPE2
 62
     6
100
AcDbVertex
100
AcDb2dVertex
 10
389.650812
 20
774.612825
 30
0.0
  0
VERTEX
  5
583
100
AcDbEntity
  8
止水栓
  6
EXLTYPE2
 62
     6
100
AcDbVertex
100
AcDb2dVertex
 10
389.521418
 20
774.959505
 30
0.0
  0
VERTEX
  5
584
100
AcDbEntity
  8
止水栓
  6
EXLTYPE2
 62
     6
100
AcDbVertex
100
AcDb2dVertex
 10
389.377375
 20
775.279329
 30
0.0
  0
VERTEX
  5
585
100
AcDbEntity
  8
止水栓
  6
EXLTYPE2
 62
     6
100
AcDbVertex
100
AcDb2dVertex
 10
389.218683
 20
775.574739
 30
0.0
  0
VERTEX
  5
586
100
AcDbEntity
  8
止水栓
  6
EXLTYPE2
 62
     6
100
AcDbVertex
100
AcDb2dVertex
 10
389.050226
 20
775.838411
 30
0.0
  0
VERTEX
  5
587
100
AcDbEntity
  8
止水栓
  6
EXLTYPE2
 62
     6
100
AcDbVertex
100
AcDb2dVertex
 10
388.869562
 20
776.072786
 30
0.0
  0
VERTEX
  5
588
100
AcDbEntity
  8
止水栓
  6
EXLTYPE2
 62
     6
100
AcDbVertex
100
AcDb2dVertex
 10
388.681574
 20
776.272982
 30
0.0
  0
VERTEX
  5
589
100
AcDbEntity
  8
止水栓
  6
EXLTYPE2
 62
     6
100
AcDbVertex
100
AcDb2dVertex
 10
388.48382
 20
776.441439
 30
0.0
  0
VERTEX
  5
58A
100
AcDbEntity
  8
止水栓
  6
EXLTYPE2
 62
     6
100
AcDbVertex
100
AcDb2dVertex
 10
388.278742
 20
776.570833
 30
0.0
  0
VERTEX
  5
58B
100
AcDbEntity
  8
止水栓
  6
EXLTYPE2
 62
     6
100
AcDbVertex
100
AcDb2dVertex
 10
388.071222
 20
776.666048
 30
0.0
  0
VERTEX
  5
58C
100
AcDbEntity
  8
止水栓
  6
EXLTYPE2
 62
     6
100
AcDbVertex
100
AcDb2dVertex
 10
387.85882
 20
776.7222
 30
0.0
  0
VERTEX
  5
58D
100
AcDbEntity
  8
止水栓
  6
EXLTYPE2
 62
     6
100
AcDbVertex
100
AcDb2dVertex
 10
387.643976
 20
776.741732
 30
0.0
  0
VERTEX
  5
58E
100
AcDbEntity
  8
止水栓
  6
EXLTYPE2
 62
     6
100
AcDbVertex
100
AcDb2dVertex
 10
387.431574
 20
776.7222
 30
0.0
  0
VERTEX
  5
58F
100
AcDbEntity
  8
止水栓
  6
EXLTYPE2
 62
     6
100
AcDbVertex
100
AcDb2dVertex
 10
387.219171
 20
776.666048
 30
0.0
  0
VERTEX
  5
590
100
AcDbEntity
  8
止水栓
  6
EXLTYPE2
 62
     6
100
AcDbVertex
100
AcDb2dVertex
 10
387.011652
 20
776.570833
 30
0.0
  0
VERTEX
  5
591
100
AcDbEntity
  8
止水栓
  6
EXLTYPE2
 62
     6
100
AcDbVertex
100
AcDb2dVertex
 10
386.806574
 20
776.441439
 30
0.0
  0
VERTEX
  5
592
100
AcDbEntity
  8
止水栓
  6
EXLTYPE2
 62
     6
100
AcDbVertex
100
AcDb2dVertex
 10
386.60882
 20
776.272982
 30
0.0
  0
SEQEND
  5
593
100
AcDbEntity
  8
止水栓
  6
EXLTYPE2
 62
     6
  0
ARC
  5
594
100
AcDbEntity
  8
止水栓
  6
EXLTYPE2
 62
     6
100
AcDbCircle
 10
395.939875
 20
772.002962
 30
0.0
 40
10.998535
100
AcDbArc
 50
146.94841
 51
213.059082
  0
POLYLINE
  5
595
100
AcDbEntity
  8
止水栓
  6
EXLTYPE2
 62
     6
100
AcDb2dPolyline
 66
     1
 10
0.0
 20
0.0
 30
0.0
 70
   128
  0
VERTEX
  5
596
100
AcDbEntity
  8
止水栓
  6
EXLTYPE2
 62
     6
100
AcDbVertex
100
AcDb2dVertex
 10
386.60882
 20
776.272982
 30
0.0
  0
VERTEX
  5
597
100
AcDbEntity
  8
止水栓
  6
EXLTYPE2
 62
     6
100
AcDbVertex
100
AcDb2dVertex
 10
386.420832
 20
776.072786
 30
0.0
  0
VERTEX
  5
598
100
AcDbEntity
  8
止水栓
  6
EXLTYPE2
 62
     6
100
AcDbVertex
100
AcDb2dVertex
 10
386.240168
 20
775.838411
 30
0.0
  0
VERTEX
  5
599
100
AcDbEntity
  8
止水栓
  6
EXLTYPE2
 62
     6
100
AcDbVertex
100
AcDb2dVertex
 10
386.069269
 20
775.574739
 30
0.0
  0
VERTEX
  5
59A
100
AcDbEntity
  8
止水栓
  6
EXLTYPE2
 62
     6
100
AcDbVertex
100
AcDb2dVertex
 10
385.913019
 20
775.279329
 30
0.0
  0
VERTEX
  5
59B
100
AcDbEntity
  8
止水栓
  6
EXLTYPE2
 62
     6
100
AcDbVertex
100
AcDb2dVertex
 10
385.768976
 20
774.959505
 30
0.0
  0
VERTEX
  5
59C
100
AcDbEntity
  8
止水栓
  6
EXLTYPE2
 62
     6
100
AcDbVertex
100
AcDb2dVertex
 10
385.63714
 20
774.612825
 30
0.0
  0
VERTEX
  5
59D
100
AcDbEntity
  8
止水栓
  6
EXLTYPE2
 62
     6
100
AcDbVertex
100
AcDb2dVertex
 10
385.522394
 20
774.246614
 30
0.0
  0
VERTEX
  5
59E
100
AcDbEntity
  8
止水栓
  6
EXLTYPE2
 62
     6
100
AcDbVertex
100
AcDb2dVertex
 10
385.424738
 20
773.860872
 30
0.0
  0
VERTEX
  5
59F
100
AcDbEntity
  8
止水栓
  6
EXLTYPE2
 62
     6
100
AcDbVertex
100
AcDb2dVertex
 10
385.344171
 20
773.45804
 30
0.0
  0
VERTEX
  5
5A0
100
AcDbEntity
  8
止水栓
  6
EXLTYPE2
 62
     6
100
AcDbVertex
100
AcDb2dVertex
 10
385.278254
 20
773.043001
 30
0.0
  0
SEQEND
  5
5A1
100
AcDbEntity
  8
止水栓
  6
EXLTYPE2
 62
     6
  0
POLYLINE
  5
5A2
100
AcDbEntity
  8
止水栓
  6
EXLTYPE2
 62
     6
100
AcDb2dPolyline
 66
     1
 10
0.0
 20
0.0
 30
0.0
 70
   128
  0
VERTEX
  5
5A3
100
AcDbEntity
  8
止水栓
  6
EXLTYPE2
 62
     6
100
AcDbVertex
100
AcDb2dVertex
 10
385.278254
 20
773.043001
 30
0.0
  0
VERTEX
  5
5A4
100
AcDbEntity
  8
止水栓
  6
EXLTYPE2
 62
     6
100
AcDbVertex
100
AcDb2dVertex
 10
385.231867
 20
772.618196
 30
0.0
  0
VERTEX
  5
5A5
100
AcDbEntity
  8
止水栓
  6
EXLTYPE2
 62
     6
100
AcDbVertex
100
AcDb2dVertex
 10
385.205011
 20
772.186068
 30
0.0
  0
VERTEX
  5
5A6
100
AcDbEntity
  8
止水栓
  6
EXLTYPE2
 62
     6
100
AcDbVertex
100
AcDb2dVertex
 10
385.195246
 20
771.751497
 30
0.0
  0
SEQEND
  5
5A7
100
AcDbEntity
  8
止水栓
  6
EXLTYPE2
 62
     6
  0
LINE
  5
5A8
100
AcDbEntity
  8
止水栓
  6
EXLTYPE2
 62
     6
100
AcDbLine
 10
386.721125
 20
766.001985
 30
0.0
 11
408.659601
 21
766.001985
 31
0.0
  0
POLYLINE
  5
5A9
100
AcDbEntity
  8
止水栓
  6
EXLTYPE2
 62
     6
100
AcDb2dPolyline
 66
     1
 10
0.0
 20
0.0
 30
0.0
 70
   128
  0
VERTEX
  5
5AA
100
AcDbEntity
  8
止水栓
  6
EXLTYPE2
 62
     6
100
AcDbVertex
100
AcDb2dVertex
 10
397.690363
 20
766.216829
 30
0.0
  0
VERTEX
  5
5AB
100
AcDbEntity
  8
止水栓
  6
EXLTYPE2
 62
     6
100
AcDbVertex
100
AcDb2dVertex
 10
398.18841
 20
766.238802
 30
0.0
  0
VERTEX
  5
5AC
100
AcDbEntity
  8
止水栓
  6
EXLTYPE2
 62
     6
100
AcDbVertex
100
AcDb2dVertex
 10
398.684015
 20
766.30472
 30
0.0
  0
VERTEX
  5
5AD
100
AcDbEntity
  8
止水栓
  6
EXLTYPE2
 62
     6
100
AcDbVertex
100
AcDb2dVertex
 10
399.172296
 20
766.407259
 30
0.0
  0
VERTEX
  5
5AE
100
AcDbEntity
  8
止水栓
  6
EXLTYPE2
 62
     6
100
AcDbVertex
100
AcDb2dVertex
 10
399.658136
 20
766.553743
 30
0.0
  0
VERTEX
  5
5AF
100
AcDbEntity
  8
止水栓
  6
EXLTYPE2
 62
     6
100
AcDbVertex
100
AcDb2dVertex
 10
400.126886
 20
766.73929
 30
0.0
  0
VERTEX
  5
5B0
100
AcDbEntity
  8
止水栓
  6
EXLTYPE2
 62
     6
100
AcDbVertex
100
AcDb2dVertex
 10
400.578546
 20
766.961458
 30
0.0
  0
VERTEX
  5
5B1
100
AcDbEntity
  8
止水栓
  6
EXLTYPE2
 62
     6
100
AcDbVertex
100
AcDb2dVertex
 10
401.008234
 20
767.222689
 30
0.0
  0
VERTEX
  5
5B2
100
AcDbEntity
  8
止水栓
  6
EXLTYPE2
 62
     6
100
AcDbVertex
100
AcDb2dVertex
 10
401.411066
 20
767.518099
 30
0.0
  0
VERTEX
  5
5B3
100
AcDbEntity
  8
止水栓
  6
EXLTYPE2
 62
     6
100
AcDbVertex
100
AcDb2dVertex
 10
401.787043
 20
767.845247
 30
0.0
  0
VERTEX
  5
5B4
100
AcDbEntity
  8
止水栓
  6
EXLTYPE2
 62
     6
100
AcDbVertex
100
AcDb2dVertex
 10
402.128839
 20
768.204134
 30
0.0
  0
VERTEX
  5
5B5
100
AcDbEntity
  8
止水栓
  6
EXLTYPE2
 62
     6
100
AcDbVertex
100
AcDb2dVertex
 10
402.438898
 20
768.589876
 30
0.0
  0
VERTEX
  5
5B6
100
AcDbEntity
  8
止水栓
  6
EXLTYPE2
 62
     6
100
AcDbVertex
100
AcDb2dVertex
 10
402.712336
 20
768.997591
 30
0.0
  0
VERTEX
  5
5B7
100
AcDbEntity
  8
止水栓
  6
EXLTYPE2
 62
     6
100
AcDbVertex
100
AcDb2dVertex
 10
402.949152
 20
769.427278
 30
0.0
  0
VERTEX
  5
5B8
100
AcDbEntity
  8
止水栓
  6
EXLTYPE2
 62
     6
100
AcDbVertex
100
AcDb2dVertex
 10
403.142023
 20
769.876497
 30
0.0
  0
VERTEX
  5
5B9
100
AcDbEntity
  8
止水栓
  6
EXLTYPE2
 62
     6
100
AcDbVertex
100
AcDb2dVertex
 10
403.295832
 20
770.340364
 30
0.0
  0
VERTEX
  5
5BA
100
AcDbEntity
  8
止水栓
  6
EXLTYPE2
 62
     6
100
AcDbVertex
100
AcDb2dVertex
 10
403.405695
 20
770.813997
 30
0.0
  0
VERTEX
  5
5BB
100
AcDbEntity
  8
止水栓
  6
EXLTYPE2
 62
     6
100
AcDbVertex
100
AcDb2dVertex
 10
403.471613
 20
771.294954
 30
0.0
  0
VERTEX
  5
5BC
100
AcDbEntity
  8
止水栓
  6
EXLTYPE2
 62
     6
100
AcDbVertex
100
AcDb2dVertex
 10
403.496027
 20
771.778353
 30
0.0
  0
VERTEX
  5
5BD
100
AcDbEntity
  8
止水栓
  6
EXLTYPE2
 62
     6
100
AcDbVertex
100
AcDb2dVertex
 10
403.471613
 20
772.264193
 30
0.0
  0
VERTEX
  5
5BE
100
AcDbEntity
  8
止水栓
  6
EXLTYPE2
 62
     6
100
AcDbVertex
100
AcDb2dVertex
 10
403.405695
 20
772.74515
 30
0.0
  0
VERTEX
  5
5BF
100
AcDbEntity
  8
止水栓
  6
EXLTYPE2
 62
     6
100
AcDbVertex
100
AcDb2dVertex
 10
403.295832
 20
773.218782
 30
0.0
  0
VERTEX
  5
5C0
100
AcDbEntity
  8
止水栓
  6
EXLTYPE2
 62
     6
100
AcDbVertex
100
AcDb2dVertex
 10
403.142023
 20
773.680208
 30
0.0
  0
VERTEX
  5
5C1
100
AcDbEntity
  8
止水栓
  6
EXLTYPE2
 62
     6
100
AcDbVertex
100
AcDb2dVertex
 10
402.949152
 20
774.129427
 30
0.0
  0
VERTEX
  5
5C2
100
AcDbEntity
  8
止水栓
  6
EXLTYPE2
 62
     6
100
AcDbVertex
100
AcDb2dVertex
 10
402.712336
 20
774.559114
 30
0.0
  0
VERTEX
  5
5C3
100
AcDbEntity
  8
止水栓
  6
EXLTYPE2
 62
     6
100
AcDbVertex
100
AcDb2dVertex
 10
402.438898
 20
774.969271
 30
0.0
  0
VERTEX
  5
5C4
100
AcDbEntity
  8
止水栓
  6
EXLTYPE2
 62
     6
100
AcDbVertex
100
AcDb2dVertex
 10
402.128839
 20
775.352571
 30
0.0
  0
VERTEX
  5
5C5
100
AcDbEntity
  8
止水栓
  6
EXLTYPE2
 62
     6
100
AcDbVertex
100
AcDb2dVertex
 10
401.787043
 20
775.711458
 30
0.0
  0
VERTEX
  5
5C6
100
AcDbEntity
  8
止水栓
  6
EXLTYPE2
 62
     6
100
AcDbVertex
100
AcDb2dVertex
 10
401.411066
 20
776.038607
 30
0.0
  0
VERTEX
  5
5C7
100
AcDbEntity
  8
止水栓
  6
EXLTYPE2
 62
     6
100
AcDbVertex
100
AcDb2dVertex
 10
401.008234
 20
776.334017
 30
0.0
  0
VERTEX
  5
5C8
100
AcDbEntity
  8
止水栓
  6
EXLTYPE2
 62
     6
100
AcDbVertex
100
AcDb2dVertex
 10
400.578546
 20
776.595247
 30
0.0
  0
VERTEX
  5
5C9
100
AcDbEntity
  8
止水栓
  6
EXLTYPE2
 62
     6
100
AcDbVertex
100
AcDb2dVertex
 10
400.126886
 20
776.819857
 30
0.0
  0
VERTEX
  5
5CA
100
AcDbEntity
  8
止水栓
  6
EXLTYPE2
 62
     6
100
AcDbVertex
100
AcDb2dVertex
 10
399.658136
 20
777.005403
 30
0.0
  0
VERTEX
  5
5CB
100
AcDbEntity
  8
止水栓
  6
EXLTYPE2
 62
     6
100
AcDbVertex
100
AcDb2dVertex
 10
399.172296
 20
777.149446
 30
0.0
  0
VERTEX
  5
5CC
100
AcDbEntity
  8
止水栓
  6
EXLTYPE2
 62
     6
100
AcDbVertex
100
AcDb2dVertex
 10
398.676691
 20
777.254427
 30
0.0
  0
VERTEX
  5
5CD
100
AcDbEntity
  8
止水栓
  6
EXLTYPE2
 62
     6
100
AcDbVertex
100
AcDb2dVertex
 10
398.17132
 20
777.317903
 30
0.0
  0
VERTEX
  5
5CE
100
AcDbEntity
  8
止水栓
  6
EXLTYPE2
 62
     6
100
AcDbVertex
100
AcDb2dVertex
 10
397.663507
 20
777.339876
 30
0.0
  0
VERTEX
  5
5CF
100
AcDbEntity
  8
止水栓
  6
EXLTYPE2
 62
     6
100
AcDbVertex
100
AcDb2dVertex
 10
397.155695
 20
777.317903
 30
0.0
  0
VERTEX
  5
5D0
100
AcDbEntity
  8
止水栓
  6
EXLTYPE2
 62
     6
100
AcDbVertex
100
AcDb2dVertex
 10
396.650324
 20
777.254427
 30
0.0
  0
VERTEX
  5
5D1
100
AcDbEntity
  8
止水栓
  6
EXLTYPE2
 62
     6
100
AcDbVertex
100
AcDb2dVertex
 10
396.154718
 20
777.149446
 30
0.0
  0
VERTEX
  5
5D2
100
AcDbEntity
  8
止水栓
  6
EXLTYPE2
 62
     6
100
AcDbVertex
100
AcDb2dVertex
 10
395.668879
 20
777.005403
 30
0.0
  0
VERTEX
  5
5D3
100
AcDbEntity
  8
止水栓
  6
EXLTYPE2
 62
     6
100
AcDbVertex
100
AcDb2dVertex
 10
395.200129
 20
776.819857
 30
0.0
  0
VERTEX
  5
5D4
100
AcDbEntity
  8
止水栓
  6
EXLTYPE2
 62
     6
100
AcDbVertex
100
AcDb2dVertex
 10
394.748468
 20
776.595247
 30
0.0
  0
VERTEX
  5
5D5
100
AcDbEntity
  8
止水栓
  6
EXLTYPE2
 62
     6
100
AcDbVertex
100
AcDb2dVertex
 10
394.318781
 20
776.334017
 30
0.0
  0
VERTEX
  5
5D6
100
AcDbEntity
  8
止水栓
  6
EXLTYPE2
 62
     6
100
AcDbVertex
100
AcDb2dVertex
 10
393.915949
 20
776.038607
 30
0.0
  0
VERTEX
  5
5D7
100
AcDbEntity
  8
止水栓
  6
EXLTYPE2
 62
     6
100
AcDbVertex
100
AcDb2dVertex
 10
393.539972
 20
775.711458
 30
0.0
  0
VERTEX
  5
5D8
100
AcDbEntity
  8
止水栓
  6
EXLTYPE2
 62
     6
100
AcDbVertex
100
AcDb2dVertex
 10
393.198175
 20
775.352571
 30
0.0
  0
VERTEX
  5
5D9
100
AcDbEntity
  8
止水栓
  6
EXLTYPE2
 62
     6
100
AcDbVertex
100
AcDb2dVertex
 10
392.888117
 20
774.969271
 30
0.0
  0
VERTEX
  5
5DA
100
AcDbEntity
  8
止水栓
  6
EXLTYPE2
 62
     6
100
AcDbVertex
100
AcDb2dVertex
 10
392.614679
 20
774.559114
 30
0.0
  0
VERTEX
  5
5DB
100
AcDbEntity
  8
止水栓
  6
EXLTYPE2
 62
     6
100
AcDbVertex
100
AcDb2dVertex
 10
392.377863
 20
774.129427
 30
0.0
  0
VERTEX
  5
5DC
100
AcDbEntity
  8
止水栓
  6
EXLTYPE2
 62
     6
100
AcDbVertex
100
AcDb2dVertex
 10
392.184992
 20
773.680208
 30
0.0
  0
VERTEX
  5
5DD
100
AcDbEntity
  8
止水栓
  6
EXLTYPE2
 62
     6
100
AcDbVertex
100
AcDb2dVertex
 10
392.031183
 20
773.218782
 30
0.0
  0
VERTEX
  5
5DE
100
AcDbEntity
  8
止水栓
  6
EXLTYPE2
 62
     6
100
AcDbVertex
100
AcDb2dVertex
 10
391.92132
 20
772.74515
 30
0.0
  0
VERTEX
  5
5DF
100
AcDbEntity
  8
止水栓
  6
EXLTYPE2
 62
     6
100
AcDbVertex
100
AcDb2dVertex
 10
391.855402
 20
772.264193
 30
0.0
  0
VERTEX
  5
5E0
100
AcDbEntity
  8
止水栓
  6
EXLTYPE2
 62
     6
100
AcDbVertex
100
AcDb2dVertex
 10
391.833429
 20
771.780794
 30
0.0
  0
SEQEND
  5
5E1
100
AcDbEntity
  8
止水栓
  6
EXLTYPE2
 62
     6
  0
POLYLINE
  5
5E2
100
AcDbEntity
  8
止水栓
  6
EXLTYPE2
 62
     6
100
AcDb2dPolyline
 66
     1
 10
0.0
 20
0.0
 30
0.0
 70
   128
  0
VERTEX
  5
5E3
100
AcDbEntity
  8
止水栓
  6
EXLTYPE2
 62
     6
100
AcDbVertex
100
AcDb2dVertex
 10
391.833429
 20
771.778353
 30
0.0
  0
VERTEX
  5
5E4
100
AcDbEntity
  8
止水栓
  6
EXLTYPE2
 62
     6
100
AcDbVertex
100
AcDb2dVertex
 10
391.855402
 20
771.294954
 30
0.0
  0
VERTEX
  5
5E5
100
AcDbEntity
  8
止水栓
  6
EXLTYPE2
 62
     6
100
AcDbVertex
100
AcDb2dVertex
 10
391.92132
 20
770.813997
 30
0.0
  0
VERTEX
  5
5E6
100
AcDbEntity
  8
止水栓
  6
EXLTYPE2
 62
     6
100
AcDbVertex
100
AcDb2dVertex
 10
392.031183
 20
770.340364
 30
0.0
  0
VERTEX
  5
5E7
100
AcDbEntity
  8
止水栓
  6
EXLTYPE2
 62
     6
100
AcDbVertex
100
AcDb2dVertex
 10
392.184992
 20
769.876497
 30
0.0
  0
VERTEX
  5
5E8
100
AcDbEntity
  8
止水栓
  6
EXLTYPE2
 62
     6
100
AcDbVertex
100
AcDb2dVertex
 10
392.377863
 20
769.42972
 30
0.0
  0
VERTEX
  5
5E9
100
AcDbEntity
  8
止水栓
  6
EXLTYPE2
 62
     6
100
AcDbVertex
100
AcDb2dVertex
 10
392.614679
 20
768.997591
 30
0.0
  0
VERTEX
  5
5EA
100
AcDbEntity
  8
止水栓
  6
EXLTYPE2
 62
     6
100
AcDbVertex
100
AcDb2dVertex
 10
392.888117
 20
768.589876
 30
0.0
  0
VERTEX
  5
5EB
100
AcDbEntity
  8
止水栓
  6
EXLTYPE2
 62
     6
100
AcDbVertex
100
AcDb2dVertex
 10
393.198175
 20
768.204134
 30
0.0
  0
VERTEX
  5
5EC
100
AcDbEntity
  8
止水栓
  6
EXLTYPE2
 62
     6
100
AcDbVertex
100
AcDb2dVertex
 10
393.539972
 20
767.847689
 30
0.0
  0
VERTEX
  5
5ED
100
AcDbEntity
  8
止水栓
  6
EXLTYPE2
 62
     6
100
AcDbVertex
100
AcDb2dVertex
 10
393.915949
 20
767.518099
 30
0.0
  0
VERTEX
  5
5EE
100
AcDbEntity
  8
止水栓
  6
EXLTYPE2
 62
     6
100
AcDbVertex
100
AcDb2dVertex
 10
394.318781
 20
767.22513
 30
0.0
  0
VERTEX
  5
5EF
100
AcDbEntity
  8
止水栓
  6
EXLTYPE2
 62
     6
100
AcDbVertex
100
AcDb2dVertex
 10
394.748468
 20
766.961458
 30
0.0
  0
VERTEX
  5
5F0
100
AcDbEntity
  8
止水栓
  6
EXLTYPE2
 62
     6
100
AcDbVertex
100
AcDb2dVertex
 10
395.200129
 20
766.736849
 30
0.0
  0
VERTEX
  5
5F1
100
AcDbEntity
  8
止水栓
  6
EXLTYPE2
 62
     6
100
AcDbVertex
100
AcDb2dVertex
 10
395.668879
 20
766.551302
 30
0.0
  0
VERTEX
  5
5F2
100
AcDbEntity
  8
止水栓
  6
EXLTYPE2
 62
     6
100
AcDbVertex
100
AcDb2dVertex
 10
396.154718
 20
766.407259
 30
0.0
  0
VERTEX
  5
5F3
100
AcDbEntity
  8
止水栓
  6
EXLTYPE2
 62
     6
100
AcDbVertex
100
AcDb2dVertex
 10
396.650324
 20
766.302278
 30
0.0
  0
VERTEX
  5
5F4
100
AcDbEntity
  8
止水栓
  6
EXLTYPE2
 62
     6
100
AcDbVertex
100
AcDb2dVertex
 10
397.155695
 20
766.238802
 30
0.0
  0
VERTEX
  5
5F5
100
AcDbEntity
  8
止水栓
  6
EXLTYPE2
 62
     6
100
AcDbVertex
100
AcDb2dVertex
 10
397.663507
 20
766.216829
 30
0.0
  0
VERTEX
  5
5F6
100
AcDbEntity
  8
止水栓
  6
EXLTYPE2
 62
     6
100
AcDbVertex
100
AcDb2dVertex
 10
397.673273
 20
766.216829
 30
0.0
  0
VERTEX
  5
5F7
100
AcDbEntity
  8
止水栓
  6
EXLTYPE2
 62
     6
100
AcDbVertex
100
AcDb2dVertex
 10
397.680597
 20
766.216829
 30
0.0
  0
VERTEX
  5
5F8
100
AcDbEntity
  8
止水栓
  6
EXLTYPE2
 62
     6
100
AcDbVertex
100
AcDb2dVertex
 10
397.690363
 20
766.216829
 30
0.0
  0
SEQEND
  5
5F9
100
AcDbEntity
  8
止水栓
  6
EXLTYPE2
 62
     6
  0
LINE
  5
5FA
100
AcDbEntity
  8
止水栓
  6
EXLTYPE2
 62
     6
100
AcDbLine
 10
387.190363
 20
761.001985
 30
0.0
 11
408.190363
 21
761.001985
 31
0.0
  0
ARC
  5
5FB
100
AcDbEntity
  8
止水栓
  6
EXLTYPE2
 62
     6
100
AcDbCircle
 10
402.440363
 20
753.501985
 30
0.0
 40
2.5
100
AcDbArc
 50
0.0
 51
90.0
  0
LINE
  5
5FC
100
AcDbEntity
  8
止水栓
  6
EXLTYPE2
 62
     6
100
AcDbLine
 10
401.690363
 20
761.001985
 30
0.0
 11
401.690363
 21
759.001985
 31
0.0
  0
LINE
  5
5FD
100
AcDbEntity
  8
止水栓
  6
EXLTYPE2
 62
     6
100
AcDbLine
 10
403.440363
 20
759.001985
 30
0.0
 11
403.440363
 21
756.001985
 31
0.0
  0
ARC
  5
5FE
100
AcDbEntity
  8
止水栓
  6
EXLTYPE2
 62
     6
100
AcDbCircle
 10
392.940363
 20
753.501985
 30
0.0
 40
2.5
100
AcDbArc
 50
90.0
 51
180.0
  0
LINE
  5
5FF
100
AcDbEntity
  8
止水栓
  6
EXLTYPE2
 62
     6
100
AcDbLine
 10
393.690363
 20
761.001985
 30
0.0
 11
393.690363
 21
759.001985
 31
0.0
  0
LINE
  5
600
100
AcDbEntity
  8
止水栓
  6
EXLTYPE2
 62
     6
100
AcDbLine
 10
391.940363
 20
759.001985
 30
0.0
 11
391.940363
 21
756.001985
 31
0.0
  0
LINE
  5
601
100
AcDbEntity
  8
止水栓
  6
EXLTYPE2
 62
     6
100
AcDbLine
 10
391.940363
 20
759.001985
 30
0.0
 11
403.440363
 21
759.001985
 31
0.0
  0
LINE
  5
602
100
AcDbEntity
  8
止水栓
  6
EXLTYPE2
 62
     6
100
AcDbLine
 10
392.940363
 20
756.001985
 30
0.0
 11
402.440363
 21
756.001985
 31
0.0
  0
ARC
  5
603
100
AcDbEntity
  8
止水栓
  6
EXLTYPE2
 62
     6
100
AcDbCircle
 10
402.440363
 20
753.501985
 30
0.0
 40
2.5
100
AcDbArc
 50
270.0
 51
0.0
  0
LINE
  5
604
100
AcDbEntity
  8
止水栓
  6
EXLTYPE2
 62
     6
100
AcDbLine
 10
403.440363
 20
743.001985
 30
0.0
 11
403.440363
 21
740.001985
 31
0.0
  0
ARC
  5
605
100
AcDbEntity
  8
止水栓
  6
EXLTYPE2
 62
     6
100
AcDbCircle
 10
402.440363
 20
745.501985
 30
0.0
 40
2.5
100
AcDbArc
 50
0.0
 51
90.0
  0
ARC
  5
606
100
AcDbEntity
  8
止水栓
  6
EXLTYPE2
 62
     6
100
AcDbCircle
 10
402.440363
 20
745.501985
 30
0.0
 40
2.5
100
AcDbArc
 50
270.0
 51
0.0
  0
LINE
  5
607
100
AcDbEntity
  8
止水栓
  6
EXLTYPE2
 62
     6
100
AcDbLine
 10
403.440363
 20
751.001985
 30
0.0
 11
403.440363
 21
748.001985
 31
0.0
  0
LINE
  5
608
100
AcDbEntity
  8
止水栓
  6
EXLTYPE2
 62
     6
100
AcDbLine
 10
391.940363
 20
743.001985
 30
0.0
 11
391.940363
 21
740.001985
 31
0.0
  0
LINE
  5
609
100
AcDbEntity
  8
止水栓
  6
EXLTYPE2
 62
     6
100
AcDbLine
 10
391.940363
 20
751.001985
 30
0.0
 11
391.940363
 21
748.001985
 31
0.0
  0
ARC
  5
60A
100
AcDbEntity
  8
止水栓
  6
EXLTYPE2
 62
     6
100
AcDbCircle
 10
392.940363
 20
753.501985
 30
0.0
 40
2.5
100
AcDbArc
 50
180.0
 51
270.0
  0
ARC
  5
60B
100
AcDbEntity
  8
止水栓
  6
EXLTYPE2
 62
     6
100
AcDbCircle
 10
392.940363
 20
745.501985
 30
0.0
 40
2.5
100
AcDbArc
 50
90.0
 51
180.0
  0
ARC
  5
60C
100
AcDbEntity
  8
止水栓
  6
EXLTYPE2
 62
     6
100
AcDbCircle
 10
392.940363
 20
745.501985
 30
0.0
 40
2.5
100
AcDbArc
 50
180.0
 51
270.0
  0
LINE
  5
60D
100
AcDbEntity
  8
止水栓
  6
EXLTYPE2
 62
     6
100
AcDbLine
 10
390.940363
 20
740.001985
 30
0.0
 11
404.440363
 21
740.001985
 31
0.0
  0
LINE
  5
60E
100
AcDbEntity
  8
止水栓
  6
EXLTYPE2
 62
     6
100
AcDbLine
 10
392.940363
 20
751.001985
 30
0.0
 11
402.440363
 21
751.001985
 31
0.0
  0
LINE
  5
60F
100
AcDbEntity
  8
止水栓
  6
EXLTYPE2
 62
     6
100
AcDbLine
 10
392.940363
 20
743.001985
 30
0.0
 11
402.440363
 21
743.001985
 31
0.0
  0
LINE
  5
610
100
AcDbEntity
  8
止水栓
  6
EXLTYPE2
 62
     6
100
AcDbLine
 10
392.940363
 20
748.001985
 30
0.0
 11
402.440363
 21
748.001985
 31
0.0
  0
LINE
  5
611
100
AcDbEntity
  8
止水栓
  6
EXLTYPE2
 62
     6
100
AcDbLine
 10
408.190363
 20
766.001985
 30
0.0
 11
408.190363
 21
761.001985
 31
0.0
  0
LINE
  5
612
100
AcDbEntity
  8
止水栓
  6
EXLTYPE2
 62
     6
100
AcDbLine
 10
387.190363
 20
766.001985
 30
0.0
 11
387.190363
 21
761.001985
 31
0.0
  0
LINE
  5
613
100
AcDbEntity
  8
止水栓
  6
EXLTYPE2
 62
     6
100
AcDbLine
 10
390.940363
 20
732.001985
 30
0.0
 11
404.440363
 21
732.001985
 31
0.0
  0
LINE
  5
614
100
AcDbEntity
  8
止水栓
  6
EXLTYPE2
 62
     6
100
AcDbLine
 10
404.440363
 20
740.001985
 30
0.0
 11
404.440363
 21
732.001985
 31
0.0
  0
LINE
  5
615
100
AcDbEntity
  8
止水栓
  6
EXLTYPE2
 62
     6
100
AcDbLine
 10
390.940363
 20
740.001985
 30
0.0
 11
390.940363
 21
732.001985
 31
0.0
  0
LINE
  5
616
100
AcDbEntity
  8
止水栓
  6
EXLTYPE2
 62
     6
100
AcDbLine
 10
386.721125
 20
778.001497
 30
0.0
 11
408.661194
 21
778.001497
 31
0.0
  0
LINE
  5
617
100
AcDbEntity
  8
止水栓
  6
EXLTYPE2
 62
     6
100
AcDbLine
 10
334.311841
 20
811.902223
 30
0.0
 11
344.017073
 21
812.190731
 31
0.0
  0
LINE
  5
618
100
AcDbEntity
  8
止水栓
  6
EXLTYPE2
 62
     6
100
AcDbLine
 10
334.311841
 20
794.138269
 30
0.0
 11
344.017073
 21
793.849762
 31
0.0
  0
LINE
  5
619
100
AcDbEntity
  8
止水栓
  6
EXLTYPE2
 62
     6
100
AcDbLine
 10
334.903267
 20
812.920246
 30
0.0
 11
344.017073
 21
813.191172
 31
0.0
  0
LINE
  5
61A
100
AcDbEntity
  8
止水栓
  6
EXLTYPE2
 62
     6
100
AcDbLine
 10
334.903267
 20
793.120246
 30
0.0
 11
344.017073
 21
792.84932
 31
0.0
  0
LINE
  5
61B
100
AcDbEntity
  8
止水栓
  6
EXLTYPE2
 62
     6
100
AcDbLine
 10
334.177073
 20
794.370246
 30
0.0
 11
334.903267
 21
793.120246
 31
0.0
  0
LINE
  5
61C
100
AcDbEntity
  8
止水栓
  6
EXLTYPE2
 62
     6
100
AcDbLine
 10
334.177073
 20
794.370246
 30
0.0
 11
334.177073
 21
811.670246
 31
0.0
  0
LINE
  5
61D
100
AcDbEntity
  8
止水栓
  6
EXLTYPE2
 62
     6
100
AcDbLine
 10
334.177073
 20
811.670246
 30
0.0
 11
334.903267
 21
812.920246
 31
0.0
  0
LINE
  5
61E
100
AcDbEntity
  8
止水栓
  6
EXLTYPE2
 62
     6
100
AcDbLine
 10
334.903267
 20
793.120246
 30
0.0
 11
334.903267
 21
812.920246
 31
0.0
  0
ARC
  5
61F
100
AcDbEntity
  8
止水栓
  6
EXLTYPE2
 62
     6
100
AcDbCircle
 10
346.520178
 20
817.800324
 30
0.0
 40
12.7
100
AcDbArc
 50
31.438859
 51
90.0
  0
LINE
  5
620
100
AcDbEntity
  8
止水栓
  6
EXLTYPE2
 62
     6
100
AcDbLine
 10
346.520178
 20
830.500324
 30
0.0
 11
344.017073
 21
830.500324
 31
0.0
  0
ARC
  5
621
100
AcDbEntity
  8
止水栓
  6
EXLTYPE2
 62
     6
100
AcDbCircle
 10
335.017073
 20
813.200324
 30
0.0
 40
25.0
100
AcDbArc
 50
0.916772
 51
26.677421
  0
ARC
  5
622
100
AcDbEntity
  8
止水栓
  6
EXLTYPE2
 62
     6
100
AcDbCircle
 10
346.520178
 20
788.200324
 30
0.0
 40
12.7
100
AcDbArc
 50
270.0
 51
328.561141
  0
POLYLINE
  5
623
100
AcDbEntity
  8
止水栓
  6
EXLTYPE2
 62
     6
100
AcDb2dPolyline
 66
     1
 10
0.0
 20
0.0
 30
0.0
 70
   128
  0
VERTEX
  5
624
100
AcDbEntity
  8
止水栓
  6
EXLTYPE2
 62
     6
100
AcDbVertex
100
AcDb2dVertex
 10
346.520178
 20
775.500324
 30
0.0
  0
VERTEX
  5
625
100
AcDbEntity
  8
止水栓
  6
EXLTYPE2
 62
     6
100
AcDbVertex
100
AcDb2dVertex
 10
344.017073
 20
775.500324
 30
0.0
  0
SEQEND
  5
626
100
AcDbEntity
  8
止水栓
  6
EXLTYPE2
 62
     6
  0
LINE
  5
627
100
AcDbEntity
  8
止水栓
  6
EXLTYPE2
 62
     6
100
AcDbLine
 10
360.013873
 20
792.400324
 30
0.0
 11
360.013873
 21
813.600324
 31
0.0
  0
ARC
  5
628
100
AcDbEntity
  8
止水栓
  6
EXLTYPE2
 62
     6
100
AcDbCircle
 10
335.017073
 20
792.800324
 30
0.0
 40
25.0
100
AcDbArc
 50
333.322579
 51
359.083228
  0
LINE
  5
629
100
AcDbEntity
  8
止水栓
  6
EXLTYPE3
 62
     6
100
AcDbLine
 10
329.317073
 20
803.000324
 30
0.0
 11
419.517072
 21
803.000324
 31
0.0
  0
LINE
  5
62A
100
AcDbEntity
  8
止水栓
  6
EXLTYPE2
 62
     6
100
AcDbLine
 10
366.677073
 20
813.270246
 30
0.0
 11
360.013873
 21
813.270246
 31
0.0
  0
LINE
  5
62B
100
AcDbEntity
  8
止水栓
  6
EXLTYPE2
 62
     6
100
AcDbLine
 10
366.677073
 20
792.770246
 30
0.0
 11
360.013873
 21
792.770246
 31
0.0
  0
LINE
  5
62C
100
AcDbEntity
  8
止水栓
  6
EXLTYPE3
 62
     6
100
AcDbLine
 10
397.691118
 20
782.687554
 30
0.0
 11
397.691118
 21
715.513652
 31
0.0
  0
ARC
  5
62D
100
AcDbEntity
  8
止水栓
  6
EXLTYPE3
 62
     6
100
AcDbCircle
 10
423.385227
 20
715.513652
 30
0.0
 40
25.694109
100
AcDbArc
 50
180.0
 51
0.0
  0
LINE
  5
62E
100
AcDbEntity
  8
止水栓
  6
EXLTYPE3
 62
     6
100
AcDbLine
 10
449.079336
 20
888.000264
 30
0.0
 11
449.079336
 21
715.513652
 31
0.0
  0
POLYLINE
  5
62F
100
AcDbEntity
  8
止水栓
  6
EXLTYPE2
 62
     6
100
AcDb2dPolyline
 66
     1
 10
0.0
 20
0.0
 30
0.0
 70
   128
  0
VERTEX
  5
630
100
AcDbEntity
  8
止水栓
  6
EXLTYPE2
 62
     6
100
AcDbVertex
100
AcDb2dVertex
 10
1345.504883
 20
774.218221
 30
0.0
  0
VERTEX
  5
631
100
AcDbEntity
  8
止水栓
  6
EXLTYPE2
 62
     6
100
AcDbVertex
100
AcDb2dVertex
 10
1345.514648
 20
773.781209
 30
0.0
  0
VERTEX
  5
632
100
AcDbEntity
  8
止水栓
  6
EXLTYPE2
 62
     6
100
AcDbVertex
100
AcDb2dVertex
 10
1345.541504
 20
773.34908
 30
0.0
  0
VERTEX
  5
633
100
AcDbEntity
  8
止水栓
  6
EXLTYPE2
 62
     6
100
AcDbVertex
100
AcDb2dVertex
 10
1345.587891
 20
772.924275
 30
0.0
  0
VERTEX
  5
634
100
AcDbEntity
  8
止水栓
  6
EXLTYPE2
 62
     6
100
AcDbVertex
100
AcDb2dVertex
 10
1345.653809
 20
772.509236
 30
0.0
  0
VERTEX
  5
635
100
AcDbEntity
  8
止水栓
  6
EXLTYPE2
 62
     6
100
AcDbVertex
100
AcDb2dVertex
 10
1345.734375
 20
772.108846
 30
0.0
  0
VERTEX
  5
636
100
AcDbEntity
  8
止水栓
  6
EXLTYPE2
 62
     6
100
AcDbVertex
100
AcDb2dVertex
 10
1345.832031
 20
771.723104
 30
0.0
  0
VERTEX
  5
637
100
AcDbEntity
  8
止水栓
  6
EXLTYPE2
 62
     6
100
AcDbVertex
100
AcDb2dVertex
 10
1345.949219
 20
771.354451
 30
0.0
  0
VERTEX
  5
638
100
AcDbEntity
  8
止水栓
  6
EXLTYPE2
 62
     6
100
AcDbVertex
100
AcDb2dVertex
 10
1346.078613
 20
771.010213
 30
0.0
  0
VERTEX
  5
639
100
AcDbEntity
  8
止水栓
  6
EXLTYPE2
 62
     6
100
AcDbVertex
100
AcDb2dVertex
 10
1346.222656
 20
770.687947
 30
0.0
  0
VERTEX
  5
63A
100
AcDbEntity
  8
止水栓
  6
EXLTYPE2
 62
     6
100
AcDbVertex
100
AcDb2dVertex
 10
1346.381348
 20
770.394979
 30
0.0
  0
VERTEX
  5
63B
100
AcDbEntity
  8
止水栓
  6
EXLTYPE2
 62
     6
100
AcDbVertex
100
AcDb2dVertex
 10
1346.549805
 20
770.128865
 30
0.0
  0
VERTEX
  5
63C
100
AcDbEntity
  8
止水栓
  6
EXLTYPE2
 62
     6
100
AcDbVertex
100
AcDb2dVertex
 10
1346.730469
 20
769.896932
 30
0.0
  0
VERTEX
  5
63D
100
AcDbEntity
  8
止水栓
  6
EXLTYPE2
 62
     6
100
AcDbVertex
100
AcDb2dVertex
 10
1346.918457
 20
769.694295
 30
0.0
  0
VERTEX
  5
63E
100
AcDbEntity
  8
止水栓
  6
EXLTYPE2
 62
     6
100
AcDbVertex
100
AcDb2dVertex
 10
1347.116211
 20
769.528279
 30
0.0
  0
VERTEX
  5
63F
100
AcDbEntity
  8
止水栓
  6
EXLTYPE2
 62
     6
100
AcDbVertex
100
AcDb2dVertex
 10
1347.321289
 20
769.396443
 30
0.0
  0
VERTEX
  5
640
100
AcDbEntity
  8
止水栓
  6
EXLTYPE2
 62
     6
100
AcDbVertex
100
AcDb2dVertex
 10
1347.528809
 20
769.30367
 30
0.0
  0
VERTEX
  5
641
100
AcDbEntity
  8
止水栓
  6
EXLTYPE2
 62
     6
100
AcDbVertex
100
AcDb2dVertex
 10
1347.741211
 20
769.245076
 30
0.0
  0
VERTEX
  5
642
100
AcDbEntity
  8
止水栓
  6
EXLTYPE2
 62
     6
100
AcDbVertex
100
AcDb2dVertex
 10
1347.953613
 20
769.227986
 30
0.0
  0
VERTEX
  5
643
100
AcDbEntity
  8
止水栓
  6
EXLTYPE2
 62
     6
100
AcDbVertex
100
AcDb2dVertex
 10
1348.168457
 20
769.247518
 30
0.0
  0
VERTEX
  5
644
100
AcDbEntity
  8
止水栓
  6
EXLTYPE2
 62
     6
100
AcDbVertex
100
AcDb2dVertex
 10
1348.380859
 20
769.30367
 30
0.0
  0
VERTEX
  5
645
100
AcDbEntity
  8
止水栓
  6
EXLTYPE2
 62
     6
100
AcDbVertex
100
AcDb2dVertex
 10
1348.588379
 20
769.396443
 30
0.0
  0
VERTEX
  5
646
100
AcDbEntity
  8
止水栓
  6
EXLTYPE2
 62
     6
100
AcDbVertex
100
AcDb2dVertex
 10
1348.793457
 20
769.528279
 30
0.0
  0
VERTEX
  5
647
100
AcDbEntity
  8
止水栓
  6
EXLTYPE2
 62
     6
100
AcDbVertex
100
AcDb2dVertex
 10
1348.991211
 20
769.694295
 30
0.0
  0
VERTEX
  5
648
100
AcDbEntity
  8
止水栓
  6
EXLTYPE2
 62
     6
100
AcDbVertex
100
AcDb2dVertex
 10
1349.179199
 20
769.896932
 30
0.0
  0
VERTEX
  5
649
100
AcDbEntity
  8
止水栓
  6
EXLTYPE2
 62
     6
100
AcDbVertex
100
AcDb2dVertex
 10
1349.359863
 20
770.131307
 30
0.0
  0
VERTEX
  5
64A
100
AcDbEntity
  8
止水栓
  6
EXLTYPE2
 62
     6
100
AcDbVertex
100
AcDb2dVertex
 10
1349.52832
 20
770.394979
 30
0.0
  0
VERTEX
  5
64B
100
AcDbEntity
  8
止水栓
  6
EXLTYPE2
 62
     6
100
AcDbVertex
100
AcDb2dVertex
 10
1349.687012
 20
770.687947
 30
0.0
  0
VERTEX
  5
64C
100
AcDbEntity
  8
止水栓
  6
EXLTYPE2
 62
     6
100
AcDbVertex
100
AcDb2dVertex
 10
1349.831055
 20
771.010213
 30
0.0
  0
VERTEX
  5
64D
100
AcDbEntity
  8
止水栓
  6
EXLTYPE2
 62
     6
100
AcDbVertex
100
AcDb2dVertex
 10
1349.960449
 20
771.354451
 30
0.0
  0
VERTEX
  5
64E
100
AcDbEntity
  8
止水栓
  6
EXLTYPE2
 62
     6
100
AcDbVertex
100
AcDb2dVertex
 10
1350.075195
 20
771.723104
 30
0.0
  0
VERTEX
  5
64F
100
AcDbEntity
  8
止水栓
  6
EXLTYPE2
 62
     6
100
AcDbVertex
100
AcDb2dVertex
 10
1350.175293
 20
772.108846
 30
0.0
  0
VERTEX
  5
650
100
AcDbEntity
  8
止水栓
  6
EXLTYPE2
 62
     6
100
AcDbVertex
100
AcDb2dVertex
 10
1350.255859
 20
772.511678
 30
0.0
  0
VERTEX
  5
651
100
AcDbEntity
  8
止水栓
  6
EXLTYPE2
 62
     6
100
AcDbVertex
100
AcDb2dVertex
 10
1350.321777
 20
772.926717
 30
0.0
  0
VERTEX
  5
652
100
AcDbEntity
  8
止水栓
  6
EXLTYPE2
 62
     6
100
AcDbVertex
100
AcDb2dVertex
 10
1350.368164
 20
773.351522
 30
0.0
  0
VERTEX
  5
653
100
AcDbEntity
  8
止水栓
  6
EXLTYPE2
 62
     6
100
AcDbVertex
100
AcDb2dVertex
 10
1350.39502
 20
773.78365
 30
0.0
  0
VERTEX
  5
654
100
AcDbEntity
  8
止水栓
  6
EXLTYPE2
 62
     6
100
AcDbVertex
100
AcDb2dVertex
 10
1350.404785
 20
774.218221
 30
0.0
  0
VERTEX
  5
655
100
AcDbEntity
  8
止水栓
  6
EXLTYPE2
 62
     6
100
AcDbVertex
100
AcDb2dVertex
 10
1350.39502
 20
774.652791
 30
0.0
  0
VERTEX
  5
656
100
AcDbEntity
  8
止水栓
  6
EXLTYPE2
 62
     6
100
AcDbVertex
100
AcDb2dVertex
 10
1350.365723
 20
775.08492
 30
0.0
  0
VERTEX
  5
657
100
AcDbEntity
  8
止水栓
  6
EXLTYPE2
 62
     6
100
AcDbVertex
100
AcDb2dVertex
 10
1350.319336
 20
775.509725
 30
0.0
  0
VERTEX
  5
658
100
AcDbEntity
  8
止水栓
  6
EXLTYPE2
 62
     6
100
AcDbVertex
100
AcDb2dVertex
 10
1350.255859
 20
775.924764
 30
0.0
  0
VERTEX
  5
659
100
AcDbEntity
  8
止水栓
  6
EXLTYPE2
 62
     6
100
AcDbVertex
100
AcDb2dVertex
 10
1350.175293
 20
776.327596
 30
0.0
  0
VERTEX
  5
65A
100
AcDbEntity
  8
止水栓
  6
EXLTYPE2
 62
     6
100
AcDbVertex
100
AcDb2dVertex
 10
1350.075195
 20
776.713338
 30
0.0
  0
VERTEX
  5
65B
100
AcDbEntity
  8
止水栓
  6
EXLTYPE2
 62
     6
100
AcDbVertex
100
AcDb2dVertex
 10
1349.960449
 20
777.079549
 30
0.0
  0
VERTEX
  5
65C
100
AcDbEntity
  8
止水栓
  6
EXLTYPE2
 62
     6
100
AcDbVertex
100
AcDb2dVertex
 10
1349.831055
 20
777.426229
 30
0.0
  0
VERTEX
  5
65D
100
AcDbEntity
  8
止水栓
  6
EXLTYPE2
 62
     6
100
AcDbVertex
100
AcDb2dVertex
 10
1349.687012
 20
777.746053
 30
0.0
  0
VERTEX
  5
65E
100
AcDbEntity
  8
止水栓
  6
EXLTYPE2
 62
     6
100
AcDbVertex
100
AcDb2dVertex
 10
1349.52832
 20
778.041463
 30
0.0
  0
VERTEX
  5
65F
100
AcDbEntity
  8
止水栓
  6
EXLTYPE2
 62
     6
100
AcDbVertex
100
AcDb2dVertex
 10
1349.359863
 20
778.305135
 30
0.0
  0
VERTEX
  5
660
100
AcDbEntity
  8
止水栓
  6
EXLTYPE2
 62
     6
100
AcDbVertex
100
AcDb2dVertex
 10
1349.179199
 20
778.53951
 30
0.0
  0
VERTEX
  5
661
100
AcDbEntity
  8
止水栓
  6
EXLTYPE2
 62
     6
100
AcDbVertex
100
AcDb2dVertex
 10
1348.991211
 20
778.739705
 30
0.0
  0
VERTEX
  5
662
100
AcDbEntity
  8
止水栓
  6
EXLTYPE2
 62
     6
100
AcDbVertex
100
AcDb2dVertex
 10
1348.793457
 20
778.908162
 30
0.0
  0
VERTEX
  5
663
100
AcDbEntity
  8
止水栓
  6
EXLTYPE2
 62
     6
100
AcDbVertex
100
AcDb2dVertex
 10
1348.588379
 20
779.037557
 30
0.0
  0
VERTEX
  5
664
100
AcDbEntity
  8
止水栓
  6
EXLTYPE2
 62
     6
100
AcDbVertex
100
AcDb2dVertex
 10
1348.380859
 20
779.132772
 30
0.0
  0
VERTEX
  5
665
100
AcDbEntity
  8
止水栓
  6
EXLTYPE2
 62
     6
100
AcDbVertex
100
AcDb2dVertex
 10
1348.168457
 20
779.188924
 30
0.0
  0
VERTEX
  5
666
100
AcDbEntity
  8
止水栓
  6
EXLTYPE2
 62
     6
100
AcDbVertex
100
AcDb2dVertex
 10
1347.953613
 20
779.208455
 30
0.0
  0
VERTEX
  5
667
100
AcDbEntity
  8
止水栓
  6
EXLTYPE2
 62
     6
100
AcDbVertex
100
AcDb2dVertex
 10
1347.741211
 20
779.188924
 30
0.0
  0
VERTEX
  5
668
100
AcDbEntity
  8
止水栓
  6
EXLTYPE2
 62
     6
100
AcDbVertex
100
AcDb2dVertex
 10
1347.528809
 20
779.132772
 30
0.0
  0
VERTEX
  5
669
100
AcDbEntity
  8
止水栓
  6
EXLTYPE2
 62
     6
100
AcDbVertex
100
AcDb2dVertex
 10
1347.321289
 20
779.037557
 30
0.0
  0
VERTEX
  5
66A
100
AcDbEntity
  8
止水栓
  6
EXLTYPE2
 62
     6
100
AcDbVertex
100
AcDb2dVertex
 10
1347.116211
 20
778.908162
 30
0.0
  0
VERTEX
  5
66B
100
AcDbEntity
  8
止水栓
  6
EXLTYPE2
 62
     6
100
AcDbVertex
100
AcDb2dVertex
 10
1346.918457
 20
778.739705
 30
0.0
  0
SEQEND
  5
66C
100
AcDbEntity
  8
止水栓
  6
EXLTYPE2
 62
     6
  0
LINE
  5
66D
100
AcDbEntity
  8
止水栓
  6
EXLTYPE2
 62
     6
100
AcDbLine
 10
1347.030762
 20
768.468709
 30
0.0
 11
1368.969238
 21
768.468709
 31
0.0
  0
LINE
  5
66E
100
AcDbEntity
  8
止水栓
  6
EXLTYPE2
 62
     6
100
AcDbLine
 10
1347.5
 20
763.468709
 30
0.0
 11
1368.5
 21
763.468709
 31
0.0
  0
ARC
  5
66F
100
AcDbEntity
  8
止水栓
  6
EXLTYPE2
 62
     6
100
AcDbCircle
 10
1356.249512
 20
774.469686
 30
0.0
 40
10.998535
100
AcDbArc
 50
146.94841
 51
213.059082
  0
POLYLINE
  5
670
100
AcDbEntity
  8
止水栓
  6
EXLTYPE2
 62
     6
100
AcDb2dPolyline
 66
     1
 10
0.0
 20
0.0
 30
0.0
 70
   128
  0
VERTEX
  5
671
100
AcDbEntity
  8
止水栓
  6
EXLTYPE2
 62
     6
100
AcDbVertex
100
AcDb2dVertex
 10
1346.918457
 20
778.739705
 30
0.0
  0
VERTEX
  5
672
100
AcDbEntity
  8
止水栓
  6
EXLTYPE2
 62
     6
100
AcDbVertex
100
AcDb2dVertex
 10
1346.730469
 20
778.53951
 30
0.0
  0
VERTEX
  5
673
100
AcDbEntity
  8
止水栓
  6
EXLTYPE2
 62
     6
100
AcDbVertex
100
AcDb2dVertex
 10
1346.549805
 20
778.305135
 30
0.0
  0
VERTEX
  5
674
100
AcDbEntity
  8
止水栓
  6
EXLTYPE2
 62
     6
100
AcDbVertex
100
AcDb2dVertex
 10
1346.378906
 20
778.041463
 30
0.0
  0
VERTEX
  5
675
100
AcDbEntity
  8
止水栓
  6
EXLTYPE2
 62
     6
100
AcDbVertex
100
AcDb2dVertex
 10
1346.222656
 20
777.746053
 30
0.0
  0
VERTEX
  5
676
100
AcDbEntity
  8
止水栓
  6
EXLTYPE2
 62
     6
100
AcDbVertex
100
AcDb2dVertex
 10
1346.078613
 20
777.426229
 30
0.0
  0
VERTEX
  5
677
100
AcDbEntity
  8
止水栓
  6
EXLTYPE2
 62
     6
100
AcDbVertex
100
AcDb2dVertex
 10
1345.946777
 20
777.079549
 30
0.0
  0
VERTEX
  5
678
100
AcDbEntity
  8
止水栓
  6
EXLTYPE2
 62
     6
100
AcDbVertex
100
AcDb2dVertex
 10
1345.832031
 20
776.713338
 30
0.0
  0
VERTEX
  5
679
100
AcDbEntity
  8
止水栓
  6
EXLTYPE2
 62
     6
100
AcDbVertex
100
AcDb2dVertex
 10
1345.734375
 20
776.327596
 30
0.0
  0
VERTEX
  5
67A
100
AcDbEntity
  8
止水栓
  6
EXLTYPE2
 62
     6
100
AcDbVertex
100
AcDb2dVertex
 10
1345.653809
 20
775.924764
 30
0.0
  0
VERTEX
  5
67B
100
AcDbEntity
  8
止水栓
  6
EXLTYPE2
 62
     6
100
AcDbVertex
100
AcDb2dVertex
 10
1345.587891
 20
775.509725
 30
0.0
  0
SEQEND
  5
67C
100
AcDbEntity
  8
止水栓
  6
EXLTYPE2
 62
     6
  0
POLYLINE
  5
67D
100
AcDbEntity
  8
止水栓
  6
EXLTYPE2
 62
     6
100
AcDb2dPolyline
 66
     1
 10
0.0
 20
0.0
 30
0.0
 70
   128
  0
VERTEX
  5
67E
100
AcDbEntity
  8
止水栓
  6
EXLTYPE2
 62
     6
100
AcDbVertex
100
AcDb2dVertex
 10
1345.587891
 20
775.509725
 30
0.0
  0
VERTEX
  5
67F
100
AcDbEntity
  8
止水栓
  6
EXLTYPE2
 62
     6
100
AcDbVertex
100
AcDb2dVertex
 10
1345.541504
 20
775.08492
 30
0.0
  0
VERTEX
  5
680
100
AcDbEntity
  8
止水栓
  6
EXLTYPE2
 62
     6
100
AcDbVertex
100
AcDb2dVertex
 10
1345.514648
 20
774.652791
 30
0.0
  0
VERTEX
  5
681
100
AcDbEntity
  8
止水栓
  6
EXLTYPE2
 62
     6
100
AcDbVertex
100
AcDb2dVertex
 10
1345.504883
 20
774.218221
 30
0.0
  0
SEQEND
  5
682
100
AcDbEntity
  8
止水栓
  6
EXLTYPE2
 62
     6
  0
LINE
  5
683
100
AcDbEntity
  8
止水栓
  6
EXLTYPE2
 62
     6
100
AcDbLine
 10
1347.5
 20
768.468709
 30
0.0
 11
1347.5
 21
763.468709
 31
0.0
  0
POLYLINE
  5
684
100
AcDbEntity
  8
止水栓
  6
EXLTYPE2
 62
     6
100
AcDb2dPolyline
 66
     1
 10
0.0
 20
0.0
 30
0.0
 70
   128
  0
VERTEX
  5
685
100
AcDbEntity
  8
止水栓
  6
EXLTYPE2
 62
     6
100
AcDbVertex
100
AcDb2dVertex
 10
1367.018555
 20
778.407674
 30
0.0
  0
VERTEX
  5
686
100
AcDbEntity
  8
止水栓
  6
EXLTYPE2
 62
     6
100
AcDbVertex
100
AcDb2dVertex
 10
1366.828125
 20
778.222127
 30
0.0
  0
VERTEX
  5
687
100
AcDbEntity
  8
止水栓
  6
EXLTYPE2
 62
     6
100
AcDbVertex
100
AcDb2dVertex
 10
1366.647461
 20
778.004842
 30
0.0
  0
VERTEX
  5
688
100
AcDbEntity
  8
止水栓
  6
EXLTYPE2
 62
     6
100
AcDbVertex
100
AcDb2dVertex
 10
1366.479004
 20
777.75826
 30
0.0
  0
VERTEX
  5
689
100
AcDbEntity
  8
止水栓
  6
EXLTYPE2
 62
     6
100
AcDbVertex
100
AcDb2dVertex
 10
1366.320313
 20
777.484822
 30
0.0
  0
VERTEX
  5
68A
100
AcDbEntity
  8
止水栓
  6
EXLTYPE2
 62
     6
100
AcDbVertex
100
AcDb2dVertex
 10
1366.17627
 20
777.186971
 30
0.0
  0
VERTEX
  5
68B
100
AcDbEntity
  8
止水栓
  6
EXLTYPE2
 62
     6
100
AcDbVertex
100
AcDb2dVertex
 10
1366.046875
 20
776.867147
 30
0.0
  0
VERTEX
  5
68C
100
AcDbEntity
  8
止水栓
  6
EXLTYPE2
 62
     6
100
AcDbVertex
100
AcDb2dVertex
 10
1365.932129
 20
776.527791
 30
0.0
  0
VERTEX
  5
68D
100
AcDbEntity
  8
止水栓
  6
EXLTYPE2
 62
     6
100
AcDbVertex
100
AcDb2dVertex
 10
1365.832031
 20
776.168904
 30
0.0
  0
VERTEX
  5
68E
100
AcDbEntity
  8
止水栓
  6
EXLTYPE2
 62
     6
100
AcDbVertex
100
AcDb2dVertex
 10
1365.751465
 20
775.795369
 30
0.0
  0
VERTEX
  5
68F
100
AcDbEntity
  8
止水栓
  6
EXLTYPE2
 62
     6
100
AcDbVertex
100
AcDb2dVertex
 10
1365.687988
 20
775.409627
 30
0.0
  0
SEQEND
  5
690
100
AcDbEntity
  8
止水栓
  6
EXLTYPE2
 62
     6
  0
POLYLINE
  5
691
100
AcDbEntity
  8
止水栓
  6
EXLTYPE2
 62
     6
100
AcDb2dPolyline
 66
     1
 10
0.0
 20
0.0
 30
0.0
 70
   128
  0
VERTEX
  5
692
100
AcDbEntity
  8
止水栓
  6
EXLTYPE2
 62
     6
100
AcDbVertex
100
AcDb2dVertex
 10
1365.687988
 20
775.409627
 30
0.0
  0
VERTEX
  5
693
100
AcDbEntity
  8
止水栓
  6
EXLTYPE2
 62
     6
100
AcDbVertex
100
AcDb2dVertex
 10
1365.641602
 20
775.016561
 30
0.0
  0
VERTEX
  5
694
100
AcDbEntity
  8
止水栓
  6
EXLTYPE2
 62
     6
100
AcDbVertex
100
AcDb2dVertex
 10
1365.612305
 20
774.61617
 30
0.0
  0
VERTEX
  5
695
100
AcDbEntity
  8
止水栓
  6
EXLTYPE2
 62
     6
100
AcDbVertex
100
AcDb2dVertex
 10
1365.602539
 20
774.213338
 30
0.0
  0
SEQEND
  5
696
100
AcDbEntity
  8
止水栓
  6
EXLTYPE2
 62
     6
  0
POLYLINE
  5
697
100
AcDbEntity
  8
止水栓
  6
EXLTYPE2
 62
     6
100
AcDb2dPolyline
 66
     1
 10
0.0
 20
0.0
 30
0.0
 70
   128
  0
VERTEX
  5
698
100
AcDbEntity
  8
止水栓
  6
EXLTYPE2
 62
     6
100
AcDbVertex
100
AcDb2dVertex
 10
1365.602539
 20
774.210897
 30
0.0
  0
VERTEX
  5
699
100
AcDbEntity
  8
止水栓
  6
EXLTYPE2
 62
     6
100
AcDbVertex
100
AcDb2dVertex
 10
1365.612305
 20
773.808065
 30
0.0
  0
VERTEX
  5
69A
100
AcDbEntity
  8
止水栓
  6
EXLTYPE2
 62
     6
100
AcDbVertex
100
AcDb2dVertex
 10
1365.641602
 20
773.407674
 30
0.0
  0
VERTEX
  5
69B
100
AcDbEntity
  8
止水栓
  6
EXLTYPE2
 62
     6
100
AcDbVertex
100
AcDb2dVertex
 10
1365.687988
 20
773.012166
 30
0.0
  0
VERTEX
  5
69C
100
AcDbEntity
  8
止水栓
  6
EXLTYPE2
 62
     6
100
AcDbVertex
100
AcDb2dVertex
 10
1365.751465
 20
772.628865
 30
0.0
  0
VERTEX
  5
69D
100
AcDbEntity
  8
止水栓
  6
EXLTYPE2
 62
     6
100
AcDbVertex
100
AcDb2dVertex
 10
1365.832031
 20
772.25533
 30
0.0
  0
VERTEX
  5
69E
100
AcDbEntity
  8
止水栓
  6
EXLTYPE2
 62
     6
100
AcDbVertex
100
AcDb2dVertex
 10
1365.932129
 20
771.896443
 30
0.0
  0
VERTEX
  5
69F
100
AcDbEntity
  8
止水栓
  6
EXLTYPE2
 62
     6
100
AcDbVertex
100
AcDb2dVertex
 10
1366.046875
 20
771.557088
 30
0.0
  0
VERTEX
  5
6A0
100
AcDbEntity
  8
止水栓
  6
EXLTYPE2
 62
     6
100
AcDbVertex
100
AcDb2dVertex
 10
1366.17627
 20
771.234822
 30
0.0
  0
VERTEX
  5
6A1
100
AcDbEntity
  8
止水栓
  6
EXLTYPE2
 62
     6
100
AcDbVertex
100
AcDb2dVertex
 10
1366.320313
 20
770.936971
 30
0.0
  0
VERTEX
  5
6A2
100
AcDbEntity
  8
止水栓
  6
EXLTYPE2
 62
     6
100
AcDbVertex
100
AcDb2dVertex
 10
1366.479004
 20
770.665975
 30
0.0
  0
VERTEX
  5
6A3
100
AcDbEntity
  8
止水栓
  6
EXLTYPE2
 62
     6
100
AcDbVertex
100
AcDb2dVertex
 10
1366.647461
 20
770.419393
 30
0.0
  0
VERTEX
  5
6A4
100
AcDbEntity
  8
止水栓
  6
EXLTYPE2
 62
     6
100
AcDbVertex
100
AcDb2dVertex
 10
1366.828125
 20
770.202108
 30
0.0
  0
VERTEX
  5
6A5
100
AcDbEntity
  8
止水栓
  6
EXLTYPE2
 62
     6
100
AcDbVertex
100
AcDb2dVertex
 10
1367.018555
 20
770.014119
 30
0.0
  0
VERTEX
  5
6A6
100
AcDbEntity
  8
止水栓
  6
EXLTYPE2
 62
     6
100
AcDbVertex
100
AcDb2dVertex
 10
1367.216309
 20
769.860311
 30
0.0
  0
VERTEX
  5
6A7
100
AcDbEntity
  8
止水栓
  6
EXLTYPE2
 62
     6
100
AcDbVertex
100
AcDb2dVertex
 10
1367.418945
 20
769.740682
 30
0.0
  0
VERTEX
  5
6A8
100
AcDbEntity
  8
止水栓
  6
EXLTYPE2
 62
     6
100
AcDbVertex
100
AcDb2dVertex
 10
1367.628906
 20
769.652791
 30
0.0
  0
VERTEX
  5
6A9
100
AcDbEntity
  8
止水栓
  6
EXLTYPE2
 62
     6
100
AcDbVertex
100
AcDb2dVertex
 10
1367.838867
 20
769.59908
 30
0.0
  0
VERTEX
  5
6AA
100
AcDbEntity
  8
止水栓
  6
EXLTYPE2
 62
     6
100
AcDbVertex
100
AcDb2dVertex
 10
1368.053711
 20
769.58199
 30
0.0
  0
VERTEX
  5
6AB
100
AcDbEntity
  8
止水栓
  6
EXLTYPE2
 62
     6
100
AcDbVertex
100
AcDb2dVertex
 10
1368.266113
 20
769.59908
 30
0.0
  0
VERTEX
  5
6AC
100
AcDbEntity
  8
止水栓
  6
EXLTYPE2
 62
     6
100
AcDbVertex
100
AcDb2dVertex
 10
1368.478516
 20
769.652791
 30
0.0
  0
VERTEX
  5
6AD
100
AcDbEntity
  8
止水栓
  6
EXLTYPE2
 62
     6
100
AcDbVertex
100
AcDb2dVertex
 10
1368.688477
 20
769.740682
 30
0.0
  0
VERTEX
  5
6AE
100
AcDbEntity
  8
止水栓
  6
EXLTYPE2
 62
     6
100
AcDbVertex
100
AcDb2dVertex
 10
1368.891113
 20
769.860311
 30
0.0
  0
VERTEX
  5
6AF
100
AcDbEntity
  8
止水栓
  6
EXLTYPE2
 62
     6
100
AcDbVertex
100
AcDb2dVertex
 10
1369.088867
 20
770.016561
 30
0.0
  0
VERTEX
  5
6B0
100
AcDbEntity
  8
止水栓
  6
EXLTYPE2
 62
     6
100
AcDbVertex
100
AcDb2dVertex
 10
1369.276855
 20
770.202108
 30
0.0
  0
VERTEX
  5
6B1
100
AcDbEntity
  8
止水栓
  6
EXLTYPE2
 62
     6
100
AcDbVertex
100
AcDb2dVertex
 10
1369.45752
 20
770.419393
 30
0.0
  0
VERTEX
  5
6B2
100
AcDbEntity
  8
止水栓
  6
EXLTYPE2
 62
     6
100
AcDbVertex
100
AcDb2dVertex
 10
1369.628418
 20
770.663533
 30
0.0
  0
VERTEX
  5
6B3
100
AcDbEntity
  8
止水栓
  6
EXLTYPE2
 62
     6
100
AcDbVertex
100
AcDb2dVertex
 10
1369.784668
 20
770.936971
 30
0.0
  0
VERTEX
  5
6B4
100
AcDbEntity
  8
止水栓
  6
EXLTYPE2
 62
     6
100
AcDbVertex
100
AcDb2dVertex
 10
1369.928711
 20
771.234822
 30
0.0
  0
VERTEX
  5
6B5
100
AcDbEntity
  8
止水栓
  6
EXLTYPE2
 62
     6
100
AcDbVertex
100
AcDb2dVertex
 10
1370.060547
 20
771.557088
 30
0.0
  0
VERTEX
  5
6B6
100
AcDbEntity
  8
止水栓
  6
EXLTYPE2
 62
     6
100
AcDbVertex
100
AcDb2dVertex
 10
1370.175293
 20
771.896443
 30
0.0
  0
VERTEX
  5
6B7
100
AcDbEntity
  8
止水栓
  6
EXLTYPE2
 62
     6
100
AcDbVertex
100
AcDb2dVertex
 10
1370.272949
 20
772.25533
 30
0.0
  0
VERTEX
  5
6B8
100
AcDbEntity
  8
止水栓
  6
EXLTYPE2
 62
     6
100
AcDbVertex
100
AcDb2dVertex
 10
1370.353516
 20
772.626424
 30
0.0
  0
VERTEX
  5
6B9
100
AcDbEntity
  8
止水栓
  6
EXLTYPE2
 62
     6
100
AcDbVertex
100
AcDb2dVertex
 10
1370.419434
 20
773.012166
 30
0.0
  0
VERTEX
  5
6BA
100
AcDbEntity
  8
止水栓
  6
EXLTYPE2
 62
     6
100
AcDbVertex
100
AcDb2dVertex
 10
1370.46582
 20
773.407674
 30
0.0
  0
VERTEX
  5
6BB
100
AcDbEntity
  8
止水栓
  6
EXLTYPE2
 62
     6
100
AcDbVertex
100
AcDb2dVertex
 10
1370.492676
 20
773.808065
 30
0.0
  0
VERTEX
  5
6BC
100
AcDbEntity
  8
止水栓
  6
EXLTYPE2
 62
     6
100
AcDbVertex
100
AcDb2dVertex
 10
1370.502441
 20
774.210897
 30
0.0
  0
VERTEX
  5
6BD
100
AcDbEntity
  8
止水栓
  6
EXLTYPE2
 62
     6
100
AcDbVertex
100
AcDb2dVertex
 10
1370.492676
 20
774.613729
 30
0.0
  0
VERTEX
  5
6BE
100
AcDbEntity
  8
止水栓
  6
EXLTYPE2
 62
     6
100
AcDbVertex
100
AcDb2dVertex
 10
1370.46582
 20
775.014119
 30
0.0
  0
VERTEX
  5
6BF
100
AcDbEntity
  8
止水栓
  6
EXLTYPE2
 62
     6
100
AcDbVertex
100
AcDb2dVertex
 10
1370.419434
 20
775.409627
 30
0.0
  0
VERTEX
  5
6C0
100
AcDbEntity
  8
止水栓
  6
EXLTYPE2
 62
     6
100
AcDbVertex
100
AcDb2dVertex
 10
1370.355957
 20
775.795369
 30
0.0
  0
VERTEX
  5
6C1
100
AcDbEntity
  8
止水栓
  6
EXLTYPE2
 62
     6
100
AcDbVertex
100
AcDb2dVertex
 10
1370.272949
 20
776.168904
 30
0.0
  0
VERTEX
  5
6C2
100
AcDbEntity
  8
止水栓
  6
EXLTYPE2
 62
     6
100
AcDbVertex
100
AcDb2dVertex
 10
1370.175293
 20
776.527791
 30
0.0
  0
VERTEX
  5
6C3
100
AcDbEntity
  8
止水栓
  6
EXLTYPE2
 62
     6
100
AcDbVertex
100
AcDb2dVertex
 10
1370.060547
 20
776.867147
 30
0.0
  0
VERTEX
  5
6C4
100
AcDbEntity
  8
止水栓
  6
EXLTYPE2
 62
     6
100
AcDbVertex
100
AcDb2dVertex
 10
1369.928711
 20
777.189412
 30
0.0
  0
VERTEX
  5
6C5
100
AcDbEntity
  8
止水栓
  6
EXLTYPE2
 62
     6
100
AcDbVertex
100
AcDb2dVertex
 10
1369.784668
 20
777.484822
 30
0.0
  0
VERTEX
  5
6C6
100
AcDbEntity
  8
止水栓
  6
EXLTYPE2
 62
     6
100
AcDbVertex
100
AcDb2dVertex
 10
1369.628418
 20
777.75826
 30
0.0
  0
VERTEX
  5
6C7
100
AcDbEntity
  8
止水栓
  6
EXLTYPE2
 62
     6
100
AcDbVertex
100
AcDb2dVertex
 10
1369.45752
 20
778.004842
 30
0.0
  0
VERTEX
  5
6C8
100
AcDbEntity
  8
止水栓
  6
EXLTYPE2
 62
     6
100
AcDbVertex
100
AcDb2dVertex
 10
1369.279297
 20
778.222127
 30
0.0
  0
VERTEX
  5
6C9
100
AcDbEntity
  8
止水栓
  6
EXLTYPE2
 62
     6
100
AcDbVertex
100
AcDb2dVertex
 10
1369.088867
 20
778.407674
 30
0.0
  0
VERTEX
  5
6CA
100
AcDbEntity
  8
止水栓
  6
EXLTYPE2
 62
     6
100
AcDbVertex
100
AcDb2dVertex
 10
1368.891113
 20
778.561483
 30
0.0
  0
VERTEX
  5
6CB
100
AcDbEntity
  8
止水栓
  6
EXLTYPE2
 62
     6
100
AcDbVertex
100
AcDb2dVertex
 10
1368.688477
 20
778.683553
 30
0.0
  0
VERTEX
  5
6CC
100
AcDbEntity
  8
止水栓
  6
EXLTYPE2
 62
     6
100
AcDbVertex
100
AcDb2dVertex
 10
1368.478516
 20
778.771443
 30
0.0
  0
VERTEX
  5
6CD
100
AcDbEntity
  8
止水栓
  6
EXLTYPE2
 62
     6
100
AcDbVertex
100
AcDb2dVertex
 10
1368.266113
 20
778.825154
 30
0.0
  0
VERTEX
  5
6CE
100
AcDbEntity
  8
止水栓
  6
EXLTYPE2
 62
     6
100
AcDbVertex
100
AcDb2dVertex
 10
1368.053711
 20
778.842244
 30
0.0
  0
VERTEX
  5
6CF
100
AcDbEntity
  8
止水栓
  6
EXLTYPE2
 62
     6
100
AcDbVertex
100
AcDb2dVertex
 10
1367.838867
 20
778.822713
 30
0.0
  0
VERTEX
  5
6D0
100
AcDbEntity
  8
止水栓
  6
EXLTYPE2
 62
     6
100
AcDbVertex
100
AcDb2dVertex
 10
1367.628906
 20
778.771443
 30
0.0
  0
VERTEX
  5
6D1
100
AcDbEntity
  8
止水栓
  6
EXLTYPE2
 62
     6
100
AcDbVertex
100
AcDb2dVertex
 10
1367.418945
 20
778.683553
 30
0.0
  0
VERTEX
  5
6D2
100
AcDbEntity
  8
止水栓
  6
EXLTYPE2
 62
     6
100
AcDbVertex
100
AcDb2dVertex
 10
1367.216309
 20
778.561483
 30
0.0
  0
VERTEX
  5
6D3
100
AcDbEntity
  8
止水栓
  6
EXLTYPE2
 62
     6
100
AcDbVertex
100
AcDb2dVertex
 10
1367.018555
 20
778.407674
 30
0.0
  0
SEQEND
  5
6D4
100
AcDbEntity
  8
止水栓
  6
EXLTYPE2
 62
     6
  0
LINE
  5
6D5
100
AcDbEntity
  8
止水栓
  6
EXLTYPE2
 62
     6
100
AcDbLine
 10
1368.5
 20
768.468709
 30
0.0
 11
1368.5
 21
763.468709
 31
0.0
  0
POLYLINE
  5
6D6
100
AcDbEntity
  8
止水栓
  6
EXLTYPE2
 62
     6
100
AcDb2dPolyline
 66
     1
 10
0.0
 20
0.0
 30
0.0
 70
   128
  0
VERTEX
  5
6D7
100
AcDbEntity
  8
止水栓
  6
EXLTYPE2
 62
     6
100
AcDbVertex
100
AcDb2dVertex
 10
1358.0
 20
768.683553
 30
0.0
  0
VERTEX
  5
6D8
100
AcDbEntity
  8
止水栓
  6
EXLTYPE2
 62
     6
100
AcDbVertex
100
AcDb2dVertex
 10
1358.498047
 20
768.705525
 30
0.0
  0
VERTEX
  5
6D9
100
AcDbEntity
  8
止水栓
  6
EXLTYPE2
 62
     6
100
AcDbVertex
100
AcDb2dVertex
 10
1358.993652
 20
768.771443
 30
0.0
  0
VERTEX
  5
6DA
100
AcDbEntity
  8
止水栓
  6
EXLTYPE2
 62
     6
100
AcDbVertex
100
AcDb2dVertex
 10
1359.481934
 20
768.873983
 30
0.0
  0
VERTEX
  5
6DB
100
AcDbEntity
  8
止水栓
  6
EXLTYPE2
 62
     6
100
AcDbVertex
100
AcDb2dVertex
 10
1359.967773
 20
769.020467
 30
0.0
  0
VERTEX
  5
6DC
100
AcDbEntity
  8
止水栓
  6
EXLTYPE2
 62
     6
100
AcDbVertex
100
AcDb2dVertex
 10
1360.436523
 20
769.206014
 30
0.0
  0
VERTEX
  5
6DD
100
AcDbEntity
  8
止水栓
  6
EXLTYPE2
 62
     6
100
AcDbVertex
100
AcDb2dVertex
 10
1360.888184
 20
769.428182
 30
0.0
  0
VERTEX
  5
6DE
100
AcDbEntity
  8
止水栓
  6
EXLTYPE2
 62
     6
100
AcDbVertex
100
AcDb2dVertex
 10
1361.317871
 20
769.689412
 30
0.0
  0
VERTEX
  5
6DF
100
AcDbEntity
  8
止水栓
  6
EXLTYPE2
 62
     6
100
AcDbVertex
100
AcDb2dVertex
 10
1361.720703
 20
769.984822
 30
0.0
  0
VERTEX
  5
6E0
100
AcDbEntity
  8
止水栓
  6
EXLTYPE2
 62
     6
100
AcDbVertex
100
AcDb2dVertex
 10
1362.09668
 20
770.311971
 30
0.0
  0
VERTEX
  5
6E1
100
AcDbEntity
  8
止水栓
  6
EXLTYPE2
 62
     6
100
AcDbVertex
100
AcDb2dVertex
 10
1362.438477
 20
770.670858
 30
0.0
  0
VERTEX
  5
6E2
100
AcDbEntity
  8
止水栓
  6
EXLTYPE2
 62
     6
100
AcDbVertex
100
AcDb2dVertex
 10
1362.748535
 20
771.0566
 30
0.0
  0
VERTEX
  5
6E3
100
AcDbEntity
  8
止水栓
  6
EXLTYPE2
 62
     6
100
AcDbVertex
100
AcDb2dVertex
 10
1363.021973
 20
771.464315
 30
0.0
  0
VERTEX
  5
6E4
100
AcDbEntity
  8
止水栓
  6
EXLTYPE2
 62
     6
100
AcDbVertex
100
AcDb2dVertex
 10
1363.258789
 20
771.894002
 30
0.0
  0
VERTEX
  5
6E5
100
AcDbEntity
  8
止水栓
  6
EXLTYPE2
 62
     6
100
AcDbVertex
100
AcDb2dVertex
 10
1363.45166
 20
772.343221
 30
0.0
  0
VERTEX
  5
6E6
100
AcDbEntity
  8
止水栓
  6
EXLTYPE2
 62
     6
100
AcDbVertex
100
AcDb2dVertex
 10
1363.605469
 20
772.807088
 30
0.0
  0
VERTEX
  5
6E7
100
AcDbEntity
  8
止水栓
  6
EXLTYPE2
 62
     6
100
AcDbVertex
100
AcDb2dVertex
 10
1363.715332
 20
773.280721
 30
0.0
  0
VERTEX
  5
6E8
100
AcDbEntity
  8
止水栓
  6
EXLTYPE2
 62
     6
100
AcDbVertex
100
AcDb2dVertex
 10
1363.78125
 20
773.761678
 30
0.0
  0
VERTEX
  5
6E9
100
AcDbEntity
  8
止水栓
  6
EXLTYPE2
 62
     6
100
AcDbVertex
100
AcDb2dVertex
 10
1363.805664
 20
774.245076
 30
0.0
  0
VERTEX
  5
6EA
100
AcDbEntity
  8
止水栓
  6
EXLTYPE2
 62
     6
100
AcDbVertex
100
AcDb2dVertex
 10
1363.78125
 20
774.730916
 30
0.0
  0
VERTEX
  5
6EB
100
AcDbEntity
  8
止水栓
  6
EXLTYPE2
 62
     6
100
AcDbVertex
100
AcDb2dVertex
 10
1363.715332
 20
775.211873
 30
0.0
  0
VERTEX
  5
6EC
100
AcDbEntity
  8
止水栓
  6
EXLTYPE2
 62
     6
100
AcDbVertex
100
AcDb2dVertex
 10
1363.605469
 20
775.685506
 30
0.0
  0
VERTEX
  5
6ED
100
AcDbEntity
  8
止水栓
  6
EXLTYPE2
 62
     6
100
AcDbVertex
100
AcDb2dVertex
 10
1363.45166
 20
776.146932
 30
0.0
  0
VERTEX
  5
6EE
100
AcDbEntity
  8
止水栓
  6
EXLTYPE2
 62
     6
100
AcDbVertex
100
AcDb2dVertex
 10
1363.258789
 20
776.59615
 30
0.0
  0
VERTEX
  5
6EF
100
AcDbEntity
  8
止水栓
  6
EXLTYPE2
 62
     6
100
AcDbVertex
100
AcDb2dVertex
 10
1363.021973
 20
777.025838
 30
0.0
  0
VERTEX
  5
6F0
100
AcDbEntity
  8
止水栓
  6
EXLTYPE2
 62
     6
100
AcDbVertex
100
AcDb2dVertex
 10
1362.748535
 20
777.435994
 30
0.0
  0
VERTEX
  5
6F1
100
AcDbEntity
  8
止水栓
  6
EXLTYPE2
 62
     6
100
AcDbVertex
100
AcDb2dVertex
 10
1362.438477
 20
777.819295
 30
0.0
  0
VERTEX
  5
6F2
100
AcDbEntity
  8
止水栓
  6
EXLTYPE2
 62
     6
100
AcDbVertex
100
AcDb2dVertex
 10
1362.09668
 20
778.178182
 30
0.0
  0
VERTEX
  5
6F3
100
AcDbEntity
  8
止水栓
  6
EXLTYPE2
 62
     6
100
AcDbVertex
100
AcDb2dVertex
 10
1361.720703
 20
778.50533
 30
0.0
  0
VERTEX
  5
6F4
100
AcDbEntity
  8
止水栓
  6
EXLTYPE2
 62
     6
100
AcDbVertex
100
AcDb2dVertex
 10
1361.317871
 20
778.80074
 30
0.0
  0
VERTEX
  5
6F5
100
AcDbEntity
  8
止水栓
  6
EXLTYPE2
 62
     6
100
AcDbVertex
100
AcDb2dVertex
 10
1360.888184
 20
779.061971
 30
0.0
  0
VERTEX
  5
6F6
100
AcDbEntity
  8
止水栓
  6
EXLTYPE2
 62
     6
100
AcDbVertex
100
AcDb2dVertex
 10
1360.436523
 20
779.28658
 30
0.0
  0
VERTEX
  5
6F7
100
AcDbEntity
  8
止水栓
  6
EXLTYPE2
 62
     6
100
AcDbVertex
100
AcDb2dVertex
 10
1359.967773
 20
779.472127
 30
0.0
  0
VERTEX
  5
6F8
100
AcDbEntity
  8
止水栓
  6
EXLTYPE2
 62
     6
100
AcDbVertex
100
AcDb2dVertex
 10
1359.481934
 20
779.61617
 30
0.0
  0
VERTEX
  5
6F9
100
AcDbEntity
  8
止水栓
  6
EXLTYPE2
 62
     6
100
AcDbVertex
100
AcDb2dVertex
 10
1358.986328
 20
779.72115
 30
0.0
  0
VERTEX
  5
6FA
100
AcDbEntity
  8
止水栓
  6
EXLTYPE2
 62
     6
100
AcDbVertex
100
AcDb2dVertex
 10
1358.480957
 20
779.784627
 30
0.0
  0
VERTEX
  5
6FB
100
AcDbEntity
  8
止水栓
  6
EXLTYPE2
 62
     6
100
AcDbVertex
100
AcDb2dVertex
 10
1357.973145
 20
779.8066
 30
0.0
  0
VERTEX
  5
6FC
100
AcDbEntity
  8
止水栓
  6
EXLTYPE2
 62
     6
100
AcDbVertex
100
AcDb2dVertex
 10
1357.465332
 20
779.784627
 30
0.0
  0
VERTEX
  5
6FD
100
AcDbEntity
  8
止水栓
  6
EXLTYPE2
 62
     6
100
AcDbVertex
100
AcDb2dVertex
 10
1356.959961
 20
779.72115
 30
0.0
  0
VERTEX
  5
6FE
100
AcDbEntity
  8
止水栓
  6
EXLTYPE2
 62
     6
100
AcDbVertex
100
AcDb2dVertex
 10
1356.464355
 20
779.61617
 30
0.0
  0
VERTEX
  5
6FF
100
AcDbEntity
  8
止水栓
  6
EXLTYPE2
 62
     6
100
AcDbVertex
100
AcDb2dVertex
 10
1355.978516
 20
779.472127
 30
0.0
  0
VERTEX
  5
700
100
AcDbEntity
  8
止水栓
  6
EXLTYPE2
 62
     6
100
AcDbVertex
100
AcDb2dVertex
 10
1355.509766
 20
779.28658
 30
0.0
  0
VERTEX
  5
701
100
AcDbEntity
  8
止水栓
  6
EXLTYPE2
 62
     6
100
AcDbVertex
100
AcDb2dVertex
 10
1355.058105
 20
779.061971
 30
0.0
  0
VERTEX
  5
702
100
AcDbEntity
  8
止水栓
  6
EXLTYPE2
 62
     6
100
AcDbVertex
100
AcDb2dVertex
 10
1354.628418
 20
778.80074
 30
0.0
  0
VERTEX
  5
703
100
AcDbEntity
  8
止水栓
  6
EXLTYPE2
 62
     6
100
AcDbVertex
100
AcDb2dVertex
 10
1354.225586
 20
778.50533
 30
0.0
  0
VERTEX
  5
704
100
AcDbEntity
  8
止水栓
  6
EXLTYPE2
 62
     6
100
AcDbVertex
100
AcDb2dVertex
 10
1353.849609
 20
778.178182
 30
0.0
  0
VERTEX
  5
705
100
AcDbEntity
  8
止水栓
  6
EXLTYPE2
 62
     6
100
AcDbVertex
100
AcDb2dVertex
 10
1353.507813
 20
777.819295
 30
0.0
  0
VERTEX
  5
706
100
AcDbEntity
  8
止水栓
  6
EXLTYPE2
 62
     6
100
AcDbVertex
100
AcDb2dVertex
 10
1353.197754
 20
777.435994
 30
0.0
  0
VERTEX
  5
707
100
AcDbEntity
  8
止水栓
  6
EXLTYPE2
 62
     6
100
AcDbVertex
100
AcDb2dVertex
 10
1352.924316
 20
777.025838
 30
0.0
  0
VERTEX
  5
708
100
AcDbEntity
  8
止水栓
  6
EXLTYPE2
 62
     6
100
AcDbVertex
100
AcDb2dVertex
 10
1352.6875
 20
776.59615
 30
0.0
  0
VERTEX
  5
709
100
AcDbEntity
  8
止水栓
  6
EXLTYPE2
 62
     6
100
AcDbVertex
100
AcDb2dVertex
 10
1352.494629
 20
776.146932
 30
0.0
  0
VERTEX
  5
70A
100
AcDbEntity
  8
止水栓
  6
EXLTYPE2
 62
     6
100
AcDbVertex
100
AcDb2dVertex
 10
1352.34082
 20
775.685506
 30
0.0
  0
VERTEX
  5
70B
100
AcDbEntity
  8
止水栓
  6
EXLTYPE2
 62
     6
100
AcDbVertex
100
AcDb2dVertex
 10
1352.230957
 20
775.211873
 30
0.0
  0
VERTEX
  5
70C
100
AcDbEntity
  8
止水栓
  6
EXLTYPE2
 62
     6
100
AcDbVertex
100
AcDb2dVertex
 10
1352.165039
 20
774.730916
 30
0.0
  0
VERTEX
  5
70D
100
AcDbEntity
  8
止水栓
  6
EXLTYPE2
 62
     6
100
AcDbVertex
100
AcDb2dVertex
 10
1352.143066
 20
774.247518
 30
0.0
  0
SEQEND
  5
70E
100
AcDbEntity
  8
止水栓
  6
EXLTYPE2
 62
     6
  0
POLYLINE
  5
70F
100
AcDbEntity
  8
止水栓
  6
EXLTYPE2
 62
     6
100
AcDb2dPolyline
 66
     1
 10
0.0
 20
0.0
 30
0.0
 70
   128
  0
VERTEX
  5
710
100
AcDbEntity
  8
止水栓
  6
EXLTYPE2
 62
     6
100
AcDbVertex
100
AcDb2dVertex
 10
1352.143066
 20
774.245076
 30
0.0
  0
VERTEX
  5
711
100
AcDbEntity
  8
止水栓
  6
EXLTYPE2
 62
     6
100
AcDbVertex
100
AcDb2dVertex
 10
1352.165039
 20
773.761678
 30
0.0
  0
VERTEX
  5
712
100
AcDbEntity
  8
止水栓
  6
EXLTYPE2
 62
     6
100
AcDbVertex
100
AcDb2dVertex
 10
1352.230957
 20
773.280721
 30
0.0
  0
VERTEX
  5
713
100
AcDbEntity
  8
止水栓
  6
EXLTYPE2
 62
     6
100
AcDbVertex
100
AcDb2dVertex
 10
1352.34082
 20
772.807088
 30
0.0
  0
VERTEX
  5
714
100
AcDbEntity
  8
止水栓
  6
EXLTYPE2
 62
     6
100
AcDbVertex
100
AcDb2dVertex
 10
1352.494629
 20
772.343221
 30
0.0
  0
VERTEX
  5
715
100
AcDbEntity
  8
止水栓
  6
EXLTYPE2
 62
     6
100
AcDbVertex
100
AcDb2dVertex
 10
1352.6875
 20
771.896443
 30
0.0
  0
VERTEX
  5
716
100
AcDbEntity
  8
止水栓
  6
EXLTYPE2
 62
     6
100
AcDbVertex
100
AcDb2dVertex
 10
1352.924316
 20
771.464315
 30
0.0
  0
VERTEX
  5
717
100
AcDbEntity
  8
止水栓
  6
EXLTYPE2
 62
     6
100
AcDbVertex
100
AcDb2dVertex
 10
1353.197754
 20
771.0566
 30
0.0
  0
VERTEX
  5
718
100
AcDbEntity
  8
止水栓
  6
EXLTYPE2
 62
     6
100
AcDbVertex
100
AcDb2dVertex
 10
1353.507813
 20
770.670858
 30
0.0
  0
VERTEX
  5
719
100
AcDbEntity
  8
止水栓
  6
EXLTYPE2
 62
     6
100
AcDbVertex
100
AcDb2dVertex
 10
1353.849609
 20
770.314412
 30
0.0
  0
VERTEX
  5
71A
100
AcDbEntity
  8
止水栓
  6
EXLTYPE2
 62
     6
100
AcDbVertex
100
AcDb2dVertex
 10
1354.225586
 20
769.984822
 30
0.0
  0
VERTEX
  5
71B
100
AcDbEntity
  8
止水栓
  6
EXLTYPE2
 62
     6
100
AcDbVertex
100
AcDb2dVertex
 10
1354.628418
 20
769.691854
 30
0.0
  0
VERTEX
  5
71C
100
AcDbEntity
  8
止水栓
  6
EXLTYPE2
 62
     6
100
AcDbVertex
100
AcDb2dVertex
 10
1355.058105
 20
769.428182
 30
0.0
  0
VERTEX
  5
71D
100
AcDbEntity
  8
止水栓
  6
EXLTYPE2
 62
     6
100
AcDbVertex
100
AcDb2dVertex
 10
1355.509766
 20
769.203572
 30
0.0
  0
VERTEX
  5
71E
100
AcDbEntity
  8
止水栓
  6
EXLTYPE2
 62
     6
100
AcDbVertex
100
AcDb2dVertex
 10
1355.978516
 20
769.018025
 30
0.0
  0
VERTEX
  5
71F
100
AcDbEntity
  8
止水栓
  6
EXLTYPE2
 62
     6
100
AcDbVertex
100
AcDb2dVertex
 10
1356.464355
 20
768.873983
 30
0.0
  0
VERTEX
  5
720
100
AcDbEntity
  8
止水栓
  6
EXLTYPE2
 62
     6
100
AcDbVertex
100
AcDb2dVertex
 10
1356.959961
 20
768.769002
 30
0.0
  0
VERTEX
  5
721
100
AcDbEntity
  8
止水栓
  6
EXLTYPE2
 62
     6
100
AcDbVertex
100
AcDb2dVertex
 10
1357.465332
 20
768.705525
 30
0.0
  0
VERTEX
  5
722
100
AcDbEntity
  8
止水栓
  6
EXLTYPE2
 62
     6
100
AcDbVertex
100
AcDb2dVertex
 10
1357.973145
 20
768.683553
 30
0.0
  0
VERTEX
  5
723
100
AcDbEntity
  8
止水栓
  6
EXLTYPE2
 62
     6
100
AcDbVertex
100
AcDb2dVertex
 10
1357.98291
 20
768.683553
 30
0.0
  0
VERTEX
  5
724
100
AcDbEntity
  8
止水栓
  6
EXLTYPE2
 62
     6
100
AcDbVertex
100
AcDb2dVertex
 10
1357.990234
 20
768.683553
 30
0.0
  0
VERTEX
  5
725
100
AcDbEntity
  8
止水栓
  6
EXLTYPE2
 62
     6
100
AcDbVertex
100
AcDb2dVertex
 10
1358.0
 20
768.683553
 30
0.0
  0
SEQEND
  5
726
100
AcDbEntity
  8
止水栓
  6
EXLTYPE2
 62
     6
  0
ARC
  5
727
100
AcDbEntity
  8
止水栓
  6
EXLTYPE2
 62
     6
100
AcDbCircle
 10
1359.750488
 20
774.469686
 30
0.0
 40
10.99987
100
AcDbArc
 50
326.937744
 51
33.047067
  0
LINE
  5
728
100
AcDbEntity
  8
止水栓
  6
CONTINUOUS
 62
     6
100
AcDbLine
 10
1348.78055
 20
803.99706
 30
0.0
 11
1367.21945
 21
803.99706
 31
0.0
  0
LINE
  5
729
100
AcDbEntity
  8
止水栓
  6
CONTINUOUS
 62
     6
100
AcDbLine
 10
1367.219185
 20
801.997548
 30
0.0
 11
1348.780815
 21
801.997548
 31
0.0
  0
ARC
  5
72A
100
AcDbEntity
  8
止水栓
  6
CONTINUOUS
 62
     6
100
AcDbCircle
 10
1302.0225
 20
789.854344
 30
0.0
 40
45.5
100
AcDbArc
 50
0.0
 51
13.214335
  0
ARC
  5
72B
100
AcDbEntity
  8
止水栓
  6
CONTINUOUS
 62
     6
100
AcDbCircle
 10
1413.9775
 20
789.854344
 30
0.0
 40
45.5
100
AcDbArc
 50
166.785665
 51
180.0
  0
CIRCLE
  5
72C
100
AcDbEntity
  8
止水栓
  6
CONTINUOUS
 62
     6
100
AcDbCircle
 10
1358.0
 20
802.998525
 30
0.0
 40
9.273367
  0
CIRCLE
  5
72D
100
AcDbEntity
  8
止水栓
  6
CONTINUOUS
 62
     6
100
AcDbCircle
 10
1358.0
 20
802.998525
 30
0.0
 40
9.959438
  0
CIRCLE
  5
72E
100
AcDbEntity
  8
止水栓
  6
CONTINUOUS
 62
     6
100
AcDbCircle
 10
1358.0
 20
802.998525
 30
0.0
 40
12.0
  0
LINE
  5
72F
100
AcDbEntity
  8
止水栓
  6
CONTINUOUS
 62
     6
100
AcDbLine
 10
1347.5225
 20
782.998525
 30
0.0
 11
1368.4775
 21
782.998525
 31
0.0
  0
LINE
  5
730
100
AcDbEntity
  8
止水栓
  6
CONTINUOUS
 62
     6
100
AcDbLine
 10
1348.6845
 20
782.998525
 30
0.0
 11
1347.470802
 21
785.100741
 31
0.0
  0
LINE
  5
731
100
AcDbEntity
  8
止水栓
  6
CONTINUOUS
 62
     6
100
AcDbLine
 10
1367.3155
 20
782.998525
 30
0.0
 11
1368.529198
 21
785.100741
 31
0.0
  0
LINE
  5
732
100
AcDbEntity
  8
止水栓
  6
EXLTYPE2
 62
     6
100
AcDbLine
 10
1347.030761
 20
780.46822
 30
0.0
 11
1368.969238
 21
780.46822
 31
0.0
  0
LINE
  5
733
100
AcDbEntity
  8
止水栓
  6
CONTINUOUS
 62
     6
100
AcDbLine
 10
1348.6845
 20
780.46822
 30
0.0
 11
1348.6845
 21
782.998525
 31
0.0
  0
LINE
  5
734
100
AcDbEntity
  8
止水栓
  6
CONTINUOUS
 62
     6
100
AcDbLine
 10
1367.3155
 20
780.46822
 30
0.0
 11
1367.3155
 21
782.998525
 31
0.0
  0
LINE
  5
735
100
AcDbEntity
  8
止水栓
  6
CONTINUOUS
 62
     6
100
AcDbLine
 10
1347.5225
 20
789.854344
 30
0.0
 11
1347.5225
 21
780.46822
 31
0.0
  0
LINE
  5
736
100
AcDbEntity
  8
止水栓
  6
CONTINUOUS
 62
     6
100
AcDbLine
 10
1368.4775
 20
789.854344
 30
0.0
 11
1368.4775
 21
780.46822
 31
0.0
  0
ARC
  5
737
100
AcDbEntity
  8
止水栓
  6
EXLTYPE2
 62
     6
100
AcDbCircle
 10
1358.0
 20
802.998525
 30
0.0
 40
27.5
100
AcDbArc
 50
294.79044
 51
244.998019
  0
LINE
  5
738
100
AcDbEntity
  8
止水栓
  6
CONTINUOUS
 62
     6
100
AcDbLine
 10
1357.1
 20
578.361252
 30
0.0
 11
1349.0
 21
578.361252
 31
0.0
  0
LINE
  5
739
100
AcDbEntity
  8
止水栓
  6
CONTINUOUS
 62
     6
100
AcDbLine
 10
1358.9
 20
578.361252
 30
0.0
 11
1367.0
 21
578.361252
 31
0.0
  0
LINE
  5
73A
100
AcDbEntity
  8
止水栓
  6
CONTINUOUS
 62
     6
100
AcDbLine
 10
1358.9
 20
578.361252
 30
0.0
 11
1358.9
 21
577.661252
 31
0.0
  0
LINE
  5
73B
100
AcDbEntity
  8
止水栓
  6
CONTINUOUS
 62
     6
100
AcDbLine
 10
1357.1
 20
578.361252
 30
0.0
 11
1357.1
 21
577.661252
 31
0.0
  0
LINE
  5
73C
100
AcDbEntity
  8
止水栓
  6
CONTINUOUS
 62
     6
100
AcDbLine
 10
1367.0
 20
578.361252
 30
0.0
 11
1367.0
 21
577.661252
 31
0.0
  0
LINE
  5
73D
100
AcDbEntity
  8
止水栓
  6
CONTINUOUS
 62
     6
100
AcDbLine
 10
1349.0
 20
578.361252
 30
0.0
 11
1349.0
 21
577.661252
 31
0.0
  0
LINE
  5
73E
100
AcDbEntity
  8
止水栓
  6
CONTINUOUS
 62
     6
100
AcDbLine
 10
1370.0
 20
577.661252
 30
0.0
 11
1346.0
 21
577.661252
 31
0.0
  0
LINE
  5
73F
100
AcDbEntity
  8
止水栓
  6
CONTINUOUS
 62
     6
100
AcDbLine
 10
1370.0
 20
577.661252
 30
0.0
 11
1370.0
 21
569.914749
 31
0.0
  0
ARC
  5
740
100
AcDbEntity
  8
止水栓
  6
CONTINUOUS
 62
     6
100
AcDbCircle
 10
1374.498827
 20
572.096619
 30
0.0
 40
5.0
100
AcDbArc
 50
205.872755
 51
262.555023
  0
LINE
  5
741
100
AcDbEntity
  8
止水栓
  6
CONTINUOUS
 62
     6
100
AcDbLine
 10
1375.873911
 20
567.138767
 30
0.0
 11
1378.00004
 21
565.911243
 31
0.0
  0
LINE
  5
742
100
AcDbEntity
  8
止水栓
  6
CONTINUOUS
 62
     6
100
AcDbLine
 10
1346.0
 20
541.051217
 30
0.0
 11
1346.0
 21
577.661252
 31
0.0
  0
ARC
  5
743
100
AcDbEntity
  8
止水栓
  6
CONTINUOUS
 62
     6
100
AcDbCircle
 10
1375.0
 20
541.183762
 30
0.0
 40
5.0
100
AcDbArc
 50
90.0
 51
180.0
  0
LINE
  5
744
100
AcDbEntity
  8
止水栓
  6
CONTINUOUS
 62
     6
100
AcDbLine
 10
1370.0
 20
541.1718
 30
0.0
 11
1370.0
 21
541.051217
 31
0.0
  0
LINE
  5
745
100
AcDbEntity
  8
止水栓
  6
CONTINUOUS
 62
     6
100
AcDbLine
 10
1371.5
 20
518.984784
 30
0.0
 11
1344.5
 21
518.984784
 31
0.0
  0
LINE
  5
746
100
AcDbEntity
  8
止水栓
  6
CONTINUOUS
 62
     6
100
AcDbLine
 10
1368.3
 20
502.984784
 30
0.0
 11
1368.3
 21
497.304784
 31
0.0
  0
LINE
  5
747
100
AcDbEntity
  8
止水栓
  6
CONTINUOUS
 62
     6
100
AcDbLine
 10
1367.070516
 20
495.1453
 30
0.0
 11
1367.3155
 21
502.984784
 31
0.0
  0
LINE
  5
748
100
AcDbEntity
  8
止水栓
  6
CONTINUOUS
 62
     6
100
AcDbLine
 10
1368.269375
 20
496.324784
 30
0.0
 11
1347.730625
 21
496.324784
 31
0.0
  0
LINE
  5
749
100
AcDbEntity
  8
止水栓
  6
CONTINUOUS
 62
     6
100
AcDbLine
 10
1368.3
 20
497.304784
 30
0.0
 11
1368.269375
 21
496.324784
 31
0.0
  0
LINE
  5
74A
100
AcDbEntity
  8
止水栓
  6
CONTINUOUS
 62
     6
100
AcDbLine
 10
1368.268375
 20
496.323784
 30
0.0
 11
1366.769375
 21
494.824784
 31
0.0
  0
LINE
  5
74B
100
AcDbEntity
  8
止水栓
  6
CONTINUOUS
 62
     6
100
AcDbLine
 10
1366.769375
 20
494.824784
 30
0.0
 11
1349.230625
 21
494.824784
 31
0.0
  0
LINE
  5
74C
100
AcDbEntity
  8
止水栓
  6
CONTINUOUS
 62
     6
100
AcDbLine
 10
1348.929484
 20
495.1453
 30
0.0
 11
1348.6845
 21
502.984784
 31
0.0
  0
LINE
  5
74D
100
AcDbEntity
  8
止水栓
  6
CONTINUOUS
 62
     6
100
AcDbLine
 10
1347.731625
 20
496.323784
 30
0.0
 11
1349.230625
 21
494.824784
 31
0.0
  0
LINE
  5
74E
100
AcDbEntity
  8
止水栓
  6
CONTINUOUS
 62
     6
100
AcDbLine
 10
1347.7
 20
502.984784
 30
0.0
 11
1347.7
 21
497.304784
 31
0.0
  0
LINE
  5
74F
100
AcDbEntity
  8
止水栓
  6
CONTINUOUS
 62
     6
100
AcDbLine
 10
1347.7
 20
497.304784
 30
0.0
 11
1347.730625
 21
496.324784
 31
0.0
  0
ARC
  5
750
100
AcDbEntity
  8
止水栓
  6
CONTINUOUS
 62
     6
100
AcDbCircle
 10
1344.5
 20
504.984784
 30
0.0
 40
14.0
100
AcDbArc
 50
90.0
 51
180.0
  0
LINE
  5
751
100
AcDbEntity
  8
止水栓
  6
CONTINUOUS
 62
     6
100
AcDbLine
 10
1330.5
 20
502.984784
 30
0.0
 11
1330.5
 21
504.984784
 31
0.0
  0
LINE
  5
752
100
AcDbEntity
  8
止水栓
  6
CONTINUOUS
 62
     6
100
AcDbLine
 10
1347.730078
 20
525.647985
 30
0.0
 11
1347.730078
 21
518.984784
 31
0.0
  0
LINE
  5
753
100
AcDbEntity
  8
止水栓
  6
CONTINUOUS
 62
     6
100
AcDbLine
 10
1347.730078
 20
525.647985
 30
0.0
 11
1348.784246
 21
527.455307
 31
0.0
  0
LINE
  5
754
100
AcDbEntity
  8
止水栓
  6
CONTINUOUS
 62
     6
100
AcDbLine
 10
1348.820118
 20
528.662029
 30
0.0
 11
1348.784246
 21
527.455307
 31
0.0
  0
LINE
  5
755
100
AcDbEntity
  8
止水栓
  6
CONTINUOUS
 62
     6
100
AcDbLine
 10
1347.819676
 20
528.662029
 30
0.0
 11
1347.730078
 21
525.647985
 31
0.0
  0
LINE
  5
756
100
AcDbEntity
  8
止水栓
  6
CONTINUOUS
 62
     6
100
AcDbLine
 10
1368.230078
 20
525.647985
 30
0.0
 11
1368.230078
 21
518.984784
 31
0.0
  0
LINE
  5
757
100
AcDbEntity
  8
止水栓
  6
CONTINUOUS
 62
     6
100
AcDbLine
 10
1368.230078
 20
525.647985
 30
0.0
 11
1367.17591
 21
527.455307
 31
0.0
  0
LINE
  5
758
100
AcDbEntity
  8
止水栓
  6
CONTINUOUS
 62
     6
100
AcDbLine
 10
1367.140037
 20
528.662029
 30
0.0
 11
1367.17591
 21
527.455307
 31
0.0
  0
LINE
  5
759
100
AcDbEntity
  8
止水栓
  6
CONTINUOUS
 62
     6
100
AcDbLine
 10
1368.140479
 20
528.662029
 30
0.0
 11
1368.230078
 21
525.647985
 31
0.0
  0
LINE
  5
75A
100
AcDbEntity
  8
止水栓
  6
CONTINUOUS
 62
     6
100
AcDbLine
 10
1368.176351
 20
527.455307
 30
0.0
 11
1347.783804
 21
527.455307
 31
0.0
  0
LINE
  5
75B
100
AcDbEntity
  8
止水栓
  6
CONTINUOUS
 62
     6
100
AcDbLine
 10
1345.75
 20
528.658829
 30
0.0
 11
1370.25
 21
528.658829
 31
0.0
  0
LINE
  5
75C
100
AcDbEntity
  8
止水栓
  6
CONTINUOUS
 62
     6
100
AcDbLine
 10
1345.25
 20
538.020128
 30
0.0
 11
1345.25
 21
528.947504
 31
0.0
  0
LINE
  5
75D
100
AcDbEntity
  8
止水栓
  6
CONTINUOUS
 62
     6
100
AcDbLine
 10
1370.75
 20
538.020128
 30
0.0
 11
1370.75
 21
528.947504
 31
0.0
  0
LINE
  5
75E
100
AcDbEntity
  8
止水栓
  6
CONTINUOUS
 62
     6
100
AcDbLine
 10
1370.25
 20
528.658829
 30
0.0
 11
1370.75
 21
528.947504
 31
0.0
  0
LINE
  5
75F
100
AcDbEntity
  8
止水栓
  6
CONTINUOUS
 62
     6
100
AcDbLine
 10
1345.75
 20
528.658829
 30
0.0
 11
1345.25
 21
528.947504
 31
0.0
  0
ARC
  5
760
100
AcDbEntity
  8
止水栓
  6
CONTINUOUS
 62
     6
100
AcDbCircle
 10
1351.625
 20
527.837175
 30
0.0
 40
10.182953
100
AcDbArc
 50
51.240977
 51
128.759023
  0
ARC
  5
761
100
AcDbEntity
  8
止水栓
  6
CONTINUOUS
 62
     6
100
AcDbCircle
 10
1364.375
 20
527.837175
 30
0.0
 40
10.182953
100
AcDbArc
 50
51.240977
 51
128.759023
  0
ARC
  5
762
100
AcDbEntity
  8
止水栓
  6
CONTINUOUS
 62
     6
100
AcDbCircle
 10
1351.625
 20
547.559556
 30
0.0
 40
18.612052
100
AcDbArc
 50
249.969519
 51
290.030481
  0
ARC
  5
763
100
AcDbEntity
  8
止水栓
  6
CONTINUOUS
 62
     6
100
AcDbCircle
 10
1364.375
 20
547.559556
 30
0.0
 40
18.612052
100
AcDbArc
 50
249.969519
 51
290.030481
  0
ARC
  5
764
100
AcDbEntity
  8
止水栓
  6
CONTINUOUS
 62
     6
100
AcDbCircle
 10
1376.5
 20
541.051217
 30
0.0
 40
6.5
100
AcDbArc
 50
180.0
 51
207.795772
  0
ARC
  5
765
100
AcDbEntity
  8
止水栓
  6
CONTINUOUS
 62
     6
100
AcDbCircle
 10
1339.5
 20
541.051217
 30
0.0
 40
6.5
100
AcDbArc
 50
332.204228
 51
0.0
  0
LINE
  5
766
100
AcDbEntity
  8
止水栓
  6
CONTINUOUS
 62
     6
100
AcDbLine
 10
1375.873909
 20
546.183762
 30
0.0
 11
1378.000038
 21
547.411286
 31
0.0
  0
LINE
  5
767
100
AcDbEntity
  8
止水栓
  6
CONTINUOUS
 62
     6
100
AcDbLine
 10
1378.00004
 20
567.138751
 30
0.0
 11
1378.00004
 21
546.183762
 31
0.0
  0
LINE
  5
768
100
AcDbEntity
  8
止水栓
  6
CONTINUOUS
 62
     6
100
AcDbLine
 10
1381.500214
 20
567.138771
 30
0.0
 11
1373.850957
 21
567.138771
 31
0.0
  0
LINE
  5
769
100
AcDbEntity
  8
止水栓
  6
CONTINUOUS
 62
     6
100
AcDbLine
 10
1378.00004
 20
565.911263
 30
0.0
 11
1381.500214
 21
565.911263
 31
0.0
  0
LINE
  5
76A
100
AcDbEntity
  8
止水栓
  6
CONTINUOUS
 62
     6
100
AcDbLine
 10
1375.0
 20
546.183762
 30
0.0
 11
1381.500214
 21
546.183762
 31
0.0
  0
LINE
  5
76B
100
AcDbEntity
  8
止水栓
  6
CONTINUOUS
 62
     6
100
AcDbLine
 10
1381.500214
 20
547.411263
 30
0.0
 11
1378.00004
 21
547.411263
 31
0.0
  0
ARC
  5
76C
100
AcDbEntity
  8
止水栓
  6
CONTINUOUS
 62
     6
100
AcDbCircle
 10
1371.5
 20
504.984784
 30
0.0
 40
14.0
100
AcDbArc
 50
0.0
 51
90.0
  0
LINE
  5
76D
100
AcDbEntity
  8
止水栓
  6
CONTINUOUS
 62
     6
100
AcDbLine
 10
1385.5
 20
502.984784
 30
0.0
 11
1385.5
 21
504.984784
 31
0.0
  0
LINE
  5
76E
100
AcDbEntity
  8
止水栓
  6
CONTINUOUS
 62
     6
100
AcDbLine
 10
442.555176
 20
888.000264
 30
0.0
 11
435.7402
 21
578.563686
 31
0.0
  0
LINE
  5
76F
100
AcDbEntity
  8
止水栓
  6
CONTINUOUS
 62
     6
100
AcDbLine
 10
448.782194
 20
578.276451
 30
0.0
 11
455.603495
 21
888.000264
 31
0.0
  0
LINE
  5
770
100
AcDbEntity
  8
止水栓
  6
CONTINUOUS
 62
     6
100
AcDbLine
 10
1358.0
 20
763.468709
 30
0.0
 11
1358.0
 21
702.689283
 31
0.0
  0
ARC
  5
771
100
AcDbEntity
  8
止水栓
  6
EXLTYPE3
 62
     6
100
AcDbCircle
 10
1442.999971
 20
702.689283
 30
0.0
 40
84.999971
100
AcDbArc
 50
180.0
 51
0.0
  0
LINE
  5
772
100
AcDbEntity
  8
止水栓
  6
EXLTYPE3
 62
     6
100
AcDbLine
 10
1527.999942
 20
702.689283
 30
0.0
 11
1527.999942
 21
745.645497
 31
0.0
  0
LINE
  5
773
100
AcDbEntity
  8
止水栓
  6
CONTINUOUS
 62
     6
100
AcDbLine
 10
1393.499725
 20
545.691255
 30
0.0
 11
1393.499725
 21
567.629732
 31
0.0
  0
LINE
  5
774
100
AcDbEntity
  8
止水栓
  6
CONTINUOUS
 62
     6
100
AcDbLine
 10
1398.499725
 20
546.160494
 30
0.0
 11
1398.499725
 21
567.160494
 31
0.0
  0
LINE
  5
775
100
AcDbEntity
  8
止水栓
  6
CONTINUOUS
 62
     6
100
AcDbLine
 10
1381.500214
 20
545.691255
 30
0.0
 11
1381.500214
 21
567.631258
 31
0.0
  0
ARC
  5
776
100
AcDbEntity
  8
止水栓
  6
CONTINUOUS
 62
     6
100
AcDbCircle
 10
1413.999725
 20
561.410494
 30
0.0
 40
2.5
100
AcDbArc
 50
0.0
 51
90.0
  0
ARC
  5
777
100
AcDbEntity
  8
止水栓
  6
CONTINUOUS
 62
     6
100
AcDbCircle
 10
1413.999725
 20
561.410494
 30
0.0
 40
2.5
100
AcDbArc
 50
90.0
 51
180.0
  0
ARC
  5
778
100
AcDbEntity
  8
止水栓
  6
CONTINUOUS
 62
     6
100
AcDbCircle
 10
1405.999725
 20
561.410494
 30
0.0
 40
2.5
100
AcDbArc
 50
90.0
 51
180.0
  0
ARC
  5
779
100
AcDbEntity
  8
止水栓
  6
CONTINUOUS
 62
     6
100
AcDbCircle
 10
1405.999725
 20
561.410494
 30
0.0
 40
2.5
100
AcDbArc
 50
0.0
 51
90.0
  0
LINE
  5
77A
100
AcDbEntity
  8
止水栓
  6
CONTINUOUS
 62
     6
100
AcDbLine
 10
1400.499725
 20
550.910494
 30
0.0
 11
1403.499725
 21
550.910494
 31
0.0
  0
LINE
  5
77B
100
AcDbEntity
  8
止水栓
  6
CONTINUOUS
 62
     6
100
AcDbLine
 10
1400.499725
 20
562.410494
 30
0.0
 11
1403.499725
 21
562.410494
 31
0.0
  0
LINE
  5
77C
100
AcDbEntity
  8
止水栓
  6
CONTINUOUS
 62
     6
100
AcDbLine
 10
1403.499725
 20
551.910494
 30
0.0
 11
1403.499725
 21
561.410494
 31
0.0
  0
LINE
  5
77D
100
AcDbEntity
  8
止水栓
  6
CONTINUOUS
 62
     6
100
AcDbLine
 10
1416.499725
 20
551.910494
 30
0.0
 11
1416.499725
 21
561.410494
 31
0.0
  0
LINE
  5
77E
100
AcDbEntity
  8
止水栓
  6
CONTINUOUS
 62
     6
100
AcDbLine
 10
1408.499725
 20
551.910494
 30
0.0
 11
1408.499725
 21
561.410494
 31
0.0
  0
LINE
  5
77F
100
AcDbEntity
  8
止水栓
  6
CONTINUOUS
 62
     6
100
AcDbLine
 10
1411.499725
 20
551.910494
 30
0.0
 11
1411.499725
 21
561.410494
 31
0.0
  0
LINE
  5
780
100
AcDbEntity
  8
止水栓
  6
CONTINUOUS
 62
     6
100
AcDbLine
 10
1419.499725
 20
549.910494
 30
0.0
 11
1419.499725
 21
563.410494
 31
0.0
  0
ARC
  5
781
100
AcDbEntity
  8
止水栓
  6
CONTINUOUS
 62
     6
100
AcDbCircle
 10
1413.999725
 20
551.910494
 30
0.0
 40
2.5
100
AcDbArc
 50
270.0
 51
0.0
  0
LINE
  5
782
100
AcDbEntity
  8
止水栓
  6
CONTINUOUS
 62
     6
100
AcDbLine
 10
1416.499725
 20
550.910494
 30
0.0
 11
1419.499725
 21
550.910494
 31
0.0
  0
ARC
  5
783
100
AcDbEntity
  8
止水栓
  6
CONTINUOUS
 62
     6
100
AcDbCircle
 10
1413.999725
 20
551.910494
 30
0.0
 40
2.5
100
AcDbArc
 50
180.0
 51
270.0
  0
ARC
  5
784
100
AcDbEntity
  8
止水栓
  6
CONTINUOUS
 62
     6
100
AcDbCircle
 10
1405.999725
 20
551.910494
 30
0.0
 40
2.5
100
AcDbArc
 50
270.0
 51
0.0
  0
LINE
  5
785
100
AcDbEntity
  8
止水栓
  6
CONTINUOUS
 62
     6
100
AcDbLine
 10
1408.499725
 20
550.910494
 30
0.0
 11
1411.499725
 21
550.910494
 31
0.0
  0
LINE
  5
786
100
AcDbEntity
  8
止水栓
  6
CONTINUOUS
 62
     6
100
AcDbLine
 10
1416.499725
 20
562.410494
 30
0.0
 11
1419.499725
 21
562.410494
 31
0.0
  0
LINE
  5
787
100
AcDbEntity
  8
止水栓
  6
CONTINUOUS
 62
     6
100
AcDbLine
 10
1408.499725
 20
562.410494
 30
0.0
 11
1411.499725
 21
562.410494
 31
0.0
  0
LINE
  5
788
100
AcDbEntity
  8
止水栓
  6
CONTINUOUS
 62
     6
100
AcDbLine
 10
1427.499725
 20
549.910494
 30
0.0
 11
1427.499725
 21
563.410494
 31
0.0
  0
LINE
  5
789
100
AcDbEntity
  8
止水栓
  6
CONTINUOUS
 62
     6
100
AcDbLine
 10
1419.499725
 20
549.910494
 30
0.0
 11
1427.499725
 21
549.910494
 31
0.0
  0
LINE
  5
78A
100
AcDbEntity
  8
止水栓
  6
CONTINUOUS
 62
     6
100
AcDbLine
 10
1419.499725
 20
563.410494
 30
0.0
 11
1427.499725
 21
563.410494
 31
0.0
  0
ARC
  5
78B
100
AcDbEntity
  8
止水栓
  6
CONTINUOUS
 62
     6
100
AcDbCircle
 10
1405.999725
 20
551.910494
 30
0.0
 40
2.5
100
AcDbArc
 50
180.0
 51
270.0
  0
POLYLINE
  5
78C
100
AcDbEntity
  8
止水栓
  6
CONTINUOUS
 62
     6
100
AcDb2dPolyline
 66
     1
 10
0.0
 20
0.0
 30
0.0
 70
   128
  0
VERTEX
  5
78D
100
AcDbEntity
  8
止水栓
  6
CONTINUOUS
 62
     6
100
AcDbVertex
100
AcDb2dVertex
 10
1393.284882
 20
556.660494
 30
0.0
  0
VERTEX
  5
78E
100
AcDbEntity
  8
止水栓
  6
CONTINUOUS
 62
     6
100
AcDbVertex
100
AcDb2dVertex
 10
1393.262909
 20
557.15854
 30
0.0
  0
VERTEX
  5
78F
100
AcDbEntity
  8
止水栓
  6
CONTINUOUS
 62
     6
100
AcDbVertex
100
AcDb2dVertex
 10
1393.196991
 20
557.654146
 30
0.0
  0
VERTEX
  5
790
100
AcDbEntity
  8
止水栓
  6
CONTINUOUS
 62
     6
100
AcDbVertex
100
AcDb2dVertex
 10
1393.094452
 20
558.142427
 30
0.0
  0
VERTEX
  5
791
100
AcDbEntity
  8
止水栓
  6
CONTINUOUS
 62
     6
100
AcDbVertex
100
AcDb2dVertex
 10
1392.947968
 20
558.628267
 30
0.0
  0
VERTEX
  5
792
100
AcDbEntity
  8
止水栓
  6
CONTINUOUS
 62
     6
100
AcDbVertex
100
AcDb2dVertex
 10
1392.762421
 20
559.097017
 30
0.0
  0
VERTEX
  5
793
100
AcDbEntity
  8
止水栓
  6
CONTINUOUS
 62
     6
100
AcDbVertex
100
AcDb2dVertex
 10
1392.540253
 20
559.548677
 30
0.0
  0
VERTEX
  5
794
100
AcDbEntity
  8
止水栓
  6
CONTINUOUS
 62
     6
100
AcDbVertex
100
AcDb2dVertex
 10
1392.279022
 20
559.978365
 30
0.0
  0
VERTEX
  5
795
100
AcDbEntity
  8
止水栓
  6
CONTINUOUS
 62
     6
100
AcDbVertex
100
AcDb2dVertex
 10
1391.983612
 20
560.381197
 30
0.0
  0
VERTEX
  5
796
100
AcDbEntity
  8
止水栓
  6
CONTINUOUS
 62
     6
100
AcDbVertex
100
AcDb2dVertex
 10
1391.656464
 20
560.757173
 30
0.0
  0
VERTEX
  5
797
100
AcDbEntity
  8
止水栓
  6
CONTINUOUS
 62
     6
100
AcDbVertex
100
AcDb2dVertex
 10
1391.297577
 20
561.09897
 30
0.0
  0
VERTEX
  5
798
100
AcDbEntity
  8
止水栓
  6
CONTINUOUS
 62
     6
100
AcDbVertex
100
AcDb2dVertex
 10
1390.911835
 20
561.409029
 30
0.0
  0
VERTEX
  5
799
100
AcDbEntity
  8
止水栓
  6
CONTINUOUS
 62
     6
100
AcDbVertex
100
AcDb2dVertex
 10
1390.50412
 20
561.682466
 30
0.0
  0
VERTEX
  5
79A
100
AcDbEntity
  8
止水栓
  6
CONTINUOUS
 62
     6
100
AcDbVertex
100
AcDb2dVertex
 10
1390.074432
 20
561.919283
 30
0.0
  0
VERTEX
  5
79B
100
AcDbEntity
  8
止水栓
  6
CONTINUOUS
 62
     6
100
AcDbVertex
100
AcDb2dVertex
 10
1389.625214
 20
562.112154
 30
0.0
  0
VERTEX
  5
79C
100
AcDbEntity
  8
止水栓
  6
CONTINUOUS
 62
     6
100
AcDbVertex
100
AcDb2dVertex
 10
1389.161346
 20
562.265962
 30
0.0
  0
VERTEX
  5
79D
100
AcDbEntity
  8
止水栓
  6
CONTINUOUS
 62
     6
100
AcDbVertex
100
AcDb2dVertex
 10
1388.687714
 20
562.375826
 30
0.0
  0
VERTEX
  5
79E
100
AcDbEntity
  8
止水栓
  6
CONTINUOUS
 62
     6
100
AcDbVertex
100
AcDb2dVertex
 10
1388.206757
 20
562.441744
 30
0.0
  0
VERTEX
  5
79F
100
AcDbEntity
  8
止水栓
  6
CONTINUOUS
 62
     6
100
AcDbVertex
100
AcDb2dVertex
 10
1387.723358
 20
562.466158
 30
0.0
  0
VERTEX
  5
7A0
100
AcDbEntity
  8
止水栓
  6
CONTINUOUS
 62
     6
100
AcDbVertex
100
AcDb2dVertex
 10
1387.237518
 20
562.441744
 30
0.0
  0
VERTEX
  5
7A1
100
AcDbEntity
  8
止水栓
  6
CONTINUOUS
 62
     6
100
AcDbVertex
100
AcDb2dVertex
 10
1386.756561
 20
562.375826
 30
0.0
  0
VERTEX
  5
7A2
100
AcDbEntity
  8
止水栓
  6
CONTINUOUS
 62
     6
100
AcDbVertex
100
AcDb2dVertex
 10
1386.282928
 20
562.265962
 30
0.0
  0
VERTEX
  5
7A3
100
AcDbEntity
  8
止水栓
  6
CONTINUOUS
 62
     6
100
AcDbVertex
100
AcDb2dVertex
 10
1385.821503
 20
562.112154
 30
0.0
  0
VERTEX
  5
7A4
100
AcDbEntity
  8
止水栓
  6
CONTINUOUS
 62
     6
100
AcDbVertex
100
AcDb2dVertex
 10
1385.372284
 20
561.919283
 30
0.0
  0
VERTEX
  5
7A5
100
AcDbEntity
  8
止水栓
  6
CONTINUOUS
 62
     6
100
AcDbVertex
100
AcDb2dVertex
 10
1384.942596
 20
561.682466
 30
0.0
  0
VERTEX
  5
7A6
100
AcDbEntity
  8
止水栓
  6
CONTINUOUS
 62
     6
100
AcDbVertex
100
AcDb2dVertex
 10
1384.53244
 20
561.409029
 30
0.0
  0
VERTEX
  5
7A7
100
AcDbEntity
  8
止水栓
  6
CONTINUOUS
 62
     6
100
AcDbVertex
100
AcDb2dVertex
 10
1384.149139
 20
561.09897
 30
0.0
  0
VERTEX
  5
7A8
100
AcDbEntity
  8
止水栓
  6
CONTINUOUS
 62
     6
100
AcDbVertex
100
AcDb2dVertex
 10
1383.790253
 20
560.757173
 30
0.0
  0
VERTEX
  5
7A9
100
AcDbEntity
  8
止水栓
  6
CONTINUOUS
 62
     6
100
AcDbVertex
100
AcDb2dVertex
 10
1383.463104
 20
560.381197
 30
0.0
  0
VERTEX
  5
7AA
100
AcDbEntity
  8
止水栓
  6
CONTINUOUS
 62
     6
100
AcDbVertex
100
AcDb2dVertex
 10
1383.167694
 20
559.978365
 30
0.0
  0
VERTEX
  5
7AB
100
AcDbEntity
  8
止水栓
  6
CONTINUOUS
 62
     6
100
AcDbVertex
100
AcDb2dVertex
 10
1382.906464
 20
559.548677
 30
0.0
  0
VERTEX
  5
7AC
100
AcDbEntity
  8
止水栓
  6
CONTINUOUS
 62
     6
100
AcDbVertex
100
AcDb2dVertex
 10
1382.681854
 20
559.097017
 30
0.0
  0
VERTEX
  5
7AD
100
AcDbEntity
  8
止水栓
  6
CONTINUOUS
 62
     6
100
AcDbVertex
100
AcDb2dVertex
 10
1382.496307
 20
558.628267
 30
0.0
  0
VERTEX
  5
7AE
100
AcDbEntity
  8
止水栓
  6
CONTINUOUS
 62
     6
100
AcDbVertex
100
AcDb2dVertex
 10
1382.352264
 20
558.142427
 30
0.0
  0
VERTEX
  5
7AF
100
AcDbEntity
  8
止水栓
  6
CONTINUOUS
 62
     6
100
AcDbVertex
100
AcDb2dVertex
 10
1382.247284
 20
557.646822
 30
0.0
  0
VERTEX
  5
7B0
100
AcDbEntity
  8
止水栓
  6
CONTINUOUS
 62
     6
100
AcDbVertex
100
AcDb2dVertex
 10
1382.183807
 20
557.141451
 30
0.0
  0
VERTEX
  5
7B1
100
AcDbEntity
  8
止水栓
  6
CONTINUOUS
 62
     6
100
AcDbVertex
100
AcDb2dVertex
 10
1382.161835
 20
556.633638
 30
0.0
  0
VERTEX
  5
7B2
100
AcDbEntity
  8
止水栓
  6
CONTINUOUS
 62
     6
100
AcDbVertex
100
AcDb2dVertex
 10
1382.183807
 20
556.125826
 30
0.0
  0
VERTEX
  5
7B3
100
AcDbEntity
  8
止水栓
  6
CONTINUOUS
 62
     6
100
AcDbVertex
100
AcDb2dVertex
 10
1382.247284
 20
555.620454
 30
0.0
  0
VERTEX
  5
7B4
100
AcDbEntity
  8
止水栓
  6
CONTINUOUS
 62
     6
100
AcDbVertex
100
AcDb2dVertex
 10
1382.352264
 20
555.124849
 30
0.0
  0
VERTEX
  5
7B5
100
AcDbEntity
  8
止水栓
  6
CONTINUOUS
 62
     6
100
AcDbVertex
100
AcDb2dVertex
 10
1382.496307
 20
554.639009
 30
0.0
  0
VERTEX
  5
7B6
100
AcDbEntity
  8
止水栓
  6
CONTINUOUS
 62
     6
100
AcDbVertex
100
AcDb2dVertex
 10
1382.681854
 20
554.170259
 30
0.0
  0
VERTEX
  5
7B7
100
AcDbEntity
  8
止水栓
  6
CONTINUOUS
 62
     6
100
AcDbVertex
100
AcDb2dVertex
 10
1382.906464
 20
553.718599
 30
0.0
  0
VERTEX
  5
7B8
100
AcDbEntity
  8
止水栓
  6
CONTINUOUS
 62
     6
100
AcDbVertex
100
AcDb2dVertex
 10
1383.167694
 20
553.288911
 30
0.0
  0
VERTEX
  5
7B9
100
AcDbEntity
  8
止水栓
  6
CONTINUOUS
 62
     6
100
AcDbVertex
100
AcDb2dVertex
 10
1383.463104
 20
552.886079
 30
0.0
  0
VERTEX
  5
7BA
100
AcDbEntity
  8
止水栓
  6
CONTINUOUS
 62
     6
100
AcDbVertex
100
AcDb2dVertex
 10
1383.790253
 20
552.510103
 30
0.0
  0
VERTEX
  5
7BB
100
AcDbEntity
  8
止水栓
  6
CONTINUOUS
 62
     6
100
AcDbVertex
100
AcDb2dVertex
 10
1384.149139
 20
552.168306
 30
0.0
  0
VERTEX
  5
7BC
100
AcDbEntity
  8
止水栓
  6
CONTINUOUS
 62
     6
100
AcDbVertex
100
AcDb2dVertex
 10
1384.53244
 20
551.858247
 30
0.0
  0
VERTEX
  5
7BD
100
AcDbEntity
  8
止水栓
  6
CONTINUOUS
 62
     6
100
AcDbVertex
100
AcDb2dVertex
 10
1384.942596
 20
551.58481
 30
0.0
  0
VERTEX
  5
7BE
100
AcDbEntity
  8
止水栓
  6
CONTINUOUS
 62
     6
100
AcDbVertex
100
AcDb2dVertex
 10
1385.372284
 20
551.347994
 30
0.0
  0
VERTEX
  5
7BF
100
AcDbEntity
  8
止水栓
  6
CONTINUOUS
 62
     6
100
AcDbVertex
100
AcDb2dVertex
 10
1385.821503
 20
551.155122
 30
0.0
  0
VERTEX
  5
7C0
100
AcDbEntity
  8
止水栓
  6
CONTINUOUS
 62
     6
100
AcDbVertex
100
AcDb2dVertex
 10
1386.282928
 20
551.001314
 30
0.0
  0
VERTEX
  5
7C1
100
AcDbEntity
  8
止水栓
  6
CONTINUOUS
 62
     6
100
AcDbVertex
100
AcDb2dVertex
 10
1386.756561
 20
550.891451
 30
0.0
  0
VERTEX
  5
7C2
100
AcDbEntity
  8
止水栓
  6
CONTINUOUS
 62
     6
100
AcDbVertex
100
AcDb2dVertex
 10
1387.237518
 20
550.825533
 30
0.0
  0
VERTEX
  5
7C3
100
AcDbEntity
  8
止水栓
  6
CONTINUOUS
 62
     6
100
AcDbVertex
100
AcDb2dVertex
 10
1387.720917
 20
550.80356
 30
0.0
  0
SEQEND
  5
7C4
100
AcDbEntity
  8
止水栓
  6
CONTINUOUS
 62
     6
  0
POLYLINE
  5
7C5
100
AcDbEntity
  8
止水栓
  6
CONTINUOUS
 62
     6
100
AcDb2dPolyline
 66
     1
 10
0.0
 20
0.0
 30
0.0
 70
   128
  0
VERTEX
  5
7C6
100
AcDbEntity
  8
止水栓
  6
CONTINUOUS
 62
     6
100
AcDbVertex
100
AcDb2dVertex
 10
1387.723358
 20
550.80356
 30
0.0
  0
VERTEX
  5
7C7
100
AcDbEntity
  8
止水栓
  6
CONTINUOUS
 62
     6
100
AcDbVertex
100
AcDb2dVertex
 10
1388.206757
 20
550.825533
 30
0.0
  0
VERTEX
  5
7C8
100
AcDbEntity
  8
止水栓
  6
CONTINUOUS
 62
     6
100
AcDbVertex
100
AcDb2dVertex
 10
1388.687714
 20
550.891451
 30
0.0
  0
VERTEX
  5
7C9
100
AcDbEntity
  8
止水栓
  6
CONTINUOUS
 62
     6
100
AcDbVertex
100
AcDb2dVertex
 10
1389.161346
 20
551.001314
 30
0.0
  0
VERTEX
  5
7CA
100
AcDbEntity
  8
止水栓
  6
CONTINUOUS
 62
     6
100
AcDbVertex
100
AcDb2dVertex
 10
1389.625214
 20
551.155122
 30
0.0
  0
VERTEX
  5
7CB
100
AcDbEntity
  8
止水栓
  6
CONTINUOUS
 62
     6
100
AcDbVertex
100
AcDb2dVertex
 10
1390.071991
 20
551.347994
 30
0.0
  0
VERTEX
  5
7CC
100
AcDbEntity
  8
止水栓
  6
CONTINUOUS
 62
     6
100
AcDbVertex
100
AcDb2dVertex
 10
1390.50412
 20
551.58481
 30
0.0
  0
VERTEX
  5
7CD
100
AcDbEntity
  8
止水栓
  6
CONTINUOUS
 62
     6
100
AcDbVertex
100
AcDb2dVertex
 10
1390.911835
 20
551.858247
 30
0.0
  0
VERTEX
  5
7CE
100
AcDbEntity
  8
止水栓
  6
CONTINUOUS
 62
     6
100
AcDbVertex
100
AcDb2dVertex
 10
1391.297577
 20
552.168306
 30
0.0
  0
VERTEX
  5
7CF
100
AcDbEntity
  8
止水栓
  6
CONTINUOUS
 62
     6
100
AcDbVertex
100
AcDb2dVertex
 10
1391.654022
 20
552.510103
 30
0.0
  0
VERTEX
  5
7D0
100
AcDbEntity
  8
止水栓
  6
CONTINUOUS
 62
     6
100
AcDbVertex
100
AcDb2dVertex
 10
1391.983612
 20
552.886079
 30
0.0
  0
VERTEX
  5
7D1
100
AcDbEntity
  8
止水栓
  6
CONTINUOUS
 62
     6
100
AcDbVertex
100
AcDb2dVertex
 10
1392.276581
 20
553.288911
 30
0.0
  0
VERTEX
  5
7D2
100
AcDbEntity
  8
止水栓
  6
CONTINUOUS
 62
     6
100
AcDbVertex
100
AcDb2dVertex
 10
1392.540253
 20
553.718599
 30
0.0
  0
VERTEX
  5
7D3
100
AcDbEntity
  8
止水栓
  6
CONTINUOUS
 62
     6
100
AcDbVertex
100
AcDb2dVertex
 10
1392.764862
 20
554.170259
 30
0.0
  0
VERTEX
  5
7D4
100
AcDbEntity
  8
止水栓
  6
CONTINUOUS
 62
     6
100
AcDbVertex
100
AcDb2dVertex
 10
1392.950409
 20
554.639009
 30
0.0
  0
VERTEX
  5
7D5
100
AcDbEntity
  8
止水栓
  6
CONTINUOUS
 62
     6
100
AcDbVertex
100
AcDb2dVertex
 10
1393.094452
 20
555.124849
 30
0.0
  0
VERTEX
  5
7D6
100
AcDbEntity
  8
止水栓
  6
CONTINUOUS
 62
     6
100
AcDbVertex
100
AcDb2dVertex
 10
1393.199432
 20
555.620454
 30
0.0
  0
VERTEX
  5
7D7
100
AcDbEntity
  8
止水栓
  6
CONTINUOUS
 62
     6
100
AcDbVertex
100
AcDb2dVertex
 10
1393.262909
 20
556.125826
 30
0.0
  0
VERTEX
  5
7D8
100
AcDbEntity
  8
止水栓
  6
CONTINUOUS
 62
     6
100
AcDbVertex
100
AcDb2dVertex
 10
1393.284882
 20
556.633638
 30
0.0
  0
VERTEX
  5
7D9
100
AcDbEntity
  8
止水栓
  6
CONTINUOUS
 62
     6
100
AcDbVertex
100
AcDb2dVertex
 10
1393.284882
 20
556.643404
 30
0.0
  0
VERTEX
  5
7DA
100
AcDbEntity
  8
止水栓
  6
CONTINUOUS
 62
     6
100
AcDbVertex
100
AcDb2dVertex
 10
1393.284882
 20
556.650728
 30
0.0
  0
VERTEX
  5
7DB
100
AcDbEntity
  8
止水栓
  6
CONTINUOUS
 62
     6
100
AcDbVertex
100
AcDb2dVertex
 10
1393.284882
 20
556.660494
 30
0.0
  0
SEQEND
  5
7DC
100
AcDbEntity
  8
止水栓
  6
CONTINUOUS
 62
     6
  0
POLYLINE
  5
7DD
100
AcDbEntity
  8
止水栓
  6
CONTINUOUS
 62
     6
100
AcDb2dPolyline
 66
     1
 10
0.0
 20
0.0
 30
0.0
 70
   128
  0
VERTEX
  5
7DE
100
AcDbEntity
  8
止水栓
  6
CONTINUOUS
 62
     6
100
AcDbVertex
100
AcDb2dVertex
 10
1387.750214
 20
544.165376
 30
0.0
  0
VERTEX
  5
7DF
100
AcDbEntity
  8
止水栓
  6
CONTINUOUS
 62
     6
100
AcDbVertex
100
AcDb2dVertex
 10
1388.187225
 20
544.175142
 30
0.0
  0
VERTEX
  5
7E0
100
AcDbEntity
  8
止水栓
  6
CONTINUOUS
 62
     6
100
AcDbVertex
100
AcDb2dVertex
 10
1388.619354
 20
544.201997
 30
0.0
  0
VERTEX
  5
7E1
100
AcDbEntity
  8
止水栓
  6
CONTINUOUS
 62
     6
100
AcDbVertex
100
AcDb2dVertex
 10
1389.044159
 20
544.248384
 30
0.0
  0
VERTEX
  5
7E2
100
AcDbEntity
  8
止水栓
  6
CONTINUOUS
 62
     6
100
AcDbVertex
100
AcDb2dVertex
 10
1389.459198
 20
544.314302
 30
0.0
  0
VERTEX
  5
7E3
100
AcDbEntity
  8
止水栓
  6
CONTINUOUS
 62
     6
100
AcDbVertex
100
AcDb2dVertex
 10
1389.859589
 20
544.394869
 30
0.0
  0
VERTEX
  5
7E4
100
AcDbEntity
  8
止水栓
  6
CONTINUOUS
 62
     6
100
AcDbVertex
100
AcDb2dVertex
 10
1390.245331
 20
544.492525
 30
0.0
  0
VERTEX
  5
7E5
100
AcDbEntity
  8
止水栓
  6
CONTINUOUS
 62
     6
100
AcDbVertex
100
AcDb2dVertex
 10
1390.613983
 20
544.609712
 30
0.0
  0
VERTEX
  5
7E6
100
AcDbEntity
  8
止水栓
  6
CONTINUOUS
 62
     6
100
AcDbVertex
100
AcDb2dVertex
 10
1390.958221
 20
544.739107
 30
0.0
  0
VERTEX
  5
7E7
100
AcDbEntity
  8
止水栓
  6
CONTINUOUS
 62
     6
100
AcDbVertex
100
AcDb2dVertex
 10
1391.280487
 20
544.88315
 30
0.0
  0
VERTEX
  5
7E8
100
AcDbEntity
  8
止水栓
  6
CONTINUOUS
 62
     6
100
AcDbVertex
100
AcDb2dVertex
 10
1391.573456
 20
545.041841
 30
0.0
  0
VERTEX
  5
7E9
100
AcDbEntity
  8
止水栓
  6
CONTINUOUS
 62
     6
100
AcDbVertex
100
AcDb2dVertex
 10
1391.839569
 20
545.210298
 30
0.0
  0
VERTEX
  5
7EA
100
AcDbEntity
  8
止水栓
  6
CONTINUOUS
 62
     6
100
AcDbVertex
100
AcDb2dVertex
 10
1392.071503
 20
545.390962
 30
0.0
  0
VERTEX
  5
7EB
100
AcDbEntity
  8
止水栓
  6
CONTINUOUS
 62
     6
100
AcDbVertex
100
AcDb2dVertex
 10
1392.274139
 20
545.578951
 30
0.0
  0
VERTEX
  5
7EC
100
AcDbEntity
  8
止水栓
  6
CONTINUOUS
 62
     6
100
AcDbVertex
100
AcDb2dVertex
 10
1392.440155
 20
545.776704
 30
0.0
  0
VERTEX
  5
7ED
100
AcDbEntity
  8
止水栓
  6
CONTINUOUS
 62
     6
100
AcDbVertex
100
AcDb2dVertex
 10
1392.571991
 20
545.981783
 30
0.0
  0
VERTEX
  5
7EE
100
AcDbEntity
  8
止水栓
  6
CONTINUOUS
 62
     6
100
AcDbVertex
100
AcDb2dVertex
 10
1392.664764
 20
546.189302
 30
0.0
  0
VERTEX
  5
7EF
100
AcDbEntity
  8
止水栓
  6
CONTINUOUS
 62
     6
100
AcDbVertex
100
AcDb2dVertex
 10
1392.723358
 20
546.401704
 30
0.0
  0
VERTEX
  5
7F0
100
AcDbEntity
  8
止水栓
  6
CONTINUOUS
 62
     6
100
AcDbVertex
100
AcDb2dVertex
 10
1392.740448
 20
546.614107
 30
0.0
  0
VERTEX
  5
7F1
100
AcDbEntity
  8
止水栓
  6
CONTINUOUS
 62
     6
100
AcDbVertex
100
AcDb2dVertex
 10
1392.720917
 20
546.828951
 30
0.0
  0
VERTEX
  5
7F2
100
AcDbEntity
  8
止水栓
  6
CONTINUOUS
 62
     6
100
AcDbVertex
100
AcDb2dVertex
 10
1392.664764
 20
547.041353
 30
0.0
  0
VERTEX
  5
7F3
100
AcDbEntity
  8
止水栓
  6
CONTINUOUS
 62
     6
100
AcDbVertex
100
AcDb2dVertex
 10
1392.571991
 20
547.248872
 30
0.0
  0
VERTEX
  5
7F4
100
AcDbEntity
  8
止水栓
  6
CONTINUOUS
 62
     6
100
AcDbVertex
100
AcDb2dVertex
 10
1392.440155
 20
547.453951
 30
0.0
  0
VERTEX
  5
7F5
100
AcDbEntity
  8
止水栓
  6
CONTINUOUS
 62
     6
100
AcDbVertex
100
AcDb2dVertex
 10
1392.274139
 20
547.651704
 30
0.0
  0
VERTEX
  5
7F6
100
AcDbEntity
  8
止水栓
  6
CONTINUOUS
 62
     6
100
AcDbVertex
100
AcDb2dVertex
 10
1392.071503
 20
547.839693
 30
0.0
  0
VERTEX
  5
7F7
100
AcDbEntity
  8
止水栓
  6
CONTINUOUS
 62
     6
100
AcDbVertex
100
AcDb2dVertex
 10
1391.837128
 20
548.020357
 30
0.0
  0
VERTEX
  5
7F8
100
AcDbEntity
  8
止水栓
  6
CONTINUOUS
 62
     6
100
AcDbVertex
100
AcDb2dVertex
 10
1391.573456
 20
548.188814
 30
0.0
  0
VERTEX
  5
7F9
100
AcDbEntity
  8
止水栓
  6
CONTINUOUS
 62
     6
100
AcDbVertex
100
AcDb2dVertex
 10
1391.280487
 20
548.347505
 30
0.0
  0
VERTEX
  5
7FA
100
AcDbEntity
  8
止水栓
  6
CONTINUOUS
 62
     6
100
AcDbVertex
100
AcDb2dVertex
 10
1390.958221
 20
548.491548
 30
0.0
  0
VERTEX
  5
7FB
100
AcDbEntity
  8
止水栓
  6
CONTINUOUS
 62
     6
100
AcDbVertex
100
AcDb2dVertex
 10
1390.613983
 20
548.620943
 30
0.0
  0
VERTEX
  5
7FC
100
AcDbEntity
  8
止水栓
  6
CONTINUOUS
 62
     6
100
AcDbVertex
100
AcDb2dVertex
 10
1390.245331
 20
548.735689
 30
0.0
  0
VERTEX
  5
7FD
100
AcDbEntity
  8
止水栓
  6
CONTINUOUS
 62
     6
100
AcDbVertex
100
AcDb2dVertex
 10
1389.859589
 20
548.835786
 30
0.0
  0
VERTEX
  5
7FE
100
AcDbEntity
  8
止水栓
  6
CONTINUOUS
 62
     6
100
AcDbVertex
100
AcDb2dVertex
 10
1389.456757
 20
548.916353
 30
0.0
  0
VERTEX
  5
7FF
100
AcDbEntity
  8
止水栓
  6
CONTINUOUS
 62
     6
100
AcDbVertex
100
AcDb2dVertex
 10
1389.041718
 20
548.982271
 30
0.0
  0
VERTEX
  5
800
100
AcDbEntity
  8
止水栓
  6
CONTINUOUS
 62
     6
100
AcDbVertex
100
AcDb2dVertex
 10
1388.616913
 20
549.028658
 30
0.0
  0
VERTEX
  5
801
100
AcDbEntity
  8
止水栓
  6
CONTINUOUS
 62
     6
100
AcDbVertex
100
AcDb2dVertex
 10
1388.184784
 20
549.055513
 30
0.0
  0
VERTEX
  5
802
100
AcDbEntity
  8
止水栓
  6
CONTINUOUS
 62
     6
100
AcDbVertex
100
AcDb2dVertex
 10
1387.750214
 20
549.065279
 30
0.0
  0
VERTEX
  5
803
100
AcDbEntity
  8
止水栓
  6
CONTINUOUS
 62
     6
100
AcDbVertex
100
AcDb2dVertex
 10
1387.315643
 20
549.055513
 30
0.0
  0
VERTEX
  5
804
100
AcDbEntity
  8
止水栓
  6
CONTINUOUS
 62
     6
100
AcDbVertex
100
AcDb2dVertex
 10
1386.883514
 20
549.026216
 30
0.0
  0
VERTEX
  5
805
100
AcDbEntity
  8
止水栓
  6
CONTINUOUS
 62
     6
100
AcDbVertex
100
AcDb2dVertex
 10
1386.45871
 20
548.979829
 30
0.0
  0
VERTEX
  5
806
100
AcDbEntity
  8
止水栓
  6
CONTINUOUS
 62
     6
100
AcDbVertex
100
AcDb2dVertex
 10
1386.043671
 20
548.916353
 30
0.0
  0
VERTEX
  5
807
100
AcDbEntity
  8
止水栓
  6
CONTINUOUS
 62
     6
100
AcDbVertex
100
AcDb2dVertex
 10
1385.640839
 20
548.835786
 30
0.0
  0
VERTEX
  5
808
100
AcDbEntity
  8
止水栓
  6
CONTINUOUS
 62
     6
100
AcDbVertex
100
AcDb2dVertex
 10
1385.255096
 20
548.735689
 30
0.0
  0
VERTEX
  5
809
100
AcDbEntity
  8
止水栓
  6
CONTINUOUS
 62
     6
100
AcDbVertex
100
AcDb2dVertex
 10
1384.888885
 20
548.620943
 30
0.0
  0
VERTEX
  5
80A
100
AcDbEntity
  8
止水栓
  6
CONTINUOUS
 62
     6
100
AcDbVertex
100
AcDb2dVertex
 10
1384.542206
 20
548.491548
 30
0.0
  0
VERTEX
  5
80B
100
AcDbEntity
  8
止水栓
  6
CONTINUOUS
 62
     6
100
AcDbVertex
100
AcDb2dVertex
 10
1384.222382
 20
548.347505
 30
0.0
  0
VERTEX
  5
80C
100
AcDbEntity
  8
止水栓
  6
CONTINUOUS
 62
     6
100
AcDbVertex
100
AcDb2dVertex
 10
1383.926971
 20
548.188814
 30
0.0
  0
VERTEX
  5
80D
100
AcDbEntity
  8
止水栓
  6
CONTINUOUS
 62
     6
100
AcDbVertex
100
AcDb2dVertex
 10
1383.6633
 20
548.020357
 30
0.0
  0
VERTEX
  5
80E
100
AcDbEntity
  8
止水栓
  6
CONTINUOUS
 62
     6
100
AcDbVertex
100
AcDb2dVertex
 10
1383.428925
 20
547.839693
 30
0.0
  0
VERTEX
  5
80F
100
AcDbEntity
  8
止水栓
  6
CONTINUOUS
 62
     6
100
AcDbVertex
100
AcDb2dVertex
 10
1383.228729
 20
547.651704
 30
0.0
  0
VERTEX
  5
810
100
AcDbEntity
  8
止水栓
  6
CONTINUOUS
 62
     6
100
AcDbVertex
100
AcDb2dVertex
 10
1383.060272
 20
547.453951
 30
0.0
  0
VERTEX
  5
811
100
AcDbEntity
  8
止水栓
  6
CONTINUOUS
 62
     6
100
AcDbVertex
100
AcDb2dVertex
 10
1382.930878
 20
547.248872
 30
0.0
  0
VERTEX
  5
812
100
AcDbEntity
  8
止水栓
  6
CONTINUOUS
 62
     6
100
AcDbVertex
100
AcDb2dVertex
 10
1382.835663
 20
547.041353
 30
0.0
  0
VERTEX
  5
813
100
AcDbEntity
  8
止水栓
  6
CONTINUOUS
 62
     6
100
AcDbVertex
100
AcDb2dVertex
 10
1382.77951
 20
546.828951
 30
0.0
  0
VERTEX
  5
814
100
AcDbEntity
  8
止水栓
  6
CONTINUOUS
 62
     6
100
AcDbVertex
100
AcDb2dVertex
 10
1382.759979
 20
546.614107
 30
0.0
  0
VERTEX
  5
815
100
AcDbEntity
  8
止水栓
  6
CONTINUOUS
 62
     6
100
AcDbVertex
100
AcDb2dVertex
 10
1382.77951
 20
546.401704
 30
0.0
  0
VERTEX
  5
816
100
AcDbEntity
  8
止水栓
  6
CONTINUOUS
 62
     6
100
AcDbVertex
100
AcDb2dVertex
 10
1382.835663
 20
546.189302
 30
0.0
  0
VERTEX
  5
817
100
AcDbEntity
  8
止水栓
  6
CONTINUOUS
 62
     6
100
AcDbVertex
100
AcDb2dVertex
 10
1382.930878
 20
545.981783
 30
0.0
  0
VERTEX
  5
818
100
AcDbEntity
  8
止水栓
  6
CONTINUOUS
 62
     6
100
AcDbVertex
100
AcDb2dVertex
 10
1383.060272
 20
545.776704
 30
0.0
  0
VERTEX
  5
819
100
AcDbEntity
  8
止水栓
  6
CONTINUOUS
 62
     6
100
AcDbVertex
100
AcDb2dVertex
 10
1383.228729
 20
545.578951
 30
0.0
  0
SEQEND
  5
81A
100
AcDbEntity
  8
止水栓
  6
CONTINUOUS
 62
     6
  0
POLYLINE
  5
81B
100
AcDbEntity
  8
止水栓
  6
CONTINUOUS
 62
     6
100
AcDb2dPolyline
 66
     1
 10
0.0
 20
0.0
 30
0.0
 70
   128
  0
VERTEX
  5
81C
100
AcDbEntity
  8
止水栓
  6
CONTINUOUS
 62
     6
100
AcDbVertex
100
AcDb2dVertex
 10
1386.45871
 20
544.248384
 30
0.0
  0
VERTEX
  5
81D
100
AcDbEntity
  8
止水栓
  6
CONTINUOUS
 62
     6
100
AcDbVertex
100
AcDb2dVertex
 10
1386.883514
 20
544.201997
 30
0.0
  0
VERTEX
  5
81E
100
AcDbEntity
  8
止水栓
  6
CONTINUOUS
 62
     6
100
AcDbVertex
100
AcDb2dVertex
 10
1387.315643
 20
544.175142
 30
0.0
  0
VERTEX
  5
81F
100
AcDbEntity
  8
止水栓
  6
CONTINUOUS
 62
     6
100
AcDbVertex
100
AcDb2dVertex
 10
1387.750214
 20
544.165376
 30
0.0
  0
SEQEND
  5
820
100
AcDbEntity
  8
止水栓
  6
CONTINUOUS
 62
     6
  0
POLYLINE
  5
821
100
AcDbEntity
  8
止水栓
  6
CONTINUOUS
 62
     6
100
AcDb2dPolyline
 66
     1
 10
0.0
 20
0.0
 30
0.0
 70
   128
  0
VERTEX
  5
822
100
AcDbEntity
  8
止水栓
  6
CONTINUOUS
 62
     6
100
AcDbVertex
100
AcDb2dVertex
 10
1383.228729
 20
545.578951
 30
0.0
  0
VERTEX
  5
823
100
AcDbEntity
  8
止水栓
  6
CONTINUOUS
 62
     6
100
AcDbVertex
100
AcDb2dVertex
 10
1383.428925
 20
545.390962
 30
0.0
  0
VERTEX
  5
824
100
AcDbEntity
  8
止水栓
  6
CONTINUOUS
 62
     6
100
AcDbVertex
100
AcDb2dVertex
 10
1383.6633
 20
545.210298
 30
0.0
  0
VERTEX
  5
825
100
AcDbEntity
  8
止水栓
  6
CONTINUOUS
 62
     6
100
AcDbVertex
100
AcDb2dVertex
 10
1383.926971
 20
545.0394
 30
0.0
  0
VERTEX
  5
826
100
AcDbEntity
  8
止水栓
  6
CONTINUOUS
 62
     6
100
AcDbVertex
100
AcDb2dVertex
 10
1384.222382
 20
544.88315
 30
0.0
  0
VERTEX
  5
827
100
AcDbEntity
  8
止水栓
  6
CONTINUOUS
 62
     6
100
AcDbVertex
100
AcDb2dVertex
 10
1384.542206
 20
544.739107
 30
0.0
  0
VERTEX
  5
828
100
AcDbEntity
  8
止水栓
  6
CONTINUOUS
 62
     6
100
AcDbVertex
100
AcDb2dVertex
 10
1384.888885
 20
544.607271
 30
0.0
  0
VERTEX
  5
829
100
AcDbEntity
  8
止水栓
  6
CONTINUOUS
 62
     6
100
AcDbVertex
100
AcDb2dVertex
 10
1385.255096
 20
544.492525
 30
0.0
  0
VERTEX
  5
82A
100
AcDbEntity
  8
止水栓
  6
CONTINUOUS
 62
     6
100
AcDbVertex
100
AcDb2dVertex
 10
1385.640839
 20
544.394869
 30
0.0
  0
VERTEX
  5
82B
100
AcDbEntity
  8
止水栓
  6
CONTINUOUS
 62
     6
100
AcDbVertex
100
AcDb2dVertex
 10
1386.043671
 20
544.314302
 30
0.0
  0
VERTEX
  5
82C
100
AcDbEntity
  8
止水栓
  6
CONTINUOUS
 62
     6
100
AcDbVertex
100
AcDb2dVertex
 10
1386.45871
 20
544.248384
 30
0.0
  0
SEQEND
  5
82D
100
AcDbEntity
  8
止水栓
  6
CONTINUOUS
 62
     6
  0
LINE
  5
82E
100
AcDbEntity
  8
止水栓
  6
CONTINUOUS
 62
     6
100
AcDbLine
 10
1400.499725
 20
550.910494
 30
0.0
 11
1400.499725
 21
562.410494
 31
0.0
  0
ARC
  5
82F
100
AcDbEntity
  8
止水栓
  6
CONTINUOUS
 62
     6
100
AcDbCircle
 10
1387.498749
 20
554.910005
 30
0.0
 40
10.998535
100
AcDbArc
 50
236.94841
 51
303.059082
  0
LINE
  5
830
100
AcDbEntity
  8
止水栓
  6
CONTINUOUS
 62
     6
100
AcDbLine
 10
1393.499725
 20
546.160494
 30
0.0
 11
1398.499725
 21
546.160494
 31
0.0
  0
LINE
  5
831
100
AcDbEntity
  8
止水栓
  6
CONTINUOUS
 62
     6
100
AcDbLine
 10
1398.499725
 20
560.660494
 30
0.0
 11
1400.499725
 21
560.660494
 31
0.0
  0
LINE
  5
832
100
AcDbEntity
  8
止水栓
  6
CONTINUOUS
 62
     6
100
AcDbLine
 10
1398.499725
 20
552.660494
 30
0.0
 11
1400.499725
 21
552.660494
 31
0.0
  0
POLYLINE
  5
833
100
AcDbEntity
  8
止水栓
  6
CONTINUOUS
 62
     6
100
AcDb2dPolyline
 66
     1
 10
0.0
 20
0.0
 30
0.0
 70
   128
  0
VERTEX
  5
834
100
AcDbEntity
  8
止水栓
  6
CONTINUOUS
 62
     6
100
AcDbVertex
100
AcDb2dVertex
 10
1383.56076
 20
565.679048
 30
0.0
  0
VERTEX
  5
835
100
AcDbEntity
  8
止水栓
  6
CONTINUOUS
 62
     6
100
AcDbVertex
100
AcDb2dVertex
 10
1383.746307
 20
565.488619
 30
0.0
  0
VERTEX
  5
836
100
AcDbEntity
  8
止水栓
  6
CONTINUOUS
 62
     6
100
AcDbVertex
100
AcDb2dVertex
 10
1383.963593
 20
565.307954
 30
0.0
  0
VERTEX
  5
837
100
AcDbEntity
  8
止水栓
  6
CONTINUOUS
 62
     6
100
AcDbVertex
100
AcDb2dVertex
 10
1384.210175
 20
565.139497
 30
0.0
  0
VERTEX
  5
838
100
AcDbEntity
  8
止水栓
  6
CONTINUOUS
 62
     6
100
AcDbVertex
100
AcDb2dVertex
 10
1384.483612
 20
564.980806
 30
0.0
  0
VERTEX
  5
839
100
AcDbEntity
  8
止水栓
  6
CONTINUOUS
 62
     6
100
AcDbVertex
100
AcDb2dVertex
 10
1384.781464
 20
564.836763
 30
0.0
  0
VERTEX
  5
83A
100
AcDbEntity
  8
止水栓
  6
CONTINUOUS
 62
     6
100
AcDbVertex
100
AcDb2dVertex
 10
1385.101288
 20
564.707369
 30
0.0
  0
VERTEX
  5
83B
100
AcDbEntity
  8
止水栓
  6
CONTINUOUS
 62
     6
100
AcDbVertex
100
AcDb2dVertex
 10
1385.440643
 20
564.592622
 30
0.0
  0
VERTEX
  5
83C
100
AcDbEntity
  8
止水栓
  6
CONTINUOUS
 62
     6
100
AcDbVertex
100
AcDb2dVertex
 10
1385.79953
 20
564.492525
 30
0.0
  0
VERTEX
  5
83D
100
AcDbEntity
  8
止水栓
  6
CONTINUOUS
 62
     6
100
AcDbVertex
100
AcDb2dVertex
 10
1386.173065
 20
564.411958
 30
0.0
  0
VERTEX
  5
83E
100
AcDbEntity
  8
止水栓
  6
CONTINUOUS
 62
     6
100
AcDbVertex
100
AcDb2dVertex
 10
1386.558807
 20
564.348482
 30
0.0
  0
SEQEND
  5
83F
100
AcDbEntity
  8
止水栓
  6
CONTINUOUS
 62
     6
  0
POLYLINE
  5
840
100
AcDbEntity
  8
止水栓
  6
CONTINUOUS
 62
     6
100
AcDb2dPolyline
 66
     1
 10
0.0
 20
0.0
 30
0.0
 70
   128
  0
VERTEX
  5
841
100
AcDbEntity
  8
止水栓
  6
CONTINUOUS
 62
     6
100
AcDbVertex
100
AcDb2dVertex
 10
1386.558807
 20
564.348482
 30
0.0
  0
VERTEX
  5
842
100
AcDbEntity
  8
止水栓
  6
CONTINUOUS
 62
     6
100
AcDbVertex
100
AcDb2dVertex
 10
1386.951874
 20
564.302095
 30
0.0
  0
VERTEX
  5
843
100
AcDbEntity
  8
止水栓
  6
CONTINUOUS
 62
     6
100
AcDbVertex
100
AcDb2dVertex
 10
1387.352264
 20
564.272798
 30
0.0
  0
VERTEX
  5
844
100
AcDbEntity
  8
止水栓
  6
CONTINUOUS
 62
     6
100
AcDbVertex
100
AcDb2dVertex
 10
1387.755096
 20
564.263033
 30
0.0
  0
SEQEND
  5
845
100
AcDbEntity
  8
止水栓
  6
CONTINUOUS
 62
     6
  0
POLYLINE
  5
846
100
AcDbEntity
  8
止水栓
  6
CONTINUOUS
 62
     6
100
AcDb2dPolyline
 66
     1
 10
0.0
 20
0.0
 30
0.0
 70
   128
  0
VERTEX
  5
847
100
AcDbEntity
  8
止水栓
  6
CONTINUOUS
 62
     6
100
AcDbVertex
100
AcDb2dVertex
 10
1387.757538
 20
564.263033
 30
0.0
  0
VERTEX
  5
848
100
AcDbEntity
  8
止水栓
  6
CONTINUOUS
 62
     6
100
AcDbVertex
100
AcDb2dVertex
 10
1388.16037
 20
564.272798
 30
0.0
  0
VERTEX
  5
849
100
AcDbEntity
  8
止水栓
  6
CONTINUOUS
 62
     6
100
AcDbVertex
100
AcDb2dVertex
 10
1388.56076
 20
564.302095
 30
0.0
  0
VERTEX
  5
84A
100
AcDbEntity
  8
止水栓
  6
CONTINUOUS
 62
     6
100
AcDbVertex
100
AcDb2dVertex
 10
1388.956268
 20
564.348482
 30
0.0
  0
VERTEX
  5
84B
100
AcDbEntity
  8
止水栓
  6
CONTINUOUS
 62
     6
100
AcDbVertex
100
AcDb2dVertex
 10
1389.339569
 20
564.411958
 30
0.0
  0
VERTEX
  5
84C
100
AcDbEntity
  8
止水栓
  6
CONTINUOUS
 62
     6
100
AcDbVertex
100
AcDb2dVertex
 10
1389.713104
 20
564.492525
 30
0.0
  0
VERTEX
  5
84D
100
AcDbEntity
  8
止水栓
  6
CONTINUOUS
 62
     6
100
AcDbVertex
100
AcDb2dVertex
 10
1390.071991
 20
564.592622
 30
0.0
  0
VERTEX
  5
84E
100
AcDbEntity
  8
止水栓
  6
CONTINUOUS
 62
     6
100
AcDbVertex
100
AcDb2dVertex
 10
1390.411346
 20
564.707369
 30
0.0
  0
VERTEX
  5
84F
100
AcDbEntity
  8
止水栓
  6
CONTINUOUS
 62
     6
100
AcDbVertex
100
AcDb2dVertex
 10
1390.733612
 20
564.836763
 30
0.0
  0
VERTEX
  5
850
100
AcDbEntity
  8
止水栓
  6
CONTINUOUS
 62
     6
100
AcDbVertex
100
AcDb2dVertex
 10
1391.031464
 20
564.980806
 30
0.0
  0
VERTEX
  5
851
100
AcDbEntity
  8
止水栓
  6
CONTINUOUS
 62
     6
100
AcDbVertex
100
AcDb2dVertex
 10
1391.30246
 20
565.139497
 30
0.0
  0
VERTEX
  5
852
100
AcDbEntity
  8
止水栓
  6
CONTINUOUS
 62
     6
100
AcDbVertex
100
AcDb2dVertex
 10
1391.549042
 20
565.307954
 30
0.0
  0
VERTEX
  5
853
100
AcDbEntity
  8
止水栓
  6
CONTINUOUS
 62
     6
100
AcDbVertex
100
AcDb2dVertex
 10
1391.766327
 20
565.488619
 30
0.0
  0
VERTEX
  5
854
100
AcDbEntity
  8
止水栓
  6
CONTINUOUS
 62
     6
100
AcDbVertex
100
AcDb2dVertex
 10
1391.954315
 20
565.679048
 30
0.0
  0
VERTEX
  5
855
100
AcDbEntity
  8
止水栓
  6
CONTINUOUS
 62
     6
100
AcDbVertex
100
AcDb2dVertex
 10
1392.108124
 20
565.876802
 30
0.0
  0
VERTEX
  5
856
100
AcDbEntity
  8
止水栓
  6
CONTINUOUS
 62
     6
100
AcDbVertex
100
AcDb2dVertex
 10
1392.227753
 20
566.079439
 30
0.0
  0
VERTEX
  5
857
100
AcDbEntity
  8
止水栓
  6
CONTINUOUS
 62
     6
100
AcDbVertex
100
AcDb2dVertex
 10
1392.315643
 20
566.2894
 30
0.0
  0
VERTEX
  5
858
100
AcDbEntity
  8
止水栓
  6
CONTINUOUS
 62
     6
100
AcDbVertex
100
AcDb2dVertex
 10
1392.369354
 20
566.499361
 30
0.0
  0
VERTEX
  5
859
100
AcDbEntity
  8
止水栓
  6
CONTINUOUS
 62
     6
100
AcDbVertex
100
AcDb2dVertex
 10
1392.386444
 20
566.714204
 30
0.0
  0
VERTEX
  5
85A
100
AcDbEntity
  8
止水栓
  6
CONTINUOUS
 62
     6
100
AcDbVertex
100
AcDb2dVertex
 10
1392.369354
 20
566.926607
 30
0.0
  0
VERTEX
  5
85B
100
AcDbEntity
  8
止水栓
  6
CONTINUOUS
 62
     6
100
AcDbVertex
100
AcDb2dVertex
 10
1392.315643
 20
567.139009
 30
0.0
  0
VERTEX
  5
85C
100
AcDbEntity
  8
止水栓
  6
CONTINUOUS
 62
     6
100
AcDbVertex
100
AcDb2dVertex
 10
1392.227753
 20
567.34897
 30
0.0
  0
VERTEX
  5
85D
100
AcDbEntity
  8
止水栓
  6
CONTINUOUS
 62
     6
100
AcDbVertex
100
AcDb2dVertex
 10
1392.108124
 20
567.551607
 30
0.0
  0
VERTEX
  5
85E
100
AcDbEntity
  8
止水栓
  6
CONTINUOUS
 62
     6
100
AcDbVertex
100
AcDb2dVertex
 10
1391.951874
 20
567.749361
 30
0.0
  0
VERTEX
  5
85F
100
AcDbEntity
  8
止水栓
  6
CONTINUOUS
 62
     6
100
AcDbVertex
100
AcDb2dVertex
 10
1391.766327
 20
567.937349
 30
0.0
  0
VERTEX
  5
860
100
AcDbEntity
  8
止水栓
  6
CONTINUOUS
 62
     6
100
AcDbVertex
100
AcDb2dVertex
 10
1391.549042
 20
568.118013
 30
0.0
  0
VERTEX
  5
861
100
AcDbEntity
  8
止水栓
  6
CONTINUOUS
 62
     6
100
AcDbVertex
100
AcDb2dVertex
 10
1391.304901
 20
568.288911
 30
0.0
  0
VERTEX
  5
862
100
AcDbEntity
  8
止水栓
  6
CONTINUOUS
 62
     6
100
AcDbVertex
100
AcDb2dVertex
 10
1391.031464
 20
568.445161
 30
0.0
  0
VERTEX
  5
863
100
AcDbEntity
  8
止水栓
  6
CONTINUOUS
 62
     6
100
AcDbVertex
100
AcDb2dVertex
 10
1390.733612
 20
568.589204
 30
0.0
  0
VERTEX
  5
864
100
AcDbEntity
  8
止水栓
  6
CONTINUOUS
 62
     6
100
AcDbVertex
100
AcDb2dVertex
 10
1390.411346
 20
568.72104
 30
0.0
  0
VERTEX
  5
865
100
AcDbEntity
  8
止水栓
  6
CONTINUOUS
 62
     6
100
AcDbVertex
100
AcDb2dVertex
 10
1390.071991
 20
568.835786
 30
0.0
  0
VERTEX
  5
866
100
AcDbEntity
  8
止水栓
  6
CONTINUOUS
 62
     6
100
AcDbVertex
100
AcDb2dVertex
 10
1389.713104
 20
568.933443
 30
0.0
  0
VERTEX
  5
867
100
AcDbEntity
  8
止水栓
  6
CONTINUOUS
 62
     6
100
AcDbVertex
100
AcDb2dVertex
 10
1389.34201
 20
569.014009
 30
0.0
  0
VERTEX
  5
868
100
AcDbEntity
  8
止水栓
  6
CONTINUOUS
 62
     6
100
AcDbVertex
100
AcDb2dVertex
 10
1388.956268
 20
569.079927
 30
0.0
  0
VERTEX
  5
869
100
AcDbEntity
  8
止水栓
  6
CONTINUOUS
 62
     6
100
AcDbVertex
100
AcDb2dVertex
 10
1388.56076
 20
569.126314
 30
0.0
  0
VERTEX
  5
86A
100
AcDbEntity
  8
止水栓
  6
CONTINUOUS
 62
     6
100
AcDbVertex
100
AcDb2dVertex
 10
1388.16037
 20
569.153169
 30
0.0
  0
VERTEX
  5
86B
100
AcDbEntity
  8
止水栓
  6
CONTINUOUS
 62
     6
100
AcDbVertex
100
AcDb2dVertex
 10
1387.757538
 20
569.162935
 30
0.0
  0
VERTEX
  5
86C
100
AcDbEntity
  8
止水栓
  6
CONTINUOUS
 62
     6
100
AcDbVertex
100
AcDb2dVertex
 10
1387.354706
 20
569.153169
 30
0.0
  0
VERTEX
  5
86D
100
AcDbEntity
  8
止水栓
  6
CONTINUOUS
 62
     6
100
AcDbVertex
100
AcDb2dVertex
 10
1386.954315
 20
569.126314
 30
0.0
  0
VERTEX
  5
86E
100
AcDbEntity
  8
止水栓
  6
CONTINUOUS
 62
     6
100
AcDbVertex
100
AcDb2dVertex
 10
1386.558807
 20
569.079927
 30
0.0
  0
VERTEX
  5
86F
100
AcDbEntity
  8
止水栓
  6
CONTINUOUS
 62
     6
100
AcDbVertex
100
AcDb2dVertex
 10
1386.173065
 20
569.016451
 30
0.0
  0
VERTEX
  5
870
100
AcDbEntity
  8
止水栓
  6
CONTINUOUS
 62
     6
100
AcDbVertex
100
AcDb2dVertex
 10
1385.79953
 20
568.933443
 30
0.0
  0
VERTEX
  5
871
100
AcDbEntity
  8
止水栓
  6
CONTINUOUS
 62
     6
100
AcDbVertex
100
AcDb2dVertex
 10
1385.440643
 20
568.835786
 30
0.0
  0
VERTEX
  5
872
100
AcDbEntity
  8
止水栓
  6
CONTINUOUS
 62
     6
100
AcDbVertex
100
AcDb2dVertex
 10
1385.101288
 20
568.72104
 30
0.0
  0
VERTEX
  5
873
100
AcDbEntity
  8
止水栓
  6
CONTINUOUS
 62
     6
100
AcDbVertex
100
AcDb2dVertex
 10
1384.779022
 20
568.589204
 30
0.0
  0
VERTEX
  5
874
100
AcDbEntity
  8
止水栓
  6
CONTINUOUS
 62
     6
100
AcDbVertex
100
AcDb2dVertex
 10
1384.483612
 20
568.445161
 30
0.0
  0
VERTEX
  5
875
100
AcDbEntity
  8
止水栓
  6
CONTINUOUS
 62
     6
100
AcDbVertex
100
AcDb2dVertex
 10
1384.210175
 20
568.288911
 30
0.0
  0
VERTEX
  5
876
100
AcDbEntity
  8
止水栓
  6
CONTINUOUS
 62
     6
100
AcDbVertex
100
AcDb2dVertex
 10
1383.963593
 20
568.118013
 30
0.0
  0
VERTEX
  5
877
100
AcDbEntity
  8
止水栓
  6
CONTINUOUS
 62
     6
100
AcDbVertex
100
AcDb2dVertex
 10
1383.746307
 20
567.93979
 30
0.0
  0
VERTEX
  5
878
100
AcDbEntity
  8
止水栓
  6
CONTINUOUS
 62
     6
100
AcDbVertex
100
AcDb2dVertex
 10
1383.56076
 20
567.749361
 30
0.0
  0
VERTEX
  5
879
100
AcDbEntity
  8
止水栓
  6
CONTINUOUS
 62
     6
100
AcDbVertex
100
AcDb2dVertex
 10
1383.406952
 20
567.551607
 30
0.0
  0
VERTEX
  5
87A
100
AcDbEntity
  8
止水栓
  6
CONTINUOUS
 62
     6
100
AcDbVertex
100
AcDb2dVertex
 10
1383.284882
 20
567.34897
 30
0.0
  0
VERTEX
  5
87B
100
AcDbEntity
  8
止水栓
  6
CONTINUOUS
 62
     6
100
AcDbVertex
100
AcDb2dVertex
 10
1383.196991
 20
567.139009
 30
0.0
  0
VERTEX
  5
87C
100
AcDbEntity
  8
止水栓
  6
CONTINUOUS
 62
     6
100
AcDbVertex
100
AcDb2dVertex
 10
1383.14328
 20
566.926607
 30
0.0
  0
VERTEX
  5
87D
100
AcDbEntity
  8
止水栓
  6
CONTINUOUS
 62
     6
100
AcDbVertex
100
AcDb2dVertex
 10
1383.12619
 20
566.714204
 30
0.0
  0
VERTEX
  5
87E
100
AcDbEntity
  8
止水栓
  6
CONTINUOUS
 62
     6
100
AcDbVertex
100
AcDb2dVertex
 10
1383.145721
 20
566.499361
 30
0.0
  0
VERTEX
  5
87F
100
AcDbEntity
  8
止水栓
  6
CONTINUOUS
 62
     6
100
AcDbVertex
100
AcDb2dVertex
 10
1383.196991
 20
566.2894
 30
0.0
  0
VERTEX
  5
880
100
AcDbEntity
  8
止水栓
  6
CONTINUOUS
 62
     6
100
AcDbVertex
100
AcDb2dVertex
 10
1383.284882
 20
566.079439
 30
0.0
  0
VERTEX
  5
881
100
AcDbEntity
  8
止水栓
  6
CONTINUOUS
 62
     6
100
AcDbVertex
100
AcDb2dVertex
 10
1383.406952
 20
565.876802
 30
0.0
  0
VERTEX
  5
882
100
AcDbEntity
  8
止水栓
  6
CONTINUOUS
 62
     6
100
AcDbVertex
100
AcDb2dVertex
 10
1383.56076
 20
565.679048
 30
0.0
  0
SEQEND
  5
883
100
AcDbEntity
  8
止水栓
  6
CONTINUOUS
 62
     6
  0
LINE
  5
884
100
AcDbEntity
  8
止水栓
  6
CONTINUOUS
 62
     6
100
AcDbLine
 10
1393.499725
 20
567.160494
 30
0.0
 11
1398.499725
 21
567.160494
 31
0.0
  0
ARC
  5
885
100
AcDbEntity
  8
止水栓
  6
CONTINUOUS
 62
     6
100
AcDbCircle
 10
1387.498749
 20
558.410982
 30
0.0
 40
10.99987
100
AcDbArc
 50
56.937744
 51
123.054688
  0
LINE
  5
886
100
AcDbEntity
  8
止水栓
  6
CONTINUOUS
 62
     6
100
AcDbLine
 10
1427.499725
 20
550.173282
 30
0.0
 11
1481.499942
 21
550.173282
 31
0.0
  0
LINE
  5
887
100
AcDbEntity
  8
止水栓
  6
CONTINUOUS
 62
     6
100
AcDbLine
 10
1427.499725
 20
563.173282
 30
0.0
 11
1481.499942
 21
563.173282
 31
0.0
  0
LINE
  5
888
100
AcDbEntity
  8
便座
  6
CONTINUOUS
 62
     6
100
AcDbLine
 10
664.079332
 20
2355.50002
 30
0.0
 11
686.677405
 21
2355.500006
 31
0.0
  0
LINE
  5
889
100
AcDbEntity
  8
便座
  6
CONTINUOUS
 62
     6
100
AcDbLine
 10
683.446661
 20
2495.499986
 30
0.0
 11
664.079356
 21
2495.499988
 31
0.0
  0
LINE
  5
88A
100
AcDbEntity
  8
便座
  6
CONTINUOUS
 62
     6
100
AcDbLine
 10
664.079332
 20
2530.499988
 30
0.0
 11
686.677405
 21
2530.500002
 31
0.0
  0
ARC
  5
88B
100
AcDbEntity
  8
便座
  6
CONTINUOUS
 62
     6
100
AcDbCircle
 10
664.079336
 20
2512.998936
 30
0.0
 40
16.0
100
AcDbArc
 50
202.024313
 51
157.975687
  0
ARC
  5
88C
100
AcDbEntity
  8
便座
  6
CONTINUOUS
 62
     6
100
AcDbCircle
 10
664.079336
 20
2373.001072
 30
0.0
 40
16.0
100
AcDbArc
 50
202.024313
 51
157.975687
  0
LINE
  5
88D
100
AcDbEntity
  8
便座
  6
CONTINUOUS
 62
     6
100
AcDbLine
 10
655.079351
 20
2518.998936
 30
0.0
 11
645.079351
 21
2518.998936
 31
0.0
  0
LINE
  5
88E
100
AcDbEntity
  8
便座
  6
CONTINUOUS
 62
     6
100
AcDbLine
 10
655.079351
 20
2506.998936
 30
0.0
 11
645.079351
 21
2506.998936
 31
0.0
  0
LINE
  5
88F
100
AcDbEntity
  8
便座
  6
CONTINUOUS
 62
     6
100
AcDbLine
 10
655.079351
 20
2379.001072
 30
0.0
 11
645.079351
 21
2379.001072
 31
0.0
  0
LINE
  5
890
100
AcDbEntity
  8
便座
  6
CONTINUOUS
 62
     6
100
AcDbLine
 10
655.079351
 20
2367.001072
 30
0.0
 11
645.079351
 21
2367.001072
 31
0.0
  0
ARC
  5
891
100
AcDbEntity
  8
便座
  6
CONTINUOUS
 62
     6
100
AcDbCircle
 10
645.079351
 20
2512.998936
 30
0.0
 40
6.0
100
AcDbArc
 50
90.0
 51
270.0
  0
ARC
  5
892
100
AcDbEntity
  8
便座
  6
CONTINUOUS
 62
     6
100
AcDbCircle
 10
645.079351
 20
2373.001072
 30
0.0
 40
6.0
100
AcDbArc
 50
90.0
 51
270.0
  0
ARC
  5
893
100
AcDbEntity
  8
便座
  6
CONTINUOUS
 62
     6
100
AcDbCircle
 10
664.079336
 20
2512.998936
 30
0.0
 40
17.5
100
AcDbArc
 50
89.999939
 51
159.948957
  0
ARC
  5
894
100
AcDbEntity
  8
便座
  6
CONTINUOUS
 62
     6
100
AcDbCircle
 10
664.079336
 20
2512.998936
 30
0.0
 40
17.5
100
AcDbArc
 50
200.051043
 51
270.000076
  0
ARC
  5
895
100
AcDbEntity
  8
便座
  6
CONTINUOUS
 62
     6
100
AcDbCircle
 10
664.079336
 20
2373.001072
 30
0.0
 40
17.5
100
AcDbArc
 50
89.999924
 51
159.948957
  0
ARC
  5
896
100
AcDbEntity
  8
便座
  6
CONTINUOUS
 62
     6
100
AcDbCircle
 10
664.079336
 20
2373.001072
 30
0.0
 40
17.5
100
AcDbArc
 50
200.051043
 51
270.000061
  0
LINE
  5
897
100
AcDbEntity
  8
便座
  6
CONTINUOUS
 62
     6
100
AcDbLine
 10
629.246939
 20
2512.998936
 30
0.0
 11
700.079336
 21
2512.998936
 31
0.0
  0
LINE
  5
898
100
AcDbEntity
  8
便座
  6
CONTINUOUS
 62
     6
100
AcDbLine
 10
629.246939
 20
2373.001072
 30
0.0
 11
700.079336
 21
2373.001072
 31
0.0
  0
LINE
  5
899
100
AcDbEntity
  8
便座
  6
CONTINUOUS
 62
     6
100
AcDbLine
 10
664.079336
 20
2478.166539
 30
0.0
 11
664.079336
 21
2548.998936
 31
0.0
  0
ARC
  5
89A
100
AcDbEntity
  8
便座
  6
CONTINUOUS
 62
     6
100
AcDbCircle
 10
1682.557288
 20
2443.000004
 30
0.0
 40
1000.0
100
AcDbArc
 50
178.088381
 51
181.911438
  0
LINE
  5
89B
100
AcDbEntity
  8
便座
  6
CONTINUOUS
 62
     6
100
AcDbLine
 10
683.446661
 20
2390.500021
 30
0.0
 11
664.079356
 21
2390.50002
 31
0.0
  0
ARC
  5
89C
100
AcDbEntity
  8
便座
  6
CONTINUOUS
 62
     6
100
AcDbCircle
 10
2582.968937
 20
2433.101525
 30
0.0
 40
1900.0
100
AcDbArc
 50
180.700195
 51
183.535244
  0
ARC
  5
89D
100
AcDbEntity
  8
便座
  6
CONTINUOUS
 62
     6
100
AcDbCircle
 10
2582.968937
 20
2452.898483
 30
0.0
 40
1900.0
100
AcDbArc
 50
176.464756
 51
179.299805
  0
ARC
  5
89E
100
AcDbEntity
  8
便座
  6
CONTINUOUS
 62
     6
100
AcDbCircle
 10
726.52478
 20
2567.854668
 30
0.0
 40
40.0
100
AcDbArc
 50
106.511925
 51
176.456611
  0
ARC
  5
89F
100
AcDbEntity
  8
便座
  6
CONTINUOUS
 62
     6
100
AcDbCircle
 10
851.579336
 20
2146.000004
 30
0.0
 40
480.0
100
AcDbArc
 50
90.0
 51
106.511925
  0
ARC
  5
8A0
100
AcDbEntity
  8
便座
  6
CONTINUOUS
 62
     6
100
AcDbCircle
 10
851.579336
 20
2096.000004
 30
0.0
 40
530.0
100
AcDbArc
 50
74.521925
 51
90.0
  0
ARC
  5
8A1
100
AcDbEntity
  8
便座
  6
CONTINUOUS
 62
     6
100
AcDbCircle
 10
923.634132
 20
2356.207817
 30
0.0
 40
260.0
100
AcDbArc
 50
49.001046
 51
74.521925
  0
ARC
  5
8A2
100
AcDbEntity
  8
便座
  6
CONTINUOUS
 62
     6
100
AcDbCircle
 10
999.079336
 20
2443.000797
 30
0.0
 40
145.0
100
AcDbArc
 50
359.999687
 51
49.253174
  0
ARC
  5
8A3
100
AcDbEntity
  8
便座
  6
CONTINUOUS
 62
     6
100
AcDbCircle
 10
999.079336
 20
2442.999211
 30
0.0
 40
145.0
100
AcDbArc
 50
310.746826
 51
0.000313
  0
ARC
  5
8A4
100
AcDbEntity
  8
便座
  6
CONTINUOUS
 62
     6
100
AcDbCircle
 10
923.634132
 20
2529.79219
 30
0.0
 40
260.0
100
AcDbArc
 50
285.478075
 51
310.998954
  0
ARC
  5
8A5
100
AcDbEntity
  8
便座
  6
CONTINUOUS
 62
     6
100
AcDbCircle
 10
851.579336
 20
2790.000004
 30
0.0
 40
530.0
100
AcDbArc
 50
270.0
 51
285.478075
  0
ARC
  5
8A6
100
AcDbEntity
  8
便座
  6
CONTINUOUS
 62
     6
100
AcDbCircle
 10
851.579336
 20
2740.000004
 30
0.0
 40
480.0
100
AcDbArc
 50
253.488075
 51
270.0
  0
ARC
  5
8A7
100
AcDbEntity
  8
便座
  6
CONTINUOUS
 62
     6
100
AcDbCircle
 10
726.52478
 20
2318.145339
 30
0.0
 40
40.0
100
AcDbArc
 50
183.543389
 51
253.488075
  0
LINE
  5
8A8
100
AcDbEntity
  8
便座
  6
CONTINUOUS
 62
     6
100
AcDbLine
 10
664.079336
 20
2407.833469
 30
0.0
 11
664.079336
 21
2337.001072
 31
0.0
  0
LINE
  5
8A9
100
AcDbEntity
  8
便座
  6
CONTINUOUS
 62
     6
100
AcDbLine
 10
762.442355
 20
881.904601
 30
0.0
 11
762.939223
 21
880.859748
 31
0.0
  0
LINE
  5
8AA
100
AcDbEntity
  8
便座
  6
CONTINUOUS
 62
     6
100
AcDbLine
 10
758.205029
 20
886.424011
 30
0.0
 11
759.308238
 21
885.648409
 31
0.0
  0
LINE
  5
8AB
100
AcDbEntity
  8
便座
  6
CONTINUOUS
 62
     6
100
AcDbLine
 10
703.577023
 20
873.000128
 30
0.0
 11
702.037998
 21
902.36648
 31
0.0
  0
ARC
  5
8AC
100
AcDbEntity
  8
便座
  6
CONTINUOUS
 62
     6
100
AcDbCircle
 10
751.866341
 20
876.234686
 30
0.0
 40
12.0
100
AcDbArc
 50
28.196236
 51
51.672324
  0
ARC
  5
8AD
100
AcDbEntity
  8
便座
  6
CONTINUOUS
 62
     6
100
AcDbCircle
 10
571.741036
 20
586.690497
 30
0.0
 40
353.0
100
AcDbArc
 50
58.114288
 51
60.155516
  0
ARC
  5
8AE
100
AcDbEntity
  8
便座
  6
CONTINUOUS
 62
     6
100
AcDbCircle
 10
765.246071
 20
881.823309
 30
0.0
 40
2.5
100
AcDbArc
 50
202.670105
 51
269.180908
  0
LINE
  5
8AF
100
AcDbEntity
  8
便座
  6
CONTINUOUS
 62
     6
100
AcDbLine
 10
765.210335
 20
879.323553
 30
0.0
 11
804.643319
 21
878.759741
 31
0.0
  0
LINE
  5
8B0
100
AcDbEntity
  8
便座
  6
CONTINUOUS
 62
     6
100
AcDbLine
 10
804.643319
 20
887.619147
 30
0.0
 11
804.643319
 21
878.500128
 31
0.0
  0
LINE
  5
8B1
100
AcDbEntity
  8
便座
  6
CONTINUOUS
 62
     6
100
AcDbLine
 10
823.643319
 20
887.038641
 30
0.0
 11
823.643319
 21
878.500128
 31
0.0
  0
LINE
  5
8B2
100
AcDbEntity
  8
便座
  6
CONTINUOUS
 62
     6
100
AcDbLine
 10
804.643319
 20
878.500128
 30
0.0
 11
823.643319
 21
878.500128
 31
0.0
  0
ARC
  5
8B3
100
AcDbEntity
  8
便座
  6
CONTINUOUS
 62
     6
100
AcDbCircle
 10
805.973885
 20
1287.765143
 30
0.0
 40
400.0
100
AcDbArc
 50
264.506714
 51
268.25
  0
ARC
  5
8B4
100
AcDbEntity
  8
便座
  6
CONTINUOUS
 62
     6
100
AcDbCircle
 10
680.60223
 20
888.000128
 30
0.0
 40
5.0
100
AcDbArc
 50
270.0
 51
357.410775
  0
LINE
  5
8B5
100
AcDbEntity
  8
便座
  6
CONTINUOUS
 62
     6
100
AcDbLine
 10
703.945549
 20
897.000128
 30
0.0
 11
708.107308
 21
897.000128
 31
0.0
  0
ARC
  5
8B6
100
AcDbEntity
  8
便座
  6
CONTINUOUS
 62
     6
100
AcDbCircle
 10
708.107308
 20
898.000128
 30
0.0
 40
1.0
100
AcDbArc
 50
270.0
 51
358.001953
  0
ARC
  5
8B7
100
AcDbEntity
  8
便座
  6
CONTINUOUS
 62
     6
100
AcDbCircle
 10
694.147591
 20
901.400122
 30
0.0
 40
10.4
100
AcDbArc
 50
182.011902
 51
217.758146
  0
LINE
  5
8B8
100
AcDbEntity
  8
便座
  6
CONTINUOUS
 62
     6
100
AcDbLine
 10
686.254738
 20
902.316354
 30
0.0
 11
685.597125
 21
887.774253
 31
0.0
  0
ARC
  5
8B9
100
AcDbEntity
  8
便座
  6
CONTINUOUS
 62
     6
100
AcDbCircle
 10
693.247591
 20
902.000128
 30
0.0
 40
7.0
100
AcDbArc
 50
90.0
 51
177.410775
  0
ARC
  5
8BA
100
AcDbEntity
  8
便座
  6
CONTINUOUS
 62
     6
100
AcDbCircle
 10
694.147591
 20
902.000128
 30
0.0
 40
11.0
100
AcDbArc
 50
318.89534
 51
0.0
  0
LINE
  5
8BB
100
AcDbEntity
  8
便座
  6
CONTINUOUS
 62
     6
100
AcDbLine
 10
695.047591
 20
909.000128
 30
0.0
 11
693.247591
 21
909.000128
 31
0.0
  0
ARC
  5
8BC
100
AcDbEntity
  8
便座
  6
CONTINUOUS
 62
     6
100
AcDbCircle
 10
695.047591
 20
902.000128
 30
0.0
 40
7.0
100
AcDbArc
 50
3.0
 51
90.0
  0
LINE
  5
8BD
100
AcDbEntity
  8
便座
  6
CONTINUOUS
 62
     6
100
AcDbLine
 10
705.144242
 20
901.808172
 30
0.0
 11
705.258614
 21
908.361502
 31
0.0
  0
LINE
  5
8BE
100
AcDbEntity
  8
便座
  6
CONTINUOUS
 62
     6
100
AcDbLine
 10
709.106728
 20
897.965277
 30
0.0
 11
709.411034
 21
906.679999
 31
0.0
  0
ARC
  5
8BF
100
AcDbEntity
  8
便座
  6
CONTINUOUS
 62
     6
100
AcDbCircle
 10
716.063332
 20
844.985113
 30
0.0
 40
100.0
100
AcDbArc
 50
96.243958
 51
102.081549
  0
ARC
  5
8C0
100
AcDbEntity
  8
便座
  6
CONTINUOUS
 62
     6
100
AcDbCircle
 10
698.272519
 20
928.102422
 30
0.0
 40
15.0
100
AcDbArc
 50
102.081549
 51
181.270441
  0
LINE
  5
8C1
100
AcDbEntity
  8
便座
  6
CONTINUOUS
 62
     6
100
AcDbLine
 10
683.276207
 20
927.769848
 30
0.0
 11
683.552803
 21
915.297621
 31
0.0
  0
LINE
  5
8C2
100
AcDbEntity
  8
便座
  6
CONTINUOUS
 62
     6
100
AcDbLine
 10
706.747188
 20
919.125289
 30
0.0
 11
706.550474
 21
907.869178
 31
0.0
  0
LINE
  5
8C3
100
AcDbEntity
  8
便座
  6
CONTINUOUS
 62
     6
100
AcDbLine
 10
704.81675
 20
923.123144
 30
0.0
 11
704.753891
 21
919.52632
 31
0.0
  0
ARC
  5
8C4
100
AcDbEntity
  8
便座
  6
CONTINUOUS
 62
     6
100
AcDbCircle
 10
830.780007
 20
1814.264654
 30
0.0
 40
900.0
100
AcDbArc
 50
261.610657
 51
267.881714
  0
ARC
  5
8C5
100
AcDbEntity
  8
便座
  6
CONTINUOUS
 62
     6
100
AcDbCircle
 10
798.72268
 20
89.493536
 30
0.0
 40
860.0
100
AcDbArc
 50
90.042389
 51
96.243958
  0
ARC
  5
8C6
100
AcDbEntity
  8
便座
  6
CONTINUOUS
 62
     6
100
AcDbCircle
 10
706.766091
 20
973.360045
 30
0.0
 40
50.0
100
AcDbArc
 50
242.001892
 51
261.610718
  0
LINE
  5
8C7
100
AcDbEntity
  8
便座
  6
CONTINUOUS
 62
     6
100
AcDbLine
 10
683.168526
 20
914.532477
 30
0.0
 11
683.268517
 21
914.532477
 31
0.0
  0
LINE
  5
8C8
100
AcDbEntity
  8
便座
  6
CONTINUOUS
 62
     6
100
AcDbLine
 10
685.268517
 20
912.532721
 30
0.0
 11
685.516732
 21
912.532721
 31
0.0
  0
LINE
  5
8C9
100
AcDbEntity
  8
便座
  6
CONTINUOUS
 62
     6
100
AcDbLine
 10
683.571709
 20
913.47402
 30
0.0
 11
683.74868
 21
901.249579
 31
0.0
  0
LINE
  5
8CA
100
AcDbEntity
  8
便座
  6
CONTINUOUS
 62
     6
100
AcDbLine
 10
683.2902
 20
914.23902
 30
0.0
 11
683.754006
 21
901.03504
 31
0.0
  0
ARC
  5
8CB
100
AcDbEntity
  8
便座
  6
CONTINUOUS
 62
     6
100
AcDbCircle
 10
694.07734
 20
909.532721
 30
0.0
 40
12.0
100
AcDbArc
 50
77.444244
 51
155.376892
  0
ARC
  5
8CC
100
AcDbEntity
  8
便座
  6
CONTINUOUS
 62
     6
100
AcDbCircle
 10
685.268517
 20
914.532721
 30
0.0
 40
2.0
100
AcDbArc
 50
180.0
 51
270.0
  0
ARC
  5
8CD
100
AcDbEntity
  8
便座
  6
CONTINUOUS
 62
     6
100
AcDbCircle
 10
794.511086
 20
1360.483984
 30
0.0
 40
450.0
100
AcDbArc
 50
257.444275
 51
267.439697
  0
ARC
  5
8CE
100
AcDbEntity
  8
便座
  6
CONTINUOUS
 62
     6
100
AcDbCircle
 10
782.998803
 20
1048.867331
 30
0.0
 40
160.0
100
AcDbArc
 50
243.787048
 51
264.506714
  0
ARC
  5
8CF
100
AcDbEntity
  8
便座
  6
CONTINUOUS
 62
     6
100
AcDbCircle
 10
685.516732
 20
877.532721
 30
0.0
 40
35.0
100
AcDbArc
 50
80.909973
 51
90.0
  0
ARC
  5
8D0
100
AcDbEntity
  8
便座
  6
CONTINUOUS
 62
     6
100
AcDbCircle
 10
679.197274
 20
838.035071
 30
0.0
 40
75.0
100
AcDbArc
 50
63.787048
 51
80.909973
  0
ARC
  5
8D1
100
AcDbEntity
  8
便座
  6
CONTINUOUS
 62
     6
100
AcDbCircle
 10
1004.147625
 20
911.847651
 30
0.0
 40
9.25
100
AcDbArc
 50
205.281893
 51
330.930377
  0
ARC
  5
8D2
100
AcDbEntity
  8
便座
  6
CONTINUOUS
 62
     6
100
AcDbCircle
 10
1088.086179
 20
876.00399
 30
0.0
 40
8.0
100
AcDbArc
 50
156.581694
 51
172.607427
  0
ARC
  5
8D3
100
AcDbEntity
  8
便座
  6
CONTINUOUS
 62
     6
100
AcDbCircle
 10
1077.662697
 20
877.35639
 30
0.0
 40
2.5
100
AcDbArc
 50
269.180298
 51
352.607427
  0
ARC
  5
8D4
100
AcDbEntity
  8
便座
  6
EXLTYPE2
 62
     6
100
AcDbCircle
 10
1088.160286
 20
877.131964
 30
0.0
 40
14.0
100
AcDbArc
 50
171.310969
 51
178.810746
  0
ARC
  5
8D5
100
AcDbEntity
  8
便座
  6
EXLTYPE2
 62
     6
100
AcDbCircle
 10
1076.662764
 20
877.370646
 30
0.0
 40
2.5
100
AcDbArc
 50
178.810746
 51
269.18083
  0
ARC
  5
8D6
100
AcDbEntity
  8
便座
  6
CONTINUOUS
 62
     6
100
AcDbCircle
 10
1129.475716
 20
884.703253
 30
0.0
 40
14.0
100
AcDbArc
 50
6.375153
 51
92.909413
  0
LINE
  5
8D7
100
AcDbEntity
  8
便座
  6
CONTINUOUS
 62
     6
100
AcDbLine
 10
818.643305
 20
873.500118
 30
0.0
 11
809.643333
 21
873.500118
 31
0.0
  0
ARC
  5
8D8
100
AcDbEntity
  8
便座
  6
CONTINUOUS
 62
     6
100
AcDbCircle
 10
1013.643271
 20
877.000128
 30
0.0
 40
5.0
100
AcDbArc
 50
270.0
 51
0.0
  0
ARC
  5
8D9
100
AcDbEntity
  8
便座
  6
CONTINUOUS
 62
     6
100
AcDbCircle
 10
993.646187
 20
877.000128
 30
0.0
 40
5.0
100
AcDbArc
 50
180.0
 51
270.0
  0
ARC
  5
8DA
100
AcDbEntity
  8
便座
  6
CONTINUOUS
 62
     6
100
AcDbCircle
 10
809.643333
 20
878.500118
 30
0.0
 40
5.0
100
AcDbArc
 50
180.0
 51
270.0
  0
ARC
  5
8DB
100
AcDbEntity
  8
便座
  6
CONTINUOUS
 62
     6
100
AcDbCircle
 10
818.643305
 20
878.500118
 30
0.0
 40
5.0
100
AcDbArc
 50
270.0
 51
0.0
  0
LINE
  5
8DC
100
AcDbEntity
  8
便座
  6
CONTINUOUS
 62
     6
100
AcDbLine
 10
1141.55262
 20
905.338125
 30
0.0
 11
1141.652596
 21
905.338125
 31
0.0
  0
LINE
  5
8DD
100
AcDbEntity
  8
便座
  6
CONTINUOUS
 62
     6
100
AcDbLine
 10
1139.195809
 20
903.338125
 30
0.0
 11
1139.55262
 21
903.338125
 31
0.0
  0
LINE
  5
8DE
100
AcDbEntity
  8
便座
  6
CONTINUOUS
 62
     6
100
AcDbLine
 10
1141.600106
 20
905.837774
 30
0.0
 11
1141.652596
 21
905.338125
 31
0.0
  0
ARC
  5
8DF
100
AcDbEntity
  8
便座
  6
CONTINUOUS
 62
     6
100
AcDbCircle
 10
799.566063
 20
-1050.50622
 30
0.0
 40
2000.0
100
AcDbArc
 50
81.432617
 51
90.042389
  0
ARC
  5
8E0
100
AcDbEntity
  8
便座
  6
CONTINUOUS
 62
     6
100
AcDbCircle
 10
2656.415902
 20
50880.312628
 30
0.0
 40
50000.0
100
AcDbArc
 50
267.869141
 51
268.261108
  0
ARC
  5
8E1
100
AcDbEntity
  8
便座
  6
CONTINUOUS
 62
     6
100
AcDbCircle
 10
1045.3704
 20
581.081976
 30
0.0
 40
350.0
100
AcDbArc
 50
77.491272
 51
81.432617
  0
ARC
  5
8E2
100
AcDbEntity
  8
便座
  6
CONTINUOUS
 62
     6
100
AcDbCircle
 10
1109.263924
 20
869.079062
 30
0.0
 40
55.0
100
AcDbArc
 50
65.145721
 51
77.491241
  0
ARC
  5
8E3
100
AcDbEntity
  8
便座
  6
CONTINUOUS
 62
     6
100
AcDbCircle
 10
1125.656136
 20
904.466864
 30
0.0
 40
16.0
100
AcDbArc
 50
5.994843
 51
65.145721
  0
ARC
  5
8E4
100
AcDbEntity
  8
便座
  6
CONTINUOUS
 62
     6
100
AcDbCircle
 10
1139.55262
 20
905.338125
 30
0.0
 40
2.0
100
AcDbArc
 50
270.0
 51
0.0
  0
ARC
  5
8E5
100
AcDbEntity
  8
便座
  6
CONTINUOUS
 62
     6
100
AcDbCircle
 10
1042.147042
 20
895.393591
 30
0.0
 40
100.0
100
AcDbArc
 50
5.995056
 51
6.167908
  0
LINE
  5
8E6
100
AcDbEntity
  8
便座
  6
CONTINUOUS
 62
     6
100
AcDbLine
 10
1144.147591
 20
879.246344
 30
0.0
 11
1144.056771
 21
879.246344
 31
0.0
  0
LINE
  5
8E7
100
AcDbEntity
  8
便座
  6
CONTINUOUS
 62
     6
100
AcDbLine
 10
1129.90931
 20
898.696539
 30
0.0
 11
952.527687
 21
904.192633
 31
0.0
  0
LINE
  5
8E8
100
AcDbEntity
  8
便座
  6
CONTINUOUS
 62
     6
100
AcDbLine
 10
988.646187
 20
877.000128
 30
0.0
 11
1018.643258
 21
877.000128
 31
0.0
  0
LINE
  5
8E9
100
AcDbEntity
  8
便座
  6
CONTINUOUS
 62
     6
100
AcDbLine
 10
988.646187
 20
881.997381
 30
0.0
 11
988.646187
 21
877.000128
 31
0.0
  0
LINE
  5
8EA
100
AcDbEntity
  8
便座
  6
CONTINUOUS
 62
     6
100
AcDbLine
 10
1018.643258
 20
881.080878
 30
0.0
 11
1018.643258
 21
877.000128
 31
0.0
  0
LINE
  5
8EB
100
AcDbEntity
  8
便座
  6
CONTINUOUS
 62
     6
100
AcDbLine
 10
1144.095101
 20
879.746405
 30
0.0
 11
1144.147591
 21
879.246344
 31
0.0
  0
LINE
  5
8EC
100
AcDbEntity
  8
便座
  6
CONTINUOUS
 62
     6
100
AcDbLine
 10
1142.503487
 20
877.296637
 30
0.0
 11
793.758492
 21
887.951727
 31
0.0
  0
LINE
  5
8ED
100
AcDbEntity
  8
便座
  6
CONTINUOUS
 62
     6
100
AcDbLine
 10
1018.471901
 20
875.702414
 30
0.0
 11
1077.626931
 21
874.856604
 31
0.0
  0
LINE
  5
8EE
100
AcDbEntity
  8
便座
  6
CONTINUOUS
 62
     6
100
AcDbLine
 10
823.643319
 20
878.488089
 30
0.0
 11
988.722878
 21
876.127768
 31
0.0
  0
ARC
  5
8EF
100
AcDbEntity
  8
便座
  6
CONTINUOUS
 62
     6
100
AcDbCircle
 10
1142.056771
 20
879.2461
 30
0.0
 40
2.0
100
AcDbArc
 50
282.906372
 51
0.007874
  0
ARC
  5
8F0
100
AcDbEntity
  8
便座
  6
CONTINUOUS
 62
     6
100
AcDbCircle
 10
149.573006
 20
775.21961
 30
0.0
 40
1000.0
100
AcDbArc
 50
5.999908
 51
6.375183
  0
ARC
  5
8F1
100
AcDbEntity
  8
便座
  6
CONTINUOUS
 62
     6
100
AcDbCircle
 10
1355.132393
 20
13897.956183
 30
0.0
 40
13000.0
100
AcDbArc
 50
267.439697
 51
268.225281
  0
LINE
  5
8F2
100
AcDbEntity
  8
便座
  6
CONTINUOUS
 62
     6
100
AcDbLine
 10
646.647591
 20
888.000128
 30
0.0
 11
637.699805
 21
888.000128
 31
0.0
  0
LINE
  5
8F3
100
AcDbEntity
  8
便座
  6
CONTINUOUS
 62
     6
100
AcDbLine
 10
646.647591
 20
888.000128
 30
0.0
 11
656.699805
 21
883.000128
 31
0.0
  0
LINE
  5
8F4
100
AcDbEntity
  8
便座
  6
CONTINUOUS
 62
     6
100
AcDbLine
 10
637.699805
 20
888.000128
 30
0.0
 11
637.699805
 21
873.000128
 31
0.0
  0
LINE
  5
8F5
100
AcDbEntity
  8
便座
  6
CONTINUOUS
 62
     6
100
AcDbLine
 10
703.577023
 20
873.000128
 30
0.0
 11
637.699805
 21
873.000128
 31
0.0
  0
LINE
  5
8F6
100
AcDbEntity
  8
便座
  6
CONTINUOUS
 62
     6
100
AcDbLine
 10
646.647591
 20
873.000128
 30
0.0
 11
646.647591
 21
881.500128
 31
0.0
  0
ARC
  5
8F7
100
AcDbEntity
  8
便座
  6
CONTINUOUS
 62
     6
100
AcDbCircle
 10
648.147591
 20
881.500128
 30
0.0
 40
1.5
100
AcDbArc
 50
90.0
 51
180.0
  0
LINE
  5
8F8
100
AcDbEntity
  8
便座
  6
CONTINUOUS
 62
     6
100
AcDbLine
 10
680.60223
 20
883.000128
 30
0.0
 11
648.147591
 21
883.000128
 31
0.0
  0
LINE
  5
8F9
100
AcDbEntity
  8
便座
  6
CONTINUOUS
 62
     6
100
AcDbLine
 10
649.647591
 20
873.000128
 30
0.0
 11
649.647591
 21
872.000128
 31
0.0
  0
LINE
  5
8FA
100
AcDbEntity
  8
便座
  6
CONTINUOUS
 62
     6
100
AcDbLine
 10
678.647591
 20
873.000128
 30
0.0
 11
678.647591
 21
872.000128
 31
0.0
  0
ARC
  5
8FB
100
AcDbEntity
  8
便座
  6
CONTINUOUS
 62
     6
100
AcDbCircle
 10
676.147591
 20
813.705645
 30
0.0
 40
1.0
100
AcDbArc
 50
270.0
 51
0.0
  0
ARC
  5
8FC
100
AcDbEntity
  8
便座
  6
CONTINUOUS
 62
     6
100
AcDbCircle
 10
676.147591
 20
814.705645
 30
0.0
 40
1.0
100
AcDbArc
 50
0.0
 51
90.0
  0
LINE
  5
8FD
100
AcDbEntity
  8
便座
  6
CONTINUOUS
 62
     6
100
AcDbLine
 10
677.147591
 20
814.705645
 30
0.0
 11
677.147591
 21
813.705645
 31
0.0
  0
ARC
  5
8FE
100
AcDbEntity
  8
便座
  6
CONTINUOUS
 62
     6
100
AcDbCircle
 10
676.847591
 20
816.005645
 30
0.0
 40
0.3
100
AcDbArc
 50
270.0
 51
0.0
  0
LINE
  5
8FF
100
AcDbEntity
  8
便座
  6
CONTINUOUS
 62
     6
100
AcDbLine
 10
677.147591
 20
816.005645
 30
0.0
 11
677.147591
 21
816.405645
 31
0.0
  0
ARC
  5
900
100
AcDbEntity
  8
便座
  6
CONTINUOUS
 62
     6
100
AcDbCircle
 10
668.897591
 20
811.705645
 30
0.0
 40
1.0
100
AcDbArc
 50
90.0
 51
180.0
  0
ARC
  5
901
100
AcDbEntity
  8
便座
  6
CONTINUOUS
 62
     6
100
AcDbCircle
 10
666.147591
 20
801.205645
 30
0.0
 40
0.5
100
AcDbArc
 50
0.0
 51
90.0
  0
LINE
  5
902
100
AcDbEntity
  8
便座
  6
CONTINUOUS
 62
     6
100
AcDbLine
 10
651.147591
 20
816.005645
 30
0.0
 11
651.147591
 21
816.405645
 31
0.0
  0
ARC
  5
903
100
AcDbEntity
  8
便座
  6
CONTINUOUS
 62
     6
100
AcDbCircle
 10
651.447591
 20
816.005645
 30
0.0
 40
0.3
100
AcDbArc
 50
180.0
 51
270.0
  0
ARC
  5
904
100
AcDbEntity
  8
便座
  6
CONTINUOUS
 62
     6
100
AcDbCircle
 10
651.447591
 20
816.405645
 30
0.0
 40
0.3
100
AcDbArc
 50
90.0
 51
180.0
  0
ARC
  5
905
100
AcDbEntity
  8
便座
  6
CONTINUOUS
 62
     6
100
AcDbCircle
 10
662.147591
 20
801.205645
 30
0.0
 40
0.5
100
AcDbArc
 50
90.0
 51
180.0
  0
LINE
  5
906
100
AcDbEntity
  8
便座
  6
CONTINUOUS
 62
     6
100
AcDbLine
 10
651.147591
 20
814.705645
 30
0.0
 11
651.147591
 21
813.705645
 31
0.0
  0
LINE
  5
907
100
AcDbEntity
  8
便座
  6
CONTINUOUS
 62
     6
100
AcDbLine
 10
652.147591
 20
812.705645
 30
0.0
 11
659.397591
 21
812.705645
 31
0.0
  0
LINE
  5
908
100
AcDbEntity
  8
便座
  6
CONTINUOUS
 62
     6
100
AcDbLine
 10
660.397591
 20
802.205645
 30
0.0
 11
652.647591
 21
802.205645
 31
0.0
  0
LINE
  5
909
100
AcDbEntity
  8
便座
  6
CONTINUOUS
 62
     6
100
AcDbLine
 10
660.397591
 20
804.705645
 30
0.0
 11
652.647591
 21
804.705645
 31
0.0
  0
LINE
  5
90A
100
AcDbEntity
  8
便座
  6
CONTINUOUS
 62
     6
100
AcDbLine
 10
660.397591
 20
807.205645
 30
0.0
 11
652.647591
 21
807.205645
 31
0.0
  0
LINE
  5
90B
100
AcDbEntity
  8
便座
  6
CONTINUOUS
 62
     6
100
AcDbLine
 10
660.397591
 20
809.705645
 30
0.0
 11
652.647591
 21
809.705645
 31
0.0
  0
ARC
  5
90C
100
AcDbEntity
  8
便座
  6
CONTINUOUS
 62
     6
100
AcDbCircle
 10
659.397591
 20
811.705645
 30
0.0
 40
1.0
100
AcDbArc
 50
0.0
 51
90.0
  0
ARC
  5
90D
100
AcDbEntity
  8
便座
  6
CONTINUOUS
 62
     6
100
AcDbCircle
 10
652.147591
 20
814.705645
 30
0.0
 40
1.0
100
AcDbArc
 50
90.0
 51
180.0
  0
ARC
  5
90E
100
AcDbEntity
  8
便座
  6
CONTINUOUS
 62
     6
100
AcDbCircle
 10
652.147591
 20
813.705645
 30
0.0
 40
1.0
100
AcDbArc
 50
180.0
 51
270.0
  0
LINE
  5
90F
100
AcDbEntity
  8
便座
  6
CONTINUOUS
 62
     6
100
AcDbLine
 10
662.147591
 20
801.705645
 30
0.0
 11
666.147591
 21
801.705645
 31
0.0
  0
LINE
  5
910
100
AcDbEntity
  8
便座
  6
CONTINUOUS
 62
     6
100
AcDbLine
 10
667.897591
 20
809.705645
 30
0.0
 11
675.647591
 21
809.705645
 31
0.0
  0
LINE
  5
911
100
AcDbEntity
  8
便座
  6
CONTINUOUS
 62
     6
100
AcDbLine
 10
667.897591
 20
807.205645
 30
0.0
 11
675.647591
 21
807.205645
 31
0.0
  0
LINE
  5
912
100
AcDbEntity
  8
便座
  6
CONTINUOUS
 62
     6
100
AcDbLine
 10
667.897591
 20
804.705645
 30
0.0
 11
675.647591
 21
804.705645
 31
0.0
  0
LINE
  5
913
100
AcDbEntity
  8
便座
  6
CONTINUOUS
 62
     6
100
AcDbLine
 10
667.897591
 20
802.205645
 30
0.0
 11
675.647591
 21
802.205645
 31
0.0
  0
LINE
  5
914
100
AcDbEntity
  8
便座
  6
CONTINUOUS
 62
     6
100
AcDbLine
 10
676.147591
 20
812.705645
 30
0.0
 11
668.897591
 21
812.705645
 31
0.0
  0
LINE
  5
915
100
AcDbEntity
  8
便座
  6
CONTINUOUS
 62
     6
100
AcDbLine
 10
652.147591
 20
815.705645
 30
0.0
 11
676.147591
 21
815.705645
 31
0.0
  0
LINE
  5
916
100
AcDbEntity
  8
便座
  6
CONTINUOUS
 62
     6
100
AcDbLine
 10
651.447591
 20
815.705645
 30
0.0
 11
676.847591
 21
815.705645
 31
0.0
  0
ARC
  5
917
100
AcDbEntity
  8
便座
  6
CONTINUOUS
 62
     6
100
AcDbCircle
 10
674.647591
 20
796.205645
 30
0.0
 40
1.0
100
AcDbArc
 50
270.0
 51
0.0
  0
ARC
  5
918
100
AcDbEntity
  8
便座
  6
CONTINUOUS
 62
     6
100
AcDbCircle
 10
666.897591
 20
796.205645
 30
0.0
 40
1.0
100
AcDbArc
 50
270.0
 51
0.0
  0
LINE
  5
919
100
AcDbEntity
  8
便座
  6
CONTINUOUS
 62
     6
100
AcDbLine
 10
660.397591
 20
797.205645
 30
0.0
 11
652.647591
 21
797.205645
 31
0.0
  0
LINE
  5
91A
100
AcDbEntity
  8
便座
  6
CONTINUOUS
 62
     6
100
AcDbLine
 10
660.397591
 20
799.705645
 30
0.0
 11
652.647591
 21
799.705645
 31
0.0
  0
ARC
  5
91B
100
AcDbEntity
  8
便座
  6
CONTINUOUS
 62
     6
100
AcDbCircle
 10
661.397591
 20
796.205645
 30
0.0
 40
1.0
100
AcDbArc
 50
180.0
 51
270.0
  0
ARC
  5
91C
100
AcDbEntity
  8
便座
  6
CONTINUOUS
 62
     6
100
AcDbCircle
 10
653.647591
 20
796.205645
 30
0.0
 40
1.0
100
AcDbArc
 50
180.0
 51
270.0
  0
LINE
  5
91D
100
AcDbEntity
  8
便座
  6
CONTINUOUS
 62
     6
100
AcDbLine
 10
667.897591
 20
799.705645
 30
0.0
 11
675.647591
 21
799.705645
 31
0.0
  0
LINE
  5
91E
100
AcDbEntity
  8
便座
  6
CONTINUOUS
 62
     6
100
AcDbLine
 10
667.897591
 20
797.205645
 30
0.0
 11
675.647591
 21
797.205645
 31
0.0
  0
LINE
  5
91F
100
AcDbEntity
  8
便座
  6
CONTINUOUS
 62
     6
100
AcDbLine
 10
653.647591
 20
795.205645
 30
0.0
 11
674.647591
 21
795.205645
 31
0.0
  0
LINE
  5
920
100
AcDbEntity
  8
便座
  6
CONTINUOUS
 62
     6
100
AcDbLine
 10
674.106877
 20
796.205645
 30
0.0
 11
674.106877
 21
812.705645
 31
0.0
  0
LINE
  5
921
100
AcDbEntity
  8
便座
  6
CONTINUOUS
 62
     6
100
AcDbLine
 10
671.539648
 20
796.205645
 30
0.0
 11
671.539648
 21
812.705645
 31
0.0
  0
LINE
  5
922
100
AcDbEntity
  8
便座
  6
CONTINUOUS
 62
     6
100
AcDbLine
 10
667.897591
 20
811.705645
 30
0.0
 11
667.897591
 21
796.205645
 31
0.0
  0
LINE
  5
923
100
AcDbEntity
  8
便座
  6
CONTINUOUS
 62
     6
100
AcDbLine
 10
675.647591
 20
812.705645
 30
0.0
 11
675.647591
 21
796.205645
 31
0.0
  0
LINE
  5
924
100
AcDbEntity
  8
便座
  6
CONTINUOUS
 62
     6
100
AcDbLine
 10
666.647591
 20
795.205645
 30
0.0
 11
666.647591
 21
801.205645
 31
0.0
  0
LINE
  5
925
100
AcDbEntity
  8
便座
  6
CONTINUOUS
 62
     6
100
AcDbLine
 10
661.647591
 20
795.205645
 30
0.0
 11
661.647591
 21
801.205645
 31
0.0
  0
LINE
  5
926
100
AcDbEntity
  8
便座
  6
CONTINUOUS
 62
     6
100
AcDbLine
 10
652.647591
 20
812.705645
 30
0.0
 11
652.647591
 21
796.205645
 31
0.0
  0
LINE
  5
927
100
AcDbEntity
  8
便座
  6
CONTINUOUS
 62
     6
100
AcDbLine
 10
660.397591
 20
811.705645
 30
0.0
 11
660.397591
 21
796.205645
 31
0.0
  0
LINE
  5
928
100
AcDbEntity
  8
便座
  6
CONTINUOUS
 62
     6
100
AcDbLine
 10
656.755534
 20
796.205645
 30
0.0
 11
656.755534
 21
812.705645
 31
0.0
  0
LINE
  5
929
100
AcDbEntity
  8
便座
  6
CONTINUOUS
 62
     6
100
AcDbLine
 10
654.188305
 20
796.205645
 30
0.0
 11
654.188305
 21
812.705645
 31
0.0
  0
ARC
  5
92A
100
AcDbEntity
  8
便座
  6
CONTINUOUS
 62
     6
100
AcDbCircle
 10
664.147591
 20
816.705645
 30
0.0
 40
12.5
100
AcDbArc
 50
174.567509
 51
180.0
  0
LINE
  5
92B
100
AcDbEntity
  8
便座
  6
CONTINUOUS
 62
     6
100
AcDbLine
 10
651.647591
 20
816.705645
 30
0.0
 11
669.379577
 21
816.705645
 31
0.0
  0
LINE
  5
92C
100
AcDbEntity
  8
便座
  6
CONTINUOUS
 62
     6
100
AcDbLine
 10
651.447591
 20
816.705645
 30
0.0
 11
669.379577
 21
816.705645
 31
0.0
  0
ARC
  5
92D
100
AcDbEntity
  8
便座
  6
CONTINUOUS
 62
     6
100
AcDbCircle
 10
1495.297552
 20
938.508664
 30
0.0
 40
30.0
100
AcDbArc
 50
233.946045
 51
261.287033
  0
ARC
  5
92E
100
AcDbEntity
  8
便座
  6
CONTINUOUS
 62
     6
100
AcDbCircle
 10
1658.001047
 20
4334.402832
 30
0.0
 40
3430.064941
100
AcDbArc
 50
267.345932
 51
269.999985
  0
ARC
  5
92F
100
AcDbEntity
  8
便座
  6
CONTINUOUS
 62
     6
100
AcDbCircle
 10
1502.871753
 20
987.931636
 30
0.0
 40
80.0
100
AcDbArc
 50
261.287033
 51
267.345932
  0
ARC
  5
930
100
AcDbEntity
  8
便座
  6
CONTINUOUS
 62
     6
100
AcDbCircle
 10
1838.932003
 20
888.651976
 30
0.0
 40
2.0
100
AcDbArc
 50
307.317505
 51
0.0
  0
ARC
  5
931
100
AcDbEntity
  8
便座
  6
CONTINUOUS
 62
     6
100
AcDbCircle
 10
1832.869383
 20
896.605224
 30
0.0
 40
12.0
100
AcDbArc
 50
276.214051
 51
307.317505
  0
ARC
  5
932
100
AcDbEntity
  8
便座
  6
CONTINUOUS
 62
     6
100
AcDbCircle
 10
1758.397943
 20
1580.56284
 30
0.0
 40
700.0
100
AcDbArc
 50
273.987213
 51
276.214112
  0
ARC
  5
933
100
AcDbEntity
  8
便座
  6
CONTINUOUS
 62
     6
100
AcDbCircle
 10
1761.78985
 20
881.265018
 30
0.0
 40
2.5
100
AcDbArc
 50
312.39917
 51
321.627472
  0
ARC
  5
934
100
AcDbEntity
  8
便座
  6
CONTINUOUS
 62
     6
100
AcDbCircle
 10
1760.441218
 20
882.741947
 30
0.0
 40
4.5
100
AcDbArc
 50
276.756409
 51
312.399658
  0
ARC
  5
935
100
AcDbEntity
  8
便座
  6
CONTINUOUS
 62
     6
100
AcDbCircle
 10
1740.382424
 20
1052.0579
 30
0.0
 40
175.0
100
AcDbArc
 50
271.671082
 51
276.756348
  0
ARC
  5
936
100
AcDbEntity
  8
便座
  6
CONTINUOUS
 62
     6
100
AcDbCircle
 10
1658.0009
 20
3875.856445
 30
0.0
 40
3000.0
100
AcDbArc
 50
268.326229
 51
271.671082
  0
LINE
  5
937
100
AcDbEntity
  8
便座
  6
CONTINUOUS
 62
     6
100
AcDbLine
 10
1841.031978
 20
888.651975
 30
0.0
 11
1840.352171
 21
896.839597
 31
0.0
  0
LINE
  5
938
100
AcDbEntity
  8
便座
  6
CONTINUOUS
 62
     6
100
AcDbLine
 10
1840.932003
 20
888.651975
 30
0.0
 11
1841.031978
 21
888.651975
 31
0.0
  0
LINE
  5
939
100
AcDbEntity
  8
便座
  6
EXLTYPE1
 62
     6
100
AcDbLine
 10
1840.940853
 20
889.516477
 30
0.0
 11
1841.031978
 21
888.651975
 31
0.0
  0
ARC
  5
93A
100
AcDbEntity
  8
便座
  6
CONTINUOUS
 62
     6
100
AcDbCircle
 10
1547.250183
 20
878.0
 30
0.0
 40
5.0
100
AcDbArc
 50
270.0
 51
0.0
  0
ARC
  5
93B
100
AcDbEntity
  8
便座
  6
CONTINUOUS
 62
     6
100
AcDbCircle
 10
1508.199178
 20
878.0
 30
0.0
 40
5.0
100
AcDbArc
 50
180.0
 51
270.0
  0
ARC
  5
93C
100
AcDbEntity
  8
便座
  6
CONTINUOUS
 62
     6
100
AcDbCircle
 10
1571.508911
 20
1780.078721
 30
0.0
 40
900.0
100
AcDbArc
 50
266.012817
 51
267.639526
  0
ARC
  5
93D
100
AcDbEntity
  8
便座
  6
CONTINUOUS
 62
     6
100
AcDbCircle
 10
1554.210191
 20
881.264973
 30
0.0
 40
2.5
100
AcDbArc
 50
218.372742
 51
227.601257
  0
ARC
  5
93E
100
AcDbEntity
  8
便座
  6
CONTINUOUS
 62
     6
100
AcDbCircle
 10
1555.558797
 20
882.741957
 30
0.0
 40
4.5
100
AcDbArc
 50
227.60022
 51
263.243591
  0
ARC
  5
93F
100
AcDbEntity
  8
便座
  6
CONTINUOUS
 62
     6
100
AcDbCircle
 10
1502.871776
 20
987.93164
 30
0.0
 40
80.0
100
AcDbArc
 50
261.286987
 51
267.345947
  0
ARC
  5
940
100
AcDbEntity
  8
便座
  6
CONTINUOUS
 62
     6
100
AcDbCircle
 10
1768.749817
 20
878.0
 30
0.0
 40
5.0
100
AcDbArc
 50
180.0
 51
270.0
  0
ARC
  5
941
100
AcDbEntity
  8
便座
  6
CONTINUOUS
 62
     6
100
AcDbCircle
 10
1807.800856
 20
878.0
 30
0.0
 40
5.0
100
AcDbArc
 50
270.0
 51
0.0
  0
ARC
  5
942
100
AcDbEntity
  8
便座
  6
CONTINUOUS
 62
     6
100
AcDbCircle
 10
1831.487006
 20
879.499972
 30
0.0
 40
5.0
100
AcDbArc
 50
270.0
 51
0.0
  0
ARC
  5
943
100
AcDbEntity
  8
便座
  6
CONTINUOUS
 62
     6
100
AcDbCircle
 10
1508.199178
 20
878.0
 30
0.0
 40
5.0
100
AcDbArc
 50
180.0
 51
270.0
  0
ARC
  5
944
100
AcDbEntity
  8
便座
  6
CONTINUOUS
 62
     6
100
AcDbCircle
 10
1547.250183
 20
878.0
 30
0.0
 40
5.0
100
AcDbArc
 50
270.0
 51
0.0
  0
ARC
  5
945
100
AcDbEntity
  8
便座
  6
CONTINUOUS
 62
     6
100
AcDbCircle
 10
1484.51301
 20
879.499972
 30
0.0
 40
5.0
100
AcDbArc
 50
180.0
 51
270.0
  0
ARC
  5
946
100
AcDbEntity
  8
便座
  6
CONTINUOUS
 62
     6
100
AcDbCircle
 10
1557.602084
 20
1580.562807
 30
0.0
 40
700.0
100
AcDbArc
 50
263.785889
 51
266.012817
  0
ARC
  5
947
100
AcDbEntity
  8
便座
  6
CONTINUOUS
 62
     6
100
AcDbCircle
 10
1477.068043
 20
888.651991
 30
0.0
 40
2.0
100
AcDbArc
 50
180.0
 51
232.682495
  0
ARC
  5
948
100
AcDbEntity
  8
便座
  6
CONTINUOUS
 62
     6
100
AcDbCircle
 10
1483.130632
 20
896.605211
 30
0.0
 40
11.999999
100
AcDbArc
 50
232.682495
 51
263.78595
  0
ARC
  5
949
100
AcDbEntity
  8
便座
  6
CONTINUOUS
 62
     6
100
AcDbCircle
 10
1571.508911
 20
1780.078721
 30
0.0
 40
900.0
100
AcDbArc
 50
266.012817
 51
267.639526
  0
ARC
  5
94A
100
AcDbEntity
  8
便座
  6
CONTINUOUS
 62
     6
100
AcDbCircle
 10
1575.617628
 20
1052.057888
 30
0.0
 40
175.0
100
AcDbArc
 50
263.243652
 51
268.328918
  0
ARC
  5
94B
100
AcDbEntity
  8
便座
  6
CONTINUOUS
 62
     6
100
AcDbCircle
 10
1555.558797
 20
882.741957
 30
0.0
 40
4.5
100
AcDbArc
 50
222.67218
 51
263.243591
  0
ARC
  5
94C
100
AcDbEntity
  8
便座
  6
CONTINUOUS
 62
     6
100
AcDbCircle
 10
1658.0
 20
3878.296767
 30
0.0
 40
3000.0
100
AcDbArc
 50
267.639526
 51
270.0
  0
ARC
  5
94D
100
AcDbEntity
  8
便座
  6
CONTINUOUS
 62
     6
100
AcDbCircle
 10
1744.491122
 20
1780.078721
 30
0.0
 40
900.0
100
AcDbArc
 50
272.360474
 51
273.987213
  0
ARC
  5
94E
100
AcDbEntity
  8
便座
  6
CONTINUOUS
 62
     6
100
AcDbCircle
 10
1658.0
 20
3878.296767
 30
0.0
 40
3000.0
100
AcDbArc
 50
270.0
 51
272.360474
  0
ARC
  5
94F
100
AcDbEntity
  8
便座
  6
CONTINUOUS
 62
     6
100
AcDbCircle
 10
1820.702433
 20
938.508626
 30
0.0
 40
30.0
100
AcDbArc
 50
278.713013
 51
306.053986
  0
ARC
  5
950
100
AcDbEntity
  8
便座
  6
CONTINUOUS
 62
     6
100
AcDbCircle
 10
1657.998949
 20
4334.402859
 30
0.0
 40
3430.064833
100
AcDbArc
 50
270.000031
 51
272.654053
  0
ARC
  5
951
100
AcDbEntity
  8
便座
  6
CONTINUOUS
 62
     6
100
AcDbCircle
 10
1813.128241
 20
987.93164
 30
0.0
 40
80.0
100
AcDbArc
 50
272.654083
 51
278.712982
  0
ARC
  5
952
100
AcDbEntity
  8
便座
  6
CONTINUOUS
 62
     6
100
AcDbCircle
 10
1837.18179
 20
915.871703
 30
0.0
 40
2.0
100
AcDbArc
 50
306.05365
 51
0.0
  0
ARC
  5
953
100
AcDbEntity
  8
便座
  6
CONTINUOUS
 62
     6
100
AcDbCircle
 10
1787.493272
 20
839.95543
 30
0.0
 40
100.0
100
AcDbArc
 50
65.644104
 51
75.639404
  0
ARC
  5
954
100
AcDbEntity
  8
便座
  6
CONTINUOUS
 62
     6
100
AcDbCircle
 10
1750.2897
 20
694.64232
 30
0.0
 40
250.0
100
AcDbArc
 50
75.639404
 51
82.744019
  0
ARC
  5
955
100
AcDbEntity
  8
便座
  6
CONTINUOUS
 62
     6
100
AcDbCircle
 10
1821.310343
 20
914.657579
 30
0.0
 40
17.999999
100
AcDbArc
 50
6.117493
 51
65.644104
  0
ARC
  5
956
100
AcDbEntity
  8
便座
  6
CONTINUOUS
 62
     6
100
AcDbCircle
 10
1739.777276
 20
905.918904
 30
0.0
 40
100.0
100
AcDbArc
 50
5.999878
 51
6.117554
  0
LINE
  5
957
100
AcDbEntity
  8
便座
  6
CONTINUOUS
 62
     6
100
AcDbLine
 10
1552.250183
 20
880.16139
 30
0.0
 11
1552.250183
 21
878.0
 31
0.0
  0
LINE
  5
958
100
AcDbEntity
  8
便座
  6
CONTINUOUS
 62
     6
100
AcDbLine
 10
1503.199178
 20
878.0
 30
0.0
 11
1552.250183
 21
878.0
 31
0.0
  0
LINE
  5
959
100
AcDbEntity
  8
便座
  6
CONTINUOUS
 62
     6
100
AcDbLine
 10
1503.199178
 20
882.68004
 30
0.0
 11
1503.199178
 21
878.0
 31
0.0
  0
LINE
  5
95A
100
AcDbEntity
  8
便座
  6
CONTINUOUS
 62
     6
100
AcDbLine
 10
1763.749817
 20
880.16139
 30
0.0
 11
1763.749817
 21
878.0
 31
0.0
  0
LINE
  5
95B
100
AcDbEntity
  8
便座
  6
CONTINUOUS
 62
     6
100
AcDbLine
 10
1812.800822
 20
878.0
 30
0.0
 11
1763.749817
 21
878.0
 31
0.0
  0
LINE
  5
95C
100
AcDbEntity
  8
便座
  6
CONTINUOUS
 62
     6
100
AcDbLine
 10
1812.800822
 20
882.68004
 30
0.0
 11
1812.800822
 21
878.0
 31
0.0
  0
LINE
  5
95D
100
AcDbEntity
  8
便座
  6
CONTINUOUS
 62
     6
100
AcDbLine
 10
1811.371582
 20
874.499972
 30
0.0
 11
1831.487006
 21
874.499972
 31
0.0
  0
LINE
  5
95E
100
AcDbEntity
  8
便座
  6
CONTINUOUS
 62
     6
100
AcDbLine
 10
1812.800822
 20
879.499972
 30
0.0
 11
1836.487006
 21
879.499972
 31
0.0
  0
LINE
  5
95F
100
AcDbEntity
  8
便座
  6
CONTINUOUS
 62
     6
100
AcDbLine
 10
1836.487006
 20
884.932101
 30
0.0
 11
1836.487006
 21
879.499972
 31
0.0
  0
LINE
  5
960
100
AcDbEntity
  8
便座
  6
CONTINUOUS
 62
     6
100
AcDbLine
 10
1503.199178
 20
878.0
 30
0.0
 11
1552.250217
 21
878.0
 31
0.0
  0
LINE
  5
961
100
AcDbEntity
  8
便座
  6
CONTINUOUS
 62
     6
100
AcDbLine
 10
1503.199178
 20
882.68004
 30
0.0
 11
1503.199178
 21
878.0
 31
0.0
  0
LINE
  5
962
100
AcDbEntity
  8
便座
  6
CONTINUOUS
 62
     6
100
AcDbLine
 10
1552.250183
 20
880.16139
 30
0.0
 11
1552.250183
 21
878.0
 31
0.0
  0
LINE
  5
963
100
AcDbEntity
  8
便座
  6
CONTINUOUS
 62
     6
100
AcDbLine
 10
1503.199178
 20
879.499972
 30
0.0
 11
1479.51301
 21
879.499972
 31
0.0
  0
LINE
  5
964
100
AcDbEntity
  8
便座
  6
CONTINUOUS
 62
     6
100
AcDbLine
 10
1504.628469
 20
874.499972
 30
0.0
 11
1484.51301
 21
874.499972
 31
0.0
  0
LINE
  5
965
100
AcDbEntity
  8
便座
  6
CONTINUOUS
 62
     6
100
AcDbLine
 10
1479.51301
 20
884.932101
 30
0.0
 11
1479.51301
 21
879.499972
 31
0.0
  0
LINE
  5
966
100
AcDbEntity
  8
便座
  6
CONTINUOUS
 62
     6
100
AcDbLine
 10
1474.968028
 20
888.651991
 30
0.0
 11
1475.647874
 21
896.839586
 31
0.0
  0
LINE
  5
967
100
AcDbEntity
  8
便座
  6
CONTINUOUS
 62
     6
100
AcDbLine
 10
1475.06804
 20
888.651991
 30
0.0
 11
1474.968028
 21
888.651991
 31
0.0
  0
LINE
  5
968
100
AcDbEntity
  8
便座
  6
EXLTYPE1
 62
     6
100
AcDbLine
 10
1475.05919
 20
889.516452
 30
0.0
 11
1474.968028
 21
888.651991
 31
0.0
  0
LINE
  5
969
100
AcDbEntity
  8
便座
  6
CONTINUOUS
 62
     6
100
AcDbLine
 10
1839.282077
 20
915.871703
 30
0.0
 11
1839.182048
 21
915.871703
 31
0.0
  0
LINE
  5
96A
100
AcDbEntity
  8
便座
  6
CONTINUOUS
 62
     6
100
AcDbLine
 10
1839.282077
 20
915.871703
 30
0.0
 11
1839.229519
 21
916.371718
 31
0.0
  0
ARC
  5
96B
100
AcDbEntity
  8
便座
  6
CONTINUOUS
 62
     6
100
AcDbCircle
 10
1828.393309
 20
895.846558
 30
0.0
 40
12.0
100
AcDbArc
 50
4.000061
 51
43.447065
  0
ARC
  5
96C
100
AcDbEntity
  8
便座
  6
CONTINUOUS
 62
     6
100
AcDbCircle
 10
1818.955196
 20
886.906681
 30
0.0
 40
25.0
100
AcDbArc
 50
43.447065
 51
65.896475
  0
LINE
  5
96D
100
AcDbEntity
  8
便座
  6
CONTINUOUS
 62
     6
100
AcDbLine
 10
1745.499984
 20
877.132743
 30
0.0
 11
1745.499984
 21
875.5
 31
0.0
  0
LINE
  5
96E
100
AcDbEntity
  8
便座
  6
CONTINUOUS
 62
     6
100
AcDbLine
 10
1710.499984
 20
876.315839
 30
0.0
 11
1710.499984
 21
875.5
 31
0.0
  0
LINE
  5
96F
100
AcDbEntity
  8
便座
  6
CONTINUOUS
 62
     6
100
AcDbLine
 10
1710.499984
 20
875.5
 30
0.0
 11
1745.499984
 21
875.5
 31
0.0
  0
LINE
  5
970
100
AcDbEntity
  8
便座
  6
CONTINUOUS
 62
     6
100
AcDbLine
 10
1743.499984
 20
873.0
 30
0.0
 11
1743.499984
 21
875.5
 31
0.0
  0
LINE
  5
971
100
AcDbEntity
  8
便座
  6
CONTINUOUS
 62
     6
100
AcDbLine
 10
1712.499984
 20
873.0
 30
0.0
 11
1712.499984
 21
875.5
 31
0.0
  0
LINE
  5
972
100
AcDbEntity
  8
便座
  6
CONTINUOUS
 62
     6
100
AcDbLine
 10
1570.500016
 20
877.132743
 30
0.0
 11
1570.500016
 21
875.5
 31
0.0
  0
LINE
  5
973
100
AcDbEntity
  8
便座
  6
CONTINUOUS
 62
     6
100
AcDbLine
 10
1605.500016
 20
876.315839
 30
0.0
 11
1605.500016
 21
875.5
 31
0.0
  0
LINE
  5
974
100
AcDbEntity
  8
便座
  6
CONTINUOUS
 62
     6
100
AcDbLine
 10
1605.500016
 20
875.5
 30
0.0
 11
1570.500016
 21
875.5
 31
0.0
  0
LINE
  5
975
100
AcDbEntity
  8
便座
  6
CONTINUOUS
 62
     6
100
AcDbLine
 10
1572.500016
 20
873.0
 30
0.0
 11
1572.500016
 21
875.5
 31
0.0
  0
LINE
  5
976
100
AcDbEntity
  8
便座
  6
CONTINUOUS
 62
     6
100
AcDbLine
 10
1603.500016
 20
873.0
 30
0.0
 11
1603.500016
 21
875.5
 31
0.0
  0
ARC
  5
977
100
AcDbEntity
  8
便座
  6
CONTINUOUS
 62
     6
100
AcDbCircle
 10
1657.99966
 20
-30.209961
 30
0.0
 40
980.703979
100
AcDbArc
 50
82.744002
 51
97.255982
  0
ARC
  5
978
100
AcDbEntity
  8
便座
  6
CONTINUOUS
 62
     6
100
AcDbCircle
 10
1565.710299
 20
694.642327
 30
0.0
 40
250.0
100
AcDbArc
 50
97.255982
 51
104.360601
  0
ARC
  5
979
100
AcDbEntity
  8
便座
  6
CONTINUOUS
 62
     6
100
AcDbCircle
 10
1478.818237
 20
915.871705
 30
0.0
 40
2.0
100
AcDbArc
 50
180.0
 51
233.946045
  0
ARC
  5
97A
100
AcDbEntity
  8
便座
  6
CONTINUOUS
 62
     6
100
AcDbCircle
 10
1494.689697
 20
914.65759
 30
0.0
 40
18.0
100
AcDbArc
 50
114.355896
 51
173.882447
  0
ARC
  5
97B
100
AcDbEntity
  8
便座
  6
CONTINUOUS
 62
     6
100
AcDbCircle
 10
1576.222744
 20
905.918951
 30
0.0
 40
100.0
100
AcDbArc
 50
173.882447
 51
174.000122
  0
LINE
  5
97C
100
AcDbEntity
  8
便座
  6
CONTINUOUS
 62
     6
100
AcDbLine
 10
1476.717987
 20
915.871705
 30
0.0
 11
1476.817993
 21
915.871705
 31
0.0
  0
LINE
  5
97D
100
AcDbEntity
  8
便座
  6
CONTINUOUS
 62
     6
100
AcDbLine
 10
1476.717987
 20
915.871705
 30
0.0
 11
1476.770538
 21
916.371705
 31
0.0
  0
ARC
  5
97E
100
AcDbEntity
  8
便座
  6
CONTINUOUS
 62
     6
100
AcDbCircle
 10
1528.506724
 20
839.95544
 30
0.0
 40
100.0
100
AcDbArc
 50
104.360601
 51
114.355896
  0
ARC
  5
97F
100
AcDbEntity
  8
便座
  6
CONTINUOUS
 62
     6
100
AcDbCircle
 10
1801.0
 20
912.070028
 30
0.0
 40
8.75
100
AcDbArc
 50
215.175899
 51
329.609488
  0
ARC
  5
980
100
AcDbEntity
  8
便座
  6
CONTINUOUS
 62
     6
100
AcDbCircle
 10
1515.0
 20
912.070028
 30
0.0
 40
8.75
100
AcDbArc
 50
210.391563
 51
324.82305
  0
ARC
  5
981
100
AcDbEntity
  8
便座
  6
CONTINUOUS
 62
     6
100
AcDbCircle
 10
1487.60673
 20
895.846543
 30
0.0
 40
11.999999
100
AcDbArc
 50
133.725278
 51
175.999878
  0
ARC
  5
982
100
AcDbEntity
  8
便座
  6
CONTINUOUS
 62
     6
100
AcDbCircle
 10
1497.044817
 20
886.906657
 30
0.0
 40
25.0
100
AcDbArc
 50
114.103088
 51
136.552825
  0
LINE
  5
983
100
AcDbEntity
  8
寸法
  6
CONTINUOUS
 62
     3
100
AcDbLine
 10
368.0
 20
888.000004
 30
0.0
 11
233.0
 21
888.000004
 31
0.0
  0
LINE
  5
984
100
AcDbEntity
  8
寸法
  6
CONTINUOUS
 62
     3
100
AcDbLine
 10
444.017073
 20
552.1
 30
0.0
 11
344.017073
 21
552.1
 31
0.0
  0
LINE
  5
985
100
AcDbEntity
  8
寸法
  6
CONTINUOUS
 62
     3
100
AcDbLine
 10
414.017073
 20
547.1
 30
0.0
 11
444.017073
 21
552.1
 31
0.0
  0
LINE
  5
986
100
AcDbEntity
  8
寸法
  6
CONTINUOUS
 62
     3
100
AcDbLine
 10
444.017073
 20
552.1
 30
0.0
 11
414.017073
 21
557.1
 31
0.0
  0
LINE
  5
987
100
AcDbEntity
  8
寸法
  6
CONTINUOUS
 62
     3
100
AcDbLine
 10
374.017073
 20
557.1
 30
0.0
 11
344.017073
 21
552.1
 31
0.0
  0
LINE
  5
988
100
AcDbEntity
  8
寸法
  6
CONTINUOUS
 62
     3
100
AcDbLine
 10
344.017073
 20
552.1
 30
0.0
 11
374.017073
 21
547.1
 31
0.0
  0
DIMENSION
  5
993
100
AcDbEntity
  8
寸法
  6
CONTINUOUS
 62
     3
100
AcDbDimension
  2
*D19
 10
243.0
 20
503.000004
 30
0.0
 11
219.5
 21
695.500004
 31
0.0
 70
   160
  1
385
  3
STANDARD
100
AcDbAlignedDimension
 13
245.0
 23
888.000004
 33
0.0
 14
344.017073
 24
503.000004
 34
0.0
 50
90.0
100
AcDbRotatedDimension
1001
ACAD
1000
DSTYLE
1002
{
1070
     6
1000
_EX_NORM
1070
     7
1000
_EX_NORM
1070
    41
1040
30.0
1070
    42
1040
5.0
1070
    44
1040
10.0
1070
    73
1070
     0
1070
    74
1070
     0
1070
    75
1070
     1
1070
    76
1070
     0
1070
    77
1070
     1
1070
    78
1070
     8
1070
   140
1040
40.0
1070
   147
1040
3.5
1070
   173
1070
     1
1070
   176
1070
     3
1070
   177
1070
     3
1070
   178
1070
     2
1070
   271
1070
     2
1070
   279
1070
     2
1070
   280
1070
     0
1070
   287
1070
     5
1070
   340
1005
DB
1002
}
  0
DIMENSION
  5
99E
100
AcDbEntity
  8
寸法
  6
CONTINUOUS
 62
     3
100
AcDbDimension
  2
*D20
 10
1219.0
 20
503.000324
 30
0.0
 11
1195.5
 21
688.000164
 31
0.0
 70
   160
  1
370
  3
STANDARD
100
AcDbAlignedDimension
 13
1094.944426
 23
873.000004
 33
0.0
 14
1184.0
 24
503.000324
 34
0.0
 50
90.0
100
AcDbRotatedDimension
1001
ACAD
1000
DSTYLE
1002
{
1070
     6
1000
_EX_NORM
1070
     7
1000
_EX_NORM
1070
    41
1040
30.0
1070
    42
1040
40.05558
1070
    44
1040
10.0
1070
    73
1070
     0
1070
    74
1070
     0
1070
    75
1070
     0
1070
    76
1070
     1
1070
    77
1070
     1
1070
    78
1070
     8
1070
   140
1040
40.0
1070
   147
1040
3.5
1070
   173
1070
     1
1070
   176
1070
     3
1070
   177
1070
     3
1070
   178
1070
     2
1070
   271
1070
     2
1070
   279
1070
     2
1070
   280
1070
     0
1070
   287
1070
     5
1070
   340
1005
DB
1002
}
  0
DIMENSION
  5
9AA
100
AcDbEntity
  8
寸法
  6
CONTINUOUS
 62
     3
100
AcDbDimension
  2
*D21
 10
1134.001471
 20
2703.0
 30
0.0
 11
784.037773
 21
2726.5
 31
0.0
 70
   160
  1
700
  3
STANDARD
100
AcDbAlignedDimension
 13
434.074076
 23
2443.0001
 33
0.0
 14
1134.001471
 24
2443.0001
 34
0.0
100
AcDbRotatedDimension
1001
ACAD
1000
DSTYLE
1002
{
1070
     6
1000
_EX_NORM
1070
     7
1000
_EX_NORM
1070
    41
1040
30.0
1070
    42
1040
5.0
1070
    44
1040
10.0
1070
    73
1070
     0
1070
    74
1070
     0
1070
    75
1070
     0
1070
    76
1070
     0
1070
    77
1070
     1
1070
    78
1070
     8
1070
   140
1040
40.0
1070
   147
1040
3.5
1070
   173
1070
     1
1070
   176
1070
     3
1070
   177
1070
     3
1070
   178
1070
     2
1070
   271
1070
     2
1070
   279
1070
     2
1070
   280
1070
     0
1070
   287
1070
     5
1070
   340
1005
DB
1002
}
  0
DIMENSION
  5
9B6
100
AcDbEntity
  8
寸法
  6
CONTINUOUS
 62
     3
100
AcDbDimension
  2
*D22
 10
275.0
 20
2143.000004
 30
0.0
 11
251.5
 21
2293.000004
 31
0.0
 70
   160
  1
300
  3
STANDARD
100
AcDbAlignedDimension
 13
344.017073
 23
2443.000004
 33
0.0
 14
335.716298
 24
2143.000004
 34
0.0
 50
90.0
100
AcDbRotatedDimension
1001
ACAD
1000
DSTYLE
1002
{
1070
     6
1000
_EX_NORM
1070
     7
1000
_EX_NORM
1070
    41
1040
30.0
1070
    42
1040
0.0
1070
    44
1040
10.0
1070
    73
1070
     0
1070
    74
1070
     0
1070
    75
1070
     0
1070
    76
1070
     0
1070
    77
1070
     1
1070
    78
1070
     8
1070
   140
1040
40.0
1070
   147
1040
3.5
1070
   173
1070
     1
1070
   176
1070
     3
1070
   177
1070
     3
1070
   178
1070
     2
1070
   271
1070
     2
1070
   279
1070
     2
1070
   280
1070
     0
1070
   287
1070
     5
1070
   340
1005
DB
1002
}
  0
DIMENSION
  5
9C1
100
AcDbEntity
  8
寸法
  6
CONTINUOUS
 62
     3
100
AcDbDimension
  2
*D23
 10
764.0
 20
503.000324
 30
0.0
 11
740.5
 21
588.000266
 31
0.0
 70
   160
  1
170
  3
STANDARD
100
AcDbAlignedDimension
 13
600.570491
 23
673.000207
 33
0.0
 14
639.0
 24
503.000324
 34
0.0
 50
90.0
100
AcDbRotatedDimension
1001
ACAD
1000
DSTYLE
1002
{
1070
     6
1000
_EX_NORM
1070
     7
1000
_EX_NORM
1070
    41
1040
30.0
1070
    42
1040
5.0
1070
    44
1040
10.0
1070
    73
1070
     0
1070
    74
1070
     0
1070
    75
1070
     0
1070
    76
1070
     1
1070
    77
1070
     1
1070
    78
1070
     8
1070
   140
1040
40.0
1070
   147
1040
3.5
1070
   173
1070
     1
1070
   176
1070
     3
1070
   177
1070
     3
1070
   178
1070
     2
1070
   271
1070
     2
1070
   279
1070
     2
1070
   280
1070
     0
1070
   287
1070
     5
1070
   340
1005
DB
1002
}
  0
DIMENSION
  5
9CA
100
AcDbEntity
  8
寸法
  6
CONTINUOUS
 62
     3
100
AcDbDimension
  2
*D24
 10
763.181925
 20
691.737204
 30
0.0
 11
786.5925
 21
693.785364
 31
0.0
 70
   165
  1
10%%d
  3
STANDARD
100
AcDb3PointAngularDimension
 13
764.0
 23
673.000207
 33
0.0
 14
649.277605
 24
690.678844
 34
0.0
 15
549.017073
 25
673.000207
 35
0.0
1001
ACAD
1000
DSTYLE
1002
{
1070
     6
1000
_EX_NONE
1070
     7
1000
_EX_NORM
1070
    41
1040
30.0
1070
    42
1040
5.0
1070
    44
1040
10.0
1070
    73
1070
     0
1070
    74
1070
     0
1070
    75
1070
     1
1070
    76
1070
     0
1070
    77
1070
     1
1070
    78
1070
     8
1070
   140
1040
40.0
1070
   147
1040
3.5
1070
   173
1070
     1
1070
   176
1070
     3
1070
   177
1070
     3
1070
   178
1070
     2
1070
   271
1070
     2
1070
   279
1070
     2
1070
   280
1070
     0
1070
   287
1070
     5
1070
   340
1005
DB
1002
}
  0
DIMENSION
  5
9D6
100
AcDbEntity
  8
寸法
  6
CONTINUOUS
 62
     3
100
AcDbDimension
  2
*D25
 10
614.017073
 20
358.0
 30
0.0
 11
479.017073
 21
381.5
 31
0.0
 70
   160
  1
270
  3
STANDARD
100
AcDbAlignedDimension
 13
344.017073
 23
503.000324
 33
0.0
 14
614.017073
 24
468.0
 34
0.0
100
AcDbRotatedDimension
1001
ACAD
1000
DSTYLE
1002
{
1070
     6
1000
_EX_NORM
1070
     7
1000
_EX_NORM
1070
    41
1040
30.0
1070
    42
1040
5.0
1070
    44
1040
10.0
1070
    73
1070
     0
1070
    74
1070
     0
1070
    75
1070
     0
1070
    76
1070
     0
1070
    77
1070
     1
1070
    78
1070
     8
1070
   140
1040
40.0
1070
   147
1040
3.5
1070
   173
1070
     1
1070
   176
1070
     3
1070
   177
1070
     3
1070
   178
1070
     2
1070
   271
1070
     2
1070
   279
1070
     2
1070
   280
1070
     0
1070
   287
1070
     5
1070
   340
1005
DB
1002
}
  0
DIMENSION
  5
9E1
100
AcDbEntity
  8
寸法
  6
CONTINUOUS
 62
     3
100
AcDbDimension
  2
*D26
 10
1134.006811
 20
2143.0
 30
0.0
 11
899.043073
 21
2166.5
 31
0.0
 70
   160
  1
470
  3
STANDARD
100
AcDbAlignedDimension
 13
664.079336
 23
2352.800004
 33
0.0
 14
1134.006811
 24
2443.000019
 34
0.0
100
AcDbRotatedDimension
1001
ACAD
1000
DSTYLE
1002
{
1070
     6
1000
_EX_NORM
1070
     7
1000
_EX_NORM
1070
    41
1040
30.0
1070
    42
1040
5.0
1070
    44
1040
10.0
1070
    73
1070
     0
1070
    74
1070
     0
1070
    75
1070
     0
1070
    76
1070
     1
1070
    77
1070
     1
1070
    78
1070
     8
1070
   140
1040
40.0
1070
   147
1040
3.5
1070
   173
1070
     1
1070
   176
1070
     3
1070
   177
1070
     3
1070
   178
1070
     2
1070
   271
1070
     2
1070
   279
1070
     2
1070
   280
1070
     0
1070
   287
1070
     5
1070
   340
1005
DB
1002
}
  0
DIMENSION
  5
9EC
100
AcDbEntity
  8
寸法
  6
CONTINUOUS
 62
     3
100
AcDbDimension
  2
*D27
 10
301.017759
 20
503.00032
 30
0.0
 11
277.517759
 21
659.975322
 31
0.0
 70
   160
  1
300（壁給水）
  3
STANDARD
100
AcDbAlignedDimension
 13
335.857073
 23
802.950324
 33
0.0
 14
301.017759
 24
503.00032
 34
0.0
 50
90.0
100
AcDbRotatedDimension
1001
ACAD
1000
DSTYLE
1002
{
1070
     6
1000
_EX_NORM
1070
     7
1000
_EX_NORM
1070
    41
1040
35.0
1070
    42
1040
7.0
1070
    44
1040
20.0
1070
    73
1070
     0
1070
    74
1070
     0
1070
    75
1070
     0
1070
    76
1070
     1
1070
    77
1070
     1
1070
    78
1070
     0
1070
   140
1040
40.0
1070
   147
1040
3.5
1070
   173
1070
     1
1070
   176
1070
     3
1070
   177
1070
     3
1070
   178
1070
     2
1070
   271
1070
     0
1070
   279
1070
     2
1070
   280
1070
     0
1070
   287
1070
     5
1070
   340
1005
DB
1002
}
  0
LEADER
  5
9ED
100
AcDbEntity
  8
寸法
  6
CONTINUOUS
 62
     6
100
AcDbLeader
  3
STANDARD
 73
     3
 74
     1
 75
     0
 40
0.0
 76
     2
 10
433.717073
 20
500.160324
 30
0.0
 10
318.160259
 20
420.777471
 30
0.0
 77
     6
1001
ACAD
1000
DSTYLE
1002
{
1070
    41
1040
35.0
1070
     5
1000
_EX_NORM
1070
     6
1000
_EX_NORM
1070
     7
1000
_EX_NORM
1070
   341
1005
32
1002
}
  0
TEXT
  5
9EE
100
AcDbEntity
  8
寸法
  6
CONTINUOUS
 62
     2
100
AcDbText
 10
336.917073
 20
555.6
 30
0.0
 40
40.0
  1
１００
 41
0.7
  7
EXCADSTD
 72
     5
 11
436.917073
 21
555.6
 31
0.0
100
AcDbText
  0
TEXT
  5
9EF
100
AcDbEntity
  8
寸法
  6
CONTINUOUS
 62
     2
100
AcDbText
 10
294.118095
 20
424.177471
 30
0.0
 40
25.0
  1
２
 41
0.84
  7
EXCADSTD
 72
     5
 11
314.118095
 21
424.177471
 31
0.0
100
AcDbText
  0
TEXT
  5
9F0
100
AcDbEntity
  8
寸法
  6
CONTINUOUS
 62
     6
100
AcDbText
 10
273.518095
 20
424.277471
 30
0.0
 40
40.0
  1
／ 
 41
0.945
  7
EXCADSTD
 72
     5
 11
309.518095
 21
424.277471
 31
0.0
100
AcDbText
  0
TEXT
  5
9F1
100
AcDbEntity
  8
寸法
  6
CONTINUOUS
 62
     2
100
AcDbText
 10
227.018095
 20
424.277471
 30
0.0
 40
40.0
  1
Ｒ
 41
0.945
  7
EXCADSTD
 72
     5
 11
263.018095
 21
424.277471
 31
0.0
100
AcDbText
  0
TEXT
  5
9F2
100
AcDbEntity
  8
寸法
  6
CONTINUOUS
 62
     2
100
AcDbText
 10
263.518095
 20
439.477471
 30
0.0
 40
25.0
  1
１
 41
0.84
  7
EXCADSTD
 72
     5
 11
283.518095
 21
439.477471
 31
0.0
100
AcDbText
  0
LINE
  5
9F3
100
AcDbEntity
  8
寸法
  6
CONTINUOUS
 62
     6
100
AcDbLine
 10
318.160259
 20
420.777471
 30
0.0
 11
231.160259
 21
420.777471
 31
0.0
  0
DIMENSION
  5
9FF
100
AcDbEntity
  8
寸法
  6
CONTINUOUS
 62
     2
100
AcDbDimension
  2
*D28
 10
1134.006811
 20
2078.0
 30
0.0
 11
761.511942
 21
2101.5
 31
0.0
 70
   160
  1
745
  3
STANDARD
100
AcDbAlignedDimension
 13
389.017073
 23
2236.965003
 33
0.0
 14
1134.006811
 24
2443.000019
 34
0.0
100
AcDbRotatedDimension
1001
ACAD
1000
DSTYLE
1002
{
1070
     6
1000
_EX_NORM
1070
     7
1000
_EX_NORM
1070
    41
1040
30.0
1070
    42
1040
5.0
1070
    44
1040
10.0
1070
    73
1070
     0
1070
    74
1070
     0
1070
    75
1070
     0
1070
    76
1070
     0
1070
    77
1070
     1
1070
    78
1070
     8
1070
   140
1040
40.0
1070
   147
1040
3.5
1070
   173
1070
     1
1070
   176
1070
     3
1070
   177
1070
     3
1070
   178
1070
     2
1070
   271
1070
     2
1070
   279
1070
     2
1070
   280
1070
     0
1070
   287
1070
     5
1070
   340
1005
DB
1002
}
  0
DIMENSION
  5
A0B
100
AcDbEntity
  8
寸法
  6
CONTINUOUS
 62
     3
100
AcDbDimension
  2
*D29
 10
344.017073
 20
1504.536235
 30
0.0
 11
279.017073
 21
1528.036235
 31
0.0
 70
   160
  3
STANDARD
100
AcDbAlignedDimension
 13
389.017073
 23
1504.536235
 33
0.0
 14
344.017073
 24
1499.0
 34
0.0
100
AcDbRotatedDimension
1001
ACAD
1000
DSTYLE
1002
{
1070
     6
1000
_EX_NORM
1070
     7
1000
_EX_NORM
1070
    41
1040
30.0
1070
    42
1040
5.0
1070
    44
1040
10.0
1070
    73
1070
     0
1070
    74
1070
     0
1070
    75
1070
     0
1070
    76
1070
     0
1070
    77
1070
     1
1070
    78
1070
     8
1070
   140
1040
40.0
1070
   147
1040
3.5
1070
   173
1070
     1
1070
   176
1070
     3
1070
   177
1070
     3
1070
   178
1070
     2
1070
   271
1070
     2
1070
   279
1070
     2
1070
   280
1070
     2
1070
   287
1070
     5
1070
   340
1005
DB
1002
}
  0
TEXT
  5
A0C
100
AcDbEntity
  8
器具明細表
  6
CONTINUOUS
 62
     2
100
AcDbText
 10
1611.0
 20
2658.0
 30
0.0
 40
50.0
  1
タンクセット
 41
0.5824
  7
EXCADSTD
 72
     5
 11
1819.000011
 21
2658.0
 31
0.0
100
AcDbText
  0
TEXT
  5
A0D
100
AcDbEntity
  8
器具明細表
  6
CONTINUOUS
 62
     2
100
AcDbText
 10
1317.0
 20
2816.0
 30
0.0
 40
50.0
  1
器具明細
 41
1.8144
  7
EXCADSTD
 72
     5
 11
1749.000008
 21
2816.0
 31
0.0
100
AcDbText
  0
LINE
  5
A0E
100
AcDbEntity
  8
器具明細表
  6
CONTINUOUS
 62
     6
100
AcDbLine
 10
1297.0
 20
2709.0
 30
0.0
 11
1978.0
 21
2709.0
 31
0.0
  0
LINE
  5
A0F
100
AcDbEntity
  8
器具明細表
  6
CONTINUOUS
 62
     6
100
AcDbLine
 10
1297.0
 20
2761.0
 30
0.0
 11
1978.0
 21
2761.0
 31
0.0
  0
LINE
  5
A10
100
AcDbEntity
  8
器具明細表
  6
CONTINUOUS
 62
     6
100
AcDbLine
 10
1297.0
 20
2813.0
 30
0.0
 11
1978.0
 21
2813.0
 31
0.0
  0
TEXT
  5
A11
100
AcDbEntity
  8
器具明細表
  6
CONTINUOUS
 62
     2
100
AcDbText
 10
1611.0
 20
2710.0
 30
0.0
 40
50.0
  1
便器セット
 41
0.588
  7
EXCADSTD
 72
     5
 11
1786.00001
 21
2710.0
 31
0.0
100
AcDbText
  0
TEXT
  5
A12
100
AcDbEntity
  8
器具明細表
  6
CONTINUOUS
 62
     2
100
AcDbText
 10
1889.5
 20
2763.0
 30
0.0
 40
48.0
  1
個数
 41
0.76125
  7
EXCADSTD
 72
     5
 11
1969.2442
 21
2763.0
 31
0.0
100
AcDbText
  0
TEXT
  5
A13
100
AcDbEntity
  8
器具明細表
  6
CONTINUOUS
 62
     2
100
AcDbText
 10
1658.0
 20
2763.0
 30
0.0
 40
48.0
  1
品名
 41
1.575
  7
EXCADSTD
 72
     5
 11
1822.988
 21
2763.0
 31
0.0
100
AcDbText
  0
TEXT
  5
A14
100
AcDbEntity
  8
器具明細表
  6
CONTINUOUS
 62
     2
100
AcDbText
 10
1912.549241
 20
2659.315994
 30
0.0
 40
45.0
  1
１
 41
0.84
  7
EXCADSTD
 72
     5
 11
1948.549241
 21
2659.315994
 31
0.0
100
AcDbText
  0
TEXT
  5
A15
100
AcDbEntity
  8
器具明細表
  6
CONTINUOUS
 62
     2
100
AcDbText
 10
1912.549241
 20
2711.315994
 30
0.0
 40
45.0
  1
１
 41
0.84
  7
EXCADSTD
 72
     5
 11
1948.549241
 21
2711.315994
 31
0.0
100
AcDbText
  0
TEXT
  5
A16
100
AcDbEntity
  8
器具明細表
  6
CONTINUOUS
 62
     2
100
AcDbText
 10
1362.0
 20
2763.0
 30
0.0
 40
48.0
  1
品番
 41
1.75
  7
EXCADSTD
 72
     5
 11
1545.32
 21
2763.0
 31
0.0
100
AcDbText
  0
LINE
  5
A17
100
AcDbEntity
  8
器具明細表
  6
CONTINUOUS
 62
     6
100
AcDbLine
 10
1297.0
 20
2657.0
 30
0.0
 11
1978.0
 21
2657.0
 31
0.0
  0
LINE
  5
A18
100
AcDbEntity
  8
器具明細表
  6
CONTINUOUS
 62
     6
100
AcDbLine
 10
1978.0
 20
2605.0
 30
0.0
 11
1978.0
 21
2813.0
 31
0.0
  0
LINE
  5
A19
100
AcDbEntity
  8
器具明細表
  6
CONTINUOUS
 62
     6
100
AcDbLine
 10
1888.0
 20
2813.0
 30
0.0
 11
1888.0
 21
2605.0
 31
0.0
  0
LINE
  5
A1A
100
AcDbEntity
  8
器具明細表
  6
CONTINUOUS
 62
     6
100
AcDbLine
 10
1608.0
 20
2605.0
 30
0.0
 11
1608.0
 21
2813.0
 31
0.0
  0
LINE
  5
A1B
100
AcDbEntity
  8
器具明細表
  6
CONTINUOUS
 62
     6
100
AcDbLine
 10
1297.0
 20
2813.0
 30
0.0
 11
1297.0
 21
2605.0
 31
0.0
  0
TEXT
  5
A1C
100
AcDbEntity
  8
器具明細表
  6
CONTINUOUS
 62
     2
100
AcDbText
 10
1297.0
 20
2713.5
 30
0.0
 40
43.0
  1
ＳＣ８４ＰＧ－ＢＴ（ＣＴ）Ｚ＃
 41
0.403721
  7
EXCADSTD
 72
     5
 11
1607.0
 21
2713.5
 31
0.0
100
AcDbText
  0
TEXT
  5
A1D
100
AcDbEntity
  8
器具明細表
  6
CONTINUOUS
 62
     2
100
AcDbText
 10
1297.0
 20
2661.5
 30
0.0
 40
43.0
  1
ＳＴＶ１９０ＲＵ－１ＡＥ（Ｙ）０Ｆ＃
 41
0.344031
  7
EXCADSTD
 72
     5
 11
1613.999987
 21
2661.5
 31
0.0
100
AcDbText
  0
ENDSEC
  0
SECTION
  2
OBJECTS
  0
DICTIONARY
  5
19
100
AcDbDictionary
  3
ACAD_GROUP
350
1A
  3
ACAD_MLINESTYLE
350
1B
  0
DICTIONARY
  5
1A
102
{ACAD_REACTORS
330
19
102
}
100
AcDbDictionary
  0
DICTIONARY
  5
1B
102
{ACAD_REACTORS
330
19
102
}
100
AcDbDictionary
  3
STANDARD
350
1C
  0
MLINESTYLE
  5
1C
102
{ACAD_REACTORS
330
1B
102
}
100
AcDbMlineStyle
  2
Standard
 70
     0
  3

 62
     0
 51
90.0
 52
90.0
 71
     2
 49
0.5
 62
   256
  6
ByLayer
 49
-0.5
 62
   256
  6
ByLayer
  0
ENDSEC
  0
EOF
