  0
SECTION
  2
HEADER
  9
$ACADVER
  1
AC1014
  9
$ACADMAINTVER
 70
     0
  9
$DWGCODEPAGE
  3
ANSI_932
  9
$INSBASE
 10
0.0
 20
0.0
 30
0.0
  9
$EXTMIN
 10
-2.0
 20
8.5
 30
0.0
  9
$EXTMAX
 10
198.0
 20
288.5
 30
0.0
  9
$LIMMIN
 10
0.0
 20
0.0
  9
$LIMMAX
 10
210.0
 20
297.0
  9
$ORTHOMODE
 70
     0
  9
$REGENMODE
 70
     1
  9
$FILLMODE
 70
     1
  9
$QTEXTMODE
 70
     0
  9
$MIRRTEXT
 70
     1
  9
$DRAGMODE
 70
     2
  9
$LTSCALE
 40
1.0
  9
$OSMODE
 70
     0
  9
$ATTMODE
 70
     1
  9
$TEXTSIZE
 40
0.2
  9
$TRACEWID
 40
0.05
  9
$TEXTSTYLE
  7
STANDARD
  9
$CLAYER
  8
便器
  9
$CELTYPE
  6
CONTINUOUS
  9
$CECOLOR
 62
   256
  9
$CELTSCALE
 40
1.0
  9
$DELOBJ
 70
     1
  9
$DISPSILH
 70
     0
  9
$DIMSCALE
 40
1.0
  9
$DIMASZ
 40
0.18
  9
$DIMEXO
 40
0.0625
  9
$DIMDLI
 40
0.38
  9
$DIMRND
 40
0.0
  9
$DIMDLE
 40
0.0
  9
$DIMEXE
 40
0.18
  9
$DIMTP
 40
0.0
  9
$DIMTM
 40
0.0
  9
$DIMTXT
 40
0.18
  9
$DIMCEN
 40
0.09
  9
$DIMTSZ
 40
0.0
  9
$DIMTOL
 70
     0
  9
$DIMLIM
 70
     0
  9
$DIMTIH
 70
     1
  9
$DIMTOH
 70
     1
  9
$DIMSE1
 70
     0
  9
$DIMSE2
 70
     0
  9
$DIMTAD
 70
     0
  9
$DIMZIN
 70
     0
  9
$DIMBLK
  1

  9
$DIMASO
 70
     1
  9
$DIMSHO
 70
     1
  9
$DIMPOST
  1

  9
$DIMAPOST
  1

  9
$DIMALT
 70
     0
  9
$DIMALTD
 70
     2
  9
$DIMALTF
 40
25.4
  9
$DIMLFAC
 40
1.0
  9
$DIMTOFL
 70
     0
  9
$DIMTVP
 40
0.0
  9
$DIMTIX
 70
     0
  9
$DIMSOXD
 70
     0
  9
$DIMSAH
 70
     0
  9
$DIMBLK1
  1

  9
$DIMBLK2
  1

  9
$DIMSTYLE
  2
STANDARD
  9
$DIMCLRD
 70
     0
  9
$DIMCLRE
 70
     0
  9
$DIMCLRT
 70
     0
  9
$DIMTFAC
 40
1.0
  9
$DIMGAP
 40
0.09
  9
$DIMJUST
 70
     0
  9
$DIMSD1
 70
     0
  9
$DIMSD2
 70
     0
  9
$DIMTOLJ
 70
     1
  9
$DIMTZIN
 70
     0
  9
$DIMALTZ
 70
     0
  9
$DIMALTTZ
 70
     0
  9
$DIMFIT
 70
     3
  9
$DIMUPT
 70
     0
  9
$DIMUNIT
 70
     2
  9
$DIMDEC
 70
     4
  9
$DIMTDEC
 70
     4
  9
$DIMALTU
 70
     2
  9
$DIMALTTD
 70
     2
  9
$DIMTXSTY
  7
STANDARD
  9
$DIMAUNIT
 70
     0
  9
$LUNITS
 70
     2
  9
$LUPREC
 70
     4
  9
$SKETCHINC
 40
0.1
  9
$FILLETRAD
 40
0.0
  9
$AUNITS
 70
     0
  9
$AUPREC
 70
     0
  9
$MENU
  1
acad
  9
$ELEVATION
 40
0.0
  9
$PELEVATION
 40
0.0
  9
$THICKNESS
 40
0.0
  9
$LIMCHECK
 70
     0
  9
$BLIPMODE
 70
     1
  9
$CHAMFERA
 40
0.0
  9
$CHAMFERB
 40
0.0
  9
$CHAMFERC
 40
0.0
  9
$CHAMFERD
 40
0.0
  9
$SKPOLY
 70
     0
  9
$TDCREATE
 40
2455283.389815741
  9
$TDUPDATE
 40
2455283.389815741
  9
$TDINDWG
 40
0.0000000000
  9
$TDUSRTIMER
 40
0.0000000000
  9
$USRTIMER
 70
     1
  9
$ANGBASE
 50
0.0
  9
$ANGDIR
 70
     0
  9
$PDMODE
 70
     0
  9
$PDSIZE
 40
0.0
  9
$PLINEWID
 40
0.0
  9
$COORDS
 70
     1
  9
$SPLFRAME
 70
     0
  9
$SPLINETYPE
 70
     6
  9
$SPLINESEGS
 70
     8
  9
$ATTDIA
 70
     0
  9
$ATTREQ
 70
     1
  9
$HANDLING
 70
     1
  9
$HANDSEED
  5
9DE
  9
$SURFTAB1
 70
     6
  9
$SURFTAB2
 70
     6
  9
$SURFTYPE
 70
     6
  9
$SURFU
 70
     6
  9
$SURFV
 70
     6
  9
$UCSNAME
  2

  9
$UCSORG
 10
0.0
 20
0.0
 30
0.0
  9
$UCSXDIR
 10
1.0
 20
0.0
 30
0.0
  9
$UCSYDIR
 10
0.0
 20
1.0
 30
0.0
  9
$PUCSNAME
  2

  9
$PUCSORG
 10
0.0
 20
0.0
 30
0.0
  9
$PUCSXDIR
 10
1.0
 20
0.0
 30
0.0
  9
$PUCSYDIR
 10
0.0
 20
1.0
 30
0.0
  9
$USERI1
 70
     0
  9
$USERI2
 70
     0
  9
$USERI3
 70
     0
  9
$USERI4
 70
     0
  9
$USERI5
 70
     0
  9
$USERR1
 40
0.0
  9
$USERR2
 40
0.0
  9
$USERR3
 40
0.0
  9
$USERR4
 40
0.0
  9
$USERR5
 40
0.0
  9
$WORLDVIEW
 70
     1
  9
$SHADEDGE
 70
     3
  9
$SHADEDIF
 70
    70
  9
$TILEMODE
 70
     1
  9
$MAXACTVP
 70
    16
  9
$PINSBASE
 10
0.0
 20
0.0
 30
0.0
  9
$PLIMCHECK
 70
     0
  9
$PEXTMIN
 10
1.000000E+20
 20
1.000000E+20
 30
1.000000E+20
  9
$PEXTMAX
 10
-1.000000E+20
 20
-1.000000E+20
 30
-1.000000E+20
  9
$PLIMMIN
 10
0.0
 20
0.0
  9
$PLIMMAX
 10
12.0
 20
9.0
  9
$UNITMODE
 70
     0
  9
$VISRETAIN
 70
     0
  9
$PLINEGEN
 70
     1
  9
$PSLTSCALE
 70
     0
  9
$TREEDEPTH
 70
  3020
  9
$PICKSTYLE
 70
     1
  9
$CMLSTYLE
  2
Standard
  9
$CMLJUST
 70
     0
  9
$CMLSCALE
 40
1.0
  9
$PROXYGRAPHICS
 70
     0
  9
$MEASUREMENT
 70
     0
  0
ENDSEC
  0
SECTION
  2
CLASSES
  0
CLASS
  1
LWPOLYLINE
  2
AcDbPolyline
  3
"AutoCAD"
 90
        0
280
     0
281
     1
  0
CLASS
  1
IMAGE
  2
AcDbRasterImage
  3
ISM
 90
      127
280
     0
281
     1
  0
CLASS
  1
OLE2FRAME
  2
AcDbOle2Frame
  3
""
 90
        0
280
     0
281
     1
  0
CLASS
  1
HATCH
  2
AcDbHatch
  3
"ACAD_SEDONA"
 90
        0
280
     0
281
     1
  0
CLASS
  1
DICTIONARYVAR
  2
AcDbDictionaryVar
  3
"AutoCAD"
 90
        0
280
     0
281
     0
  0
CLASS
  1
RASTERVARIABLES
  2
AcDbRasterVariables
  3
ISM
 90
        0
280
     0
281
     0
  0
CLASS
  1
IMAGEDEF
  2
AcDbRasterImageDef
  3
ISM
 90
        0
280
     0
281
     0
  0
CLASS
  1
IMAGEDEF_REACTOR
  2
AcDbRasterImageDefReactor
  3
ISM
 90
        1
280
     0
281
     0
  0
CLASS
  1
IDBUFFER
  2
AcDbIdBuffer
  3
"Acad"
 90
        0
280
     0
281
     0
  0
CLASS
  1
SPATIAL_FILTER
  2
AcDbSpatialFilter
  3
"Acad"
 90
        0
280
     0
281
     0
  0
CLASS
  1
XRECORD
  2
AcDbXrecord
  3
"<Built In>"
 90
        0
280
     0
281
     0
  0
CLASS
  1
SORTENTSTABLE
  2
AcDbSortentsTable
  3
"AutoCAD"
 90
        0
280
     0
281
     0
  0
CLASS
  1
LAYER_INDEX
  2
AcDbLayerIndex
  3
"Acad"
 90
        0
280
     0
281
     0
  0
CLASS
  1
SPATIAL_INDEX
  2
AcDbSpatialIndex
  3
"Acad"
 90
        0
280
     0
281
     0
  0
CLASS
  1
OBJECT_PTR
  2
CAseDLPNTableRecord
  3
"ASE-LPNTableRecord"
 90
        1
280
     0
281
     0
  0
CLASS
  1
LAYOUT
  2
AcDbLayout
  3
"AutoCAD 2000"
 90
        1
280
     0
281
     0
  0
CLASS
  1
PLOTSETTINGS
  2
AcDbPlotSettings
  3
"AutoCAD 2000"
 90
        1
280
     0
281
     0
  0
CLASS
  1
ACDBDICTIONARYWDFLT
  2
AcDbDictionaryWithDefault
  3
"AutoCAD 2000"
 90
        1
280
     0
281
     0
  0
CLASS
  1
ACDBPLACEHOLDER
  2
AcDbPlaceHolder
  3
"AutoCAD 2000"
 90
        1
280
     0
281
     0
  0
CLASS
  1
VBA_PROJECT
  2
AcDbVbaProject
  3
"acadvba"
 90
        1
280
     0
281
     0
  0
CLASS
  1
WIPEOUT
  2
AcDbWipeout
  3
WipeOut|AutoCAD Express Tool|expresstools@autodesk.com
 90
      127
280
     0
281
     1
  0
CLASS
  1
WIPEOUTVARIABLES
  2
AcDbWipeoutVariables
  3
WipeOut|AutoCAD Express Tool|expresstools@autodesk.com
 90
        0
280
     0
281
     0
  0
CLASS
  1
RTEXT
  2
RText
  3
RText|AutoCAD Express Tool|expresstools@autodesk.com
 90
        0
280
     0
281
     1
  0
CLASS
  1
ARCALIGNEDTEXT
  2
AcDbArcAlignedText
  3
ATEXT|AutoCAD Express Tool|expresstools@autodesk.com
 90
        0
280
     0
281
     1
  0
ENDSEC
  0
SECTION
  2
TABLES
  0
TABLE
  2
VPORT
  5
7
100
AcDbSymbolTable
 70
     1
  0
VPORT
  5
15
100
AcDbSymbolTableRecord
100
AcDbViewportTableRecord
  2
*ACTIVE
 70
     0
 10
0.0
 20
0.0
 11
1.0
 21
1.0
 12
980.0
 22
1485.0
 13
0.0
 23
0.0
 14
1.0
 24
1.0
 15
0.0
 25
0.0
 16
0.0
 26
0.0
 36
1.0
 17
0.0
 27
0.0
 37
0.0
 40
2800.0
 41
1.722533
 42
50.0
 43
0.0
 44
0.0
 50
0.0
 51
0.0
 71
     0
 72
   100
 73
     1
 74
     1
 75
     0
 76
     0
 77
     0
 78
     0
  0
ENDTAB
  0
TABLE
  2
LTYPE
  5
4
100
AcDbSymbolTable
 70
    14
  0
LTYPE
  5
11
100
AcDbSymbolTableRecord
100
AcDbLinetypeTableRecord
  2
BYBLOCK
 70
    64
  3

 72
    65
 73
     0
 40
0.0
  0
LTYPE
  5
12
100
AcDbSymbolTableRecord
100
AcDbLinetypeTableRecord
  2
BYLAYER
 70
    64
  3

 72
    65
 73
     0
 40
0.0
  0
LTYPE
  5
13
100
AcDbSymbolTableRecord
100
AcDbLinetypeTableRecord
  2
CONTINUOUS
 70
    64
  3
実線
 72
    65
 73
     0
 40
0.0
  0
LTYPE
  5
1D
100
AcDbSymbolTableRecord
100
AcDbLinetypeTableRecord
  2
EXLTYPE1
 70
    64
  3
破線
 72
    65
 73
     2
 40
3.0
 49
2.0
 74
     0
 49
-1.0
 74
     0
  0
LTYPE
  5
1E
100
AcDbSymbolTableRecord
100
AcDbLinetypeTableRecord
  2
EXLTYPE2
 70
    64
  3
点線
 72
    65
 73
     2
 40
2.0
 49
1.0
 74
     0
 49
-1.0
 74
     0
  0
LTYPE
  5
1F
100
AcDbSymbolTableRecord
100
AcDbLinetypeTableRecord
  2
EXLTYPE3
 70
    64
  3
一点鎖線
 72
    65
 73
     4
 40
10.0
 49
7.0
 74
     0
 49
-1.0
 74
     0
 49
1.0
 74
     0
 49
-1.0
 74
     0
  0
LTYPE
  5
20
100
AcDbSymbolTableRecord
100
AcDbLinetypeTableRecord
  2
EXLTYPE4
 70
    64
  3
二点鎖線
 72
    65
 73
     6
 40
12.0
 49
7.0
 74
     0
 49
-1.0
 74
     0
 49
1.0
 74
     0
 49
-1.0
 74
     0
 49
1.0
 74
     0
 49
-1.0
 74
     0
  0
LTYPE
  5
21
100
AcDbSymbolTableRecord
100
AcDbLinetypeTableRecord
  2
EXLTYPE5
 70
    64
  3
三点鎖線
 72
    65
 73
     8
 40
37.0
 49
30.0
 74
     0
 49
-1.0
 74
     0
 49
1.0
 74
     0
 49
-1.0
 74
     0
 49
1.0
 74
     0
 49
-1.0
 74
     0
 49
1.0
 74
     0
 49
-1.0
 74
     0
  0
LTYPE
  5
22
100
AcDbSymbolTableRecord
100
AcDbLinetypeTableRecord
  2
EXLTYPE6
 70
    64
  3
四点鎖線
 72
    65
 73
    10
 40
39.0
 49
30.0
 74
     0
 49
-1.0
 74
     0
 49
1.0
 74
     0
 49
-1.0
 74
     0
 49
1.0
 74
     0
 49
-1.0
 74
     0
 49
1.0
 74
     0
 49
-1.0
 74
     0
 49
1.0
 74
     0
 49
-1.0
 74
     0
  0
LTYPE
  5
23
100
AcDbSymbolTableRecord
100
AcDbLinetypeTableRecord
  2
EXLTYPE7
 70
    64
  3
二点鎖線3
 72
    65
 73
     6
 40
1.25
 49
0.625
 74
     0
 49
-0.125
 74
     0
 49
0.125
 74
     0
 49
-0.125
 74
     0
 49
0.125
 74
     0
 49
-0.125
 74
     0
  0
LTYPE
  5
24
100
AcDbSymbolTableRecord
100
AcDbLinetypeTableRecord
  2
EXLTYPE8
 70
    64
  3
破線3
 72
    65
 73
     2
 40
0.375
 49
0.25
 74
     0
 49
-0.125
 74
     0
  0
LTYPE
  5
25
100
AcDbSymbolTableRecord
100
AcDbLinetypeTableRecord
  2
EXLTYPE9
 70
    64
  3
破線2
 72
    65
 73
     2
 40
2.0
 49
1.0
 74
     0
 49
-1.0
 74
     0
  0
LTYPE
  5
26
100
AcDbSymbolTableRecord
100
AcDbLinetypeTableRecord
  2
EXLTYPE10
 70
    64
  3
一点鎖線3
 72
    65
 73
     4
 40
28.575
 49
19.05
 74
     0
 49
-3.175
 74
     0
 49
3.175
 74
     0
 49
-3.175
 74
     0
  0
LTYPE
  5
27
100
AcDbSymbolTableRecord
100
AcDbLinetypeTableRecord
  2
EXLTYPE11
 70
    64
  3
一点鎖線2
 72
    65
 73
     4
 40
1.25
 49
0.5
 74
     0
 49
-0.25
 74
     0
 49
0.25
 74
     0
 49
-0.25
 74
     0
  0
ENDTAB
  0
TABLE
  2
LAYER
  5
2
100
AcDbSymbolTable
 70
     9
  0
LAYER
  5
14
100
AcDbSymbolTableRecord
100
AcDbLayerTableRecord
  2
0
 70
     0
 62
     7
  6
CONTINUOUS
  0
LAYER
  5
2A
100
AcDbSymbolTableRecord
100
AcDbLayerTableRecord
  2
枠
 70
    64
 62
     7
  6
CONTINUOUS
  0
LAYER
  5
2B
100
AcDbSymbolTableRecord
100
AcDbLayerTableRecord
  2
便器
 70
    64
 62
     7
  6
CONTINUOUS
  0
LAYER
  5
2C
100
AcDbSymbolTableRecord
100
AcDbLayerTableRecord
  2
タンク
 70
    64
 62
     7
  6
CONTINUOUS
  0
LAYER
  5
2D
100
AcDbSymbolTableRecord
100
AcDbLayerTableRecord
  2
止水栓
 70
    64
 62
     7
  6
CONTINUOUS
  0
LAYER
  5
2E
100
AcDbSymbolTableRecord
100
AcDbLayerTableRecord
  2
便座
 70
    64
 62
     7
  6
CONTINUOUS
  0
LAYER
  5
2F
100
AcDbSymbolTableRecord
100
AcDbLayerTableRecord
  2
紙巻器
 70
    64
 62
     7
  6
CONTINUOUS
  0
LAYER
  5
30
100
AcDbSymbolTableRecord
100
AcDbLayerTableRecord
  2
寸法
 70
    64
 62
     7
  6
CONTINUOUS
  0
LAYER
  5
31
100
AcDbSymbolTableRecord
100
AcDbLayerTableRecord
  2
器具明細表
 70
    64
 62
     7
  6
CONTINUOUS
  0
ENDTAB
  0
TABLE
  2
STYLE
  5
3
100
AcDbSymbolTable
 70
     6
  0
STYLE
  5
17
100
AcDbSymbolTableRecord
100
AcDbTextStyleTableRecord
  2
STANDARD
 70
     0
 40
0.0
 41
1.0
 50
0.0
 71
     0
 42
0.0
  3
monotxt
  4
extfont
  0
STYLE
  5
28
100
AcDbSymbolTableRecord
100
AcDbTextStyleTableRecord
  2
EXCADSTD
 70
    64
 40
0.0
 41
1.0
 50
0.0
 71
     0
 42
0.2
  3
monotxt
  4
extfont
  0
STYLE
  5
29
100
AcDbSymbolTableRecord
100
AcDbTextStyleTableRecord
  2
EXCADVERT
 70
    68
 40
0.0
 41
1.0
 50
0.0
 71
     0
 42
0.286885
  3
monotxt
  4
extfont
  0
STYLE
  5
B5
100
AcDbSymbolTableRecord
100
AcDbTextStyleTableRecord
  2
EXCADTTF1
 70
    64
 40
0.0
 41
1.0
 50
0.0
 71
     0
 42
0.2
  3
MS Gothic.ttf
  4

1001
ACAD
1000
MS Gothic
1071
    32817
  0
STYLE
  5
D3
100
AcDbSymbolTableRecord
100
AcDbTextStyleTableRecord
  2
EXCADDIM1
 70
    64
 40
0.0
 41
0.95
 50
0.0
 71
     0
 42
0.2
  3
monotxt
  4
extfont
  0
STYLE
  5
927
100
AcDbSymbolTableRecord
100
AcDbTextStyleTableRecord
  2
EXCADDIM2
 70
    64
 40
0.0
 41
0.84
 50
0.0
 71
     0
 42
0.2
  3
monotxt
  4
extfont
  0
ENDTAB
  0
TABLE
  2
VIEW
  5
5
100
AcDbSymbolTable
 70
     0
  0
ENDTAB
  0
TABLE
  2
UCS
  5
6
100
AcDbSymbolTable
 70
     0
  0
ENDTAB
  0
TABLE
  2
APPID
  5
8
100
AcDbSymbolTable
 70
     1
  0
APPID
  5
16
100
AcDbSymbolTableRecord
100
AcDbRegAppTableRecord
  2
ACAD
 70
     0
  0
ENDTAB
  0
TABLE
  2
DIMSTYLE
  5
9
100
AcDbSymbolTable
 70
     1
  0
DIMSTYLE
105
18
100
AcDbSymbolTableRecord
100
AcDbDimStyleTableRecord
  2
STANDARD
 70
     0
  3

  4

  5

  6

  7

 40
1.0
 41
0.18
 42
0.0625
 43
0.38
 44
0.18
 45
0.0
 46
0.0
 47
0.0
 48
0.0
 71
     0
 72
     0
 73
     1
 74
     1
 75
     0
 76
     0
 77
     0
 78
     0
140
0.18
141
0.09
142
0.0
143
25.4
144
1.0
145
0.0
146
1.0
147
0.09
170
     0
171
     2
172
     1
173
     0
174
     0
175
     0
176
     0
177
     0
178
     0
270
     2
271
     4
272
     4
273
     2
274
     2
275
     0
280
     0
281
     0
282
     0
283
     1
284
     0
285
     0
286
     0
287
     0
288
     0
340
17
  0
ENDTAB
  0
TABLE
  2
BLOCK_RECORD
  5
1
100
AcDbSymbolTable
 70
    30
  0
BLOCK_RECORD
  5
A
100
AcDbSymbolTableRecord
100
AcDbBlockTableRecord
  2
*MODEL_SPACE
  0
BLOCK_RECORD
  5
B
100
AcDbSymbolTableRecord
100
AcDbBlockTableRecord
  2
*PAPER_SPACE
  0
BLOCK_RECORD
  5
32
100
AcDbSymbolTableRecord
100
AcDbBlockTableRecord
  2
_EX_NORM
  0
BLOCK_RECORD
  5
33
100
AcDbSymbolTableRecord
100
AcDbBlockTableRecord
  2
_EX_BNORM
  0
BLOCK_RECORD
  5
34
100
AcDbSymbolTableRecord
100
AcDbBlockTableRecord
  2
_EX_BCIR
  0
BLOCK_RECORD
  5
35
100
AcDbSymbolTableRecord
100
AcDbBlockTableRecord
  2
_EX_RCIVIL
  0
BLOCK_RECORD
  5
36
100
AcDbSymbolTableRecord
100
AcDbBlockTableRecord
  2
_EX_SLANT
  0
BLOCK_RECORD
  5
37
100
AcDbSymbolTableRecord
100
AcDbBlockTableRecord
  2
_EX_NONE
  0
BLOCK_RECORD
  5
38
100
AcDbSymbolTableRecord
100
AcDbBlockTableRecord
  2
_EX_CIVIL
  0
BLOCK_RECORD
  5
39
100
AcDbSymbolTableRecord
100
AcDbBlockTableRecord
  2
_EX_WCIR
  0
BLOCK_RECORD
  5
3A
100
AcDbSymbolTableRecord
100
AcDbBlockTableRecord
  2
_EX_WCIR2
  0
BLOCK_RECORD
  5
3B
100
AcDbSymbolTableRecord
100
AcDbBlockTableRecord
  2
_EX_WNORM
  0
BLOCK_RECORD
  5
3C
100
AcDbSymbolTableRecord
100
AcDbBlockTableRecord
  2
_EX_NNORM
  0
BLOCK_RECORD
  5
3D
100
AcDbSymbolTableRecord
100
AcDbBlockTableRecord
  2
_EX_BBOX
  0
BLOCK_RECORD
  5
3E
100
AcDbSymbolTableRecord
100
AcDbBlockTableRecord
  2
_EX_WBOX
  0
BLOCK_RECORD
  5
3F
100
AcDbSymbolTableRecord
100
AcDbBlockTableRecord
  2
_EX_INTEGRAL
  0
BLOCK_RECORD
  5
C8
100
AcDbSymbolTableRecord
100
AcDbBlockTableRecord
  2
*D14
  0
BLOCK_RECORD
  5
8FC
100
AcDbSymbolTableRecord
100
AcDbBlockTableRecord
  2
*D15
  0
BLOCK_RECORD
  5
907
100
AcDbSymbolTableRecord
100
AcDbBlockTableRecord
  2
*D16
  0
BLOCK_RECORD
  5
913
100
AcDbSymbolTableRecord
100
AcDbBlockTableRecord
  2
*D17
  0
BLOCK_RECORD
  5
91D
100
AcDbSymbolTableRecord
100
AcDbBlockTableRecord
  2
*D18
  0
BLOCK_RECORD
  5
929
100
AcDbSymbolTableRecord
100
AcDbBlockTableRecord
  2
*D19
  0
BLOCK_RECORD
  5
93A
100
AcDbSymbolTableRecord
100
AcDbBlockTableRecord
  2
*D20
  0
BLOCK_RECORD
  5
946
100
AcDbSymbolTableRecord
100
AcDbBlockTableRecord
  2
*D21
  0
BLOCK_RECORD
  5
952
100
AcDbSymbolTableRecord
100
AcDbBlockTableRecord
  2
*D22
  0
BLOCK_RECORD
  5
95D
100
AcDbSymbolTableRecord
100
AcDbBlockTableRecord
  2
*D23
  0
BLOCK_RECORD
  5
969
100
AcDbSymbolTableRecord
100
AcDbBlockTableRecord
  2
*D24
  0
BLOCK_RECORD
  5
975
100
AcDbSymbolTableRecord
100
AcDbBlockTableRecord
  2
*D25
  0
BLOCK_RECORD
  5
980
100
AcDbSymbolTableRecord
100
AcDbBlockTableRecord
  2
*D26
  0
BLOCK_RECORD
  5
98C
100
AcDbSymbolTableRecord
100
AcDbBlockTableRecord
  2
*D27
  0
BLOCK_RECORD
  5
998
100
AcDbSymbolTableRecord
100
AcDbBlockTableRecord
  2
*D28
  0
BLOCK_RECORD
  5
9A4
100
AcDbSymbolTableRecord
100
AcDbBlockTableRecord
  2
*D29
  0
ENDTAB
  0
ENDSEC
  0
SECTION
  2
BLOCKS
  0
BLOCK
  5
D
100
AcDbEntity
  8
0
100
AcDbBlockBegin
  2
*MODEL_SPACE
 70
     0
 10
0.0
 20
0.0
 30
0.0
  3
*MODEL_SPACE
  1

  0
ENDBLK
  5
E
100
AcDbEntity
  8
0
100
AcDbBlockEnd
  0
BLOCK
  5
F
100
AcDbEntity
 67
     1
  8
0
100
AcDbBlockBegin
  2
*PAPER_SPACE
 70
     0
 10
0.0
 20
0.0
 30
0.0
  3
*PAPER_SPACE
  1

  0
ENDBLK
  5
10
100
AcDbEntity
 67
     1
  8
0
100
AcDbBlockEnd
  0
BLOCK
  5
40
100
AcDbEntity
  8
0
100
AcDbBlockBegin
  2
_EX_NORM
 70
     0
 10
0.0
 20
0.0
 30
0.0
  3
_EX_NORM
  1

  0
LINE
  5
41
100
AcDbEntity
  8
0
  6
CONTINUOUS
 62
     0
100
AcDbLine
 10
0.0
 20
0.0
 30
0.0
 11
-1.0
 21
0.0
 31
0.0
  0
LINE
  5
42
100
AcDbEntity
  8
0
  6
CONTINUOUS
 62
     0
100
AcDbLine
 10
0.0
 20
0.0
 30
0.0
 11
-1.0
 21
0.166667
 31
0.0
  0
LINE
  5
43
100
AcDbEntity
  8
0
  6
CONTINUOUS
 62
     0
100
AcDbLine
 10
0.0
 20
0.0
 30
0.0
 11
-1.0
 21
-0.166667
 31
0.0
  0
ENDBLK
  5
44
100
AcDbEntity
  8
0
100
AcDbBlockEnd
  0
BLOCK
  5
45
100
AcDbEntity
  8
0
100
AcDbBlockBegin
  2
_EX_BNORM
 70
     0
 10
0.0
 20
0.0
 30
0.0
  3
_EX_BNORM
  1

  0
LINE
  5
46
100
AcDbEntity
  8
0
  6
CONTINUOUS
 62
     0
100
AcDbLine
 10
0.0
 20
0.0
 30
0.0
 11
-1.0
 21
0.0
 31
0.0
  0
LINE
  5
47
100
AcDbEntity
  8
0
  6
CONTINUOUS
 62
     0
100
AcDbLine
 10
0.0
 20
0.0
 30
0.0
 11
-1.0
 21
0.166667
 31
0.0
  0
LINE
  5
48
100
AcDbEntity
  8
0
  6
CONTINUOUS
 62
     0
100
AcDbLine
 10
0.0
 20
0.0
 30
0.0
 11
-1.0
 21
-0.166667
 31
0.0
  0
LINE
  5
49
100
AcDbEntity
  8
0
  6
CONTINUOUS
 62
     0
100
AcDbLine
 10
0.0
 20
0.0
 30
0.0
 11
-1.0
 21
0.083333
 31
0.0
  0
LINE
  5
4A
100
AcDbEntity
  8
0
  6
CONTINUOUS
 62
     0
100
AcDbLine
 10
0.0
 20
0.0
 30
0.0
 11
-1.0
 21
-0.083333
 31
0.0
  0
LINE
  5
4B
100
AcDbEntity
  8
0
  6
CONTINUOUS
 62
     0
100
AcDbLine
 10
-1.0
 20
0.166667
 30
0.0
 11
-1.0
 21
-0.166667
 31
0.0
  0
ENDBLK
  5
4C
100
AcDbEntity
  8
0
100
AcDbBlockEnd
  0
BLOCK
  5
4D
100
AcDbEntity
  8
0
100
AcDbBlockBegin
  2
_EX_BCIR
 70
     0
 10
0.0
 20
0.0
 30
0.0
  3
_EX_BCIR
  1

  0
LINE
  5
4E
100
AcDbEntity
  8
0
  6
CONTINUOUS
 62
     0
100
AcDbLine
 10
0.0
 20
0.0
 30
0.0
 11
-1.0
 21
0.0
 31
0.0
  0
CIRCLE
  5
4F
100
AcDbEntity
  8
0
  6
CONTINUOUS
 62
     0
100
AcDbCircle
 10
0.0
 20
0.0
 30
0.0
 40
0.5
  0
CIRCLE
  5
50
100
AcDbEntity
  8
0
  6
CONTINUOUS
 62
     0
100
AcDbCircle
 10
0.0
 20
0.0
 30
0.0
 40
0.25
  0
ENDBLK
  5
51
100
AcDbEntity
  8
0
100
AcDbBlockEnd
  0
BLOCK
  5
52
100
AcDbEntity
  8
0
100
AcDbBlockBegin
  2
_EX_RCIVIL
 70
     0
 10
0.0
 20
0.0
 30
0.0
  3
_EX_RCIVIL
  1

  0
LINE
  5
53
100
AcDbEntity
  8
0
  6
CONTINUOUS
 62
     0
100
AcDbLine
 10
0.0
 20
0.0
 30
0.0
 11
-1.0
 21
0.0
 31
0.0
  0
LINE
  5
54
100
AcDbEntity
  8
0
  6
CONTINUOUS
 62
     0
100
AcDbLine
 10
-1.0
 20
-0.25
 30
0.0
 11
0.0
 21
-0.25
 31
0.0
  0
LINE
  5
55
100
AcDbEntity
  8
0
  6
CONTINUOUS
 62
     0
100
AcDbLine
 10
-1.0
 20
-0.125
 30
0.0
 11
0.0
 21
-0.125
 31
0.0
  0
ENDBLK
  5
56
100
AcDbEntity
  8
0
100
AcDbBlockEnd
  0
BLOCK
  5
57
100
AcDbEntity
  8
0
100
AcDbBlockBegin
  2
_EX_SLANT
 70
     0
 10
0.0
 20
0.0
 30
0.0
  3
_EX_SLANT
  1

  0
LINE
  5
58
100
AcDbEntity
  8
0
  6
CONTINUOUS
 62
     0
100
AcDbLine
 10
0.0
 20
0.0
 30
0.0
 11
-1.0
 21
0.0
 31
0.0
  0
LINE
  5
59
100
AcDbEntity
  8
0
  6
CONTINUOUS
 62
     0
100
AcDbLine
 10
0.707107
 20
0.707107
 30
0.0
 11
-0.707107
 21
-0.707107
 31
0.0
  0
ENDBLK
  5
5A
100
AcDbEntity
  8
0
100
AcDbBlockEnd
  0
BLOCK
  5
5B
100
AcDbEntity
  8
0
100
AcDbBlockBegin
  2
_EX_NONE
 70
     0
 10
0.0
 20
0.0
 30
0.0
  3
_EX_NONE
  1

  0
LINE
  5
5C
100
AcDbEntity
  8
0
  6
CONTINUOUS
 62
     0
100
AcDbLine
 10
0.0
 20
0.0
 30
0.0
 11
-1.0
 21
0.0
 31
0.0
  0
ENDBLK
  5
5D
100
AcDbEntity
  8
0
100
AcDbBlockEnd
  0
BLOCK
  5
5E
100
AcDbEntity
  8
0
100
AcDbBlockBegin
  2
_EX_CIVIL
 70
     0
 10
0.0
 20
0.0
 30
0.0
  3
_EX_CIVIL
  1

  0
LINE
  5
5F
100
AcDbEntity
  8
0
  6
CONTINUOUS
 62
     0
100
AcDbLine
 10
0.0
 20
0.0
 30
0.0
 11
-1.0
 21
0.0
 31
0.0
  0
LINE
  5
60
100
AcDbEntity
  8
0
  6
CONTINUOUS
 62
     0
100
AcDbLine
 10
-1.0
 20
0.25
 30
0.0
 11
0.0
 21
0.25
 31
0.0
  0
LINE
  5
61
100
AcDbEntity
  8
0
  6
CONTINUOUS
 62
     0
100
AcDbLine
 10
-1.0
 20
0.125
 30
0.0
 11
0.0
 21
0.125
 31
0.0
  0
ENDBLK
  5
62
100
AcDbEntity
  8
0
100
AcDbBlockEnd
  0
BLOCK
  5
63
100
AcDbEntity
  8
0
100
AcDbBlockBegin
  2
_EX_WCIR
 70
     0
 10
0.0
 20
0.0
 30
0.0
  3
_EX_WCIR
  1

  0
LINE
  5
64
100
AcDbEntity
  8
0
  6
CONTINUOUS
 62
     0
100
AcDbLine
 10
0.0
 20
0.0
 30
0.0
 11
-1.0
 21
0.0
 31
0.0
  0
CIRCLE
  5
65
100
AcDbEntity
  8
0
  6
CONTINUOUS
 62
     0
100
AcDbCircle
 10
0.0
 20
0.0
 30
0.0
 40
0.5
  0
ENDBLK
  5
66
100
AcDbEntity
  8
0
100
AcDbBlockEnd
  0
BLOCK
  5
67
100
AcDbEntity
  8
0
100
AcDbBlockBegin
  2
_EX_WCIR2
 70
     0
 10
0.0
 20
0.0
 30
0.0
  3
_EX_WCIR2
  1

  0
LINE
  5
68
100
AcDbEntity
  8
0
  6
CONTINUOUS
 62
     0
100
AcDbLine
 10
-0.5
 20
0.0
 30
0.0
 11
-1.0
 21
0.0
 31
0.0
  0
CIRCLE
  5
69
100
AcDbEntity
  8
0
  6
CONTINUOUS
 62
     0
100
AcDbCircle
 10
0.0
 20
0.0
 30
0.0
 40
0.5
  0
ENDBLK
  5
6A
100
AcDbEntity
  8
0
100
AcDbBlockEnd
  0
BLOCK
  5
6B
100
AcDbEntity
  8
0
100
AcDbBlockBegin
  2
_EX_WNORM
 70
     0
 10
0.0
 20
0.0
 30
0.0
  3
_EX_WNORM
  1

  0
LINE
  5
6C
100
AcDbEntity
  8
0
  6
CONTINUOUS
 62
     0
100
AcDbLine
 10
-1.0
 20
0.0
 30
0.0
 11
-1.0
 21
0.0
 31
0.0
  0
LINE
  5
6D
100
AcDbEntity
  8
0
  6
CONTINUOUS
 62
     0
100
AcDbLine
 10
0.0
 20
0.0
 30
0.0
 11
-1.0
 21
0.166667
 31
0.0
  0
LINE
  5
6E
100
AcDbEntity
  8
0
  6
CONTINUOUS
 62
     0
100
AcDbLine
 10
0.0
 20
0.0
 30
0.0
 11
-1.0
 21
-0.166667
 31
0.0
  0
LINE
  5
6F
100
AcDbEntity
  8
0
  6
CONTINUOUS
 62
     0
100
AcDbLine
 10
-1.0
 20
0.166667
 30
0.0
 11
-1.0
 21
-0.166667
 31
0.0
  0
ENDBLK
  5
70
100
AcDbEntity
  8
0
100
AcDbBlockEnd
  0
BLOCK
  5
71
100
AcDbEntity
  8
0
100
AcDbBlockBegin
  2
_EX_NNORM
 70
     0
 10
0.0
 20
0.0
 30
0.0
  3
_EX_NNORM
  1

  0
LINE
  5
72
100
AcDbEntity
  8
0
  6
CONTINUOUS
 62
     0
100
AcDbLine
 10
0.0
 20
0.0
 30
0.0
 11
-1.0
 21
0.0
 31
0.0
  0
LINE
  5
73
100
AcDbEntity
  8
0
  6
CONTINUOUS
 62
     0
100
AcDbLine
 10
0.0
 20
0.0
 30
0.0
 11
-1.0
 21
0.166667
 31
0.0
  0
LINE
  5
74
100
AcDbEntity
  8
0
  6
CONTINUOUS
 62
     0
100
AcDbLine
 10
0.0
 20
0.0
 30
0.0
 11
-1.0
 21
-0.166667
 31
0.0
  0
LINE
  5
75
100
AcDbEntity
  8
0
  6
CONTINUOUS
 62
     0
100
AcDbLine
 10
-1.0
 20
0.166667
 30
0.0
 11
-1.0
 21
-0.166667
 31
0.0
  0
ENDBLK
  5
76
100
AcDbEntity
  8
0
100
AcDbBlockEnd
  0
BLOCK
  5
77
100
AcDbEntity
  8
0
100
AcDbBlockBegin
  2
_EX_BBOX
 70
     0
 10
0.0
 20
0.0
 30
0.0
  3
_EX_BBOX
  1

  0
LINE
  5
78
100
AcDbEntity
  8
0
  6
CONTINUOUS
 62
     0
100
AcDbLine
 10
0.0
 20
0.0
 30
0.0
 11
-1.0
 21
0.0
 31
0.0
  0
LINE
  5
79
100
AcDbEntity
  8
0
  6
CONTINUOUS
 62
     0
100
AcDbLine
 10
-0.5
 20
0.5
 30
0.0
 11
0.5
 21
0.5
 31
0.0
  0
LINE
  5
7A
100
AcDbEntity
  8
0
  6
CONTINUOUS
 62
     0
100
AcDbLine
 10
0.5
 20
0.5
 30
0.0
 11
0.5
 21
-0.5
 31
0.0
  0
LINE
  5
7B
100
AcDbEntity
  8
0
  6
CONTINUOUS
 62
     0
100
AcDbLine
 10
0.5
 20
-0.5
 30
0.0
 11
-0.5
 21
-0.5
 31
0.0
  0
LINE
  5
7C
100
AcDbEntity
  8
0
  6
CONTINUOUS
 62
     0
100
AcDbLine
 10
-0.5
 20
-0.5
 30
0.0
 11
-0.5
 21
0.5
 31
0.0
  0
LINE
  5
7D
100
AcDbEntity
  8
0
  6
CONTINUOUS
 62
     0
100
AcDbLine
 10
-0.25
 20
0.25
 30
0.0
 11
0.25
 21
0.25
 31
0.0
  0
LINE
  5
7E
100
AcDbEntity
  8
0
  6
CONTINUOUS
 62
     0
100
AcDbLine
 10
0.25
 20
0.25
 30
0.0
 11
0.25
 21
-0.25
 31
0.0
  0
LINE
  5
7F
100
AcDbEntity
  8
0
  6
CONTINUOUS
 62
     0
100
AcDbLine
 10
0.25
 20
-0.25
 30
0.0
 11
-0.25
 21
-0.25
 31
0.0
  0
LINE
  5
80
100
AcDbEntity
  8
0
  6
CONTINUOUS
 62
     0
100
AcDbLine
 10
-0.25
 20
-0.25
 30
0.0
 11
-0.25
 21
0.25
 31
0.0
  0
ENDBLK
  5
81
100
AcDbEntity
  8
0
100
AcDbBlockEnd
  0
BLOCK
  5
82
100
AcDbEntity
  8
0
100
AcDbBlockBegin
  2
_EX_WBOX
 70
     0
 10
0.0
 20
0.0
 30
0.0
  3
_EX_WBOX
  1

  0
LINE
  5
83
100
AcDbEntity
  8
0
  6
CONTINUOUS
 62
     0
100
AcDbLine
 10
-0.5
 20
0.0
 30
0.0
 11
-1.0
 21
0.0
 31
0.0
  0
LINE
  5
84
100
AcDbEntity
  8
0
  6
CONTINUOUS
 62
     0
100
AcDbLine
 10
-0.5
 20
0.5
 30
0.0
 11
0.5
 21
0.5
 31
0.0
  0
LINE
  5
85
100
AcDbEntity
  8
0
  6
CONTINUOUS
 62
     0
100
AcDbLine
 10
0.5
 20
0.5
 30
0.0
 11
0.5
 21
-0.5
 31
0.0
  0
LINE
  5
86
100
AcDbEntity
  8
0
  6
CONTINUOUS
 62
     0
100
AcDbLine
 10
0.5
 20
-0.5
 30
0.0
 11
-0.5
 21
-0.5
 31
0.0
  0
LINE
  5
87
100
AcDbEntity
  8
0
  6
CONTINUOUS
 62
     0
100
AcDbLine
 10
-0.5
 20
-0.5
 30
0.0
 11
-0.5
 21
0.5
 31
0.0
  0
ENDBLK
  5
88
100
AcDbEntity
  8
0
100
AcDbBlockEnd
  0
BLOCK
  5
89
100
AcDbEntity
  8
0
100
AcDbBlockBegin
  2
_EX_INTEGRAL
 70
     0
 10
0.0
 20
0.0
 30
0.0
  3
_EX_INTEGRAL
  1

  0
LINE
  5
8A
100
AcDbEntity
  8
0
  6
CONTINUOUS
 62
     0
100
AcDbLine
 10
0.0
 20
0.0
 30
0.0
 11
-1.0
 21
0.0
 31
0.0
  0
ARC
  5
8B
100
AcDbEntity
  8
0
  6
CONTINUOUS
 62
     0
100
AcDbCircle
 10
0.542115
 20
0.164992
 30
0.0
 40
0.56667
100
AcDbArc
 50
73.07249
 51
196.927513
  0
ARC
  5
8C
100
AcDbEntity
  8
0
  6
CONTINUOUS
 62
     0
100
AcDbCircle
 10
-0.542115
 20
-0.164992
 30
0.0
 40
0.56667
100
AcDbArc
 50
253.072487
 51
16.927513
  0
ENDBLK
  5
8D
100
AcDbEntity
  8
0
100
AcDbBlockEnd
  0
BLOCK
  5
C9
100
AcDbEntity
  8
0
100
AcDbBlockBegin
  2
*D14
 70
    65
 10
0.0
 20
0.0
 30
0.0
  3
*D14
  1

  0
LINE
  5
CA
100
AcDbEntity
  8
便器
  6
CONTINUOUS
 62
     3
100
AcDbLine
 10
1148.0
 20
2704.50005
 30
0.0
 11
1148.0
 21
2349.49995
 31
0.0
  0
LINE
  5
CB
100
AcDbEntity
  8
便器
  6
CONTINUOUS
 62
     3
100
AcDbLine
 10
1153.0
 20
2674.50005
 30
0.0
 11
1148.0
 21
2704.50005
 31
0.0
  0
LINE
  5
CC
100
AcDbEntity
  8
便器
  6
CONTINUOUS
 62
     3
100
AcDbLine
 10
1148.0
 20
2704.50005
 30
0.0
 11
1143.0
 21
2674.50005
 31
0.0
  0
LINE
  5
CD
100
AcDbEntity
  8
便器
  6
CONTINUOUS
 62
     3
100
AcDbLine
 10
1143.0
 20
2379.49995
 30
0.0
 11
1148.0
 21
2349.49995
 31
0.0
  0
LINE
  5
CE
100
AcDbEntity
  8
便器
  6
CONTINUOUS
 62
     3
100
AcDbLine
 10
1148.0
 20
2349.49995
 30
0.0
 11
1153.0
 21
2379.49995
 31
0.0
  0
TEXT
  5
CF
100
AcDbEntity
  8
便器
  6
CONTINUOUS
 62
     2
100
AcDbText
 10
1144.5
 20
2478.7
 30
0.0
 40
40.0
  1
355
 50
90.0
 41
0.945
  7
EXCADSTD
 72
     1
 11
1144.5
 21
2527.0
 31
0.0
100
AcDbText
  0
LINE
  5
D0
100
AcDbEntity
  8
便器
  6
CONTINUOUS
 62
     3
100
AcDbLine
 10
779.427395
 20
2704.50005
 30
0.0
 11
1158.0
 21
2704.50005
 31
0.0
  0
LINE
  5
D1
100
AcDbEntity
  8
便器
  6
CONTINUOUS
 62
     3
100
AcDbLine
 10
779.427395
 20
2349.49995
 30
0.0
 11
1158.0
 21
2349.49995
 31
0.0
  0
ENDBLK
  5
D2
100
AcDbEntity
  8
0
100
AcDbBlockEnd
  0
BLOCK
  5
8FD
100
AcDbEntity
  8
0
100
AcDbBlockBegin
  2
*D15
 70
    65
 10
0.0
 20
0.0
 30
0.0
  3
*D15
  1

  0
LINE
  5
8FE
100
AcDbEntity
  8
寸法
  6
CONTINUOUS
 62
     3
100
AcDbLine
 10
321.493225
 20
1500.000324
 30
0.0
 11
203.0
 21
1500.000324
 31
0.0
  0
TEXT
  5
8FF
100
AcDbEntity
  8
寸法
  6
CONTINUOUS
 62
     2
100
AcDbText
 10
209.5
 20
1197.700324
 30
0.0
 40
40.0
  1
508
 50
90.0
 41
0.945
  7
EXCADSTD
 72
     1
 11
209.5
 21
1246.000324
 31
0.0
100
AcDbText
  0
LINE
  5
900
100
AcDbEntity
  8
寸法
  6
CONTINUOUS
 62
     3
100
AcDbLine
 10
213.0
 20
992.000324
 30
0.0
 11
213.0
 21
1500.000324
 31
0.0
  0
LINE
  5
901
100
AcDbEntity
  8
寸法
  6
CONTINUOUS
 62
     3
100
AcDbLine
 10
208.0
 20
1022.000324
 30
0.0
 11
213.0
 21
992.000324
 31
0.0
  0
LINE
  5
902
100
AcDbEntity
  8
寸法
  6
CONTINUOUS
 62
     3
100
AcDbLine
 10
213.0
 20
992.000324
 30
0.0
 11
218.0
 21
1022.000324
 31
0.0
  0
LINE
  5
903
100
AcDbEntity
  8
寸法
  6
CONTINUOUS
 62
     3
100
AcDbLine
 10
218.0
 20
1470.000324
 30
0.0
 11
213.0
 21
1500.000324
 31
0.0
  0
LINE
  5
904
100
AcDbEntity
  8
寸法
  6
CONTINUOUS
 62
     3
100
AcDbLine
 10
213.0
 20
1500.000324
 30
0.0
 11
208.0
 21
1470.000324
 31
0.0
  0
ENDBLK
  5
905
100
AcDbEntity
  8
0
100
AcDbBlockEnd
  0
BLOCK
  5
908
100
AcDbEntity
  8
0
100
AcDbBlockBegin
  2
*D16
 70
    65
 10
0.0
 20
0.0
 30
0.0
  3
*D16
  1

  0
LINE
  5
909
100
AcDbEntity
  8
寸法
  6
CONTINUOUS
 62
     3
100
AcDbLine
 10
321.494782
 20
1500.165791
 30
0.0
 11
321.494782
 21
1640.997776
 31
0.0
  0
LINE
  5
90A
100
AcDbEntity
  8
寸法
  6
CONTINUOUS
 62
     3
100
AcDbLine
 10
518.490513
 20
1429.000324
 30
0.0
 11
518.490513
 21
1640.997776
 31
0.0
  0
TEXT
  5
90B
100
AcDbEntity
  8
寸法
  6
CONTINUOUS
 62
     2
100
AcDbText
 10
371.692648
 20
1634.497776
 30
0.0
 40
40.0
  1
197
 41
0.945
  7
EXCADSTD
 72
     1
 11
419.992648
 21
1634.497776
 31
0.0
100
AcDbText
  0
LINE
  5
90C
100
AcDbEntity
  8
寸法
  6
CONTINUOUS
 62
     3
100
AcDbLine
 10
321.494782
 20
1630.997776
 30
0.0
 11
518.490513
 21
1630.997776
 31
0.0
  0
LINE
  5
90D
100
AcDbEntity
  8
寸法
  6
CONTINUOUS
 62
     3
100
AcDbLine
 10
351.494782
 20
1635.997776
 30
0.0
 11
321.494782
 21
1630.997776
 31
0.0
  0
LINE
  5
90E
100
AcDbEntity
  8
寸法
  6
CONTINUOUS
 62
     3
100
AcDbLine
 10
321.494782
 20
1630.997776
 30
0.0
 11
351.494782
 21
1625.997776
 31
0.0
  0
LINE
  5
90F
100
AcDbEntity
  8
寸法
  6
CONTINUOUS
 62
     3
100
AcDbLine
 10
488.490513
 20
1625.997776
 30
0.0
 11
518.490513
 21
1630.997776
 31
0.0
  0
LINE
  5
910
100
AcDbEntity
  8
寸法
  6
CONTINUOUS
 62
     3
100
AcDbLine
 10
518.490513
 20
1630.997776
 30
0.0
 11
488.490513
 21
1635.997776
 31
0.0
  0
ENDBLK
  5
911
100
AcDbEntity
  8
0
100
AcDbBlockEnd
  0
BLOCK
  5
914
100
AcDbEntity
  8
0
100
AcDbBlockBegin
  2
*D17
 70
    65
 10
0.0
 20
0.0
 30
0.0
  3
*D17
  1

  0
TEXT
  5
915
100
AcDbEntity
  8
寸法
  6
CONTINUOUS
 62
     2
100
AcDbText
 10
202.894782
 20
1634.497776
 30
0.0
 40
40.0
  1
15
 41
0.945
  7
EXCADSTD
 72
     1
 11
236.494782
 21
1634.497776
 31
0.0
100
AcDbText
  0
LINE
  5
916
100
AcDbEntity
  8
寸法
  6
CONTINUOUS
 62
     3
100
AcDbLine
 10
351.509566
 20
1630.997776
 30
0.0
 11
192.994779
 21
1630.997776
 31
0.0
  0
LINE
  5
917
100
AcDbEntity
  8
寸法
  6
CONTINUOUS
 62
     3
100
AcDbLine
 10
351.509566
 20
1635.997776
 30
0.0
 11
321.509566
 21
1630.997776
 31
0.0
  0
LINE
  5
918
100
AcDbEntity
  8
寸法
  6
CONTINUOUS
 62
     3
100
AcDbLine
 10
321.509566
 20
1630.997776
 30
0.0
 11
351.509566
 21
1625.997776
 31
0.0
  0
LINE
  5
919
100
AcDbEntity
  8
寸法
  6
CONTINUOUS
 62
     3
100
AcDbLine
 10
276.494782
 20
1625.997776
 30
0.0
 11
306.494782
 21
1630.997776
 31
0.0
  0
LINE
  5
91A
100
AcDbEntity
  8
寸法
  6
CONTINUOUS
 62
     3
100
AcDbLine
 10
306.494782
 20
1630.997776
 30
0.0
 11
276.494782
 21
1635.997776
 31
0.0
  0
ENDBLK
  5
91B
100
AcDbEntity
  8
0
100
AcDbBlockEnd
  0
BLOCK
  5
91E
100
AcDbEntity
  8
0
100
AcDbBlockBegin
  2
*D18
 70
    65
 10
0.0
 20
0.0
 30
0.0
  3
*D18
  1

  0
LINE
  5
91F
100
AcDbEntity
  8
寸法
  6
CONTINUOUS
 62
     3
100
AcDbLine
 10
301.5
 20
582.000324
 30
0.0
 11
203.0
 21
582.000324
 31
0.0
  0
TEXT
  5
920
100
AcDbEntity
  8
寸法
  6
CONTINUOUS
 62
     2
100
AcDbText
 10
209.5
 20
745.000324
 30
0.0
 40
40.0
  1
410
 50
90.0
 41
0.84
  7
EXCADSTD
 72
     1
 11
209.5
 21
787.000324
 31
0.0
100
AcDbText
  0
LINE
  5
921
100
AcDbEntity
  8
寸法
  6
CONTINUOUS
 62
     3
100
AcDbLine
 10
213.0
 20
992.000324
 30
0.0
 11
213.0
 21
582.000324
 31
0.0
  0
LINE
  5
922
100
AcDbEntity
  8
寸法
  6
CONTINUOUS
 62
     3
100
AcDbLine
 10
218.0
 20
962.000324
 30
0.0
 11
213.0
 21
992.000324
 31
0.0
  0
LINE
  5
923
100
AcDbEntity
  8
寸法
  6
CONTINUOUS
 62
     3
100
AcDbLine
 10
213.0
 20
992.000324
 30
0.0
 11
208.0
 21
962.000324
 31
0.0
  0
LINE
  5
924
100
AcDbEntity
  8
寸法
  6
CONTINUOUS
 62
     3
100
AcDbLine
 10
208.0
 20
612.000324
 30
0.0
 11
213.0
 21
582.000324
 31
0.0
  0
LINE
  5
925
100
AcDbEntity
  8
寸法
  6
CONTINUOUS
 62
     3
100
AcDbLine
 10
213.0
 20
582.000324
 30
0.0
 11
218.0
 21
612.000324
 31
0.0
  0
ENDBLK
  5
926
100
AcDbEntity
  8
0
100
AcDbBlockEnd
  0
BLOCK
  5
92A
100
AcDbEntity
  8
0
100
AcDbBlockBegin
  2
*D19
 70
    65
 10
0.0
 20
0.0
 30
0.0
  3
*D19
  1

  0
LINE
  5
92B
100
AcDbEntity
  8
寸法
  6
CONTINUOUS
 62
     3
100
AcDbLine
 10
1394.982971
 20
1429.000324
 30
0.0
 11
1394.982971
 21
1640.997776
 31
0.0
  0
LINE
  5
92C
100
AcDbEntity
  8
寸法
  6
CONTINUOUS
 62
     3
100
AcDbLine
 10
1813.982971
 20
1429.000324
 30
0.0
 11
1813.982971
 21
1640.997776
 31
0.0
  0
TEXT
  5
92D
100
AcDbEntity
  8
寸法
  6
CONTINUOUS
 62
     2
100
AcDbText
 10
1556.182971
 20
1634.497776
 30
0.0
 40
40.0
  1
419
 41
0.945
  7
EXCADSTD
 72
     1
 11
1604.482971
 21
1634.497776
 31
0.0
100
AcDbText
  0
LINE
  5
92E
100
AcDbEntity
  8
寸法
  6
CONTINUOUS
 62
     3
100
AcDbLine
 10
1394.982971
 20
1630.997776
 30
0.0
 11
1813.982971
 21
1630.997776
 31
0.0
  0
LINE
  5
92F
100
AcDbEntity
  8
寸法
  6
CONTINUOUS
 62
     3
100
AcDbLine
 10
1424.982971
 20
1635.997776
 30
0.0
 11
1394.982971
 21
1630.997776
 31
0.0
  0
LINE
  5
930
100
AcDbEntity
  8
寸法
  6
CONTINUOUS
 62
     3
100
AcDbLine
 10
1394.982971
 20
1630.997776
 30
0.0
 11
1424.982971
 21
1625.997776
 31
0.0
  0
LINE
  5
931
100
AcDbEntity
  8
寸法
  6
CONTINUOUS
 62
     3
100
AcDbLine
 10
1783.982971
 20
1625.997776
 30
0.0
 11
1813.982971
 21
1630.997776
 31
0.0
  0
LINE
  5
932
100
AcDbEntity
  8
寸法
  6
CONTINUOUS
 62
     3
100
AcDbLine
 10
1813.982971
 20
1630.997776
 30
0.0
 11
1783.982971
 21
1635.997776
 31
0.0
  0
ENDBLK
  5
933
100
AcDbEntity
  8
0
100
AcDbBlockEnd
  0
BLOCK
  5
93B
100
AcDbEntity
  8
0
100
AcDbBlockBegin
  2
*D20
 70
    65
 10
0.0
 20
0.0
 30
0.0
  3
*D20
  1

  0
LINE
  5
93C
100
AcDbEntity
  8
寸法
  6
CONTINUOUS
 62
     3
100
AcDbLine
 10
301.5
 20
2526.999984
 30
0.0
 11
237.0
 21
2526.999984
 31
0.0
  0
LINE
  5
93D
100
AcDbEntity
  8
寸法
  6
CONTINUOUS
 62
     3
100
AcDbLine
 10
301.5
 20
2226.999984
 30
0.0
 11
237.0
 21
2226.999984
 31
0.0
  0
TEXT
  5
93E
100
AcDbEntity
  8
寸法
  6
CONTINUOUS
 62
     2
100
AcDbText
 10
243.5
 20
2334.999984
 30
0.0
 40
40.0
  1
300
 50
90.0
 41
0.84
  7
EXCADSTD
 72
     1
 11
243.5
 21
2376.999984
 31
0.0
100
AcDbText
  0
LINE
  5
93F
100
AcDbEntity
  8
寸法
  6
CONTINUOUS
 62
     3
100
AcDbLine
 10
247.0
 20
2526.999984
 30
0.0
 11
247.0
 21
2226.999984
 31
0.0
  0
LINE
  5
940
100
AcDbEntity
  8
寸法
  6
CONTINUOUS
 62
     3
100
AcDbLine
 10
252.0
 20
2496.999984
 30
0.0
 11
247.0
 21
2526.999984
 31
0.0
  0
LINE
  5
941
100
AcDbEntity
  8
寸法
  6
CONTINUOUS
 62
     3
100
AcDbLine
 10
247.0
 20
2526.999984
 30
0.0
 11
242.0
 21
2496.999984
 31
0.0
  0
LINE
  5
942
100
AcDbEntity
  8
寸法
  6
CONTINUOUS
 62
     3
100
AcDbLine
 10
242.0
 20
2256.999984
 30
0.0
 11
247.0
 21
2226.999984
 31
0.0
  0
LINE
  5
943
100
AcDbEntity
  8
寸法
  6
CONTINUOUS
 62
     3
100
AcDbLine
 10
247.0
 20
2226.999984
 30
0.0
 11
252.0
 21
2256.999984
 31
0.0
  0
ENDBLK
  5
944
100
AcDbEntity
  8
0
100
AcDbBlockEnd
  0
BLOCK
  5
947
100
AcDbEntity
  8
0
100
AcDbBlockBegin
  2
*D21
 70
    65
 10
0.0
 20
0.0
 30
0.0
  3
*D21
  1

  0
LINE
  5
948
100
AcDbEntity
  8
寸法
  6
CONTINUOUS
 62
     3
100
AcDbLine
 10
589.49992
 20
2416.001052
 30
0.0
 11
589.49992
 21
2219.0
 31
0.0
  0
LINE
  5
949
100
AcDbEntity
  8
寸法
  6
CONTINUOUS
 62
     3
100
AcDbLine
 10
1059.427395
 20
2247.0
 30
0.0
 11
1059.427395
 21
2219.0
 31
0.0
  0
TEXT
  5
94A
100
AcDbEntity
  8
寸法
  6
CONTINUOUS
 62
     2
100
AcDbText
 10
782.463658
 20
2232.5
 30
0.0
 40
40.0
  1
470
 41
0.84
  7
EXCADSTD
 72
     1
 11
824.463658
 21
2232.5
 31
0.0
100
AcDbText
  0
LINE
  5
94B
100
AcDbEntity
  8
寸法
  6
CONTINUOUS
 62
     3
100
AcDbLine
 10
589.49992
 20
2229.0
 30
0.0
 11
1059.427395
 21
2229.0
 31
0.0
  0
LINE
  5
94C
100
AcDbEntity
  8
寸法
  6
CONTINUOUS
 62
     3
100
AcDbLine
 10
619.49992
 20
2234.0
 30
0.0
 11
589.49992
 21
2229.0
 31
0.0
  0
LINE
  5
94D
100
AcDbEntity
  8
寸法
  6
CONTINUOUS
 62
     3
100
AcDbLine
 10
589.49992
 20
2229.0
 30
0.0
 11
619.49992
 21
2224.0
 31
0.0
  0
LINE
  5
94E
100
AcDbEntity
  8
寸法
  6
CONTINUOUS
 62
     3
100
AcDbLine
 10
1029.427395
 20
2224.0
 30
0.0
 11
1059.427395
 21
2229.0
 31
0.0
  0
LINE
  5
94F
100
AcDbEntity
  8
寸法
  6
CONTINUOUS
 62
     3
100
AcDbLine
 10
1059.427395
 20
2229.0
 30
0.0
 11
1029.427395
 21
2234.0
 31
0.0
  0
ENDBLK
  5
950
100
AcDbEntity
  8
0
100
AcDbBlockEnd
  0
BLOCK
  5
953
100
AcDbEntity
  8
0
100
AcDbBlockBegin
  2
*D22
 70
    65
 10
0.0
 20
0.0
 30
0.0
  3
*D22
  1

  0
LINE
  5
954
100
AcDbEntity
  8
寸法
  6
CONTINUOUS
 62
     3
100
AcDbLine
 10
1059.427395
 20
2522.0
 30
0.0
 11
1059.427395
 21
2097.0
 31
0.0
  0
TEXT
  5
955
100
AcDbEntity
  8
寸法
  6
CONTINUOUS
 62
     2
100
AcDbText
 10
640.963698
 20
2110.5
 30
0.0
 40
40.0
  1
755
 41
0.84
  7
EXCADSTD
 72
     1
 11
682.963698
 21
2110.5
 31
0.0
100
AcDbText
  0
LINE
  5
956
100
AcDbEntity
  8
寸法
  6
CONTINUOUS
 62
     3
100
AcDbLine
 10
1059.427395
 20
2107.0
 30
0.0
 11
306.5
 21
2107.0
 31
0.0
  0
LINE
  5
957
100
AcDbEntity
  8
寸法
  6
CONTINUOUS
 62
     3
100
AcDbLine
 10
1029.427395
 20
2102.0
 30
0.0
 11
1059.427395
 21
2107.0
 31
0.0
  0
LINE
  5
958
100
AcDbEntity
  8
寸法
  6
CONTINUOUS
 62
     3
100
AcDbLine
 10
1059.427395
 20
2107.0
 30
0.0
 11
1029.427395
 21
2112.0
 31
0.0
  0
LINE
  5
959
100
AcDbEntity
  8
寸法
  6
CONTINUOUS
 62
     3
100
AcDbLine
 10
336.5
 20
2112.0
 30
0.0
 11
306.5
 21
2107.0
 31
0.0
  0
LINE
  5
95A
100
AcDbEntity
  8
寸法
  6
CONTINUOUS
 62
     3
100
AcDbLine
 10
306.5
 20
2107.0
 30
0.0
 11
336.5
 21
2102.0
 31
0.0
  0
ENDBLK
  5
95B
100
AcDbEntity
  8
0
100
AcDbBlockEnd
  0
BLOCK
  5
95E
100
AcDbEntity
  8
0
100
AcDbBlockBegin
  2
*D23
 70
    65
 10
0.0
 20
0.0
 30
0.0
  3
*D23
  1

  0
LINE
  5
95F
100
AcDbEntity
  8
寸法
  6
CONTINUOUS
 62
     3
100
AcDbLine
 10
321.5
 20
2521.999984
 30
0.0
 11
321.5
 21
2161.0
 31
0.0
  0
LINE
  5
960
100
AcDbEntity
  8
寸法
  6
CONTINUOUS
 62
     3
100
AcDbLine
 10
1059.427395
 20
2521.999984
 30
0.0
 11
1059.427395
 21
2161.0
 31
0.0
  0
TEXT
  5
961
100
AcDbEntity
  8
寸法
  6
CONTINUOUS
 62
     2
100
AcDbText
 10
648.463698
 20
2174.5
 30
0.0
 40
40.0
  1
740
 41
0.84
  7
EXCADSTD
 72
     1
 11
690.463698
 21
2174.5
 31
0.0
100
AcDbText
  0
LINE
  5
962
100
AcDbEntity
  8
寸法
  6
CONTINUOUS
 62
     3
100
AcDbLine
 10
321.5
 20
2171.0
 30
0.0
 11
1059.427395
 21
2171.0
 31
0.0
  0
LINE
  5
963
100
AcDbEntity
  8
寸法
  6
CONTINUOUS
 62
     3
100
AcDbLine
 10
351.5
 20
2176.0
 30
0.0
 11
321.5
 21
2171.0
 31
0.0
  0
LINE
  5
964
100
AcDbEntity
  8
寸法
  6
CONTINUOUS
 62
     3
100
AcDbLine
 10
321.5
 20
2171.0
 30
0.0
 11
351.5
 21
2166.0
 31
0.0
  0
LINE
  5
965
100
AcDbEntity
  8
寸法
  6
CONTINUOUS
 62
     3
100
AcDbLine
 10
1029.427395
 20
2166.0
 30
0.0
 11
1059.427395
 21
2171.0
 31
0.0
  0
LINE
  5
966
100
AcDbEntity
  8
寸法
  6
CONTINUOUS
 62
     3
100
AcDbLine
 10
1059.427395
 20
2171.0
 30
0.0
 11
1029.427395
 21
2176.0
 31
0.0
  0
ENDBLK
  5
967
100
AcDbEntity
  8
0
100
AcDbBlockEnd
  0
BLOCK
  5
96A
100
AcDbEntity
  8
0
100
AcDbBlockBegin
  2
*D24
 70
    65
 10
0.0
 20
0.0
 30
0.0
  3
*D24
  1

  0
LINE
  5
96B
100
AcDbEntity
  8
寸法
  6
CONTINUOUS
 62
     3
100
AcDbLine
 10
1059.427395
 20
2532.0
 30
0.0
 11
1059.427395
 21
2793.0
 31
0.0
  0
LINE
  5
96C
100
AcDbEntity
  8
寸法
  6
CONTINUOUS
 62
     3
100
AcDbLine
 10
359.427395
 20
2531.999984
 30
0.0
 11
359.427395
 21
2793.0
 31
0.0
  0
TEXT
  5
96D
100
AcDbEntity
  8
寸法
  6
CONTINUOUS
 62
     2
100
AcDbText
 10
667.427395
 20
2786.5
 30
0.0
 40
40.0
  1
700
 41
0.84
  7
EXCADSTD
 72
     1
 11
709.427395
 21
2786.5
 31
0.0
100
AcDbText
  0
LINE
  5
96E
100
AcDbEntity
  8
寸法
  6
CONTINUOUS
 62
     3
100
AcDbLine
 10
1059.427395
 20
2783.0
 30
0.0
 11
359.427395
 21
2783.0
 31
0.0
  0
LINE
  5
96F
100
AcDbEntity
  8
寸法
  6
CONTINUOUS
 62
     3
100
AcDbLine
 10
1029.427395
 20
2778.0
 30
0.0
 11
1059.427395
 21
2783.0
 31
0.0
  0
LINE
  5
970
100
AcDbEntity
  8
寸法
  6
CONTINUOUS
 62
     3
100
AcDbLine
 10
1059.427395
 20
2783.0
 30
0.0
 11
1029.427395
 21
2788.0
 31
0.0
  0
LINE
  5
971
100
AcDbEntity
  8
寸法
  6
CONTINUOUS
 62
     3
100
AcDbLine
 10
389.427395
 20
2788.0
 30
0.0
 11
359.427395
 21
2783.0
 31
0.0
  0
LINE
  5
972
100
AcDbEntity
  8
寸法
  6
CONTINUOUS
 62
     3
100
AcDbLine
 10
359.427395
 20
2783.0
 30
0.0
 11
389.427395
 21
2778.0
 31
0.0
  0
ENDBLK
  5
973
100
AcDbEntity
  8
0
100
AcDbBlockEnd
  0
BLOCK
  5
976
100
AcDbEntity
  8
0
100
AcDbBlockBegin
  2
*D25
 70
    65
 10
0.0
 20
0.0
 30
0.0
  3
*D25
  1

  0
LINE
  5
977
100
AcDbEntity
  8
寸法
  6
CONTINUOUS
 62
     3
100
AcDbLine
 10
286.8
 20
882.000324
 30
0.0
 11
250.0
 21
882.000324
 31
0.0
  0
LINE
  5
978
100
AcDbEntity
  8
寸法
  6
CONTINUOUS
 62
     3
100
AcDbLine
 10
260.0
 20
882.000324
 30
0.0
 11
260.0
 21
582.000324
 31
0.0
  0
LINE
  5
979
100
AcDbEntity
  8
寸法
  6
CONTINUOUS
 62
     3
100
AcDbLine
 10
265.0
 20
852.000324
 30
0.0
 11
260.0
 21
882.000324
 31
0.0
  0
LINE
  5
97A
100
AcDbEntity
  8
寸法
  6
CONTINUOUS
 62
     3
100
AcDbLine
 10
260.0
 20
882.000324
 30
0.0
 11
255.0
 21
852.000324
 31
0.0
  0
LINE
  5
97B
100
AcDbEntity
  8
寸法
  6
CONTINUOUS
 62
     3
100
AcDbLine
 10
255.0
 20
612.000324
 30
0.0
 11
260.0
 21
582.000324
 31
0.0
  0
LINE
  5
97C
100
AcDbEntity
  8
寸法
  6
CONTINUOUS
 62
     3
100
AcDbLine
 10
260.0
 20
582.000324
 30
0.0
 11
265.0
 21
612.000324
 31
0.0
  0
TEXT
  5
97D
100
AcDbEntity
  8
寸法
  6
CONTINUOUS
 62
     2
100
AcDbText
 10
256.5
 20
627.000324
 30
0.0
 40
40.0
  1
300（壁給水）
 50
90.0
 41
0.84
  7
EXCADSTD
 72
     1
 11
256.5
 21
732.000324
 31
0.0
100
AcDbText
  0
ENDBLK
  5
97E
100
AcDbEntity
  8
0
100
AcDbBlockEnd
  0
BLOCK
  5
981
100
AcDbEntity
  8
0
100
AcDbBlockBegin
  2
*D26
 70
    65
 10
0.0
 20
0.0
 30
0.0
  3
*D26
  1

  0
LINE
  5
982
100
AcDbEntity
  8
寸法
  6
CONTINUOUS
 62
     3
100
AcDbLine
 10
1178.0
 20
977.000004
 30
0.0
 11
1178.0
 21
582.000324
 31
0.0
  0
LINE
  5
983
100
AcDbEntity
  8
寸法
  6
CONTINUOUS
 62
     3
100
AcDbLine
 10
1183.0
 20
947.000004
 30
0.0
 11
1178.0
 21
977.000004
 31
0.0
  0
LINE
  5
984
100
AcDbEntity
  8
寸法
  6
CONTINUOUS
 62
     3
100
AcDbLine
 10
1178.0
 20
977.000004
 30
0.0
 11
1173.0
 21
947.000004
 31
0.0
  0
LINE
  5
985
100
AcDbEntity
  8
寸法
  6
CONTINUOUS
 62
     3
100
AcDbLine
 10
1173.0
 20
612.000324
 30
0.0
 11
1178.0
 21
582.000324
 31
0.0
  0
LINE
  5
986
100
AcDbEntity
  8
寸法
  6
CONTINUOUS
 62
     3
100
AcDbLine
 10
1178.0
 20
582.000324
 30
0.0
 11
1183.0
 21
612.000324
 31
0.0
  0
TEXT
  5
987
100
AcDbEntity
  8
寸法
  6
CONTINUOUS
 62
     2
100
AcDbText
 10
1174.5
 20
737.500164
 30
0.0
 40
40.0
  1
395
 50
90.0
 41
0.84
  7
EXCADSTD
 72
     1
 11
1174.5
 21
779.500164
 31
0.0
100
AcDbText
  0
LINE
  5
988
100
AcDbEntity
  8
寸法
  6
CONTINUOUS
 62
     3
100
AcDbLine
 10
1060.427397
 20
977.000004
 30
0.0
 11
1188.0
 21
977.000004
 31
0.0
  0
ENDBLK
  5
989
100
AcDbEntity
  8
0
100
AcDbBlockEnd
  0
BLOCK
  5
98D
100
AcDbEntity
  8
0
100
AcDbBlockBegin
  2
*D27
 70
    65
 10
0.0
 20
0.0
 30
0.0
  3
*D27
  1

  0
LINE
  5
98E
100
AcDbEntity
  8
寸法
  6
CONTINUOUS
 62
     3
100
AcDbLine
 10
1499.482971
 20
546.291666
 30
0.0
 11
1499.482971
 21
430.1
 31
0.0
  0
LINE
  5
98F
100
AcDbEntity
  8
寸法
  6
CONTINUOUS
 62
     3
100
AcDbLine
 10
1709.482971
 20
546.291666
 30
0.0
 11
1709.482971
 21
430.1
 31
0.0
  0
TEXT
  5
990
100
AcDbEntity
  8
寸法
  6
CONTINUOUS
 62
     2
100
AcDbText
 10
1562.482971
 20
443.6
 30
0.0
 40
40.0
  1
210
 41
0.84
  7
EXCADSTD
 72
     1
 11
1604.482971
 21
443.6
 31
0.0
100
AcDbText
  0
LINE
  5
991
100
AcDbEntity
  8
寸法
  6
CONTINUOUS
 62
     3
100
AcDbLine
 10
1499.482971
 20
440.1
 30
0.0
 11
1709.482971
 21
440.1
 31
0.0
  0
LINE
  5
992
100
AcDbEntity
  8
寸法
  6
CONTINUOUS
 62
     3
100
AcDbLine
 10
1529.482971
 20
445.1
 30
0.0
 11
1499.482971
 21
440.1
 31
0.0
  0
LINE
  5
993
100
AcDbEntity
  8
寸法
  6
CONTINUOUS
 62
     3
100
AcDbLine
 10
1499.482971
 20
440.1
 30
0.0
 11
1529.482971
 21
435.1
 31
0.0
  0
LINE
  5
994
100
AcDbEntity
  8
寸法
  6
CONTINUOUS
 62
     3
100
AcDbLine
 10
1679.482971
 20
435.1
 30
0.0
 11
1709.482971
 21
440.1
 31
0.0
  0
LINE
  5
995
100
AcDbEntity
  8
寸法
  6
CONTINUOUS
 62
     3
100
AcDbLine
 10
1709.482971
 20
440.1
 30
0.0
 11
1679.482971
 21
445.1
 31
0.0
  0
ENDBLK
  5
996
100
AcDbEntity
  8
0
100
AcDbBlockEnd
  0
BLOCK
  5
999
100
AcDbEntity
  8
0
100
AcDbBlockBegin
  2
*D28
 70
    65
 10
0.0
 20
0.0
 30
0.0
  3
*D28
  1

  0
LINE
  5
99A
100
AcDbEntity
  8
寸法
  6
CONTINUOUS
 62
     3
100
AcDbLine
 10
1601.0
 20
2010.0
 30
0.0
 11
1553.0
 21
2010.0
 31
0.0
  0
LINE
  5
99B
100
AcDbEntity
  8
寸法
  6
CONTINUOUS
 62
     3
100
AcDbLine
 10
1601.0
 20
1970.0
 30
0.0
 11
1553.0
 21
1970.0
 31
0.0
  0
TEXT
  5
99C
100
AcDbEntity
  8
寸法
  6
CONTINUOUS
 62
     2
100
AcDbText
 10
1559.5
 20
2046.4
 30
0.0
 40
40.0
  1
40
 50
90.0
 41
0.945
  7
EXCADSTD
 72
     1
 11
1559.5
 21
2080.0
 31
0.0
100
AcDbText
  0
LINE
  5
99D
100
AcDbEntity
  8
寸法
  6
CONTINUOUS
 62
     3
100
AcDbLine
 10
1563.0
 20
2123.500004
 30
0.0
 11
1563.0
 21
1940.0
 31
0.0
  0
LINE
  5
99E
100
AcDbEntity
  8
寸法
  6
CONTINUOUS
 62
     3
100
AcDbLine
 10
1558.0
 20
2040.0
 30
0.0
 11
1563.0
 21
2010.0
 31
0.0
  0
LINE
  5
99F
100
AcDbEntity
  8
寸法
  6
CONTINUOUS
 62
     3
100
AcDbLine
 10
1563.0
 20
2010.0
 30
0.0
 11
1568.0
 21
2040.0
 31
0.0
  0
LINE
  5
9A0
100
AcDbEntity
  8
寸法
  6
CONTINUOUS
 62
     3
100
AcDbLine
 10
1568.0
 20
1940.0
 30
0.0
 11
1563.0
 21
1970.0
 31
0.0
  0
LINE
  5
9A1
100
AcDbEntity
  8
寸法
  6
CONTINUOUS
 62
     3
100
AcDbLine
 10
1563.0
 20
1970.0
 30
0.0
 11
1558.0
 21
1940.0
 31
0.0
  0
ENDBLK
  5
9A2
100
AcDbEntity
  8
0
100
AcDbBlockEnd
  0
BLOCK
  5
9A5
100
AcDbEntity
  8
0
100
AcDbBlockBegin
  2
*D29
 70
    65
 10
0.0
 20
0.0
 30
0.0
  3
*D29
  1

  0
LINE
  5
9A6
100
AcDbEntity
  8
寸法
  6
CONTINUOUS
 62
     3
100
AcDbLine
 10
506.5
 20
495.1
 30
0.0
 11
506.5
 21
429.0
 31
0.0
  0
LINE
  5
9A7
100
AcDbEntity
  8
寸法
  6
CONTINUOUS
 62
     3
100
AcDbLine
 10
306.5
 20
577.000324
 30
0.0
 11
306.5
 21
429.0
 31
0.0
  0
TEXT
  5
9A8
100
AcDbEntity
  8
寸法
  6
CONTINUOUS
 62
     2
100
AcDbText
 10
358.2
 20
442.5
 30
0.0
 40
40.0
  1
200
 41
0.945
  7
EXCADSTD
 72
     1
 11
406.5
 21
442.5
 31
0.0
100
AcDbText
  0
LINE
  5
9A9
100
AcDbEntity
  8
寸法
  6
CONTINUOUS
 62
     3
100
AcDbLine
 10
506.5
 20
439.0
 30
0.0
 11
306.5
 21
439.0
 31
0.0
  0
LINE
  5
9AA
100
AcDbEntity
  8
寸法
  6
CONTINUOUS
 62
     3
100
AcDbLine
 10
476.5
 20
434.0
 30
0.0
 11
506.5
 21
439.0
 31
0.0
  0
LINE
  5
9AB
100
AcDbEntity
  8
寸法
  6
CONTINUOUS
 62
     3
100
AcDbLine
 10
506.5
 20
439.0
 30
0.0
 11
476.5
 21
444.0
 31
0.0
  0
LINE
  5
9AC
100
AcDbEntity
  8
寸法
  6
CONTINUOUS
 62
     3
100
AcDbLine
 10
336.5
 20
444.0
 30
0.0
 11
306.5
 21
439.0
 31
0.0
  0
LINE
  5
9AD
100
AcDbEntity
  8
寸法
  6
CONTINUOUS
 62
     3
100
AcDbLine
 10
306.5
 20
439.0
 30
0.0
 11
336.5
 21
434.0
 31
0.0
  0
ENDBLK
  5
9AE
100
AcDbEntity
  8
0
100
AcDbBlockEnd
  0
ENDSEC
  0
SECTION
  2
ENTITIES
  0
LINE
  5
8E
100
AcDbEntity
  8
枠
  6
CONTINUOUS
 62
     7
100
AcDbLine
 10
160.0
 20
85.0
 30
0.0
 11
1980.0
 21
85.0
 31
0.0
  0
LINE
  5
8F
100
AcDbEntity
  8
枠
  6
CONTINUOUS
 62
     7
100
AcDbLine
 10
1980.0
 20
85.0
 30
0.0
 11
1980.0
 21
2885.0
 31
0.0
  0
LINE
  5
90
100
AcDbEntity
  8
枠
  6
CONTINUOUS
 62
     7
100
AcDbLine
 10
160.0
 20
85.0
 30
0.0
 11
160.0
 21
2885.0
 31
0.0
  0
LINE
  5
91
100
AcDbEntity
  8
枠
  6
CONTINUOUS
 62
     7
100
AcDbLine
 10
160.0
 20
2885.0
 30
0.0
 11
1980.0
 21
2885.0
 31
0.0
  0
LINE
  5
92
100
AcDbEntity
  8
枠
  6
CONTINUOUS
 62
     7
100
AcDbLine
 10
160.0
 20
305.0
 30
0.0
 11
1980.0
 21
305.0
 31
0.0
  0
LINE
  5
93
100
AcDbEntity
  8
枠
  6
CONTINUOUS
 62
     6
100
AcDbLine
 10
1980.0
 20
185.0
 30
0.0
 11
730.0
 21
185.0
 31
0.0
  0
LINE
  5
94
100
AcDbEntity
  8
枠
  6
CONTINUOUS
 62
     6
100
AcDbLine
 10
1840.0
 20
305.0
 30
0.0
 11
1840.0
 21
185.0
 31
0.0
  0
LINE
  5
95
100
AcDbEntity
  8
枠
  6
CONTINUOUS
 62
     6
100
AcDbLine
 10
1790.0
 20
305.0
 30
0.0
 11
1790.0
 21
185.0
 31
0.0
  0
LINE
  5
96
100
AcDbEntity
  8
枠
  6
CONTINUOUS
 62
     6
100
AcDbLine
 10
1420.0
 20
305.0
 30
0.0
 11
1420.0
 21
85.0
 31
0.0
  0
LINE
  5
97
100
AcDbEntity
  8
枠
  6
CONTINUOUS
 62
     6
100
AcDbLine
 10
1370.0
 20
305.0
 30
0.0
 11
1370.0
 21
85.0
 31
0.0
  0
LINE
  5
98
100
AcDbEntity
  8
枠
  6
CONTINUOUS
 62
     6
100
AcDbLine
 10
780.0
 20
305.0
 30
0.0
 11
780.0
 21
185.0
 31
0.0
  0
LINE
  5
99
100
AcDbEntity
  8
枠
  6
CONTINUOUS
 62
     6
100
AcDbLine
 10
730.0
 20
305.0
 30
0.0
 11
730.0
 21
85.0
 31
0.0
  0
LINE
  5
9A
100
AcDbEntity
  8
枠
  6
CONTINUOUS
 62
     6
100
AcDbLine
 10
600.0
 20
305.0
 30
0.0
 11
600.0
 21
85.0
 31
0.0
  0
LINE
  5
9B
100
AcDbEntity
  8
枠
  6
CONTINUOUS
 62
     6
100
AcDbLine
 10
470.0
 20
305.0
 30
0.0
 11
470.0
 21
85.0
 31
0.0
  0
LINE
  5
9C
100
AcDbEntity
  8
枠
  6
CONTINUOUS
 62
     6
100
AcDbLine
 10
315.0
 20
305.0
 30
0.0
 11
315.0
 21
85.0
 31
0.0
  0
LINE
  5
9D
100
AcDbEntity
  8
枠
  6
CONTINUOUS
 62
     6
100
AcDbLine
 10
160.0
 20
255.0
 30
0.0
 11
730.0
 21
255.0
 31
0.0
  0
LINE
  5
9E
100
AcDbEntity
  8
枠
  6
CONTINUOUS
 62
     6
100
AcDbLine
 10
1872.653809
 20
208.00293
 30
0.0
 11
1949.993897
 21
286.699829
 31
0.0
  0
TEXT
  5
9F
100
AcDbEntity
  8
枠
  6
CONTINUOUS
 62
     2
100
AcDbText
 10
1870.537109
 20
252.722778
 30
0.0
 40
30.0
  1
１
 41
0.826
  7
EXCADSTD
 72
     5
 11
1894.13711
 21
252.722778
 31
0.0
100
AcDbText
  0
TEXT
  5
A0
100
AcDbEntity
  8
枠
  6
CONTINUOUS
 62
     2
100
AcDbText
 10
1911.279297
 20
208.348846
 30
0.0
 40
30.0
  1
１０
 41
0.791
  7
EXCADSTD
 72
     5
 11
1963.067198
 21
208.348846
 31
0.0
100
AcDbText
  0
TEXT
  5
A1
100
AcDbEntity
  8
枠
  6
CONTINUOUS
 62
     2
100
AcDbText
 10
182.5
 20
258.75
 30
0.0
 40
42.5
  1
製図
 41
1.087059
  7
EXCADSTD
 72
     5
 11
283.326
 21
258.75
 31
0.0
100
AcDbText
  0
TEXT
  5
A2
100
AcDbEntity
  8
枠
  6
CONTINUOUS
 62
     2
100
AcDbText
 10
337.5
 20
258.75
 30
0.0
 40
42.5
  1
写図
 41
1.087059
  7
EXCADSTD
 72
     5
 11
438.326
 21
258.75
 31
0.0
100
AcDbText
  0
TEXT
  5
A3
100
AcDbEntity
  8
枠
  6
CONTINUOUS
 62
     2
100
AcDbText
 10
487.5
 20
258.75
 30
0.0
 40
42.5
  1
検図
 41
0.938824
  7
EXCADSTD
 72
     5
 11
574.577
 21
258.75
 31
0.0
100
AcDbText
  0
TEXT
  5
A4
100
AcDbEntity
  8
枠
  6
CONTINUOUS
 62
     2
100
AcDbText
 10
617.5
 20
258.75
 30
0.0
 40
42.5
  1
承認
 41
0.938824
  7
EXCADSTD
 72
     5
 11
704.577
 21
258.75
 31
0.0
100
AcDbText
  0
TEXT
  5
A5
100
AcDbEntity
  8
枠
  6
CONTINUOUS
 62
     2
100
AcDbText
 10
735.75
 20
248.75
 30
0.0
 40
42.5
  1
品
 41
0.84
  7
EXCADSTD
 72
     5
 11
769.75
 21
248.75
 31
0.0
100
AcDbText
  0
TEXT
  5
A6
100
AcDbEntity
  8
枠
  6
CONTINUOUS
 62
     2
100
AcDbText
 10
735.75
 20
198.75
 30
0.0
 40
42.5
  1
名
 41
0.84
  7
EXCADSTD
 72
     5
 11
769.75
 21
198.75
 31
0.0
100
AcDbText
  0
TEXT
  5
A7
100
AcDbEntity
  8
枠
  6
CONTINUOUS
 62
     2
100
AcDbText
 10
1375.75
 20
248.75
 30
0.0
 40
42.5
  1
品
 41
0.84
  7
EXCADSTD
 72
     5
 11
1409.75
 21
248.75
 31
0.0
100
AcDbText
  0
TEXT
  5
A8
100
AcDbEntity
  8
枠
  6
CONTINUOUS
 62
     2
100
AcDbText
 10
1375.75
 20
198.75
 30
0.0
 40
42.5
  1
番
 41
0.84
  7
EXCADSTD
 72
     5
 11
1409.75
 21
198.75
 31
0.0
100
AcDbText
  0
TEXT
  5
A9
100
AcDbEntity
  8
枠
  6
CONTINUOUS
 62
     2
100
AcDbText
 10
1796.75
 20
248.75
 30
0.0
 40
42.5
  1
尺
 41
0.84
  7
EXCADSTD
 72
     5
 11
1830.75
 21
248.75
 31
0.0
100
AcDbText
  0
TEXT
  5
AA
100
AcDbEntity
  8
枠
  6
CONTINUOUS
 62
     2
100
AcDbText
 10
1796.75
 20
198.75
 30
0.0
 40
42.5
  1
度
 41
0.84
  7
EXCADSTD
 72
     5
 11
1830.75
 21
198.75
 31
0.0
100
AcDbText
  0
TEXT
  5
AB
100
AcDbEntity
  8
枠
  6
CONTINUOUS
 62
     2
100
AcDbText
 10
1375.75
 20
135.75
 30
0.0
 40
42.5
  1
図
 41
0.84
  7
EXCADSTD
 72
     5
 11
1409.75
 21
135.75
 31
0.0
100
AcDbText
  0
TEXT
  5
AC
100
AcDbEntity
  8
枠
  6
CONTINUOUS
 62
     2
100
AcDbText
 10
1375.75
 20
92.75
 30
0.0
 40
42.5
  1
番
 41
0.84
  7
EXCADSTD
 72
     5
 11
1409.75
 21
92.75
 31
0.0
100
AcDbText
  0
LINE
  5
AD
100
AcDbEntity
  8
枠
  6
EXLTYPE2
 62
     6
100
AcDbLine
 10
-20.0
 20
1485.0
 30
0.0
 11
160.0
 21
1485.0
 31
0.0
  0
CIRCLE
  5
AE
100
AcDbEntity
  8
枠
  6
CONTINUOUS
 62
     6
100
AcDbCircle
 10
210.0
 20
110.0
 30
0.0
 40
1.0
  0
CIRCLE
  5
AF
100
AcDbEntity
  8
枠
  6
CONTINUOUS
 62
     6
100
AcDbCircle
 10
260.0
 20
110.0
 30
0.0
 40
1.0
  0
CIRCLE
  5
B0
100
AcDbEntity
  8
枠
  6
CONTINUOUS
 62
     6
100
AcDbCircle
 10
365.0
 20
110.0
 30
0.0
 40
1.0
  0
CIRCLE
  5
B1
100
AcDbEntity
  8
枠
  6
CONTINUOUS
 62
     6
100
AcDbCircle
 10
415.0
 20
110.0
 30
0.0
 40
1.0
  0
LINE
  5
B2
100
AcDbEntity
  8
枠
  6
EXLTYPE2
 62
     6
100
AcDbLine
 10
160.0
 20
135.0
 30
0.0
 11
470.0
 21
135.0
 31
0.0
  0
TEXT
  5
B3
100
AcDbEntity
  8
枠
  6
CONTINUOUS
 62
     2
100
AcDbText
 10
789.746328
 20
249.398318
 30
0.0
 40
48.0
  1
洋風タンク密結サイホン防露便器セット
 41
0.569722
  7
EXCADSTD
 72
     5
 11
1375.746294
 21
249.398318
 31
0.0
100
AcDbText
  0
TEXT
  5
B4
100
AcDbEntity
  8
枠
  6
CONTINUOUS
 62
     2
100
AcDbText
 10
789.746328
 20
195.058827
 30
0.0
 40
48.0
  1
防露型手洗付密結ロ－タンク
 41
0.745769
  7
EXCADSTD
 72
     5
 11
1343.746334
 21
195.058827
 31
0.0
100
AcDbText
  0
TEXT
  5
B6
100
AcDbEntity
  8
枠
  6
CONTINUOUS
 62
     2
100
AcDbText
 10
750.0
 20
105.0
 30
0.0
 40
45.0
  1
ジャニス工業株式会社
  7
EXCADTTF1
 72
     5
 11
1350.0
 21
105.0
 31
0.0
100
AcDbText
  0
TEXT
  5
B7
100
AcDbEntity
  8
枠
  6
CONTINUOUS
 62
     6
100
AcDbText
 10
190.5
 20
166.0
 30
0.0
 40
50.0
  1
間瀬
 41
0.8568
  7
EXCADSTD
 72
     5
 11
283.9932
 21
166.0
 31
0.0
100
AcDbText
  0
TEXT
  5
B8
100
AcDbEntity
  8
枠
  6
CONTINUOUS
 62
     6
100
AcDbText
 10
617.5
 20
170.0
 30
0.0
 40
50.0
  1
古林
 41
0.8568
  7
EXCADSTD
 72
     5
 11
710.9932
 21
170.0
 31
0.0
100
AcDbText
  0
TEXT
  5
B9
100
AcDbEntity
  8
枠
  6
CONTINUOUS
 62
     6
100
AcDbText
 10
471.5
 20
170.0
 30
0.0
 40
50.0
  1
地名坊
 41
0.7504
  7
EXCADSTD
 72
     5
 11
605.5
 21
170.0
 31
0.0
100
AcDbText
  0
TEXT
  5
BA
100
AcDbEntity
  8
枠
  6
CONTINUOUS
 62
     2
100
AcDbText
 10
349.454101
 20
1736.104328
 30
0.0
 40
40.0
  1
Ｗ．Ｌ
 50
90.0
 41
0.833
  7
EXCADSTD
 72
     5
 11
349.454101
 21
1855.104328
 31
0.0
100
AcDbText
  0
TEXT
  5
BB
100
AcDbEntity
  8
枠
  6
CONTINUOUS
 62
     2
100
AcDbText
 10
1029.182927
 20
585.500324
 30
0.0
 40
40.0
  1
Ｆ．Ｌ
 41
0.833
  7
EXCADSTD
 72
     5
 11
1148.182927
 21
585.500324
 31
0.0
100
AcDbText
  0
TEXT
  5
BC
100
AcDbEntity
  8
枠
  6
CONTINUOUS
 62
     7
100
AcDbText
 10
1433.325
 20
99.575
 30
0.0
 40
70.0
  1
Ｃ８４ＳＴ１００
 41
0.795
  7
EXCADSTD
 72
     5
 11
1963.325
 21
99.575
 31
0.0
100
AcDbText
  0
TEXT
  5
BD
100
AcDbEntity
  8
枠
  6
CONTINUOUS
 62
     6
100
AcDbText
 10
162.044116
 20
96.950073
 30
0.0
 40
25.0
  1
２２
 41
0.75768
  7
EXCADSTD
 72
     5
 11
203.382775
 21
96.950073
 31
0.0
100
AcDbText
  0
TEXT
  5
BE
100
AcDbEntity
  8
枠
  6
CONTINUOUS
 62
     6
100
AcDbText
 10
221.544116
 20
96.950073
 30
0.0
 40
25.0
  1
４
 41
0.89208
  7
EXCADSTD
 72
     5
 11
242.784116
 21
96.950073
 31
0.0
100
AcDbText
  0
TEXT
  5
BF
100
AcDbEntity
  8
枠
  6
CONTINUOUS
 62
     6
100
AcDbText
 10
266.844116
 20
96.950073
 30
0.0
 40
25.0
  1
２０
 41
0.75768
  7
EXCADSTD
 72
     5
 11
308.182775
 21
96.950073
 31
0.0
100
AcDbText
  0
TEXT
  5
C0
100
AcDbEntity
  8
枠
  6
CONTINUOUS
 62
     2
100
AcDbText
 10
1279.30001
 20
2473.477127
 30
0.0
 40
35.0
  1
・便器セットＣＴの場合はヒーター仕様
 41
0.730667
  7
EXCADSTD
 72
     5
 11
1827.299999
 21
2473.477127
 31
0.0
100
AcDbText
  0
TEXT
  5
C1
100
AcDbEntity
  8
枠
  6
CONTINUOUS
 62
     2
100
AcDbText
 10
1279.30001
 20
2438.477127
 30
0.0
 40
35.0
  1
　ヒ－タ－便器の仕様（ＣＴ・コード長さ１ｍ）
 41
0.728727
  7
EXCADSTD
 72
     5
 11
1947.299997
 21
2438.477127
 31
0.0
100
AcDbText
  0
TEXT
  5
C2
100
AcDbEntity
  8
枠
  6
CONTINUOUS
 62
     2
100
AcDbText
 10
1279.30001
 20
2403.477127
 30
0.0
 40
35.0
  1
　電源  　　　　 ＡＣ１００Ｖ  ５０／ ６０Ｈｚ
 41
0.660727
  7
EXCADSTD
 72
     5
 11
1942.299996
 21
2403.477127
 31
0.0
100
AcDbText
  0
TEXT
  5
C3
100
AcDbEntity
  8
枠
  6
CONTINUOUS
 62
     2
100
AcDbText
 10
1279.30001
 20
2368.477127
 30
0.0
 40
35.0
  1
　消費電力　  　    　　　 　 　     ２０.５Ｗ
 41
0.559253
  7
EXCADSTD
 72
     5
 11
1921.299996
 21
2368.477127
 31
0.0
100
AcDbText
  0
TEXT
  5
C4
100
AcDbEntity
  8
枠
  6
CONTINUOUS
 62
     2
100
AcDbText
 10
1279.30001
 20
2333.477127
 30
0.0
 40
35.0
  1
・タンクセットＹの場合水抜方式を示します。
 41
0.729143
  7
EXCADSTD
 72
     5
 11
1917.299998
 21
2333.477127
 31
0.0
100
AcDbText
  0
TEXT
  5
C5
100
AcDbEntity
  8
枠
  6
CONTINUOUS
 62
     2
100
AcDbText
 10
1279.30001
 20
2298.477127
 30
0.0
 40
35.0
  1
（別途配管用水抜栓を設置してください）
 41
0.730105
  7
EXCADSTD
 72
     5
 11
1857.299999
 21
2298.477127
 31
0.0
100
AcDbText
  0
TEXT
  5
C6
100
AcDbEntity
  8
枠
  6
CONTINUOUS
 62
     2
100
AcDbText
 10
1428.090395
 20
194.0
 30
0.0
 40
50.0
  1
ＳＴ７９ＲＵ－１ＡＥ（Ｙ）０Ｆ＃
 41
0.3801
  7
EXCADSTD
 72
     5
 11
1790.090403
 21
194.0
 31
0.0
100
AcDbText
  0
TEXT
  5
C7
100
AcDbEntity
  8
枠
  6
CONTINUOUS
 62
     2
100
AcDbText
 10
1428.090395
 20
246.884501
 30
0.0
 40
50.0
  1
ＳＣ８４ＳＧ－ＢＴ（ＣＴ）＃
 41
0.432
  7
EXCADSTD
 72
     5
 11
1788.090395
 21
246.884501
 31
0.0
100
AcDbText
  0
DIMENSION
  5
D4
100
AcDbEntity
  8
便器
  6
CONTINUOUS
 62
     3
100
AcDbDimension
  2
*D14
 10
1148.0
 20
2349.49995
 30
0.0
 11
1124.5
 21
2527.0
 31
0.0
 70
   160
  3
STANDARD
100
AcDbAlignedDimension
 13
774.427395
 23
2704.50005
 33
0.0
 14
774.427395
 24
2349.49995
 34
0.0
 50
90.0
100
AcDbRotatedDimension
1001
ACAD
1000
DSTYLE
1002
{
1070
     6
1000
_EX_NORM
1070
     7
1000
_EX_NORM
1070
    41
1040
30.0
1070
    42
1040
5.0
1070
    44
1040
10.0
1070
    73
1070
     0
1070
    74
1070
     0
1070
    75
1070
     0
1070
    76
1070
     0
1070
    77
1070
     1
1070
    78
1070
     8
1070
   140
1040
40.0
1070
   147
1040
3.5
1070
   173
1070
     1
1070
   176
1070
     3
1070
   177
1070
     3
1070
   178
1070
     2
1070
   271
1070
     2
1070
   279
1070
     2
1070
   280
1070
     0
1070
   287
1070
     5
1070
   340
1005
D3
1002
}
  0
CIRCLE
  5
D5
100
AcDbEntity
  8
便器
  6
EXLTYPE2
 62
     6
100
AcDbCircle
 10
506.5
 20
2526.999984
 30
0.0
 40
42.0
  0
LINE
  5
D6
100
AcDbEntity
  8
便器
  6
EXLTYPE2
 62
     2
100
AcDbLine
 10
359.427395
 20
2529.014481
 30
0.0
 11
359.427395
 21
2524.985519
 31
0.0
  0
ARC
  5
D7
100
AcDbEntity
  8
便器
  6
EXLTYPE2
 62
     2
100
AcDbCircle
 10
659.493236
 20
2529.014481
 30
0.0
 40
300.0
100
AcDbArc
 50
180.769498
 51
205.801732
  0
ARC
  5
D8
100
AcDbEntity
  8
便器
  6
EXLTYPE2
 62
     2
100
AcDbCircle
 10
659.493236
 20
2524.985519
 30
0.0
 40
300.0
100
AcDbArc
 50
170.316108
 51
179.230502
  0
ARC
  5
D9
100
AcDbEntity
  8
便器
  6
EXLTYPE2
 62
     2
100
AcDbCircle
 10
774.427395
 20
1204.50005
 30
0.0
 40
1500.0
100
AcDbArc
 50
87.225532
 51
90.0
  0
ARC
  5
DA
100
AcDbEntity
  8
便器
  6
EXLTYPE2
 62
     2
100
AcDbCircle
 10
834.933253
 20
2453.034758
 30
0.0
 40
250.0
100
AcDbArc
 50
38.052045
 51
87.225532
  0
ARC
  5
DB
100
AcDbEntity
  8
便器
  6
EXLTYPE2
 62
     2
100
AcDbCircle
 10
929.427395
 20
2527.0
 30
0.0
 40
130.0
100
AcDbArc
 50
0.0
 51
38.052045
  0
ARC
  5
DC
100
AcDbEntity
  8
便器
  6
EXLTYPE2
 62
     2
100
AcDbCircle
 10
929.427395
 20
2527.0
 30
0.0
 40
130.0
100
AcDbArc
 50
321.947955
 51
0.0
  0
ARC
  5
DD
100
AcDbEntity
  8
便器
  6
EXLTYPE2
 62
     2
100
AcDbCircle
 10
834.933253
 20
2600.965242
 30
0.0
 40
250.0
100
AcDbArc
 50
272.774468
 51
321.947955
  0
ARC
  5
DE
100
AcDbEntity
  8
便器
  6
EXLTYPE2
 62
     2
100
AcDbCircle
 10
774.427395
 20
3849.49995
 30
0.0
 40
1500.0
100
AcDbArc
 50
270.0
 51
272.774468
  0
ARC
  5
DF
100
AcDbEntity
  8
便器
  6
EXLTYPE2
 62
     6
100
AcDbCircle
 10
647.537218
 20
2426.999984
 30
0.0
 40
1.0
100
AcDbArc
 50
0.0
 51
90.0
  0
ARC
  5
E0
100
AcDbEntity
  8
便器
  6
EXLTYPE2
 62
     6
100
AcDbCircle
 10
647.537218
 20
2408.999984
 30
0.0
 40
1.0
100
AcDbArc
 50
270.0
 51
0.0
  0
ARC
  5
E1
100
AcDbEntity
  8
便器
  6
EXLTYPE2
 62
     6
100
AcDbCircle
 10
609.537218
 20
2426.999984
 30
0.0
 40
1.0
100
AcDbArc
 50
90.0
 51
180.0
  0
ARC
  5
E2
100
AcDbEntity
  8
便器
  6
EXLTYPE2
 62
     6
100
AcDbCircle
 10
609.537218
 20
2408.999984
 30
0.0
 40
1.0
100
AcDbArc
 50
180.0
 51
270.0
  0
ARC
  5
E3
100
AcDbEntity
  8
便器
  6
EXLTYPE2
 62
     6
100
AcDbCircle
 10
603.799684
 20
2424.999984
 30
0.0
 40
3.0
100
AcDbArc
 50
90.0
 51
100.0
  0
ARC
  5
E4
100
AcDbEntity
  8
便器
  6
EXLTYPE2
 62
     6
100
AcDbCircle
 10
593.915218
 20
2423.257086
 30
0.0
 40
3.0
100
AcDbArc
 50
100.0
 51
131.321659
  0
ARC
  5
E5
100
AcDbEntity
  8
便器
  6
EXLTYPE2
 62
     6
100
AcDbCircle
 10
593.915218
 20
2412.742882
 30
0.0
 40
3.0
100
AcDbArc
 50
228.678341
 51
260.0
  0
ARC
  5
E6
100
AcDbEntity
  8
便器
  6
EXLTYPE2
 62
     6
100
AcDbCircle
 10
603.799684
 20
2410.999984
 30
0.0
 40
3.0
100
AcDbArc
 50
260.0
 51
270.0
  0
ARC
  5
E7
100
AcDbEntity
  8
便器
  6
EXLTYPE2
 62
     6
100
AcDbCircle
 10
653.274752
 20
2410.999984
 30
0.0
 40
3.0
100
AcDbArc
 50
270.0
 51
280.0
  0
ARC
  5
E8
100
AcDbEntity
  8
便器
  6
EXLTYPE2
 62
     6
100
AcDbCircle
 10
663.159217
 20
2412.742882
 30
0.0
 40
3.0
100
AcDbArc
 50
280.0
 51
311.321659
  0
ARC
  5
E9
100
AcDbEntity
  8
便器
  6
EXLTYPE2
 62
     6
100
AcDbCircle
 10
663.159217
 20
2423.257086
 30
0.0
 40
3.0
100
AcDbArc
 50
48.678341
 51
80.0
  0
ARC
  5
EA
100
AcDbEntity
  8
便器
  6
EXLTYPE2
 62
     6
100
AcDbCircle
 10
653.274752
 20
2424.999984
 30
0.0
 40
3.0
100
AcDbArc
 50
80.0
 51
90.0
  0
LINE
  5
EB
100
AcDbEntity
  8
便器
  6
EXLTYPE2
 62
     6
100
AcDbLine
 10
648.537218
 20
2423.567749
 30
0.0
 11
648.537218
 21
2426.999984
 31
0.0
  0
LINE
  5
EC
100
AcDbEntity
  8
便器
  6
EXLTYPE2
 62
     6
100
AcDbLine
 10
648.537218
 20
2408.999984
 30
0.0
 11
648.537218
 21
2412.43222
 31
0.0
  0
LINE
  5
ED
100
AcDbEntity
  8
便器
  6
EXLTYPE2
 62
     6
100
AcDbLine
 10
608.537218
 20
2423.567749
 30
0.0
 11
608.537218
 21
2426.999984
 31
0.0
  0
LINE
  5
EE
100
AcDbEntity
  8
便器
  6
EXLTYPE2
 62
     6
100
AcDbLine
 10
608.537218
 20
2408.999984
 30
0.0
 11
608.537218
 21
2412.43222
 31
0.0
  0
LINE
  5
EF
100
AcDbEntity
  8
便器
  6
EXLTYPE2
 62
     6
100
AcDbLine
 10
603.799684
 20
2427.999984
 30
0.0
 11
653.274752
 21
2427.999984
 31
0.0
  0
LINE
  5
F0
100
AcDbEntity
  8
便器
  6
EXLTYPE2
 62
     6
100
AcDbLine
 10
593.394274
 20
2426.21151
 30
0.0
 11
603.278739
 21
2427.954408
 31
0.0
  0
ARC
  5
F1
100
AcDbEntity
  8
便器
  6
EXLTYPE2
 62
     6
100
AcDbCircle
 10
598.537218
 20
2417.999984
 30
0.0
 40
10.0
100
AcDbArc
 50
131.321659
 51
228.678341
  0
LINE
  5
F2
100
AcDbEntity
  8
便器
  6
EXLTYPE2
 62
     6
100
AcDbLine
 10
593.394274
 20
2409.788459
 30
0.0
 11
603.278739
 21
2408.045561
 31
0.0
  0
LINE
  5
F3
100
AcDbEntity
  8
便器
  6
EXLTYPE2
 62
     6
100
AcDbLine
 10
603.799684
 20
2407.999984
 30
0.0
 11
653.274752
 21
2407.999984
 31
0.0
  0
LINE
  5
F4
100
AcDbEntity
  8
便器
  6
EXLTYPE2
 62
     6
100
AcDbLine
 10
663.680162
 20
2409.788459
 30
0.0
 11
653.795696
 21
2408.045561
 31
0.0
  0
ARC
  5
F5
100
AcDbEntity
  8
便器
  6
EXLTYPE2
 62
     6
100
AcDbCircle
 10
658.537218
 20
2417.999984
 30
0.0
 40
10.0
100
AcDbArc
 50
311.321659
 51
48.678341
  0
LINE
  5
F6
100
AcDbEntity
  8
便器
  6
EXLTYPE2
 62
     6
100
AcDbLine
 10
663.680162
 20
2426.21151
 30
0.0
 11
653.795696
 21
2427.954408
 31
0.0
  0
ARC
  5
F7
100
AcDbEntity
  8
便器
  6
EXLTYPE2
 62
     6
100
AcDbCircle
 10
611.656734
 20
2427.699984
 30
0.0
 40
0.3
100
AcDbArc
 50
14.931417
 51
90.0
  0
LINE
  5
F8
100
AcDbEntity
  8
便器
  6
EXLTYPE2
 62
     6
100
AcDbLine
 10
609.537218
 20
2422.999984
 30
0.0
 11
647.537218
 21
2422.999984
 31
0.0
  0
LINE
  5
F9
100
AcDbEntity
  8
便器
  6
EXLTYPE2
 62
     6
100
AcDbLine
 10
609.537218
 20
2412.999984
 30
0.0
 11
647.537218
 21
2412.999984
 31
0.0
  0
ARC
  5
FA
100
AcDbEntity
  8
便器
  6
EXLTYPE2
 62
     6
100
AcDbCircle
 10
663.537218
 20
2417.999984
 30
0.0
 40
16.0
100
AcDbArc
 50
159.635865
 51
200.364135
  0
ARC
  5
FB
100
AcDbEntity
  8
便器
  6
EXLTYPE2
 62
     6
100
AcDbCircle
 10
593.537218
 20
2417.999984
 30
0.0
 40
16.0
100
AcDbArc
 50
339.635865
 51
20.364135
  0
CIRCLE
  5
FC
100
AcDbEntity
  8
便器
  6
EXLTYPE2
 62
     6
100
AcDbCircle
 10
658.537218
 20
2417.999984
 30
0.0
 40
4.0
  0
CIRCLE
  5
FD
100
AcDbEntity
  8
便器
  6
EXLTYPE2
 62
     6
100
AcDbCircle
 10
598.537218
 20
2417.999984
 30
0.0
 40
4.0
  0
ARC
  5
FE
100
AcDbEntity
  8
便器
  6
EXLTYPE2
 62
     6
100
AcDbCircle
 10
647.537218
 20
2626.999984
 30
0.0
 40
1.0
100
AcDbArc
 50
270.0
 51
0.0
  0
ARC
  5
FF
100
AcDbEntity
  8
便器
  6
EXLTYPE2
 62
     6
100
AcDbCircle
 10
647.537218
 20
2644.999984
 30
0.0
 40
1.0
100
AcDbArc
 50
0.0
 51
90.0
  0
ARC
  5
100
100
AcDbEntity
  8
便器
  6
EXLTYPE2
 62
     6
100
AcDbCircle
 10
609.537218
 20
2626.999984
 30
0.0
 40
1.0
100
AcDbArc
 50
180.0
 51
270.0
  0
ARC
  5
101
100
AcDbEntity
  8
便器
  6
EXLTYPE2
 62
     6
100
AcDbCircle
 10
609.537218
 20
2644.999984
 30
0.0
 40
1.0
100
AcDbArc
 50
90.0
 51
180.0
  0
ARC
  5
102
100
AcDbEntity
  8
便器
  6
EXLTYPE2
 62
     6
100
AcDbCircle
 10
603.799684
 20
2628.999984
 30
0.0
 40
3.0
100
AcDbArc
 50
260.0
 51
270.0
  0
ARC
  5
103
100
AcDbEntity
  8
便器
  6
EXLTYPE2
 62
     6
100
AcDbCircle
 10
593.915218
 20
2630.742882
 30
0.0
 40
3.0
100
AcDbArc
 50
228.678341
 51
260.0
  0
ARC
  5
104
100
AcDbEntity
  8
便器
  6
EXLTYPE2
 62
     6
100
AcDbCircle
 10
593.915218
 20
2641.257086
 30
0.0
 40
3.0
100
AcDbArc
 50
100.0
 51
131.321659
  0
ARC
  5
105
100
AcDbEntity
  8
便器
  6
EXLTYPE2
 62
     6
100
AcDbCircle
 10
603.799684
 20
2642.999984
 30
0.0
 40
3.0
100
AcDbArc
 50
90.0
 51
100.0
  0
ARC
  5
106
100
AcDbEntity
  8
便器
  6
EXLTYPE2
 62
     6
100
AcDbCircle
 10
653.274752
 20
2642.999984
 30
0.0
 40
3.0
100
AcDbArc
 50
80.0
 51
90.0
  0
ARC
  5
107
100
AcDbEntity
  8
便器
  6
EXLTYPE2
 62
     6
100
AcDbCircle
 10
663.159217
 20
2641.257086
 30
0.0
 40
3.0
100
AcDbArc
 50
48.678341
 51
80.0
  0
ARC
  5
108
100
AcDbEntity
  8
便器
  6
EXLTYPE2
 62
     6
100
AcDbCircle
 10
663.159217
 20
2630.742882
 30
0.0
 40
3.0
100
AcDbArc
 50
280.0
 51
311.321659
  0
ARC
  5
109
100
AcDbEntity
  8
便器
  6
EXLTYPE2
 62
     6
100
AcDbCircle
 10
653.274752
 20
2628.999984
 30
0.0
 40
3.0
100
AcDbArc
 50
270.0
 51
280.0
  0
LINE
  5
10A
100
AcDbEntity
  8
便器
  6
EXLTYPE2
 62
     6
100
AcDbLine
 10
648.537218
 20
2630.43222
 30
0.0
 11
648.537218
 21
2626.999984
 31
0.0
  0
LINE
  5
10B
100
AcDbEntity
  8
便器
  6
EXLTYPE2
 62
     6
100
AcDbLine
 10
648.537218
 20
2644.999984
 30
0.0
 11
648.537218
 21
2641.567749
 31
0.0
  0
LINE
  5
10C
100
AcDbEntity
  8
便器
  6
EXLTYPE2
 62
     6
100
AcDbLine
 10
608.537218
 20
2630.43222
 30
0.0
 11
608.537218
 21
2626.999984
 31
0.0
  0
LINE
  5
10D
100
AcDbEntity
  8
便器
  6
EXLTYPE2
 62
     6
100
AcDbLine
 10
608.537218
 20
2644.999984
 30
0.0
 11
608.537218
 21
2641.567749
 31
0.0
  0
LINE
  5
10E
100
AcDbEntity
  8
便器
  6
EXLTYPE2
 62
     6
100
AcDbLine
 10
603.799684
 20
2625.999984
 30
0.0
 11
653.274752
 21
2625.999984
 31
0.0
  0
LINE
  5
10F
100
AcDbEntity
  8
便器
  6
EXLTYPE2
 62
     6
100
AcDbLine
 10
593.394274
 20
2627.788459
 30
0.0
 11
603.278739
 21
2626.045561
 31
0.0
  0
ARC
  5
110
100
AcDbEntity
  8
便器
  6
EXLTYPE2
 62
     6
100
AcDbCircle
 10
598.537218
 20
2635.999984
 30
0.0
 40
10.0
100
AcDbArc
 50
131.321659
 51
228.678341
  0
LINE
  5
111
100
AcDbEntity
  8
便器
  6
EXLTYPE2
 62
     6
100
AcDbLine
 10
593.394274
 20
2644.21151
 30
0.0
 11
603.278739
 21
2645.954408
 31
0.0
  0
LINE
  5
112
100
AcDbEntity
  8
便器
  6
EXLTYPE2
 62
     6
100
AcDbLine
 10
603.799684
 20
2645.999984
 30
0.0
 11
653.274752
 21
2645.999984
 31
0.0
  0
LINE
  5
113
100
AcDbEntity
  8
便器
  6
EXLTYPE2
 62
     6
100
AcDbLine
 10
663.680162
 20
2644.21151
 30
0.0
 11
653.795696
 21
2645.954408
 31
0.0
  0
ARC
  5
114
100
AcDbEntity
  8
便器
  6
EXLTYPE2
 62
     6
100
AcDbCircle
 10
658.537218
 20
2635.999984
 30
0.0
 40
10.0
100
AcDbArc
 50
311.321659
 51
48.678341
  0
LINE
  5
115
100
AcDbEntity
  8
便器
  6
EXLTYPE2
 62
     6
100
AcDbLine
 10
663.680162
 20
2627.788459
 30
0.0
 11
653.795696
 21
2626.045561
 31
0.0
  0
ARC
  5
116
100
AcDbEntity
  8
便器
  6
EXLTYPE2
 62
     6
100
AcDbCircle
 10
611.656734
 20
2626.299984
 30
0.0
 40
0.3
100
AcDbArc
 50
270.0
 51
345.068583
  0
LINE
  5
117
100
AcDbEntity
  8
便器
  6
EXLTYPE2
 62
     6
100
AcDbLine
 10
609.537218
 20
2630.999984
 30
0.0
 11
647.537218
 21
2630.999984
 31
0.0
  0
LINE
  5
118
100
AcDbEntity
  8
便器
  6
EXLTYPE2
 62
     6
100
AcDbLine
 10
609.537218
 20
2640.999984
 30
0.0
 11
647.537218
 21
2640.999984
 31
0.0
  0
ARC
  5
119
100
AcDbEntity
  8
便器
  6
EXLTYPE2
 62
     6
100
AcDbCircle
 10
663.537218
 20
2635.999984
 30
0.0
 40
16.0
100
AcDbArc
 50
159.635865
 51
200.364135
  0
ARC
  5
11A
100
AcDbEntity
  8
便器
  6
EXLTYPE2
 62
     6
100
AcDbCircle
 10
593.537218
 20
2635.999984
 30
0.0
 40
16.0
100
AcDbArc
 50
339.635865
 51
20.364135
  0
CIRCLE
  5
11B
100
AcDbEntity
  8
便器
  6
EXLTYPE2
 62
     6
100
AcDbCircle
 10
658.537218
 20
2635.999984
 30
0.0
 40
4.0
  0
CIRCLE
  5
11C
100
AcDbEntity
  8
便器
  6
EXLTYPE2
 62
     6
100
AcDbCircle
 10
598.537218
 20
2635.999984
 30
0.0
 40
4.0
  0
ARC
  5
11D
100
AcDbEntity
  8
便器
  6
EXLTYPE2
 62
     2
100
AcDbCircle
 10
822.481213
 20
207.399582
 30
0.0
 40
2500.0
100
AcDbArc
 50
97.099484
 51
99.411257
  0
ARC
  5
11E
100
AcDbEntity
  8
便器
  6
EXLTYPE2
 62
     2
100
AcDbCircle
 10
419.111637
 20
2641.199489
 30
0.0
 40
33.0
100
AcDbArc
 50
99.410462
 51
154.198268
  0
ARC
  5
11F
100
AcDbEntity
  8
便器
  6
EXLTYPE2
 62
     2
100
AcDbCircle
 10
659.493236
 20
2524.985519
 30
0.0
 40
300.0
100
AcDbArc
 50
154.198268
 51
162.513523
  0
ARC
  5
120
100
AcDbEntity
  8
便器
  6
EXLTYPE2
 62
     2
100
AcDbCircle
 10
419.111637
 20
2412.800511
 30
0.0
 40
33.0
100
AcDbArc
 50
205.801732
 51
260.589538
  0
ARC
  5
121
100
AcDbEntity
  8
便器
  6
EXLTYPE2
 62
     2
100
AcDbCircle
 10
822.481213
 20
4846.600418
 30
0.0
 40
2500.0
100
AcDbArc
 50
260.588743
 51
262.900515
  0
ARC
  5
122
100
AcDbEntity
  8
便器
  6
CONTINUOUS
 62
     7
100
AcDbCircle
 10
822.481213
 20
4846.600418
 30
0.0
 40
2500.0
100
AcDbArc
 50
262.900515
 51
263.094001
  0
ARC
  5
123
100
AcDbEntity
  8
便器
  6
CONTINUOUS
 62
     7
100
AcDbCircle
 10
822.481213
 20
207.399582
 30
0.0
 40
2500.0
100
AcDbArc
 50
96.905999
 51
97.099484
  0
ARC
  5
124
100
AcDbEntity
  8
便器
  6
CONTINUOUS
 62
     6
100
AcDbCircle
 10
297.404578
 20
2809.534549
 30
0.0
 40
443.698439
100
AcDbArc
 50
335.41222
 51
335.445155
  0
ARC
  5
125
100
AcDbEntity
  8
便器
  6
CONTINUOUS
 62
     7
100
AcDbCircle
 10
839.499889
 20
2527.0
 30
0.0
 40
200.0
100
AcDbArc
 50
180.0
 51
180.000132
  0
ARC
  5
126
100
AcDbEntity
  8
便器
  6
CONTINUOUS
 62
     7
100
AcDbCircle
 10
839.499889
 20
2527.0
 30
0.0
 40
200.0
100
AcDbArc
 50
179.999868
 51
180.0
  0
ARC
  5
127
100
AcDbEntity
  8
便器
  6
CONTINUOUS
 62
     4
100
AcDbCircle
 10
794.077741
 20
2526.999887
 30
0.0
 40
145.292051
100
AcDbArc
 50
179.999955
 51
180.0
  0
ELLIPSE
  5
128
100
AcDbEntity
  8
便器
  6
CONTINUOUS
 62
     4
100
AcDbEllipse
 10
474.653889
 20
2526.999836
 30
0.0
 11
-0.0000111097055222
 21
13.999999999998822
 31
0.0
210
0.0
220
0.0
230
1.0
 40
0.107692
 41
4.7123665800704231
 42
4.7123889803846923
  0
ARC
  5
129
100
AcDbEntity
  8
便器
  6
CONTINUOUS
 62
     4
100
AcDbCircle
 10
779.499889
 20
2526.999862
 30
0.0
 40
140.0
100
AcDbArc
 50
179.999984
 51
180.000132
  0
LINE
  5
12A
100
AcDbEntity
  8
便器
  6
CONTINUOUS
 62
     4
100
AcDbLine
 10
445.362713
 20
2389.549149
 30
0.0
 11
445.500042
 21
2389.549149
 31
0.0
  0
ARC
  5
12B
100
AcDbEntity
  8
便器
  6
CONTINUOUS
 62
     4
100
AcDbCircle
 10
794.077741
 20
2527.000113
 30
0.0
 40
145.292051
100
AcDbArc
 50
180.0
 51
180.000045
  0
ELLIPSE
  5
12C
100
AcDbEntity
  8
便器
  6
CONTINUOUS
 62
     4
100
AcDbEllipse
 10
474.653889
 20
2527.000164
 30
0.0
 11
0.0000111097054621
 21
13.999999999998822
 31
0.0
210
0.0
220
0.0
230
1.0
 40
0.107692
 41
4.7123889803846932
 42
4.7124113806989563
  0
ARC
  5
12D
100
AcDbEntity
  8
便器
  6
CONTINUOUS
 62
     4
100
AcDbCircle
 10
779.499889
 20
2527.000138
 30
0.0
 40
140.0
100
AcDbArc
 50
179.999868
 51
180.000016
  0
LINE
  5
12E
100
AcDbEntity
  8
便器
  6
EXLTYPE3
 62
     6
100
AcDbLine
 10
506.5
 20
2476.5
 30
0.0
 11
506.5
 21
2574.0
 31
0.0
  0
ARC
  5
12F
100
AcDbEntity
  8
便器
  6
EXLTYPE2
 62
     2
100
AcDbCircle
 10
487.898514
 20
2526.999984
 30
0.0
 40
500.0
100
AcDbArc
 50
347.098592
 51
11.315011
  0
ARC
  5
130
100
AcDbEntity
  8
便器
  6
EXLTYPE2
 62
     2
100
AcDbCircle
 10
948.76326
 20
2619.215414
 30
0.0
 40
30.0
100
AcDbArc
 50
11.315011
 51
82.789562
  0
ARC
  5
131
100
AcDbEntity
  8
便器
  6
EXLTYPE2
 62
     2
100
AcDbCircle
 10
701.500735
 20
664.794466
 30
0.0
 40
2000.0
100
AcDbArc
 50
82.758127
 51
98.672848
  0
ARC
  5
132
100
AcDbEntity
  8
便器
  6
EXLTYPE2
 62
     2
100
AcDbCircle
 10
403.685825
 20
2617.211245
 30
0.0
 40
25.0
100
AcDbArc
 50
98.672848
 51
173.315525
  0
ARC
  5
133
100
AcDbEntity
  8
便器
  6
EXLTYPE2
 62
     2
100
AcDbCircle
 10
948.76326
 20
2434.784555
 30
0.0
 40
30.0
100
AcDbArc
 50
277.210438
 51
348.684989
  0
ARC
  5
134
100
AcDbEntity
  8
便器
  6
EXLTYPE2
 62
     2
100
AcDbCircle
 10
701.500735
 20
4389.205503
 30
0.0
 40
2000.0
100
AcDbArc
 50
261.327152
 51
277.241873
  0
ARC
  5
135
100
AcDbEntity
  8
便器
  6
EXLTYPE2
 62
     2
100
AcDbCircle
 10
403.685825
 20
2436.788724
 30
0.0
 40
25.0
100
AcDbArc
 50
186.684475
 51
261.327152
  0
ARC
  5
136
100
AcDbEntity
  8
便器
  6
EXLTYPE2
 62
     2
100
AcDbCircle
 10
1173.41755
 20
2526.999984
 30
0.0
 40
800.0
100
AcDbArc
 50
173.315525
 51
173.753421
  0
ARC
  5
137
100
AcDbEntity
  8
便器
  6
EXLTYPE2
 62
     2
100
AcDbCircle
 10
1173.41755
 20
2526.999984
 30
0.0
 40
800.0
100
AcDbArc
 50
177.633999
 51
187.624141
  0
LINE
  5
138
100
AcDbEntity
  8
便器
  6
EXLTYPE3
 62
     6
100
AcDbLine
 10
418.499996
 20
629.000002
 30
0.0
 11
418.499996
 21
643.636939
 31
0.0
  0
ARC
  5
139
100
AcDbEntity
  8
便器
  6
CONTINUOUS
 62
     7
100
AcDbCircle
 10
2371.315231
 20
490.322317
 30
0.0
 40
2000.0
100
AcDbArc
 50
172.279216
 51
174.759276
  0
ARC
  5
13A
100
AcDbEntity
  8
便器
  6
CONTINUOUS
 62
     7
100
AcDbCircle
 10
2371.315231
 20
490.322317
 30
0.0
 40
2000.0
100
AcDbArc
 50
170.447304
 51
170.678427
  0
ARC
  5
13B
100
AcDbEntity
  8
便器
  6
CONTINUOUS
 62
     7
100
AcDbCircle
 10
298.462849
 20
839.158956
 30
0.0
 40
102.0
100
AcDbArc
 50
350.392956
 51
23.385397
  0
ARC
  5
13C
100
AcDbEntity
  8
便器
  6
CONTINUOUS
 62
     7
100
AcDbCircle
 10
836.345518
 20
1105.020261
 30
0.0
 40
498.0
100
AcDbArc
 50
201.225572
 51
202.41592
  0
LINE
  5
13D
100
AcDbEntity
  8
便器
  6
CONTINUOUS
 62
     2
100
AcDbLine
 10
371.687528
 20
964.793037
 30
0.0
 11
364.1
 21
964.900004
 31
0.0
  0
LINE
  5
13E
100
AcDbEntity
  8
便器
  6
CONTINUOUS
 62
     2
100
AcDbLine
 10
455.57224
 20
963.610461
 30
0.0
 11
384.751742
 21
964.608863
 31
0.0
  0
ARC
  5
13F
100
AcDbEntity
  8
便器
  6
CONTINUOUS
 62
     7
100
AcDbCircle
 10
2371.315231
 20
490.322317
 30
0.0
 40
2000.0
100
AcDbArc
 50
175.79704
 51
177.372698
  0
LINE
  5
140
100
AcDbEntity
  8
便器
  6
CONTINUOUS
 62
     2
100
AcDbLine
 10
421.511041
 20
612.000004
 30
0.0
 11
447.019117
 21
612.000004
 31
0.0
  0
LINE
  5
141
100
AcDbEntity
  8
便器
  6
CONTINUOUS
 62
     2
100
AcDbLine
 10
384.412922
 20
612.000004
 30
0.0
 11
391.488928
 21
612.000004
 31
0.0
  0
LINE
  5
142
100
AcDbEntity
  8
便器
  6
CONTINUOUS
 62
     7
100
AcDbLine
 10
341.283435
 20
992.000324
 30
0.0
 11
489.5
 21
992.000324
 31
0.0
  0
LINE
  5
143
100
AcDbEntity
  8
便器
  6
CONTINUOUS
 62
     2
100
AcDbLine
 10
480.669883
 20
838.232243
 30
0.0
 11
683.770323
 21
838.232243
 31
0.0
  0
LINE
  5
144
100
AcDbEntity
  8
便器
  6
CONTINUOUS
 62
     7
100
AcDbLine
 10
968.769145
 20
860.563206
 30
0.0
 11
987.898514
 21
582.000324
 31
0.0
  0
ARC
  5
145
100
AcDbEntity
  8
便器
  6
CONTINUOUS
 62
     2
100
AcDbCircle
 10
384.492971
 20
602.000324
 30
0.0
 40
10.0
100
AcDbArc
 50
90.0
 51
176.004953
  0
LINE
  5
146
100
AcDbEntity
  8
便器
  6
CONTINUOUS
 62
     2
100
AcDbLine
 10
451.798759
 20
810.325926
 30
0.0
 11
445.384996
 21
621.660246
 31
0.0
  0
LINE
  5
147
100
AcDbEntity
  8
便器
  6
CONTINUOUS
 62
     2
100
AcDbLine
 10
457.01334
 20
621.660158
 30
0.0
 11
463.490868
 21
812.151839
 31
0.0
  0
ARC
  5
148
100
AcDbEntity
  8
便器
  6
CONTINUOUS
 62
     2
100
AcDbCircle
 10
435.390769
 20
622.000004
 30
0.0
 40
10.0
100
AcDbArc
 50
270.0
 51
358.0
  0
ARC
  5
149
100
AcDbEntity
  8
便器
  6
CONTINUOUS
 62
     2
100
AcDbCircle
 10
447.019117
 20
622.000004
 30
0.0
 40
10.0
100
AcDbArc
 50
270.0
 51
358.0
  0
ARC
  5
14A
100
AcDbEntity
  8
便器
  6
CONTINUOUS
 62
     7
100
AcDbCircle
 10
1027.627149
 20
949.383617
 30
0.0
 40
30.0
100
AcDbArc
 50
320.112729
 51
355.0
  0
LINE
  5
14B
100
AcDbEntity
  8
便器
  6
CONTINUOUS
 62
     7
100
AcDbLine
 10
1059.427397
 20
968.650716
 30
0.0
 11
1057.51299
 21
946.768945
 31
0.0
  0
LINE
  5
14C
100
AcDbEntity
  8
便器
  6
CONTINUOUS
 62
     7
100
AcDbLine
 10
1059.427397
 20
973.000004
 30
0.0
 11
1059.427397
 21
968.650716
 31
0.0
  0
ARC
  5
14D
100
AcDbEntity
  8
便器
  6
CONTINUOUS
 62
     7
100
AcDbCircle
 10
856.634903
 20
1040.181179
 30
0.0
 40
500.0
100
AcDbArc
 50
186.167575
 51
192.278783
  0
ARC
  5
14E
100
AcDbEntity
  8
便器
  6
CONTINUOUS
 62
     7
100
AcDbCircle
 10
372.958328
 20
934.910237
 30
0.0
 40
5.0
100
AcDbArc
 50
192.278783
 51
229.308541
  0
ARC
  5
14F
100
AcDbEntity
  8
便器
  6
CONTINUOUS
 62
     7
100
AcDbCircle
 10
857.561054
 20
1035.990757
 30
0.0
 40
498.0
100
AcDbArc
 50
192.475932
 51
192.943002
  0
ARC
  5
150
100
AcDbEntity
  8
便器
  6
CONTINUOUS
 62
     7
100
AcDbCircle
 10
366.438474
 20
927.327922
 30
0.0
 40
5.0
100
AcDbArc
 50
12.475932
 51
49.308541
  0
LINE
  5
151
100
AcDbEntity
  8
便器
  6
CONTINUOUS
 62
     7
100
AcDbLine
 10
489.5
 20
990.000004
 30
0.0
 11
489.5
 21
992.000004
 31
0.0
  0
LINE
  5
152
100
AcDbEntity
  8
便器
  6
CONTINUOUS
 62
     7
100
AcDbLine
 10
489.5
 20
990.000004
 30
0.0
 11
489.789767
 21
986.233039
 31
0.0
  0
ARC
  5
153
100
AcDbEntity
  8
便器
  6
CONTINUOUS
 62
     7
100
AcDbCircle
 10
499.760311
 20
987.000004
 30
0.0
 40
10.0
100
AcDbArc
 50
184.398705
 51
270.0
  0
ARC
  5
154
100
AcDbEntity
  8
便器
  6
CONTINUOUS
 62
     7
100
AcDbCircle
 10
983.733902
 20
861.59086
 30
0.0
 40
15.0
100
AcDbArc
 50
113.737921
 51
184.0
  0
ARC
  5
155
100
AcDbEntity
  8
便器
  6
CONTINUOUS
 62
     7
100
AcDbCircle
 10
897.184851
 20
1058.401078
 30
0.0
 40
200.0
100
AcDbArc
 50
293.737921
 51
320.112729
  0
ARC
  5
156
100
AcDbEntity
  8
便器
  6
CONTINUOUS
 62
     7
100
AcDbCircle
 10
1055.427397
 20
973.000004
 30
0.0
 40
4.0
100
AcDbArc
 50
0.0
 51
90.0
  0
ARC
  5
157
100
AcDbEntity
  8
便器
  6
CONTINUOUS
 62
     7
100
AcDbCircle
 10
364.5
 20
987.000004
 30
0.0
 40
5.0
100
AcDbArc
 50
90.0
 51
183.614812
  0
LINE
  5
158
100
AcDbEntity
  8
便器
  6
CONTINUOUS
 62
     2
100
AcDbLine
 10
448.286089
 20
904.191011
 30
0.0
 11
421.847765
 21
944.639042
 31
0.0
  0
ARC
  5
159
100
AcDbEntity
  8
便器
  6
CONTINUOUS
 62
     2
100
AcDbCircle
 10
653.057129
 20
851.224324
 30
0.0
 40
13.0
100
AcDbArc
 50
206.918076
 51
272.0
  0
ARC
  5
15A
100
AcDbEntity
  8
便器
  6
CONTINUOUS
 62
     2
100
AcDbCircle
 10
683.770323
 20
843.232243
 30
0.0
 40
5.0
100
AcDbArc
 50
270.0
 51
40.444207
  0
ARC
  5
15B
100
AcDbEntity
  8
便器
  6
CONTINUOUS
 62
     2
100
AcDbCircle
 10
845.87142
 20
981.406894
 30
0.0
 40
208.0
100
AcDbArc
 50
209.455065
 51
220.444207
  0
ARC
  5
15C
100
AcDbEntity
  8
便器
  6
CONTINUOUS
 62
     2
100
AcDbCircle
 10
645.600848
 20
868.306506
 30
0.0
 40
22.0
100
AcDbArc
 50
29.455065
 51
79.0
  0
ARC
  5
15D
100
AcDbEntity
  8
便器
  6
CONTINUOUS
 62
     2
100
AcDbCircle
 10
611.884616
 20
890.532138
 30
0.0
 40
6.616076
100
AcDbArc
 50
79.0
 51
232.614885
  0
LINE
  5
15E
100
AcDbEntity
  8
便器
  6
CONTINUOUS
 62
     2
100
AcDbLine
 10
613.147023
 20
897.026658
 30
0.0
 11
649.798646
 21
889.902304
 31
0.0
  0
ARC
  5
15F
100
AcDbEntity
  8
便器
  6
CONTINUOUS
 62
     2
100
AcDbCircle
 10
490.47319
 20
811.234326
 30
0.0
 40
26.997917
100
AcDbArc
 50
90.0
 51
178.0
  0
ARC
  5
160
100
AcDbEntity
  8
便器
  6
CONTINUOUS
 62
     2
100
AcDbCircle
 10
480.669883
 20
809.344441
 30
0.0
 40
28.887802
100
AcDbArc
 50
90.0
 51
178.0
  0
LINE
  5
161
100
AcDbEntity
  8
便器
  6
CONTINUOUS
 62
     2
100
AcDbLine
 10
491.602295
 20
937.00768
 30
0.0
 11
845.5
 21
929.000004
 31
0.0
  0
ARC
  5
162
100
AcDbEntity
  8
便器
  6
CONTINUOUS
 62
     2
100
AcDbCircle
 10
455.448254
 20
954.815657
 30
0.0
 40
8.795678
100
AcDbArc
 50
18.30435
 51
87.040428
  0
ARC
  5
163
100
AcDbEntity
  8
便器
  6
CONTINUOUS
 62
     2
100
AcDbCircle
 10
492.280934
 20
967.000004
 30
0.0
 40
30.0
100
AcDbArc
 50
198.30435
 51
270.0
  0
ARC
  5
164
100
AcDbEntity
  8
便器
  6
CONTINUOUS
 62
     2
100
AcDbCircle
 10
467.944181
 20
917.040265
 30
0.0
 40
23.484971
100
AcDbArc
 50
213.170111
 51
297.668899
  0
ARC
  5
165
100
AcDbEntity
  8
便器
  6
CONTINUOUS
 62
     2
100
AcDbCircle
 10
534.761201
 20
789.604567
 30
0.0
 40
120.405165
100
AcDbArc
 50
27.168724
 51
117.668899
  0
LINE
  5
166
100
AcDbEntity
  8
便器
  6
CONTINUOUS
 62
     7
100
AcDbLine
 10
499.760311
 20
977.000004
 30
0.0
 11
1055.427397
 21
977.000004
 31
0.0
  0
LINE
  5
167
100
AcDbEntity
  8
便器
  6
CONTINUOUS
 62
     2
100
AcDbLine
 10
765.5
 20
853.000004
 30
0.0
 11
921.016229
 21
853.000004
 31
0.0
  0
ARC
  5
168
100
AcDbEntity
  8
便器
  6
CONTINUOUS
 62
     2
100
AcDbCircle
 10
921.016229
 20
933.164732
 30
0.0
 40
80.164728
100
AcDbArc
 50
270.0
 51
307.724839
  0
LINE
  5
169
100
AcDbEntity
  8
便器
  6
CONTINUOUS
 62
     7
100
AcDbLine
 10
306.5
 20
1866.0
 30
0.0
 11
306.5
 21
582.000324
 31
0.0
  0
CIRCLE
  5
16A
100
AcDbEntity
  8
便器
  6
EXLTYPE2
 62
     2
100
AcDbCircle
 10
408.037592
 20
2631.999897
 30
0.0
 40
8.0
  0
CIRCLE
  5
16B
100
AcDbEntity
  8
便器
  6
EXLTYPE2
 62
     2
100
AcDbCircle
 10
408.037592
 20
2422.000072
 30
0.0
 40
8.0
  0
LINE
  5
16C
100
AcDbEntity
  8
便器
  6
CONTINUOUS
 62
     7
100
AcDbLine
 10
306.5
 20
582.000324
 30
0.0
 11
1214.0
 21
582.000324
 31
0.0
  0
ARC
  5
16D
100
AcDbEntity
  8
便器
  6
EXLTYPE2
 62
     2
100
AcDbCircle
 10
774.427395
 20
604.14664
 30
0.0
 40
2100.35341
100
AcDbArc
 50
90.0
 51
92.156379
  0
ARC
  5
16E
100
AcDbEntity
  8
便器
  6
CONTINUOUS
 62
     7
100
AcDbCircle
 10
774.427395
 20
604.14664
 30
0.0
 40
2100.35341
100
AcDbArc
 50
92.156379
 51
96.905999
  0
ARC
  5
16F
100
AcDbEntity
  8
便器
  6
EXLTYPE2
 62
     2
100
AcDbCircle
 10
774.427395
 20
4449.85336
 30
0.0
 40
2100.35341
100
AcDbArc
 50
267.843615
 51
270.0
  0
ARC
  5
170
100
AcDbEntity
  8
便器
  6
CONTINUOUS
 62
     7
100
AcDbCircle
 10
774.427395
 20
4449.85336
 30
0.0
 40
2100.35341
100
AcDbArc
 50
263.094001
 51
267.843615
  0
LINE
  5
171
100
AcDbEntity
  8
便器
  6
CONTINUOUS
 62
     7
100
AcDbLine
 10
306.5
 20
2825.0
 30
0.0
 11
306.5
 21
2072.0
 31
0.0
  0
LINE
  5
172
100
AcDbEntity
  8
便器
  6
EXLTYPE3
 62
     6
100
AcDbLine
 10
1081.0
 20
2526.999984
 30
0.0
 11
306.5
 21
2526.999984
 31
0.0
  0
LINE
  5
173
100
AcDbEntity
  8
便器
  6
CONTINUOUS
 62
     6
100
AcDbLine
 10
544.924973
 20
582.000324
 30
0.0
 11
544.51232
 21
549.000231
 31
0.0
  0
LINE
  5
174
100
AcDbEntity
  8
便器
  6
CONTINUOUS
 62
     6
100
AcDbLine
 10
543.499847
 20
548.000339
 30
0.0
 11
469.500153
 21
548.000309
 31
0.0
  0
LINE
  5
175
100
AcDbEntity
  8
便器
  6
CONTINUOUS
 62
     6
100
AcDbLine
 10
468.482643
 20
549.005176
 30
0.0
 11
469.500153
 21
548.000309
 31
0.0
  0
LINE
  5
176
100
AcDbEntity
  8
便器
  6
CONTINUOUS
 62
     6
100
AcDbLine
 10
467.90671
 20
582.000324
 30
0.0
 11
468.482643
 21
549.005176
 31
0.0
  0
LINE
  5
177
100
AcDbEntity
  8
便器
  6
EXLTYPE4
 62
     6
100
AcDbLine
 10
462.0
 20
506.308177
 30
0.0
 11
462.0
 21
582.000377
 31
0.0
  0
LINE
  5
178
100
AcDbEntity
  8
便器
  6
EXLTYPE4
 62
     6
100
AcDbLine
 10
551.0
 20
506.308177
 30
0.0
 11
551.0
 21
582.000377
 31
0.0
  0
ARC
  5
179
100
AcDbEntity
  8
便器
  6
EXLTYPE4
 62
     6
100
AcDbCircle
 10
484.25
 20
536.494059
 30
0.0
 40
37.5
100
AcDbArc
 50
233.60609
 51
306.39391
  0
ARC
  5
17A
100
AcDbEntity
  8
便器
  6
EXLTYPE4
 62
     6
100
AcDbCircle
 10
484.25
 20
476.122294
 30
0.0
 40
37.5
100
AcDbArc
 50
53.60609
 51
126.39391
  0
ARC
  5
17B
100
AcDbEntity
  8
便器
  6
EXLTYPE4
 62
     6
100
AcDbCircle
 10
528.75
 20
536.494059
 30
0.0
 40
37.5
100
AcDbArc
 50
233.60609
 51
306.39391
  0
LINE
  5
17C
100
AcDbEntity
  8
便器
  6
EXLTYPE3
 62
     1
100
AcDbLine
 10
506.5
 20
498.1
 30
0.0
 11
506.5
 21
595.0
 31
0.0
  0
LEADER
  5
17D
100
AcDbEntity
  8
便器
  6
CONTINUOUS
 62
     6
100
AcDbLeader
  3
STANDARD
 73
     3
 74
     1
 75
     0
 40
0.0
 76
     2
 10
551.0
 20
506.308177
 30
0.0
 10
614.555583
 20
387.071155
 30
0.0
 77
     6
1001
ACAD
1000
DSTYLE
1002
{
1070
    41
1040
35.0
1070
     5
1000
_EX_NORM
1070
     6
1000
_EX_NORM
1070
     7
1000
_EX_NORM
1070
   341
1005
32
1002
}
  0
TEXT
  5
17E
100
AcDbEntity
  8
便器
  6
CONTINUOUS
 62
     2
100
AcDbText
 10
614.555583
 20
390.571155
 30
0.0
 40
40.0
  1
ＶＵ 、ＶＰ１００
 41
0.584957
  7
EXCADSTD
 72
     5
 11
860.055599
 21
390.571155
 31
0.0
100
AcDbText
  0
LINE
  5
17F
100
AcDbEntity
  8
便器
  6
CONTINUOUS
 62
     6
100
AcDbLine
 10
586.139645
 20
440.382471
 30
0.0
 11
801.499988
 21
440.382471
 31
0.0
  0
TEXT
  5
180
100
AcDbEntity
  8
便器
  6
CONTINUOUS
 62
     2
100
AcDbText
 10
586.139645
 20
443.882471
 30
0.0
 40
40.0
  1
ＶＵ 、ＶＰ７５
 41
0.584531
  7
EXCADSTD
 72
     5
 11
803.639659
 21
443.882471
 31
0.0
100
AcDbText
  0
LINE
  5
181
100
AcDbEntity
  8
便器
  6
CONTINUOUS
 62
     6
100
AcDbLine
 10
614.555583
 20
387.071155
 30
0.0
 11
857.499988
 21
387.071155
 31
0.0
  0
LINE
  5
182
100
AcDbEntity
  8
便器
  6
EXLTYPE3
 62
     6
100
AcDbLine
 10
1604.482971
 20
498.0
 30
0.0
 11
1604.482971
 21
1515.0
 31
0.0
  0
LINE
  5
183
100
AcDbEntity
  8
便器
  6
EXLTYPE4
 62
     6
100
AcDbLine
 10
1648.983879
 20
507.885054
 30
0.0
 11
1648.983879
 21
582.000324
 31
0.0
  0
ARC
  5
184
100
AcDbEntity
  8
便器
  6
EXLTYPE4
 62
     6
100
AcDbCircle
 10
1626.733879
 20
538.070937
 30
0.0
 40
37.5
100
AcDbArc
 50
233.60609
 51
306.39391
  0
ARC
  5
185
100
AcDbEntity
  8
便器
  6
EXLTYPE4
 62
     6
100
AcDbCircle
 10
1582.233879
 20
477.699172
 30
0.0
 40
37.5
100
AcDbArc
 50
53.60609
 51
126.39391
  0
ARC
  5
186
100
AcDbEntity
  8
便器
  6
EXLTYPE4
 62
     6
100
AcDbCircle
 10
1582.233879
 20
538.070937
 30
0.0
 40
37.5
100
AcDbArc
 50
233.60609
 51
306.39391
  0
LINE
  5
187
100
AcDbEntity
  8
便器
  6
EXLTYPE4
 62
     6
100
AcDbLine
 10
1559.983879
 20
507.885054
 30
0.0
 11
1559.983879
 21
582.000324
 31
0.0
  0
ARC
  5
188
100
AcDbEntity
  8
便器
  6
CONTINUOUS
 62
     2
100
AcDbCircle
 10
1604.482971
 20
1132.000324
 30
0.0
 40
270.0
100
AcDbArc
 50
258.627822
 51
281.372178
  0
ARC
  5
189
100
AcDbEntity
  8
便器
  6
CONTINUOUS
 62
     2
100
AcDbCircle
 10
1580.821214
 20
1014.356279
 30
0.0
 40
150.0
100
AcDbArc
 50
239.187439
 51
258.627822
  0
ARC
  5
18A
100
AcDbEntity
  8
便器
  6
CONTINUOUS
 62
     2
100
AcDbCircle
 10
1498.864228
 20
876.94066
 30
0.0
 40
10.0
100
AcDbArc
 50
59.187439
 51
171.997592
  0
ARC
  5
18B
100
AcDbEntity
  8
便器
  6
CONTINUOUS
 62
     2
100
AcDbCircle
 10
1628.144727
 20
1014.356279
 30
0.0
 40
150.0
100
AcDbArc
 50
281.372178
 51
300.812561
  0
ARC
  5
18C
100
AcDbEntity
  8
便器
  6
CONTINUOUS
 62
     2
100
AcDbCircle
 10
1710.101713
 20
876.94066
 30
0.0
 40
10.0
100
AcDbArc
 50
8.002408
 51
120.812561
  0
LINE
  5
18D
100
AcDbEntity
  8
便器
  6
CONTINUOUS
 62
     2
100
AcDbLine
 10
1632.044489
 20
937.79439
 30
0.0
 11
1576.921453
 21
937.79439
 31
0.0
  0
ARC
  5
18E
100
AcDbEntity
  8
便器
  6
CONTINUOUS
 62
     2
100
AcDbCircle
 10
1632.044489
 20
437.79439
 30
0.0
 40
500.0
100
AcDbArc
 50
75.149298
 51
90.0
  0
ARC
  5
18F
100
AcDbEntity
  8
便器
  6
CONTINUOUS
 62
     2
100
AcDbCircle
 10
1576.921453
 20
437.79439
 30
0.0
 40
500.0
100
AcDbArc
 50
90.0
 51
104.850702
  0
LINE
  5
190
100
AcDbEntity
  8
便器
  6
CONTINUOUS
 62
     7
100
AcDbLine
 10
1776.982971
 20
977.00032
 30
0.0
 11
1604.482971
 21
977.00032
 31
0.0
  0
LINE
  5
191
100
AcDbEntity
  8
便器
  6
CONTINUOUS
 62
     7
100
AcDbLine
 10
1431.982971
 20
977.00032
 30
0.0
 11
1604.482971
 21
977.00032
 31
0.0
  0
ARC
  5
192
100
AcDbEntity
  8
便器
  6
CONTINUOUS
 62
     7
100
AcDbCircle
 10
1736.038895
 20
856.794724
 30
0.0
 40
13.0
100
AcDbArc
 50
138.77607
 51
187.418773
  0
ARC
  5
193
100
AcDbEntity
  8
便器
  6
CONTINUOUS
 62
     7
100
AcDbCircle
 10
1472.927046
 20
856.794724
 30
0.0
 40
13.0
100
AcDbArc
 50
352.581227
 51
41.22393
  0
ARC
  5
194
100
AcDbEntity
  8
便器
  6
CONTINUOUS
 62
     7
100
AcDbCircle
 10
1583.35453
 20
990.572466
 30
0.0
 40
190.0
100
AcDbArc
 50
318.77607
 51
337.418015
  0
ARC
  5
195
100
AcDbEntity
  8
便器
  6
CONTINUOUS
 62
     7
100
AcDbCircle
 10
1625.611412
 20
990.572466
 30
0.0
 40
190.0
100
AcDbArc
 50
202.581985
 51
221.22393
  0
LINE
  5
196
100
AcDbEntity
  8
便器
  6
CONTINUOUS
 62
     7
100
AcDbLine
 10
1776.982971
 20
977.000324
 30
0.0
 11
1431.982971
 21
977.000324
 31
0.0
  0
ARC
  5
197
100
AcDbEntity
  8
便器
  6
CONTINUOUS
 62
     7
100
AcDbCircle
 10
1437.209748
 20
927.726555
 30
0.0
 40
6.0
100
AcDbArc
 50
188.031889
 51
266.905942
  0
ARC
  5
198
100
AcDbEntity
  8
便器
  6
CONTINUOUS
 62
     7
100
AcDbCircle
 10
1926.363834
 20
996.750324
 30
0.0
 40
500.0
100
AcDbArc
 50
182.865984
 51
188.031889
  0
LINE
  5
199
100
AcDbEntity
  8
便器
  6
CONTINUOUS
 62
     7
100
AcDbLine
 10
1436.885897
 20
921.735301
 30
0.0
 11
1444.962388
 21
921.298734
 31
0.0
  0
ARC
  5
19A
100
AcDbEntity
  8
便器
  6
CONTINUOUS
 62
     7
100
AcDbCircle
 10
1444.638536
 20
915.30748
 30
0.0
 40
6.0
100
AcDbArc
 50
22.581985
 51
86.905942
  0
ARC
  5
19B
100
AcDbEntity
  8
便器
  6
CONTINUOUS
 62
     7
100
AcDbCircle
 10
1431.982971
 20
972.000324
 30
0.0
 40
5.0
100
AcDbArc
 50
90.0
 51
182.865984
  0
ARC
  5
19C
100
AcDbEntity
  8
便器
  6
CONTINUOUS
 62
     7
100
AcDbCircle
 10
1771.756193
 20
927.726555
 30
0.0
 40
6.0
100
AcDbArc
 50
273.094058
 51
351.968111
  0
ARC
  5
19D
100
AcDbEntity
  8
便器
  6
CONTINUOUS
 62
     7
100
AcDbCircle
 10
1282.602108
 20
996.750324
 30
0.0
 40
500.0
100
AcDbArc
 50
351.968111
 51
357.134016
  0
LINE
  5
19E
100
AcDbEntity
  8
便器
  6
CONTINUOUS
 62
     7
100
AcDbLine
 10
1772.080045
 20
921.735301
 30
0.0
 11
1764.003554
 21
921.298734
 31
0.0
  0
ARC
  5
19F
100
AcDbEntity
  8
便器
  6
CONTINUOUS
 62
     7
100
AcDbCircle
 10
1764.327406
 20
915.30748
 30
0.0
 40
6.0
100
AcDbArc
 50
93.094058
 51
157.418015
  0
ARC
  5
1A0
100
AcDbEntity
  8
便器
  6
CONTINUOUS
 62
     7
100
AcDbCircle
 10
1776.982971
 20
972.000324
 30
0.0
 40
5.0
100
AcDbArc
 50
357.134016
 51
90.0
  0
LINE
  5
1A1
100
AcDbEntity
  8
便器
  6
CONTINUOUS
 62
     7
100
AcDbLine
 10
1262.0
 20
582.000324
 30
0.0
 11
1897.0
 21
582.000324
 31
0.0
  0
ARC
  5
1A2
100
AcDbEntity
  8
タンク
  6
EXLTYPE2
 62
     6
100
AcDbCircle
 10
419.500042
 20
2526.999984
 30
0.0
 40
34.0
100
AcDbArc
 50
158.483138
 51
103.215239
  0
ARC
  5
1A3
100
AcDbEntity
  8
タンク
  6
CONTINUOUS
 62
     2
100
AcDbCircle
 10
413.509566
 20
2526.999984
 30
0.0
 40
15.0
100
AcDbArc
 50
193.364296
 51
51.276126
  0
ARC
  5
1A4
100
AcDbEntity
  8
タンク
  6
CONTINUOUS
 62
     6
100
AcDbCircle
 10
487.817512
 20
2341.500065
 30
0.0
 40
12.0
100
AcDbArc
 50
270.0
 51
355.873716
  0
ARC
  5
1A5
100
AcDbEntity
  8
タンク
  6
CONTINUOUS
 62
     7
100
AcDbCircle
 10
497.105307
 20
2331.500065
 30
0.0
 40
12.0
100
AcDbArc
 50
270.0
 51
355.667695
  0
ARC
  5
1A6
100
AcDbEntity
  8
タンク
  6
CONTINUOUS
 62
     7
100
AcDbCircle
 10
497.105307
 20
2331.500065
 30
0.0
 40
14.0
100
AcDbArc
 50
270.0
 51
355.667695
  0
ARC
  5
1A7
100
AcDbEntity
  8
タンク
  6
CONTINUOUS
 62
     7
100
AcDbCircle
 10
-2083.5
 20
2527.000065
 30
0.0
 40
2602.0
100
AcDbArc
 50
355.667695
 51
0.0
  0
ARC
  5
1A8
100
AcDbEntity
  8
タンク
  6
CONTINUOUS
 62
     7
100
AcDbCircle
 10
-2083.5
 20
2527.000065
 30
0.0
 40
2600.0
100
AcDbArc
 50
355.667695
 51
0.0
  0
ARC
  5
1A9
100
AcDbEntity
  8
タンク
  6
CONTINUOUS
 62
     6
100
AcDbCircle
 10
-2083.5
 20
2527.000065
 30
0.0
 40
2590.0
100
AcDbArc
 50
355.873716
 51
0.0
  0
ARC
  5
1AA
100
AcDbEntity
  8
タンク
  6
CONTINUOUS
 62
     6
100
AcDbCircle
 10
-2083.5
 20
2527.000065
 30
0.0
 40
2575.0
100
AcDbArc
 50
356.481198
 51
0.0
  0
ARC
  5
1AB
100
AcDbEntity
  8
タンク
  6
CONTINUOUS
 62
     6
100
AcDbCircle
 10
469.677432
 20
2370.000065
 30
0.0
 40
17.0
100
AcDbArc
 50
270.0
 51
356.481198
  0
ARC
  5
1AC
100
AcDbEntity
  8
タンク
  6
CONTINUOUS
 62
     7
100
AcDbCircle
 10
2244.220716
 20
2527.000065
 30
0.0
 40
1922.720716
100
AcDbArc
 50
176.91677
 51
183.08323
  0
ARC
  5
1AD
100
AcDbEntity
  8
タンク
  6
CONTINUOUS
 62
     7
100
AcDbCircle
 10
2926.5
 20
2527.000065
 30
0.0
 40
2602.0
100
AcDbArc
 50
182.686197
 51
183.541111
  0
ARC
  5
1AE
100
AcDbEntity
  8
タンク
  6
CONTINUOUS
 62
     6
100
AcDbCircle
 10
2244.220716
 20
2527.000065
 30
0.0
 40
1912.720716
100
AcDbArc
 50
176.91677
 51
183.08323
  0
LINE
  5
1AF
100
AcDbEntity
  8
タンク
  6
CONTINUOUS
 62
     6
100
AcDbLine
 10
469.677432
 20
2353.000065
 30
0.0
 11
416.5
 21
2353.000065
 31
0.0
  0
LINE
  5
1B0
100
AcDbEntity
  8
タンク
  6
CONTINUOUS
 62
     6
100
AcDbLine
 10
487.817512
 20
2329.500065
 30
0.0
 11
434.123994
 21
2329.500065
 31
0.0
  0
LINE
  5
1B1
100
AcDbEntity
  8
タンク
  6
CONTINUOUS
 62
     7
100
AcDbLine
 10
434.123994
 20
2319.500065
 30
0.0
 11
497.105307
 21
2319.500065
 31
0.0
  0
LINE
  5
1B2
100
AcDbEntity
  8
タンク
  6
CONTINUOUS
 62
     7
100
AcDbLine
 10
497.105307
 20
2317.500065
 30
0.0
 11
381.368618
 21
2317.500065
 31
0.0
  0
ARC
  5
1B3
100
AcDbEntity
  8
タンク
  6
CONTINUOUS
 62
     7
100
AcDbCircle
 10
381.368618
 20
2369.500065
 30
0.0
 40
52.0
100
AcDbArc
 50
183.541111
 51
270.0
  0
ARC
  5
1B4
100
AcDbEntity
  8
タンク
  6
CONTINUOUS
 62
     7
100
AcDbCircle
 10
434.123994
 20
2429.500065
 30
0.0
 40
110.0
100
AcDbArc
 50
183.08323
 51
270.0
  0
ARC
  5
1B5
100
AcDbEntity
  8
タンク
  6
CONTINUOUS
 62
     6
100
AcDbCircle
 10
434.123994
 20
2429.500065
 30
0.0
 40
100.0
100
AcDbArc
 50
183.08323
 51
270.0
  0
ARC
  5
1B6
100
AcDbEntity
  8
タンク
  6
CONTINUOUS
 62
     6
100
AcDbCircle
 10
412.5
 20
2349.366408
 30
0.0
 40
17.0
100
AcDbArc
 50
180.0
 51
254.898485
  0
ARC
  5
1B7
100
AcDbEntity
  8
タンク
  6
CONTINUOUS
 62
     6
100
AcDbCircle
 10
416.5
 20
2370.000065
 30
0.0
 40
17.0
100
AcDbArc
 50
180.0
 51
270.0
  0
LINE
  5
1B8
100
AcDbEntity
  8
タンク
  6
CONTINUOUS
 62
     6
100
AcDbLine
 10
395.5
 20
2387.712919
 30
0.0
 11
395.5
 21
2349.366408
 31
0.0
  0
LINE
  5
1B9
100
AcDbEntity
  8
タンク
  6
CONTINUOUS
 62
     6
100
AcDbLine
 10
399.5
 20
2370.000065
 30
0.0
 11
399.5
 21
2389.406645
 31
0.0
  0
ARC
  5
1BA
100
AcDbEntity
  8
タンク
  6
CONTINUOUS
 62
     6
100
AcDbCircle
 10
365.5
 20
2387.712919
 30
0.0
 40
30.0
100
AcDbArc
 50
0.0
 51
45.572996
  0
ARC
  5
1BB
100
AcDbEntity
  8
タンク
  6
CONTINUOUS
 62
     6
100
AcDbCircle
 10
369.5
 20
2389.406645
 30
0.0
 40
30.0
100
AcDbArc
 50
0.0
 51
46.228758
  0
ARC
  5
1BC
100
AcDbEntity
  8
タンク
  6
CONTINUOUS
 62
     6
100
AcDbCircle
 10
470.5
 20
2494.834345
 30
0.0
 40
116.0
100
AcDbArc
 50
146.00623
 51
226.228758
  0
ARC
  5
1BD
100
AcDbEntity
  8
タンク
  6
CONTINUOUS
 62
     6
100
AcDbCircle
 10
470.5
 20
2494.834345
 30
0.0
 40
120.0
100
AcDbArc
 50
145.229387
 51
225.572996
  0
ARC
  5
1BE
100
AcDbEntity
  8
タンク
  6
CONTINUOUS
 62
     6
100
AcDbCircle
 10
369.5
 20
2600.262046
 30
0.0
 40
30.0
100
AcDbArc
 50
334.002733
 51
0.0
  0
ARC
  5
1BF
100
AcDbEntity
  8
タンク
  6
CONTINUOUS
 62
     6
100
AcDbCircle
 10
365.5
 20
2601.955772
 30
0.0
 40
30.0
100
AcDbArc
 50
340.404134
 51
0.0
  0
LINE
  5
1C0
100
AcDbEntity
  8
タンク
  6
CONTINUOUS
 62
     6
100
AcDbLine
 10
399.5
 20
2600.262046
 30
0.0
 11
399.5
 21
2684.000065
 31
0.0
  0
LINE
  5
1C1
100
AcDbEntity
  8
タンク
  6
CONTINUOUS
 62
     6
100
AcDbLine
 10
395.5
 20
2704.633721
 30
0.0
 11
395.5
 21
2601.955772
 31
0.0
  0
ARC
  5
1C2
100
AcDbEntity
  8
タンク
  6
CONTINUOUS
 62
     6
100
AcDbCircle
 10
416.5
 20
2684.000065
 30
0.0
 40
17.0
100
AcDbArc
 50
90.0
 51
180.0
  0
ARC
  5
1C3
100
AcDbEntity
  8
タンク
  6
CONTINUOUS
 62
     6
100
AcDbCircle
 10
-2083.5
 20
2527.000065
 30
0.0
 40
2575.0
100
AcDbArc
 50
0.0
 51
3.518802
  0
ARC
  5
1C4
100
AcDbEntity
  8
タンク
  6
CONTINUOUS
 62
     7
100
AcDbCircle
 10
-2083.5
 20
2527.000065
 30
0.0
 40
2602.0
100
AcDbArc
 50
0.0
 51
4.332305
  0
ARC
  5
1C5
100
AcDbEntity
  8
タンク
  6
CONTINUOUS
 62
     7
100
AcDbCircle
 10
-2083.5
 20
2527.000065
 30
0.0
 40
2600.0
100
AcDbArc
 50
0.0
 51
4.332305
  0
ARC
  5
1C6
100
AcDbEntity
  8
タンク
  6
CONTINUOUS
 62
     6
100
AcDbCircle
 10
-2083.5
 20
2527.000065
 30
0.0
 40
2590.0
100
AcDbArc
 50
0.0
 51
4.126284
  0
ARC
  5
1C7
100
AcDbEntity
  8
タンク
  6
CONTINUOUS
 62
     6
100
AcDbCircle
 10
469.677432
 20
2684.000065
 30
0.0
 40
17.0
100
AcDbArc
 50
3.518802
 51
90.0
  0
ARC
  5
1C8
100
AcDbEntity
  8
タンク
  6
CONTINUOUS
 62
     6
100
AcDbCircle
 10
412.5
 20
2704.633721
 30
0.0
 40
17.0
100
AcDbArc
 50
105.101515
 51
180.0
  0
LINE
  5
1C9
100
AcDbEntity
  8
タンク
  6
CONTINUOUS
 62
     6
100
AcDbLine
 10
469.677432
 20
2701.000065
 30
0.0
 11
416.5
 21
2701.000065
 31
0.0
  0
LINE
  5
1CA
100
AcDbEntity
  8
タンク
  6
CONTINUOUS
 62
     6
100
AcDbLine
 10
487.817512
 20
2724.500065
 30
0.0
 11
434.123994
 21
2724.500065
 31
0.0
  0
LINE
  5
1CB
100
AcDbEntity
  8
タンク
  6
CONTINUOUS
 62
     7
100
AcDbLine
 10
381.368618
 20
2736.500065
 30
0.0
 11
497.105307
 21
2736.500065
 31
0.0
  0
LINE
  5
1CC
100
AcDbEntity
  8
タンク
  6
CONTINUOUS
 62
     7
100
AcDbLine
 10
497.105307
 20
2734.500065
 30
0.0
 11
434.123994
 21
2734.500065
 31
0.0
  0
LINE
  5
1CD
100
AcDbEntity
  8
タンク
  6
CONTINUOUS
 62
     6
100
AcDbLine
 10
457.257554
 20
2737.033089
 30
0.0
 11
457.257555
 21
2752.577035
 31
0.0
  0
ARC
  5
1CE
100
AcDbEntity
  8
タンク
  6
CONTINUOUS
 62
     6
100
AcDbCircle
 10
461.307215
 20
2752.577343
 30
0.0
 40
4.0544
100
AcDbArc
 50
164.010132
 51
180.0
  0
ARC
  5
1CF
100
AcDbEntity
  8
タンク
  6
CONTINUOUS
 62
     6
100
AcDbCircle
 10
462.281624
 20
2752.298138
 30
0.0
 40
5.068
100
AcDbArc
 50
117.411407
 51
164.010132
  0
ARC
  5
1D0
100
AcDbEntity
  8
タンク
  6
CONTINUOUS
 62
     6
100
AcDbCircle
 10
466.947995
 20
2743.300161
 30
0.0
 40
15.204
100
AcDbArc
 50
113.546326
 51
117.411407
  0
ARC
  5
1D1
100
AcDbEntity
  8
タンク
  6
CONTINUOUS
 62
     6
100
AcDbCircle
 10
453.180568
 20
2774.893129
 30
0.0
 40
19.2584
100
AcDbArc
 50
293.546326
 51
305.556152
  0
ARC
  5
1D2
100
AcDbEntity
  8
タンク
  6
CONTINUOUS
 62
     6
100
AcDbCircle
 10
448.726091
 20
2781.131501
 30
0.0
 40
26.926876
100
AcDbArc
 50
305.556152
 51
308.724487
  0
LINE
  5
1D3
100
AcDbEntity
  8
タンク
  6
CONTINUOUS
 62
     6
100
AcDbLine
 10
493.742416
 20
2736.500065
 30
0.0
 11
493.742415
 21
2752.577349
 31
0.0
  0
ARC
  5
1D4
100
AcDbEntity
  8
タンク
  6
CONTINUOUS
 62
     6
100
AcDbCircle
 10
484.047236
 20
2743.300162
 30
0.0
 40
15.204
100
AcDbArc
 50
62.588623
 51
66.453674
  0
ARC
  5
1D5
100
AcDbEntity
  8
タンク
  6
CONTINUOUS
 62
     6
100
AcDbCircle
 10
502.273877
 20
2781.131795
 30
0.0
 40
26.926876
100
AcDbArc
 50
231.274048
 51
234.443848
  0
ARC
  5
1D6
100
AcDbEntity
  8
タンク
  6
CONTINUOUS
 62
     6
100
AcDbCircle
 10
497.814664
 20
2774.893131
 30
0.0
 40
19.2584
100
AcDbArc
 50
234.443848
 51
246.453674
  0
ARC
  5
1D7
100
AcDbEntity
  8
タンク
  6
CONTINUOUS
 62
     6
100
AcDbCircle
 10
488.713636
 20
2752.298127
 30
0.0
 40
5.068
100
AcDbArc
 50
15.989868
 51
62.588623
  0
ARC
  5
1D8
100
AcDbEntity
  8
タンク
  6
CONTINUOUS
 62
     6
100
AcDbCircle
 10
488.713636
 20
2752.298127
 30
0.0
 40
5.068
100
AcDbArc
 50
15.989868
 51
62.588623
  0
ARC
  5
1D9
100
AcDbEntity
  8
タンク
  6
CONTINUOUS
 62
     6
100
AcDbCircle
 10
489.688015
 20
2752.577347
 30
0.0
 40
4.0544
100
AcDbArc
 50
0.0
 51
15.989868
  0
LINE
  5
1DA
100
AcDbEntity
  8
タンク
  6
CONTINUOUS
 62
     6
100
AcDbLine
 10
457.257554
 20
2737.033089
 30
0.0
 11
457.257554
 21
2736.500065
 31
0.0
  0
LINE
  5
1DB
100
AcDbEntity
  8
タンク
  6
CONTINUOUS
 62
     6
100
AcDbLine
 10
493.742416
 20
2736.500065
 30
0.0
 11
457.257554
 21
2736.500065
 31
0.0
  0
LINE
  5
1DC
100
AcDbEntity
  8
タンク
  6
CONTINUOUS
 62
     6
100
AcDbLine
 10
493.742416
 20
2737.033394
 30
0.0
 11
457.257554
 21
2737.033089
 31
0.0
  0
ARC
  5
1DD
100
AcDbEntity
  8
タンク
  6
CONTINUOUS
 62
     6
100
AcDbCircle
 10
481.578721
 20
2758.853169
 30
0.0
 40
4.0544
100
AcDbArc
 50
18.280151
 51
57.805664
  0
ARC
  5
1DE
100
AcDbEntity
  8
タンク
  6
CONTINUOUS
 62
     6
100
AcDbCircle
 10
475.497615
 20
2755.846226
 30
0.0
 40
9.1224
100
AcDbArc
 50
80.66687
 51
90.0
  0
ARC
  5
1DF
100
AcDbEntity
  8
タンク
  6
CONTINUOUS
 62
     6
100
AcDbCircle
 10
469.415984
 20
2758.852845
 30
0.0
 40
4.0544
100
AcDbArc
 50
122.196686
 51
161.721527
  0
ARC
  5
1E0
100
AcDbEntity
  8
タンク
  6
CONTINUOUS
 62
     6
100
AcDbCircle
 10
475.497615
 20
2755.846226
 30
0.0
 40
9.1224
100
AcDbArc
 50
90.0
 51
99.33316
  0
ARC
  5
1E1
100
AcDbEntity
  8
タンク
  6
CONTINUOUS
 62
     6
100
AcDbCircle
 10
476.977029
 20
2746.844598
 30
0.0
 40
18.2448
100
AcDbArc
 50
99.33316
 51
122.196716
  0
ARC
  5
1E2
100
AcDbEntity
  8
タンク
  6
CONTINUOUS
 62
     6
100
AcDbCircle
 10
474.018201
 20
2746.844603
 30
0.0
 40
18.2448
100
AcDbArc
 50
57.805664
 51
80.66687
  0
ARC
  5
1E3
100
AcDbEntity
  8
タンク
  6
CONTINUOUS
 62
     6
100
AcDbCircle
 10
487.817512
 20
2712.500065
 30
0.0
 40
12.0
100
AcDbArc
 50
4.126284
 51
90.0
  0
ARC
  5
1E4
100
AcDbEntity
  8
タンク
  6
CONTINUOUS
 62
     7
100
AcDbCircle
 10
497.105307
 20
2722.500065
 30
0.0
 40
12.0
100
AcDbArc
 50
4.332305
 51
90.0
  0
ARC
  5
1E5
100
AcDbEntity
  8
タンク
  6
CONTINUOUS
 62
     7
100
AcDbCircle
 10
497.105307
 20
2722.500065
 30
0.0
 40
14.0
100
AcDbArc
 50
4.332305
 51
90.0
  0
ARC
  5
1E6
100
AcDbEntity
  8
タンク
  6
CONTINUOUS
 62
     6
100
AcDbCircle
 10
434.123994
 20
2624.500065
 30
0.0
 40
100.0
100
AcDbArc
 50
90.0
 51
176.91677
  0
ARC
  5
1E7
100
AcDbEntity
  8
タンク
  6
CONTINUOUS
 62
     7
100
AcDbCircle
 10
434.123994
 20
2624.500065
 30
0.0
 40
110.0
100
AcDbArc
 50
90.0
 51
176.91677
  0
ARC
  5
1E8
100
AcDbEntity
  8
タンク
  6
CONTINUOUS
 62
     7
100
AcDbCircle
 10
2926.5
 20
2527.000065
 30
0.0
 40
2602.0
100
AcDbArc
 50
176.458889
 51
177.313803
  0
ARC
  5
1E9
100
AcDbEntity
  8
タンク
  6
CONTINUOUS
 62
     7
100
AcDbCircle
 10
381.368618
 20
2684.500065
 30
0.0
 40
52.0
100
AcDbArc
 50
90.0
 51
176.458889
  0
ELLIPSE
  5
1EA
100
AcDbEntity
  8
タンク
  6
CONTINUOUS
 62
     7
100
AcDbEllipse
 10
367.509566
 20
2602.000065
 30
0.0
 11
0.0000000000000007
 21
11.500000000000011
 31
0.0
210
0.0
220
0.0
230
1.0
 40
0.99863
 41
0.5442733769245408
 42
0.546708007951344
  0
ARC
  5
1EB
100
AcDbEntity
  8
タンク
  6
CONTINUOUS
 62
     6
100
AcDbCircle
 10
375.308523
 20
2612.378796
 30
0.0
 40
3.000038
100
AcDbArc
 50
56.73865
 51
96.546359
  0
LINE
  5
1EC
100
AcDbEntity
  8
タンク
  6
CONTINUOUS
 62
     6
100
AcDbLine
 10
376.95234
 20
2614.88642
 30
0.0
 11
414.405321
 21
2545.151042
 31
0.0
  0
ARC
  5
1ED
100
AcDbEntity
  8
タンク
  6
CONTINUOUS
 62
     6
100
AcDbCircle
 10
378.386031
 20
2585.554225
 30
0.0
 40
30.000048
100
AcDbArc
 50
96.547397
 51
122.849261
  0
ARC
  5
1EE
100
AcDbEntity
  8
タンク
  6
CONTINUOUS
 62
     6
100
AcDbCircle
 10
360.498178
 20
2589.801365
 30
0.0
 40
29.999991
100
AcDbArc
 50
28.030826
 51
56.737735
  0
ARC
  5
1EF
100
AcDbEntity
  8
タンク
  6
CONTINUOUS
 62
     6
100
AcDbCircle
 10
381.558018
 20
2602.779003
 30
0.0
 40
29.999991
100
AcDbArc
 50
186.547244
 51
215.254153
  0
ARC
  5
1F0
100
AcDbEntity
  8
タンク
  6
CONTINUOUS
 62
     6
100
AcDbCircle
 10
377.310249
 20
2584.891299
 30
0.0
 40
30.000048
100
AcDbArc
 50
120.435718
 51
146.737582
  0
ARC
  5
1F1
100
AcDbEntity
  8
タンク
  6
CONTINUOUS
 62
     6
100
AcDbCircle
 10
407.436318
 20
2537.207199
 30
0.0
 40
14.998522
100
AcDbArc
 50
212.968173
 51
30.316806
  0
LINE
  5
1F2
100
AcDbEntity
  8
タンク
  6
CONTINUOUS
 62
     6
100
AcDbLine
 10
386.979016
 20
2603.899756
 30
0.0
 11
420.38419
 21
2544.778434
 31
0.0
  0
LINE
  5
1F3
100
AcDbEntity
  8
タンク
  6
CONTINUOUS
 62
     6
100
AcDbLine
 10
357.060034
 20
2585.462877
 30
0.0
 11
394.852963
 21
2529.045407
 31
0.0
  0
LINE
  5
1F4
100
AcDbEntity
  8
タンク
  6
CONTINUOUS
 62
     6
100
AcDbLine
 10
351.753682
 20
2599.358331
 30
0.0
 11
397.207949
 21
2534.553561
 31
0.0
  0
ARC
  5
1F5
100
AcDbEntity
  8
タンク
  6
CONTINUOUS
 62
     6
100
AcDbCircle
 10
405.806415
 20
2539.852172
 30
0.0
 40
10.099945
100
AcDbArc
 50
211.64252
 51
31.642459
  0
ARC
  5
1F6
100
AcDbEntity
  8
タンク
  6
CONTINUOUS
 62
     6
100
AcDbCircle
 10
354.732609
 20
2599.699366
 30
0.0
 40
3.000038
100
AcDbArc
 50
146.73862
 51
186.546329
  0
LINE
  5
1F7
100
AcDbEntity
  8
タンク
  6
CONTINUOUS
 62
     6
100
AcDbLine
 10
369.339556
 20
992.000324
 30
0.0
 11
377.6301
 21
895.933081
 31
0.0
  0
ARC
  5
1F8
100
AcDbEntity
  8
タンク
  6
CONTINUOUS
 62
     7
100
AcDbCircle
 10
516.490513
 20
1424.000324
 30
0.0
 40
2.0
100
AcDbArc
 50
270.0
 51
0.0
  0
LINE
  5
1F9
100
AcDbEntity
  8
タンク
  6
CONTINUOUS
 62
     7
100
AcDbLine
 10
518.488349
 20
1424.093347
 30
0.0
 11
516.676608
 21
1463.003616
 31
0.0
  0
LINE
  5
1FA
100
AcDbEntity
  8
タンク
  6
CONTINUOUS
 62
     7
100
AcDbLine
 10
516.490513
 20
1422.000324
 30
0.0
 11
451.113966
 21
1422.000324
 31
0.0
  0
ARC
  5
1FB
100
AcDbEntity
  8
タンク
  6
CONTINUOUS
 62
     7
100
AcDbCircle
 10
511.683337
 20
1462.742754
 30
0.0
 40
5.0
100
AcDbArc
 50
2.665882
 51
80.394796
  0
ARC
  5
1FC
100
AcDbEntity
  8
タンク
  6
CONTINUOUS
 62
     7
100
AcDbCircle
 10
515.490513
 20
1422.000324
 30
0.0
 40
3.0
100
AcDbArc
 50
180.0
 51
270.0
  0
LINE
  5
1FD
100
AcDbEntity
  8
タンク
  6
CONTINUOUS
 62
     7
100
AcDbLine
 10
515.490513
 20
1419.000324
 30
0.0
 11
516.490513
 21
1419.000324
 31
0.0
  0
LINE
  5
1FE
100
AcDbEntity
  8
タンク
  6
CONTINUOUS
 62
     7
100
AcDbLine
 10
330.490513
 20
1422.000324
 30
0.0
 11
512.490513
 21
1422.000324
 31
0.0
  0
LINE
  5
1FF
100
AcDbEntity
  8
タンク
  6
CONTINUOUS
 62
     7
100
AcDbLine
 10
339.468488
 20
1496.957897
 30
0.0
 11
512.517629
 21
1467.672658
 31
0.0
  0
ARC
  5
200
100
AcDbEntity
  8
タンク
  6
CONTINUOUS
 62
     7
100
AcDbCircle
 10
352.817152
 20
1575.836368
 30
0.0
 40
80.0
100
AcDbArc
 50
251.996283
 51
260.394796
  0
LINE
  5
201
100
AcDbEntity
  8
タンク
  6
CONTINUOUS
 62
     7
100
AcDbLine
 10
321.494782
 20
1494.750905
 30
0.0
 11
324.411545
 21
1423.918038
 31
0.0
  0
ARC
  5
202
100
AcDbEntity
  8
タンク
  6
CONTINUOUS
 62
     7
100
AcDbCircle
 10
326.409852
 20
1424.000324
 30
0.0
 40
2.0
100
AcDbArc
 50
182.357999
 51
270.0
  0
ARC
  5
203
100
AcDbEntity
  8
タンク
  6
CONTINUOUS
 62
     7
100
AcDbCircle
 10
326.532489
 20
1494.958348
 30
0.0
 40
5.041976
100
AcDbArc
 50
71.996283
 51
182.357999
  0
ARC
  5
204
100
AcDbEntity
  8
タンク
  6
CONTINUOUS
 62
     7
100
AcDbCircle
 10
327.490513
 20
1422.000324
 30
0.0
 40
3.0
100
AcDbArc
 50
270.0
 51
0.0
  0
LINE
  5
205
100
AcDbEntity
  8
タンク
  6
CONTINUOUS
 62
     7
100
AcDbLine
 10
326.490513
 20
1419.000324
 30
0.0
 11
327.490513
 21
1419.000324
 31
0.0
  0
ARC
  5
206
100
AcDbEntity
  8
タンク
  6
CONTINUOUS
 62
     7
100
AcDbCircle
 10
20326.357301
 20
1346.004072
 30
0.0
 40
20000.0
100
AcDbArc
 50
179.790881
 51
180.980405
  0
LINE
  5
207
100
AcDbEntity
  8
タンク
  6
CONTINUOUS
 62
     7
100
AcDbLine
 10
385.186666
 20
1422.000324
 30
0.0
 11
326.41201
 21
1422.000324
 31
0.0
  0
ARC
  5
208
100
AcDbEntity
  8
タンク
  6
CONTINUOUS
 62
     7
100
AcDbCircle
 10
341.283435
 20
1004.000324
 30
0.0
 40
12.0
100
AcDbArc
 50
180.980405
 51
270.0
  0
ARC
  5
209
100
AcDbEntity
  8
タンク
  6
CONTINUOUS
 62
     7
100
AcDbCircle
 10
483.453147
 20
1004.000324
 30
0.0
 40
12.0
100
AcDbArc
 50
270.0
 51
355.2632
  0
ARC
  5
20A
100
AcDbEntity
  8
タンク
  6
CONTINUOUS
 62
     7
100
AcDbCircle
 10
-5982.387436
 20
1539.770382
 30
0.0
 40
6500.0
100
AcDbArc
 50
355.2632
 51
358.935383
  0
ARC
  5
20B
100
AcDbEntity
  8
タンク
  6
CONTINUOUS
 62
     6
100
AcDbCircle
 10
784.471917
 20
1492.12149
 30
0.0
 40
400.0
100
AcDbArc
 50
168.394598
 51
180.399333
  0
ARC
  5
20C
100
AcDbEntity
  8
タンク
  6
CONTINUOUS
 62
     6
100
AcDbCircle
 10
945.294098
 20
1408.693892
 30
0.0
 40
600.0
100
AcDbArc
 50
164.44617
 51
171.738215
  0
ARC
  5
20D
100
AcDbEntity
  8
タンク
  6
CONTINUOUS
 62
     6
100
AcDbCircle
 10
415.435673
 20
1556.172873
 30
0.0
 40
50.0
100
AcDbArc
 50
92.185124
 51
164.44617
  0
ARC
  5
20E
100
AcDbEntity
  8
タンク
  6
CONTINUOUS
 62
     6
100
AcDbCircle
 10
396.895528
 20
1582.531192
 30
0.0
 40
2.0
100
AcDbArc
 50
97.0
 51
167.521334
  0
LINE
  5
20F
100
AcDbEntity
  8
タンク
  6
CONTINUOUS
 62
     6
100
AcDbLine
 10
394.942774
 20
1582.963344
 30
0.0
 11
392.712998
 21
1572.887719
 31
0.0
  0
ARC
  5
210
100
AcDbEntity
  8
タンク
  6
CONTINUOUS
 62
     6
100
AcDbCircle
 10
412.240528
 20
1568.566198
 30
0.0
 40
20.0
100
AcDbArc
 50
167.521334
 51
168.394598
  0
ARC
  5
211
100
AcDbEntity
  8
タンク
  6
CONTINUOUS
 62
     6
100
AcDbCircle
 10
416.479193
 20
1580.905724
 30
0.0
 40
2.0
100
AcDbArc
 50
277.0
 51
358.869898
  0
ARC
  5
212
100
AcDbEntity
  8
タンク
  6
CONTINUOUS
 62
     6
100
AcDbCircle
 10
413.64364
 20
1603.138697
 30
0.0
 40
3.0
100
AcDbArc
 50
33.333143
 51
92.185124
  0
ARC
  5
213
100
AcDbEntity
  8
タンク
  6
CONTINUOUS
 62
     6
100
AcDbCircle
 10
421.494017
 20
1581.607898
 30
0.0
 40
3.0
100
AcDbArc
 50
142.0
 51
178.869898
  0
LINE
  5
214
100
AcDbEntity
  8
タンク
  6
CONTINUOUS
 62
     6
100
AcDbLine
 10
421.914642
 20
1587.019081
 30
0.0
 11
419.129985
 21
1583.454882
 31
0.0
  0
ARC
  5
215
100
AcDbEntity
  8
タンク
  6
CONTINUOUS
 62
     6
100
AcDbCircle
 10
420.338621
 20
1588.250404
 30
0.0
 40
2.0
100
AcDbArc
 50
322.0
 51
8.235857
  0
ARC
  5
216
100
AcDbEntity
  8
タンク
  6
CONTINUOUS
 62
     6
100
AcDbCircle
 10
382.730523
 20
1582.806968
 30
0.0
 40
40.0
100
AcDbArc
 50
8.235857
 51
33.33315
  0
LINE
  5
217
100
AcDbEntity
  8
タンク
  6
CONTINUOUS
 62
     6
100
AcDbLine
 10
418.494601
 20
1581.667066
 30
0.0
 11
418.478804
 21
1580.866279
 31
0.0
  0
LINE
  5
218
100
AcDbEntity
  8
タンク
  6
CONTINUOUS
 62
     6
100
AcDbLine
 10
398.140922
 20
1578.369101
 30
0.0
 11
396.484377
 21
1584.495729
 31
0.0
  0
ARC
  5
219
100
AcDbEntity
  8
タンク
  6
CONTINUOUS
 62
     6
100
AcDbCircle
 10
400.071593
 20
1578.891124
 30
0.0
 40
2.0
100
AcDbArc
 50
195.130102
 51
277.0
  0
LINE
  5
21A
100
AcDbEntity
  8
タンク
  6
CONTINUOUS
 62
     6
100
AcDbLine
 10
400.315331
 20
1576.906032
 30
0.0
 11
416.722932
 21
1578.920632
 31
0.0
  0
LINE
  5
21B
100
AcDbEntity
  8
タンク
  6
CONTINUOUS
 62
     6
100
AcDbLine
 10
396.651789
 20
1584.516284
 30
0.0
 11
420.675537
 21
1587.46603
 31
0.0
  0
LINE
  5
21C
100
AcDbEntity
  8
タンク
  6
CONTINUOUS
 62
     6
100
AcDbLine
 10
417.521777
 20
1582.545002
 30
0.0
 11
398.832108
 21
1580.2502
 31
0.0
  0
LINE
  5
21D
100
AcDbEntity
  8
タンク
  6
EXLTYPE2
 62
     6
100
AcDbLine
 10
667.5
 20
594.000324
 30
0.0
 11
651.5
 21
594.000324
 31
0.0
  0
LINE
  5
21E
100
AcDbEntity
  8
タンク
  6
EXLTYPE2
 62
     6
100
AcDbLine
 10
588.5
 20
593.000324
 30
0.0
 11
588.5
 21
582.000324
 31
0.0
  0
ARC
  5
21F
100
AcDbEntity
  8
タンク
  6
EXLTYPE2
 62
     6
100
AcDbCircle
 10
647.5
 20
631.000324
 30
0.0
 40
1.0
100
AcDbArc
 50
0.0
 51
90.0
  0
ARC
  5
220
100
AcDbEntity
  8
タンク
  6
EXLTYPE2
 62
     6
100
AcDbCircle
 10
609.5
 20
631.000324
 30
0.0
 40
1.0
100
AcDbArc
 50
90.0
 51
180.0
  0
ARC
  5
221
100
AcDbEntity
  8
タンク
  6
EXLTYPE2
 62
     6
100
AcDbCircle
 10
667.5
 20
593.000324
 30
0.0
 40
1.0
100
AcDbArc
 50
0.0
 51
90.0
  0
ARC
  5
222
100
AcDbEntity
  8
タンク
  6
EXLTYPE2
 62
     6
100
AcDbCircle
 10
589.5
 20
593.000324
 30
0.0
 40
1.0
100
AcDbArc
 50
90.0
 51
180.0
  0
LINE
  5
223
100
AcDbEntity
  8
タンク
  6
EXLTYPE2
 62
     6
100
AcDbLine
 10
648.5
 20
631.000324
 30
0.0
 11
648.5
 21
597.000324
 31
0.0
  0
LINE
  5
224
100
AcDbEntity
  8
タンク
  6
EXLTYPE2
 62
     6
100
AcDbLine
 10
609.5
 20
632.000324
 30
0.0
 11
647.5
 21
632.000324
 31
0.0
  0
LINE
  5
225
100
AcDbEntity
  8
タンク
  6
EXLTYPE2
 62
     6
100
AcDbLine
 10
608.5
 20
631.000324
 30
0.0
 11
608.5
 21
597.000324
 31
0.0
  0
LINE
  5
226
100
AcDbEntity
  8
タンク
  6
EXLTYPE2
 62
     6
100
AcDbLine
 10
668.5
 20
593.000324
 30
0.0
 11
668.5
 21
582.000324
 31
0.0
  0
LINE
  5
227
100
AcDbEntity
  8
タンク
  6
EXLTYPE2
 62
     6
100
AcDbLine
 10
589.5
 20
594.000324
 30
0.0
 11
605.5
 21
594.000324
 31
0.0
  0
ARC
  5
228
100
AcDbEntity
  8
タンク
  6
EXLTYPE2
 62
     6
100
AcDbCircle
 10
605.5
 20
597.000324
 30
0.0
 40
3.0
100
AcDbArc
 50
270.0
 51
0.0
  0
ARC
  5
229
100
AcDbEntity
  8
タンク
  6
EXLTYPE2
 62
     6
100
AcDbCircle
 10
651.5
 20
597.000324
 30
0.0
 40
3.0
100
AcDbArc
 50
180.0
 51
270.0
  0
CIRCLE
  5
22A
100
AcDbEntity
  8
タンク
  6
CONTINUOUS
 62
     6
100
AcDbCircle
 10
628.5
 20
617.000324
 30
0.0
 40
8.0
  0
ARC
  5
22B
100
AcDbEntity
  8
タンク
  6
CONTINUOUS
 62
     6
100
AcDbCircle
 10
641.44066
 20
561.669899
 30
0.0
 40
20.0
100
AcDbArc
 50
328.740234
 51
1.073222
  0
ARC
  5
22C
100
AcDbEntity
  8
タンク
  6
CONTINUOUS
 62
     6
100
AcDbCircle
 10
675.633775
 20
561.669899
 30
0.0
 40
20.0
100
AcDbArc
 50
178.926758
 51
211.259766
  0
LINE
  5
22D
100
AcDbEntity
  8
タンク
  6
CONTINUOUS
 62
     6
100
AcDbLine
 10
655.637132
 20
562.044502
 30
0.0
 11
655.637132
 21
582.000052
 31
0.0
  0
LINE
  5
22E
100
AcDbEntity
  8
タンク
  6
CONTINUOUS
 62
     6
100
AcDbLine
 10
661.436998
 20
562.044502
 30
0.0
 11
661.436998
 21
582.000052
 31
0.0
  0
ARC
  5
22F
100
AcDbEntity
  8
タンク
  6
CONTINUOUS
 62
     6
100
AcDbCircle
 10
581.44066
 20
561.669899
 30
0.0
 40
20.0
100
AcDbArc
 50
328.740234
 51
1.073222
  0
ARC
  5
230
100
AcDbEntity
  8
タンク
  6
CONTINUOUS
 62
     6
100
AcDbCircle
 10
615.633775
 20
561.669899
 30
0.0
 40
20.0
100
AcDbArc
 50
178.926758
 51
211.259766
  0
LINE
  5
231
100
AcDbEntity
  8
タンク
  6
CONTINUOUS
 62
     6
100
AcDbLine
 10
595.637132
 20
562.044502
 30
0.0
 11
595.637132
 21
582.000052
 31
0.0
  0
LINE
  5
232
100
AcDbEntity
  8
タンク
  6
CONTINUOUS
 62
     6
100
AcDbLine
 10
601.436998
 20
562.044502
 30
0.0
 11
601.436998
 21
582.000052
 31
0.0
  0
LINE
  5
233
100
AcDbEntity
  8
タンク
  6
CONTINUOUS
 62
     6
100
AcDbLine
 10
405.137507
 20
562.044502
 30
0.0
 11
405.137507
 21
573.699549
 31
0.0
  0
LINE
  5
234
100
AcDbEntity
  8
タンク
  6
CONTINUOUS
 62
     6
100
AcDbLine
 10
410.937372
 20
562.044502
 30
0.0
 11
410.937372
 21
573.699549
 31
0.0
  0
ARC
  5
235
100
AcDbEntity
  8
タンク
  6
CONTINUOUS
 62
     6
100
AcDbCircle
 10
390.941034
 20
561.669899
 30
0.0
 40
20.0
100
AcDbArc
 50
328.740234
 51
1.073222
  0
ARC
  5
236
100
AcDbEntity
  8
タンク
  6
CONTINUOUS
 62
     6
100
AcDbCircle
 10
425.13415
 20
561.669899
 30
0.0
 40
20.0
100
AcDbArc
 50
178.926758
 51
211.259766
  0
LINE
  5
237
100
AcDbEntity
  8
タンク
  6
CONTINUOUS
 62
     6
100
AcDbLine
 10
380.057803
 20
867.80191
 30
0.0
 11
398.218676
 21
657.361576
 31
0.0
  0
LINE
  5
238
100
AcDbEntity
  8
タンク
  6
CONTINUOUS
 62
     6
100
AcDbLine
 10
382.387875
 20
992.000324
 30
0.0
 11
411.266995
 21
657.361576
 31
0.0
  0
LINE
  5
239
100
AcDbEntity
  8
タンク
  6
CONTINUOUS
 62
     6
100
AcDbLine
 10
1480.567159
 20
867.844456
 30
0.0
 11
1480.567159
 21
806.577538
 31
0.0
  0
ARC
  5
23A
100
AcDbEntity
  8
タンク
  6
CONTINUOUS
 62
     2
100
AcDbCircle
 10
-557.59877
 20
558.138967
 30
0.0
 40
2300.0
100
AcDbArc
 50
7.418773
 51
8.002408
  0
ARC
  5
23B
100
AcDbEntity
  8
タンク
  6
CONTINUOUS
 62
     2
100
AcDbCircle
 10
3766.564711
 20
558.138967
 30
0.0
 40
2300.0
100
AcDbArc
 50
171.997592
 51
172.581227
  0
ARC
  5
23C
100
AcDbEntity
  8
タンク
  6
CONTINUOUS
 62
     7
100
AcDbCircle
 10
-557.59877
 20
558.138967
 30
0.0
 40
2300.0
100
AcDbArc
 50
0.594426
 51
7.418773
  0
ARC
  5
23D
100
AcDbEntity
  8
タンク
  6
CONTINUOUS
 62
     7
100
AcDbCircle
 10
3766.564711
 20
558.138967
 30
0.0
 40
2300.0
100
AcDbArc
 50
172.581227
 51
179.405574
  0
LINE
  5
23E
100
AcDbEntity
  8
タンク
  6
CONTINUOUS
 62
     6
100
AcDbLine
 10
1814.483031
 20
1360.746199
 30
0.0
 11
1811.767165
 21
1360.746199
 31
0.0
  0
LINE
  5
23F
100
AcDbEntity
  8
タンク
  6
CONTINUOUS
 62
     6
100
AcDbLine
 10
1814.483031
 20
1393.246199
 30
0.0
 11
1811.985874
 21
1393.246199
 31
0.0
  0
ARC
  5
240
100
AcDbEntity
  8
タンク
  6
CONTINUOUS
 62
     7
100
AcDbCircle
 10
1604.482971
 20
-999.999676
 30
0.0
 40
2500.0
100
AcDbArc
 50
88.69819
 51
93.705965
  0
ARC
  5
241
100
AcDbEntity
  8
タンク
  6
CONTINUOUS
 62
     7
100
AcDbCircle
 10
1604.482971
 20
-999.999676
 30
0.0
 40
2500.0
100
AcDbArc
 50
86.301032
 51
87.934347
  0
LINE
  5
242
100
AcDbEntity
  8
タンク
  6
CONTINUOUS
 62
     6
100
AcDbLine
 10
1833.258025
 20
1394.996199
 30
0.0
 11
1814.483031
 21
1394.996199
 31
0.0
  0
ARC
  5
243
100
AcDbEntity
  8
タンク
  6
CONTINUOUS
 62
     6
100
AcDbCircle
 10
1789.483046
 20
1347.112379
 30
0.0
 40
30.0
100
AcDbArc
 50
0.0
 51
31.788391
  0
ARC
  5
244
100
AcDbEntity
  8
タンク
  6
CONTINUOUS
 62
     6
100
AcDbCircle
 10
1795.983
 20
1350.261221
 30
0.0
 40
24.0
100
AcDbArc
 50
0.0
 51
37.658508
  0
ARC
  5
245
100
AcDbEntity
  8
タンク
  6
CONTINUOUS
 62
     6
100
AcDbCircle
 10
1795.483046
 20
1345.886359
 30
0.0
 40
24.0
100
AcDbArc
 50
0.0
 51
35.659302
  0
LINE
  5
246
100
AcDbEntity
  8
タンク
  6
CONTINUOUS
 62
     6
100
AcDbLine
 10
1812.483035
 20
1360.746198
 30
0.0
 11
1812.483035
 21
1367.996198
 31
0.0
  0
LINE
  5
247
100
AcDbEntity
  8
タンク
  6
CONTINUOUS
 62
     6
100
AcDbLine
 10
1812.483027
 20
1393.2462
 30
0.0
 11
1812.483027
 21
1385.996198
 31
0.0
  0
LINE
  5
248
100
AcDbEntity
  8
タンク
  6
CONTINUOUS
 62
     6
100
AcDbLine
 10
1812.483027
 20
1385.996198
 30
0.0
 11
1812.483035
 21
1367.496198
 31
0.0
  0
LINE
  5
249
100
AcDbEntity
  8
タンク
  6
CONTINUOUS
 62
     6
100
AcDbLine
 10
1814.983031
 20
1394.996199
 30
0.0
 11
1814.983031
 21
1358.996199
 31
0.0
  0
LINE
  5
24A
100
AcDbEntity
  8
タンク
  6
CONTINUOUS
 62
     6
100
AcDbLine
 10
1814.483031
 20
1394.996199
 30
0.0
 11
1814.483031
 21
1358.996199
 31
0.0
  0
LINE
  5
24B
100
AcDbEntity
  8
タンク
  6
CONTINUOUS
 62
     6
100
AcDbLine
 10
1814.483031
 20
1358.996199
 30
0.0
 11
1815.586081
 21
1358.996199
 31
0.0
  0
LINE
  5
24C
100
AcDbEntity
  8
タンク
  6
CONTINUOUS
 62
     6
100
AcDbLine
 10
1814.483031
 20
1379.496199
 30
0.0
 11
1814.483031
 21
1374.496199
 31
0.0
  0
LINE
  5
24D
100
AcDbEntity
  8
タンク
  6
CONTINUOUS
 62
     6
100
AcDbLine
 10
1819.983046
 20
1350.261221
 30
0.0
 11
1819.983046
 21
1326.996203
 31
0.0
  0
LINE
  5
24E
100
AcDbEntity
  8
タンク
  6
CONTINUOUS
 62
     6
100
AcDbLine
 10
1819.483046
 20
1347.112379
 30
0.0
 11
1819.483046
 21
1326.996203
 31
0.0
  0
ARC
  5
24F
100
AcDbEntity
  8
タンク
  6
CONTINUOUS
 62
     6
100
AcDbCircle
 10
1827.483046
 20
1338.309912
 30
0.0
 40
18.0
100
AcDbArc
 50
328.506104
 51
3.653961
  0
LINE
  5
250
100
AcDbEntity
  8
タンク
  6
CONTINUOUS
 62
     6
100
AcDbLine
 10
1841.483046
 20
1352.127974
 30
0.0
 11
1841.483046
 21
1327.5688
 31
0.0
  0
LINE
  5
251
100
AcDbEntity
  8
タンク
  6
CONTINUOUS
 62
     6
100
AcDbLine
 10
1839.42079
 20
1326.996203
 30
0.0
 11
1819.483046
 21
1326.996203
 31
0.0
  0
ARC
  5
252
100
AcDbEntity
  8
タンク
  6
CONTINUOUS
 62
     6
100
AcDbCircle
 10
1839.42079
 20
1330.996203
 30
0.0
 40
4.0
100
AcDbArc
 50
270.0
 51
328.506104
  0
ARC
  5
253
100
AcDbEntity
  8
タンク
  6
CONTINUOUS
 62
     6
100
AcDbCircle
 10
1833.258025
 20
1390.996199
 30
0.0
 40
4.0
100
AcDbArc
 50
25.944489
 51
90.0
  0
ARC
  5
254
100
AcDbEntity
  8
タンク
  6
CONTINUOUS
 62
     6
100
AcDbCircle
 10
1869.093299
 20
1382.908583
 30
0.0
 40
29.247368
100
AcDbArc
 50
182.519958
 51
188.557007
  0
ARC
  5
255
100
AcDbEntity
  8
タンク
  6
CONTINUOUS
 62
     6
100
AcDbCircle
 10
1844.869384
 20
1381.842497
 30
0.0
 40
5.0
100
AcDbArc
 50
167.391174
 51
182.519958
  0
ARC
  5
256
100
AcDbEntity
  8
タンク
  6
CONTINUOUS
 62
     6
100
AcDbCircle
 10
1846.119528
 20
1373.992506
 30
0.0
 40
5.0
100
AcDbArc
 50
192.857056
 51
214.698669
  0
ARC
  5
257
100
AcDbEntity
  8
タンク
  6
CONTINUOUS
 62
     6
100
AcDbCircle
 10
1486.178282
 20
1316.514086
 30
0.0
 40
360.0
100
AcDbArc
 50
8.72937
 51
10.635132
  0
ARC
  5
258
100
AcDbEntity
  8
タンク
  6
CONTINUOUS
 62
     6
100
AcDbCircle
 10
1916.314376
 20
1390.013853
 30
0.0
 40
77.0
100
AcDbArc
 50
188.557007
 51
192.856995
  0
ARC
  5
259
100
AcDbEntity
  8
タンク
  6
CONTINUOUS
 62
     6
100
AcDbCircle
 10
1865.659941
 20
1376.757902
 30
0.0
 40
30.0
100
AcDbArc
 50
180.0
 51
206.603699
  0
LINE
  5
25A
100
AcDbEntity
  8
タンク
  6
CONTINUOUS
 62
     6
100
AcDbLine
 10
1835.659941
 20
1394.194762
 30
0.0
 11
1835.659941
 21
1376.757902
 31
0.0
  0
ARC
  5
25B
100
AcDbEntity
  8
タンク
  6
CONTINUOUS
 62
     6
100
AcDbCircle
 10
1804.483031
 20
1376.996199
 30
0.0
 40
36.0
100
AcDbArc
 50
9.493713
 51
25.944489
  0
ARC
  5
25C
100
AcDbEntity
  8
タンク
  6
CONTINUOUS
 62
     6
100
AcDbCircle
 10
1816.483054
 20
1352.127974
 30
0.0
 40
25.0
100
AcDbArc
 50
0.0
 51
26.603699
  0
ARC
  5
25D
100
AcDbEntity
  8
タンク
  6
CONTINUOUS
 62
     6
100
AcDbCircle
 10
1486.178282
 20
1316.514086
 30
0.0
 40
360.0
100
AcDbArc
 50
3.653961
 51
8.72937
  0
ARC
  5
25E
100
AcDbEntity
  8
タンク
  6
CONTINUOUS
 62
     7
100
AcDbCircle
 10
-8188.006485
 20
1404.478744
 30
0.0
 40
10000.0
100
AcDbArc
 50
359.918567
 51
0.083203
  0
ARC
  5
25F
100
AcDbEntity
  8
タンク
  6
CONTINUOUS
 62
     7
100
AcDbCircle
 10
11396.972427
 20
1404.478744
 30
0.0
 40
10000.0
100
AcDbArc
 50
179.916797
 51
180.081433
  0
LINE
  5
260
100
AcDbEntity
  8
タンク
  6
CONTINUOUS
 62
     6
100
AcDbLine
 10
1478.642282
 20
1483.000324
 30
0.0
 11
1479.215523
 21
1467.000324
 31
0.0
  0
LINE
  5
261
100
AcDbEntity
  8
タンク
  6
CONTINUOUS
 62
     6
100
AcDbLine
 10
1478.642282
 20
1483.000324
 30
0.0
 11
1428.503308
 21
1483.000324
 31
0.0
  0
LINE
  5
262
100
AcDbEntity
  8
タンク
  6
CONTINUOUS
 62
     7
100
AcDbLine
 10
1807.982971
 20
1422.000324
 30
0.0
 11
1396.982971
 21
1422.000324
 31
0.0
  0
LINE
  5
263
100
AcDbEntity
  8
タンク
  6
CONTINUOUS
 62
     7
100
AcDbLine
 10
1401.755578
 20
1467.000324
 30
0.0
 11
1807.210364
 21
1467.000324
 31
0.0
  0
LINE
  5
264
100
AcDbEntity
  8
タンク
  6
CONTINUOUS
 62
     7
100
AcDbLine
 10
1811.982971
 20
1422.000324
 30
0.0
 11
1401.755578
 21
1422.000324
 31
0.0
  0
LINE
  5
265
100
AcDbEntity
  8
タンク
  6
CONTINUOUS
 62
     7
100
AcDbLine
 10
1807.982971
 20
1422.000324
 30
0.0
 11
1401.755578
 21
1422.000324
 31
0.0
  0
ARC
  5
266
100
AcDbEntity
  8
タンク
  6
CONTINUOUS
 62
     7
100
AcDbCircle
 10
1397.982971
 20
1422.000324
 30
0.0
 40
3.0
100
AcDbArc
 50
270.0
 51
0.0
  0
LINE
  5
267
100
AcDbEntity
  8
タンク
  6
CONTINUOUS
 62
     7
100
AcDbLine
 10
1396.982971
 20
1419.000324
 30
0.0
 11
1397.982971
 21
1419.000324
 31
0.0
  0
ARC
  5
268
100
AcDbEntity
  8
タンク
  6
CONTINUOUS
 62
     7
100
AcDbCircle
 10
1427.500257
 20
1441.831995
 30
0.0
 40
50.0
100
AcDbArc
 50
104.698959
 51
123.656691
  0
ARC
  5
269
100
AcDbEntity
  8
タンク
  6
CONTINUOUS
 62
     7
100
AcDbCircle
 10
1402.560564
 20
1479.288793
 30
0.0
 40
5.0
100
AcDbArc
 50
123.656691
 51
177.334118
  0
LINE
  5
26A
100
AcDbEntity
  8
タンク
  6
CONTINUOUS
 62
     7
100
AcDbLine
 10
1394.985135
 20
1424.093347
 30
0.0
 11
1397.57189
 21
1479.648389
 31
0.0
  0
ARC
  5
26B
100
AcDbEntity
  8
タンク
  6
CONTINUOUS
 62
     7
100
AcDbCircle
 10
1401.755578
 20
1462.000324
 30
0.0
 40
5.0
100
AcDbArc
 50
90.0
 51
177.334118
  0
ARC
  5
26C
100
AcDbEntity
  8
タンク
  6
CONTINUOUS
 62
     7
100
AcDbCircle
 10
1396.982971
 20
1424.000324
 30
0.0
 40
2.0
100
AcDbArc
 50
177.334118
 51
270.0
  0
ARC
  5
26D
100
AcDbEntity
  8
タンク
  6
CONTINUOUS
 62
     6
100
AcDbCircle
 10
1429.08691
 20
1443.061096
 30
0.0
 40
38.80383
100
AcDbArc
 50
107.049391
 51
119.895806
  0
ARC
  5
26E
100
AcDbEntity
  8
タンク
  6
CONTINUOUS
 62
     6
100
AcDbCircle
 10
1412.23826
 20
1472.36676
 30
0.0
 40
5.0
100
AcDbArc
 50
119.895806
 51
177.334118
  0
LINE
  5
26F
100
AcDbEntity
  8
タンク
  6
CONTINUOUS
 62
     6
100
AcDbLine
 10
1406.982971
 20
1467.000324
 30
0.0
 11
1407.243671
 21
1472.599318
 31
0.0
  0
ARC
  5
270
100
AcDbEntity
  8
タンク
  6
CONTINUOUS
 62
     6
100
AcDbCircle
 10
1458.406506
 20
1347.455859
 30
0.0
 40
138.80383
100
AcDbArc
 50
102.441047
 51
107.049391
  0
ARC
  5
271
100
AcDbEntity
  8
タンク
  6
CONTINUOUS
 62
     7
100
AcDbCircle
 10
1452.874295
 20
1345.104759
 30
0.0
 40
150.0
100
AcDbArc
 50
93.698968
 51
104.698959
  0
ARC
  5
272
100
AcDbEntity
  8
タンク
  6
CONTINUOUS
 62
     6
100
AcDbCircle
 10
1750.559436
 20
1347.455859
 30
0.0
 40
138.80383
100
AcDbArc
 50
72.950609
 51
77.558953
  0
LINE
  5
273
100
AcDbEntity
  8
タンク
  6
CONTINUOUS
 62
     6
100
AcDbLine
 10
1801.982971
 20
1467.000324
 30
0.0
 11
1801.72227
 21
1472.599318
 31
0.0
  0
ARC
  5
274
100
AcDbEntity
  8
タンク
  6
CONTINUOUS
 62
     6
100
AcDbCircle
 10
1796.727682
 20
1472.36676
 30
0.0
 40
5.0
100
AcDbArc
 50
2.665882
 51
60.104194
  0
ARC
  5
275
100
AcDbEntity
  8
タンク
  6
CONTINUOUS
 62
     6
100
AcDbCircle
 10
1779.879032
 20
1443.061096
 30
0.0
 40
38.80383
100
AcDbArc
 50
60.104194
 51
72.950609
  0
LINE
  5
276
100
AcDbEntity
  8
タンク
  6
CONTINUOUS
 62
     6
100
AcDbLine
 10
1665.992222
 20
1483.000324
 30
0.0
 11
1665.41898
 21
1467.000324
 31
0.0
  0
LINE
  5
277
100
AcDbEntity
  8
タンク
  6
CONTINUOUS
 62
     6
100
AcDbLine
 10
1780.462634
 20
1483.000324
 30
0.0
 11
1665.992222
 21
1483.000324
 31
0.0
  0
ARC
  5
278
100
AcDbEntity
  8
タンク
  6
CONTINUOUS
 62
     6
100
AcDbCircle
 10
1572.317252
 20
-380.388935
 30
0.0
 40
1865.742353
100
AcDbArc
 50
87.12209
 51
92.87791
  0
ARC
  5
279
100
AcDbEntity
  8
タンク
  6
CONTINUOUS
 62
     7
100
AcDbCircle
 10
1811.982971
 20
1424.000324
 30
0.0
 40
2.0
100
AcDbArc
 50
270.0
 51
2.665882
  0
ARC
  5
27A
100
AcDbEntity
  8
タンク
  6
CONTINUOUS
 62
     7
100
AcDbCircle
 10
1807.210364
 20
1462.000324
 30
0.0
 40
5.0
100
AcDbArc
 50
2.665882
 51
90.0
  0
LINE
  5
27B
100
AcDbEntity
  8
タンク
  6
CONTINUOUS
 62
     7
100
AcDbLine
 10
1813.980806
 20
1424.093347
 30
0.0
 11
1811.394051
 21
1479.648389
 31
0.0
  0
ARC
  5
27C
100
AcDbEntity
  8
タンク
  6
CONTINUOUS
 62
     7
100
AcDbCircle
 10
1806.405378
 20
1479.288793
 30
0.0
 40
5.0
100
AcDbArc
 50
2.665882
 51
56.343309
  0
ARC
  5
27D
100
AcDbEntity
  8
タンク
  6
CONTINUOUS
 62
     7
100
AcDbCircle
 10
1781.465685
 20
1441.831995
 30
0.0
 40
50.0
100
AcDbArc
 50
56.343309
 51
75.301041
  0
ARC
  5
27E
100
AcDbEntity
  8
タンク
  6
CONTINUOUS
 62
     7
100
AcDbCircle
 10
1756.091647
 20
1345.104759
 30
0.0
 40
150.0
100
AcDbArc
 50
75.301041
 51
86.301032
  0
LINE
  5
27F
100
AcDbEntity
  8
タンク
  6
CONTINUOUS
 62
     7
100
AcDbLine
 10
1811.982971
 20
1419.000324
 30
0.0
 11
1810.982971
 21
1419.000324
 31
0.0
  0
ARC
  5
280
100
AcDbEntity
  8
タンク
  6
CONTINUOUS
 62
     7
100
AcDbCircle
 10
1810.982971
 20
1422.000324
 30
0.0
 40
3.0
100
AcDbArc
 50
180.0
 51
270.0
  0
ARC
  5
281
100
AcDbEntity
  8
タンク
  6
CONTINUOUS
 62
     6
100
AcDbCircle
 10
1508.80088
 20
1458.617693
 30
0.0
 40
190.0
100
AcDbArc
 50
8.792345
 51
14.426021
  0
LINE
  5
282
100
AcDbEntity
  8
タンク
  6
CONTINUOUS
 62
     6
100
AcDbLine
 10
1696.573233
 20
1487.659916
 30
0.0
 11
1662.392709
 21
1487.659916
 31
0.0
  0
ARC
  5
283
100
AcDbEntity
  8
タンク
  6
CONTINUOUS
 62
     6
100
AcDbCircle
 10
1522.588538
 20
1480.257641
 30
0.0
 40
140.0
100
AcDbArc
 50
3.030836
 51
7.684085
  0
ARC
  5
284
100
AcDbEntity
  8
タンク
  6
CONTINUOUS
 62
     6
100
AcDbCircle
 10
1165.821202
 20
1432.121709
 30
0.0
 40
500.0
100
AcDbArc
 50
7.684085
 51
14.14332
  0
LINE
  5
285
100
AcDbEntity
  8
タンク
  6
CONTINUOUS
 62
     6
100
AcDbLine
 10
1605.809757
 20
1586.254579
 30
0.0
 11
1608.717107
 21
1582.789735
 31
0.0
  0
ARC
  5
286
100
AcDbEntity
  8
タンク
  6
CONTINUOUS
 62
     6
100
AcDbCircle
 10
1611.455249
 20
1580.334641
 30
0.0
 40
2.0
100
AcDbArc
 50
183.130102
 51
265.0
  0
ARC
  5
287
100
AcDbEntity
  8
タンク
  6
CONTINUOUS
 62
     6
100
AcDbCircle
 10
1606.418974
 20
1580.861372
 30
0.0
 40
3.0
100
AcDbArc
 50
3.130102
 51
40.0
  0
ARC
  5
288
100
AcDbEntity
  8
タンク
  6
CONTINUOUS
 62
     6
100
AcDbCircle
 10
1607.341846
 20
1587.540154
 30
0.0
 40
2.0
100
AcDbArc
 50
173.764143
 51
220.0
  0
LINE
  5
289
100
AcDbEntity
  8
タンク
  6
CONTINUOUS
 62
     6
100
AcDbLine
 10
1609.414498
 20
1581.025182
 30
0.0
 11
1609.458232
 21
1580.225434
 31
0.0
  0
ARC
  5
28A
100
AcDbEntity
  8
タンク
  6
CONTINUOUS
 62
     6
100
AcDbCircle
 10
1627.923162
 20
1578.893885
 30
0.0
 40
2.0
100
AcDbArc
 50
265.0
 51
346.869898
  0
ARC
  5
28B
100
AcDbEntity
  8
タンク
  6
CONTINUOUS
 62
     6
100
AcDbCircle
 10
1616.72591
 20
1545.743643
 30
0.0
 40
35.0
100
AcDbArc
 50
14.14332
 51
68.061519
  0
LINE
  5
28C
100
AcDbEntity
  8
タンク
  6
CONTINUOUS
 62
     6
100
AcDbLine
 10
1627.748851
 20
1576.901496
 30
0.0
 11
1611.280937
 21
1578.342251
 31
0.0
  0
ARC
  5
28D
100
AcDbEntity
  8
タンク
  6
CONTINUOUS
 62
     6
100
AcDbCircle
 10
1645.117007
 20
1583.412537
 30
0.0
 40
40.0
100
AcDbArc
 50
148.66685
 51
173.764143
  0
ARC
  5
28E
100
AcDbEntity
  8
タンク
  6
CONTINUOUS
 62
     6
100
AcDbCircle
 10
1613.513155
 20
1602.653029
 30
0.0
 40
3.0
100
AcDbArc
 50
93.231139
 51
148.666857
  0
ARC
  5
28F
100
AcDbEntity
  8
タンク
  6
CONTINUOUS
 62
     6
100
AcDbCircle
 10
1208.575144
 20
1381.387469
 30
0.0
 40
500.0
100
AcDbArc
 50
14.426021
 51
21.933904
  0
ARC
  5
290
100
AcDbEntity
  8
タンク
  6
CONTINUOUS
 62
     6
100
AcDbCircle
 10
1616.72591
 20
1545.743643
 30
0.0
 40
60.0
100
AcDbArc
 50
21.933904
 51
93.23114
  0
LINE
  5
291
100
AcDbEntity
  8
タンク
  6
CONTINUOUS
 62
     6
100
AcDbLine
 10
1629.710352
 20
1584.760445
 30
0.0
 11
1607.032509
 21
1586.744499
 31
0.0
  0
LINE
  5
292
100
AcDbEntity
  8
タンク
  6
CONTINUOUS
 62
     6
100
AcDbLine
 10
1610.356089
 20
1581.936534
 30
0.0
 11
1629.114461
 21
1580.29539
 31
0.0
  0
ARC
  5
293
100
AcDbEntity
  8
タンク
  6
CONTINUOUS
 62
     6
100
AcDbCircle
 10
1726.579528
 20
561.669899
 30
0.0
 40
20.0
100
AcDbArc
 50
178.926778
 51
211.259766
  0
ARC
  5
294
100
AcDbEntity
  8
タンク
  6
CONTINUOUS
 62
     6
100
AcDbCircle
 10
1692.386413
 20
561.669899
 30
0.0
 40
20.0
100
AcDbArc
 50
328.740234
 51
342.534423
  0
LINE
  5
295
100
AcDbEntity
  8
タンク
  6
CONTINUOUS
 62
     6
100
AcDbLine
 10
1706.583037
 20
562.044502
 30
0.0
 11
1706.583037
 21
582.000052
 31
0.0
  0
LINE
  5
296
100
AcDbEntity
  8
タンク
  6
CONTINUOUS
 62
     6
100
AcDbLine
 10
1502.382905
 20
562.044502
 30
0.0
 11
1502.382905
 21
582.000052
 31
0.0
  0
ARC
  5
297
100
AcDbEntity
  8
タンク
  6
CONTINUOUS
 62
     6
100
AcDbCircle
 10
1516.579528
 20
561.669899
 30
0.0
 40
20.0
100
AcDbArc
 50
197.465577
 51
211.259766
  0
ARC
  5
298
100
AcDbEntity
  8
タンク
  6
CONTINUOUS
 62
     6
100
AcDbCircle
 10
1482.386413
 20
561.669899
 30
0.0
 40
20.0
100
AcDbArc
 50
328.740234
 51
1.073222
  0
ARC
  5
299
100
AcDbEntity
  8
タンク
  6
CONTINUOUS
 62
     6
100
AcDbCircle
 10
1696.423631
 20
561.669899
 30
0.0
 40
20.0
100
AcDbArc
 50
328.740234
 51
1.073222
  0
ARC
  5
29A
100
AcDbEntity
  8
タンク
  6
CONTINUOUS
 62
     6
100
AcDbCircle
 10
1730.616746
 20
561.669899
 30
0.0
 40
20.0
100
AcDbArc
 50
178.926758
 51
211.259766
  0
LINE
  5
29B
100
AcDbEntity
  8
タンク
  6
CONTINUOUS
 62
     6
100
AcDbLine
 10
1710.620103
 20
562.044502
 30
0.0
 11
1710.620103
 21
582.000052
 31
0.0
  0
LINE
  5
29C
100
AcDbEntity
  8
タンク
  6
CONTINUOUS
 62
     6
100
AcDbLine
 10
1716.419969
 20
562.044502
 30
0.0
 11
1716.419969
 21
582.000052
 31
0.0
  0
LINE
  5
29D
100
AcDbEntity
  8
タンク
  6
EXLTYPE2
 62
     6
100
AcDbLine
 10
1703.482971
 20
582.000324
 30
0.0
 11
1723.482971
 21
582.000324
 31
0.0
  0
LINE
  5
29E
100
AcDbEntity
  8
タンク
  6
EXLTYPE2
 62
     6
100
AcDbLine
 10
1703.482971
 20
626.58611
 30
0.0
 11
1703.482971
 21
582.000324
 31
0.0
  0
ARC
  5
29F
100
AcDbEntity
  8
タンク
  6
EXLTYPE2
 62
     6
100
AcDbCircle
 10
1704.482971
 20
626.58611
 30
0.0
 40
1.0
100
AcDbArc
 50
135.0
 51
180.0
  0
LINE
  5
2A0
100
AcDbEntity
  8
タンク
  6
EXLTYPE2
 62
     6
100
AcDbLine
 10
1723.482971
 20
626.58611
 30
0.0
 11
1723.482971
 21
582.000324
 31
0.0
  0
ARC
  5
2A1
100
AcDbEntity
  8
タンク
  6
EXLTYPE2
 62
     6
100
AcDbCircle
 10
1722.482971
 20
626.58611
 30
0.0
 40
1.0
100
AcDbArc
 50
0.0
 51
45.0
  0
LINE
  5
2A2
100
AcDbEntity
  8
タンク
  6
EXLTYPE2
 62
     6
100
AcDbLine
 10
1718.775864
 20
631.707431
 30
0.0
 11
1723.190078
 21
627.293217
 31
0.0
  0
LINE
  5
2A3
100
AcDbEntity
  8
タンク
  6
EXLTYPE2
 62
     6
100
AcDbLine
 10
1708.190078
 20
631.707431
 30
0.0
 11
1703.775864
 21
627.293217
 31
0.0
  0
LINE
  5
2A4
100
AcDbEntity
  8
タンク
  6
EXLTYPE2
 62
     6
100
AcDbLine
 10
1708.897184
 20
632.000324
 30
0.0
 11
1718.068757
 21
632.000324
 31
0.0
  0
LINE
  5
2A5
100
AcDbEntity
  8
タンク
  6
EXLTYPE2
 62
     6
100
AcDbLine
 10
1704.482971
 20
594.000324
 30
0.0
 11
1722.482971
 21
594.000324
 31
0.0
  0
ARC
  5
2A6
100
AcDbEntity
  8
タンク
  6
EXLTYPE2
 62
     6
100
AcDbCircle
 10
1718.068757
 20
631.000324
 30
0.0
 40
1.0
100
AcDbArc
 50
45.0
 51
90.0
  0
ARC
  5
2A7
100
AcDbEntity
  8
タンク
  6
EXLTYPE2
 62
     6
100
AcDbCircle
 10
1708.897184
 20
631.000324
 30
0.0
 40
1.0
100
AcDbArc
 50
90.0
 51
135.0
  0
ARC
  5
2A8
100
AcDbEntity
  8
タンク
  6
EXLTYPE2
 62
     6
100
AcDbCircle
 10
1704.482971
 20
593.000324
 30
0.0
 40
1.0
100
AcDbArc
 50
90.0
 51
180.0
  0
ARC
  5
2A9
100
AcDbEntity
  8
タンク
  6
EXLTYPE2
 62
     6
100
AcDbCircle
 10
1722.482971
 20
593.000324
 30
0.0
 40
1.0
100
AcDbArc
 50
0.0
 51
90.0
  0
LINE
  5
2AA
100
AcDbEntity
  8
タンク
  6
EXLTYPE2
 62
     6
100
AcDbLine
 10
1706.982971
 20
594.000324
 30
0.0
 11
1719.982971
 21
594.000324
 31
0.0
  0
ARC
  5
2AB
100
AcDbEntity
  8
タンク
  6
CONTINUOUS
 62
     6
100
AcDbCircle
 10
1478.423631
 20
561.669899
 30
0.0
 40
20.0
100
AcDbArc
 50
328.740234
 51
1.073222
  0
ARC
  5
2AC
100
AcDbEntity
  8
タンク
  6
CONTINUOUS
 62
     6
100
AcDbCircle
 10
1512.616746
 20
561.669899
 30
0.0
 40
20.0
100
AcDbArc
 50
178.926758
 51
211.259766
  0
LINE
  5
2AD
100
AcDbEntity
  8
タンク
  6
CONTINUOUS
 62
     6
100
AcDbLine
 10
1492.620103
 20
562.044502
 30
0.0
 11
1492.620103
 21
582.000052
 31
0.0
  0
LINE
  5
2AE
100
AcDbEntity
  8
タンク
  6
CONTINUOUS
 62
     6
100
AcDbLine
 10
1498.419969
 20
562.044502
 30
0.0
 11
1498.419969
 21
582.000052
 31
0.0
  0
LINE
  5
2AF
100
AcDbEntity
  8
タンク
  6
EXLTYPE2
 62
     6
100
AcDbLine
 10
1485.482971
 20
582.000324
 30
0.0
 11
1505.482971
 21
582.000324
 31
0.0
  0
LINE
  5
2B0
100
AcDbEntity
  8
タンク
  6
EXLTYPE2
 62
     6
100
AcDbLine
 10
1485.482971
 20
626.58611
 30
0.0
 11
1485.482971
 21
582.000324
 31
0.0
  0
ARC
  5
2B1
100
AcDbEntity
  8
タンク
  6
EXLTYPE2
 62
     6
100
AcDbCircle
 10
1486.482971
 20
626.58611
 30
0.0
 40
1.0
100
AcDbArc
 50
135.0
 51
180.0
  0
LINE
  5
2B2
100
AcDbEntity
  8
タンク
  6
EXLTYPE2
 62
     6
100
AcDbLine
 10
1505.482971
 20
626.58611
 30
0.0
 11
1505.482971
 21
582.000324
 31
0.0
  0
ARC
  5
2B3
100
AcDbEntity
  8
タンク
  6
EXLTYPE2
 62
     6
100
AcDbCircle
 10
1504.482971
 20
626.58611
 30
0.0
 40
1.0
100
AcDbArc
 50
0.0
 51
45.0
  0
LINE
  5
2B4
100
AcDbEntity
  8
タンク
  6
EXLTYPE2
 62
     6
100
AcDbLine
 10
1500.775864
 20
631.707431
 30
0.0
 11
1505.190078
 21
627.293217
 31
0.0
  0
LINE
  5
2B5
100
AcDbEntity
  8
タンク
  6
EXLTYPE2
 62
     6
100
AcDbLine
 10
1490.190078
 20
631.707431
 30
0.0
 11
1485.775864
 21
627.293217
 31
0.0
  0
LINE
  5
2B6
100
AcDbEntity
  8
タンク
  6
EXLTYPE2
 62
     6
100
AcDbLine
 10
1490.897184
 20
632.000324
 30
0.0
 11
1500.068757
 21
632.000324
 31
0.0
  0
LINE
  5
2B7
100
AcDbEntity
  8
タンク
  6
EXLTYPE2
 62
     6
100
AcDbLine
 10
1486.482971
 20
594.000324
 30
0.0
 11
1504.482971
 21
594.000324
 31
0.0
  0
ARC
  5
2B8
100
AcDbEntity
  8
タンク
  6
EXLTYPE2
 62
     6
100
AcDbCircle
 10
1500.068757
 20
631.000324
 30
0.0
 40
1.0
100
AcDbArc
 50
45.0
 51
90.0
  0
ARC
  5
2B9
100
AcDbEntity
  8
タンク
  6
EXLTYPE2
 62
     6
100
AcDbCircle
 10
1490.897184
 20
631.000324
 30
0.0
 40
1.0
100
AcDbArc
 50
90.0
 51
135.0
  0
ARC
  5
2BA
100
AcDbEntity
  8
タンク
  6
EXLTYPE2
 62
     6
100
AcDbCircle
 10
1486.482971
 20
593.000324
 30
0.0
 40
1.0
100
AcDbArc
 50
90.0
 51
180.0
  0
ARC
  5
2BB
100
AcDbEntity
  8
タンク
  6
EXLTYPE2
 62
     6
100
AcDbCircle
 10
1504.482971
 20
593.000324
 30
0.0
 40
1.0
100
AcDbArc
 50
0.0
 51
90.0
  0
LINE
  5
2BC
100
AcDbEntity
  8
タンク
  6
EXLTYPE2
 62
     6
100
AcDbLine
 10
1488.982971
 20
594.000324
 30
0.0
 11
1501.982971
 21
594.000324
 31
0.0
  0
ARC
  5
2BD
100
AcDbEntity
  8
タンク
  6
CONTINUOUS
 62
     7
100
AcDbCircle
 10
3896.980002
 20
1393.81919
 30
0.0
 40
2500.0
100
AcDbArc
 50
180.081433
 51
188.394815
  0
ARC
  5
2BE
100
AcDbEntity
  8
タンク
  6
CONTINUOUS
 62
     7
100
AcDbCircle
 10
-688.01406
 20
1393.81919
 30
0.0
 40
2500.0
100
AcDbArc
 50
351.591094
 51
359.918567
  0
ARC
  5
2BF
100
AcDbEntity
  8
タンク
  6
CONTINUOUS
 62
     6
100
AcDbCircle
 10
1422.567159
 20
687.173606
 30
0.0
 40
45.0
100
AcDbArc
 50
270.0
 51
0.0
  0
ARC
  5
2C0
100
AcDbEntity
  8
タンク
  6
CONTINUOUS
 62
     6
100
AcDbCircle
 10
1422.567159
 20
687.173606
 30
0.0
 40
58.0
100
AcDbArc
 50
270.0
 51
322.317108
  0
LINE
  5
2C1
100
AcDbEntity
  8
タンク
  6
CONTINUOUS
 62
     6
100
AcDbLine
 10
1467.567159
 20
885.111506
 30
0.0
 11
1467.567159
 21
687.173606
 31
0.0
  0
LINE
  5
2C2
100
AcDbEntity
  8
止水栓
  6
CONTINUOUS
 62
     6
100
AcDbLine
 10
416.9775
 20
2240.142945
 30
0.0
 11
416.9775
 21
2250.773325
 31
0.0
  0
LINE
  5
2C3
100
AcDbEntity
  8
止水栓
  6
CONTINUOUS
 62
     6
100
AcDbLine
 10
415.8155
 20
2250.773325
 30
0.0
 11
415.8155
 21
2246.998764
 31
0.0
  0
LINE
  5
2C4
100
AcDbEntity
  8
止水栓
  6
CONTINUOUS
 62
     6
100
AcDbLine
 10
397.1845
 20
2250.773325
 30
0.0
 11
397.1845
 21
2246.998764
 31
0.0
  0
LINE
  5
2C5
100
AcDbEntity
  8
止水栓
  6
CONTINUOUS
 62
     6
100
AcDbLine
 10
396.0225
 20
2240.142945
 30
0.0
 11
396.0225
 21
2250.773325
 31
0.0
  0
LINE
  5
2C6
100
AcDbEntity
  8
止水栓
  6
CONTINUOUS
 62
     6
100
AcDbLine
 10
397.1845
 20
2246.998764
 30
0.0
 11
395.970802
 21
2244.896547
 31
0.0
  0
LINE
  5
2C7
100
AcDbEntity
  8
止水栓
  6
CONTINUOUS
 62
     6
100
AcDbLine
 10
415.8155
 20
2246.998764
 30
0.0
 11
417.029198
 21
2244.896547
 31
0.0
  0
LINE
  5
2C8
100
AcDbEntity
  8
止水栓
  6
CONTINUOUS
 62
     6
100
AcDbLine
 10
416.9775
 20
2246.998764
 30
0.0
 11
396.0225
 21
2246.998764
 31
0.0
  0
CIRCLE
  5
2C9
100
AcDbEntity
  8
止水栓
  6
CONTINUOUS
 62
     6
100
AcDbCircle
 10
406.5
 20
2226.998764
 30
0.0
 40
12.0
  0
CIRCLE
  5
2CA
100
AcDbEntity
  8
止水栓
  6
CONTINUOUS
 62
     6
100
AcDbCircle
 10
406.5
 20
2226.998764
 30
0.0
 40
9.959438
  0
CIRCLE
  5
2CB
100
AcDbEntity
  8
止水栓
  6
CONTINUOUS
 62
     6
100
AcDbCircle
 10
406.5
 20
2226.998764
 30
0.0
 40
9.273367
  0
ARC
  5
2CC
100
AcDbEntity
  8
止水栓
  6
CONTINUOUS
 62
     6
100
AcDbCircle
 10
350.5225
 20
2240.142945
 30
0.0
 40
45.5
100
AcDbArc
 50
346.785665
 51
0.0
  0
ARC
  5
2CD
100
AcDbEntity
  8
止水栓
  6
CONTINUOUS
 62
     6
100
AcDbCircle
 10
462.4775
 20
2240.142945
 30
0.0
 40
45.5
100
AcDbArc
 50
180.0
 51
193.214335
  0
LINE
  5
2CE
100
AcDbEntity
  8
止水栓
  6
CONTINUOUS
 62
     6
100
AcDbLine
 10
397.280815
 20
2227.99974
 30
0.0
 11
415.719185
 21
2227.99974
 31
0.0
  0
LINE
  5
2CF
100
AcDbEntity
  8
止水栓
  6
CONTINUOUS
 62
     6
100
AcDbLine
 10
415.71945
 20
2226.000229
 30
0.0
 11
397.28055
 21
2226.000229
 31
0.0
  0
LINE
  5
2D0
100
AcDbEntity
  8
止水栓
  6
EXLTYPE2
 62
     6
100
AcDbLine
 10
332.162016
 20
2217.570568
 30
0.0
 11
330.967323
 21
2217.533234
 31
0.0
  0
LINE
  5
2D1
100
AcDbEntity
  8
止水栓
  6
EXLTYPE2
 62
     6
100
AcDbLine
 10
332.162016
 20
2236.4294
 30
0.0
 11
330.967323
 21
2236.466734
 31
0.0
  0
LINE
  5
2D2
100
AcDbEntity
  8
止水栓
  6
EXLTYPE2
 62
     6
100
AcDbLine
 10
332.162016
 20
2216.699984
 30
0.0
 11
322.5
 21
2216.699984
 31
0.0
  0
LINE
  5
2D3
100
AcDbEntity
  8
止水栓
  6
EXLTYPE2
 62
     6
100
AcDbLine
 10
332.162016
 20
2237.299984
 30
0.0
 11
322.5
 21
2237.299984
 31
0.0
  0
LINE
  5
2D4
100
AcDbEntity
  8
止水栓
  6
EXLTYPE2
 62
     6
100
AcDbLine
 10
333.3231
 20
2242.011056
 30
0.0
 11
340.756886
 21
2242.011056
 31
0.0
  0
LINE
  5
2D5
100
AcDbEntity
  8
止水栓
  6
EXLTYPE2
 62
     6
100
AcDbLine
 10
340.756886
 20
2242.011056
 30
0.0
 11
341.91797
 21
2240.0
 31
0.0
  0
LINE
  5
2D6
100
AcDbEntity
  8
止水栓
  6
EXLTYPE2
 62
     6
100
AcDbLine
 10
344.687016
 20
2239.0
 30
0.0
 11
343.650021
 21
2239.0
 31
0.0
  0
ARC
  5
2D7
100
AcDbEntity
  8
止水栓
  6
EXLTYPE2
 62
     6
100
AcDbCircle
 10
343.650021
 20
2241.0
 30
0.0
 40
2.0
100
AcDbArc
 50
210.0
 51
270.0
  0
ARC
  5
2D8
100
AcDbEntity
  8
止水栓
  6
EXLTYPE2
 62
     6
100
AcDbCircle
 10
343.650021
 20
2213.0
 30
0.0
 40
2.0
100
AcDbArc
 50
90.0
 51
150.0
  0
LINE
  5
2D9
100
AcDbEntity
  8
止水栓
  6
EXLTYPE2
 62
     6
100
AcDbLine
 10
333.278471
 20
2211.988943
 30
0.0
 11
340.756886
 21
2211.988943
 31
0.0
  0
LINE
  5
2DA
100
AcDbEntity
  8
止水栓
  6
EXLTYPE2
 62
     6
100
AcDbLine
 10
340.756886
 20
2211.988943
 30
0.0
 11
341.91797
 21
2214.0
 31
0.0
  0
LINE
  5
2DB
100
AcDbEntity
  8
止水栓
  6
EXLTYPE2
 62
     6
100
AcDbLine
 10
333.3231
 20
2242.011056
 30
0.0
 11
332.162016
 21
2240.0
 31
0.0
  0
LINE
  5
2DC
100
AcDbEntity
  8
止水栓
  6
EXLTYPE2
 62
     6
100
AcDbLine
 10
333.278471
 20
2212.066243
 30
0.0
 11
332.162016
 21
2214.0
 31
0.0
  0
ARC
  5
2DD
100
AcDbEntity
  8
止水栓
  6
EXLTYPE2
 62
     6
100
AcDbCircle
 10
339.027254
 20
2215.741695
 30
0.0
 40
6.865249
100
AcDbArc
 50
146.863877
 51
203.155204
  0
LINE
  5
2DE
100
AcDbEntity
  8
止水栓
  6
EXLTYPE2
 62
     6
100
AcDbLine
 10
333.278471
 20
2219.494446
 30
0.0
 11
340.756886
 21
2219.494446
 31
0.0
  0
ARC
  5
2DF
100
AcDbEntity
  8
止水栓
  6
EXLTYPE2
 62
     6
100
AcDbCircle
 10
335.008103
 20
2215.741695
 30
0.0
 40
6.865249
100
AcDbArc
 50
326.863877
 51
33.136123
  0
ARC
  5
2E0
100
AcDbEntity
  8
止水栓
  6
EXLTYPE2
 62
     6
100
AcDbCircle
 10
335.008103
 20
2238.21846
 30
0.0
 40
6.865249
100
AcDbArc
 50
326.863877
 51
33.136123
  0
ARC
  5
2E1
100
AcDbEntity
  8
止水栓
  6
EXLTYPE2
 62
     6
100
AcDbCircle
 10
339.027254
 20
2238.21846
 30
0.0
 40
6.865249
100
AcDbArc
 50
156.844796
 51
213.136123
  0
ARC
  5
2E2
100
AcDbEntity
  8
止水栓
  6
EXLTYPE2
 62
     6
100
AcDbCircle
 10
357.948906
 20
2227.0
 30
0.0
 40
25.78689
100
AcDbArc
 50
163.141624
 51
196.921477
  0
LINE
  5
2E3
100
AcDbEntity
  8
止水栓
  6
EXLTYPE2
 62
     6
100
AcDbLine
 10
333.278471
 20
2234.465708
 30
0.0
 11
340.756886
 21
2234.465708
 31
0.0
  0
ARC
  5
2E4
100
AcDbEntity
  8
止水栓
  6
EXLTYPE2
 62
     6
100
AcDbCircle
 10
316.086451
 20
2227.0
 30
0.0
 40
25.78689
100
AcDbArc
 50
343.078523
 51
16.828962
  0
LINE
  5
2E5
100
AcDbEntity
  8
止水栓
  6
EXLTYPE2
 62
     6
100
AcDbLine
 10
332.162016
 20
2214.0
 30
0.0
 11
332.162016
 21
2240.0
 31
0.0
  0
LINE
  5
2E6
100
AcDbEntity
  8
止水栓
  6
EXLTYPE2
 62
     6
100
AcDbLine
 10
381.161252
 20
2215.0
 30
0.0
 11
343.650021
 21
2215.0
 31
0.0
  0
LINE
  5
2E7
100
AcDbEntity
  8
止水栓
  6
EXLTYPE2
 62
     6
100
AcDbLine
 10
381.161252
 20
2239.0
 30
0.0
 11
344.687016
 21
2239.0
 31
0.0
  0
LINE
  5
2E8
100
AcDbEntity
  8
止水栓
  6
EXLTYPE2
 62
     6
100
AcDbLine
 10
381.161252
 20
2239.0
 30
0.0
 11
381.161252
 21
2215.0
 31
0.0
  0
LINE
  5
2E9
100
AcDbEntity
  8
止水栓
  6
EXLTYPE2
 62
     6
100
AcDbLine
 10
381.861252
 20
2218.0
 30
0.0
 11
381.161252
 21
2218.0
 31
0.0
  0
LINE
  5
2EA
100
AcDbEntity
  8
止水栓
  6
EXLTYPE2
 62
     6
100
AcDbLine
 10
381.861252
 20
2236.0
 30
0.0
 11
381.161252
 21
2236.0
 31
0.0
  0
LINE
  5
2EB
100
AcDbEntity
  8
止水栓
  6
EXLTYPE2
 62
     6
100
AcDbLine
 10
381.861252
 20
2226.1
 30
0.0
 11
381.161252
 21
2226.1
 31
0.0
  0
LINE
  5
2EC
100
AcDbEntity
  8
止水栓
  6
EXLTYPE2
 62
     6
100
AcDbLine
 10
381.861252
 20
2227.9
 30
0.0
 11
381.161252
 21
2227.9
 31
0.0
  0
LINE
  5
2ED
100
AcDbEntity
  8
止水栓
  6
EXLTYPE2
 62
     6
100
AcDbLine
 10
381.861252
 20
2227.9
 30
0.0
 11
381.861252
 21
2236.0
 31
0.0
  0
LINE
  5
2EE
100
AcDbEntity
  8
止水栓
  6
EXLTYPE2
 62
     6
100
AcDbLine
 10
381.861252
 20
2226.1
 30
0.0
 11
381.861252
 21
2218.0
 31
0.0
  0
LINE
  5
2EF
100
AcDbEntity
  8
止水栓
  6
EXLTYPE2
 62
     6
100
AcDbLine
 10
299.84
 20
2216.730609
 30
0.0
 11
299.84
 21
2226.998764
 31
0.0
  0
LINE
  5
2F0
100
AcDbEntity
  8
止水栓
  6
EXLTYPE2
 62
     6
100
AcDbLine
 10
330.967323
 20
2236.466734
 30
0.0
 11
329.524091
 21
2237.299984
 31
0.0
  0
LINE
  5
2F1
100
AcDbEntity
  8
止水栓
  6
EXLTYPE2
 62
     6
100
AcDbLine
 10
330.967323
 20
2216.699984
 30
0.0
 11
330.967323
 21
2237.299984
 31
0.0
  0
LINE
  5
2F2
100
AcDbEntity
  8
止水栓
  6
EXLTYPE2
 62
     6
100
AcDbLine
 10
330.967323
 20
2217.533234
 30
0.0
 11
329.524091
 21
2216.699984
 31
0.0
  0
LINE
  5
2F3
100
AcDbEntity
  8
止水栓
  6
EXLTYPE2
 62
     6
100
AcDbLine
 10
306.5
 20
2199.499984
 30
0.0
 11
308.5
 21
2199.499984
 31
0.0
  0
ARC
  5
2F4
100
AcDbEntity
  8
止水栓
  6
EXLTYPE2
 62
     6
100
AcDbCircle
 10
308.5
 20
2213.499984
 30
0.0
 40
14.0
100
AcDbArc
 50
270.0
 51
0.0
  0
LINE
  5
2F5
100
AcDbEntity
  8
止水栓
  6
EXLTYPE2
 62
     6
100
AcDbLine
 10
306.5
 20
2254.499984
 30
0.0
 11
308.5
 21
2254.499984
 31
0.0
  0
ARC
  5
2F6
100
AcDbEntity
  8
止水栓
  6
EXLTYPE2
 62
     6
100
AcDbCircle
 10
308.5
 20
2240.499984
 30
0.0
 40
14.0
100
AcDbArc
 50
0.0
 51
90.0
  0
LINE
  5
2F7
100
AcDbEntity
  8
止水栓
  6
EXLTYPE2
 62
     6
100
AcDbLine
 10
322.5
 20
2240.499984
 30
0.0
 11
322.5
 21
2213.499984
 31
0.0
  0
LINE
  5
2F8
100
AcDbEntity
  8
止水栓
  6
EXLTYPE2
 62
     6
100
AcDbLine
 10
300.82
 20
2237.299984
 30
0.0
 11
299.84
 21
2237.269359
 31
0.0
  0
LINE
  5
2F9
100
AcDbEntity
  8
止水栓
  6
EXLTYPE2
 62
     6
100
AcDbLine
 10
306.5
 20
2237.299984
 30
0.0
 11
300.82
 21
2237.299984
 31
0.0
  0
LINE
  5
2FA
100
AcDbEntity
  8
止水栓
  6
EXLTYPE2
 62
     6
100
AcDbLine
 10
299.839
 20
2237.268359
 30
0.0
 11
298.34
 21
2235.769359
 31
0.0
  0
LINE
  5
2FB
100
AcDbEntity
  8
止水栓
  6
EXLTYPE2
 62
     6
100
AcDbLine
 10
298.660516
 20
2236.0705
 30
0.0
 11
306.5
 21
2236.315484
 31
0.0
  0
LINE
  5
2FC
100
AcDbEntity
  8
止水栓
  6
EXLTYPE2
 62
     6
100
AcDbLine
 10
298.34
 20
2218.230609
 30
0.0
 11
298.34
 21
2235.769359
 31
0.0
  0
LINE
  5
2FD
100
AcDbEntity
  8
止水栓
  6
EXLTYPE2
 62
     6
100
AcDbLine
 10
299.839
 20
2216.731609
 30
0.0
 11
298.34
 21
2218.230609
 31
0.0
  0
LINE
  5
2FE
100
AcDbEntity
  8
止水栓
  6
EXLTYPE2
 62
     6
100
AcDbLine
 10
300.82
 20
2216.699984
 30
0.0
 11
299.84
 21
2216.730609
 31
0.0
  0
LINE
  5
2FF
100
AcDbEntity
  8
止水栓
  6
EXLTYPE2
 62
     6
100
AcDbLine
 10
298.660516
 20
2217.929468
 30
0.0
 11
306.5
 21
2217.684484
 31
0.0
  0
LINE
  5
300
100
AcDbEntity
  8
止水栓
  6
EXLTYPE2
 62
     6
100
AcDbLine
 10
306.5
 20
2216.699984
 30
0.0
 11
300.82
 21
2216.699984
 31
0.0
  0
ARC
  5
301
100
AcDbEntity
  8
止水栓
  6
CONTINUOUS
 62
     6
100
AcDbCircle
 10
406.5
 20
2226.998764
 30
0.0
 40
27.5
100
AcDbArc
 50
202.867054
 51
64.996095
  0
ARC
  5
302
100
AcDbEntity
  8
止水栓
  6
CONTINUOUS
 62
     6
100
AcDbCircle
 10
406.5
 20
2226.998764
 30
0.0
 40
27.5
100
AcDbArc
 50
114.999267
 51
157.132946
  0
ARC
  5
303
100
AcDbEntity
  8
止水栓
  6
CONTINUOUS
 62
     6
100
AcDbCircle
 10
416.141113
 20
572.701014
 30
0.0
 40
25.298605
100
AcDbArc
 50
66.794876
 51
90.0
  0
LINE
  5
304
100
AcDbEntity
  8
止水栓
  6
CONTINUOUS
 62
     6
100
AcDbLine
 10
396.856445
 20
598.001307
 30
0.0
 11
416.141113
 21
598.001307
 31
0.0
  0
LINE
  5
305
100
AcDbEntity
  8
止水栓
  6
CONTINUOUS
 62
     6
100
AcDbLine
 10
416.769907
 20
604.648295
 30
0.0
 11
416.769907
 21
597.985095
 31
0.0
  0
LINE
  5
306
100
AcDbEntity
  8
止水栓
  6
CONTINUOUS
 62
     6
100
AcDbLine
 10
396.269907
 20
604.648295
 30
0.0
 11
396.269907
 21
597.985095
 31
0.0
  0
LINE
  5
307
100
AcDbEntity
  8
止水栓
  6
CONTINUOUS
 62
     6
100
AcDbLine
 10
416.769907
 20
604.648295
 30
0.0
 11
415.715739
 21
606.455618
 31
0.0
  0
LINE
  5
308
100
AcDbEntity
  8
止水栓
  6
CONTINUOUS
 62
     6
100
AcDbLine
 10
415.679867
 20
607.66234
 30
0.0
 11
415.715739
 21
606.455618
 31
0.0
  0
LINE
  5
309
100
AcDbEntity
  8
止水栓
  6
CONTINUOUS
 62
     6
100
AcDbLine
 10
391.488928
 20
608.823424
 30
0.0
 11
391.488928
 21
616.25721
 31
0.0
  0
LINE
  5
30A
100
AcDbEntity
  8
止水栓
  6
CONTINUOUS
 62
     6
100
AcDbLine
 10
391.488928
 20
616.25721
 30
0.0
 11
393.499985
 21
617.418294
 31
0.0
  0
LINE
  5
30B
100
AcDbEntity
  8
止水栓
  6
CONTINUOUS
 62
     6
100
AcDbLine
 10
394.499985
 20
620.18734
 30
0.0
 11
394.499985
 21
619.150345
 31
0.0
  0
ARC
  5
30C
100
AcDbEntity
  8
止水栓
  6
CONTINUOUS
 62
     6
100
AcDbCircle
 10
392.499985
 20
619.150345
 30
0.0
 40
2.0
100
AcDbArc
 50
300.0
 51
0.0
  0
ARC
  5
30D
100
AcDbEntity
  8
止水栓
  6
CONTINUOUS
 62
     6
100
AcDbCircle
 10
420.499985
 20
619.150345
 30
0.0
 40
2.0
100
AcDbArc
 50
180.0
 51
240.0
  0
LINE
  5
30E
100
AcDbEntity
  8
止水栓
  6
CONTINUOUS
 62
     6
100
AcDbLine
 10
421.511041
 20
608.778795
 30
0.0
 11
421.511041
 21
616.25721
 31
0.0
  0
LINE
  5
30F
100
AcDbEntity
  8
止水栓
  6
CONTINUOUS
 62
     6
100
AcDbLine
 10
421.511041
 20
616.25721
 30
0.0
 11
419.499985
 21
617.418294
 31
0.0
  0
LINE
  5
310
100
AcDbEntity
  8
止水栓
  6
CONTINUOUS
 62
     6
100
AcDbLine
 10
391.488928
 20
608.823424
 30
0.0
 11
393.499985
 21
607.66234
 31
0.0
  0
LINE
  5
311
100
AcDbEntity
  8
止水栓
  6
CONTINUOUS
 62
     6
100
AcDbLine
 10
421.433741
 20
608.778795
 30
0.0
 11
419.499985
 21
607.66234
 31
0.0
  0
LINE
  5
312
100
AcDbEntity
  8
止水栓
  6
CONTINUOUS
 62
     6
100
AcDbLine
 10
416.680309
 20
607.66234
 30
0.0
 11
416.769907
 21
604.648295
 31
0.0
  0
ARC
  5
313
100
AcDbEntity
  8
止水栓
  6
CONTINUOUS
 62
     6
100
AcDbCircle
 10
417.758289
 20
614.527578
 30
0.0
 40
6.865249
100
AcDbArc
 50
236.863877
 51
293.155204
  0
LINE
  5
314
100
AcDbEntity
  8
止水栓
  6
CONTINUOUS
 62
     6
100
AcDbLine
 10
414.005538
 20
608.778795
 30
0.0
 11
414.005538
 21
616.25721
 31
0.0
  0
ARC
  5
315
100
AcDbEntity
  8
止水栓
  6
CONTINUOUS
 62
     6
100
AcDbCircle
 10
417.758289
 20
610.508427
 30
0.0
 40
6.865249
100
AcDbArc
 50
56.863877
 51
123.136123
  0
ARC
  5
316
100
AcDbEntity
  8
止水栓
  6
CONTINUOUS
 62
     6
100
AcDbCircle
 10
395.281525
 20
610.508427
 30
0.0
 40
6.865249
100
AcDbArc
 50
56.863877
 51
123.136123
  0
ARC
  5
317
100
AcDbEntity
  8
止水栓
  6
CONTINUOUS
 62
     6
100
AcDbCircle
 10
395.281525
 20
614.527578
 30
0.0
 40
6.865249
100
AcDbArc
 50
246.844796
 51
303.136123
  0
LINE
  5
318
100
AcDbEntity
  8
止水栓
  6
CONTINUOUS
 62
     6
100
AcDbLine
 10
396.269907
 20
604.648295
 30
0.0
 11
397.324075
 21
606.455618
 31
0.0
  0
LINE
  5
319
100
AcDbEntity
  8
止水栓
  6
CONTINUOUS
 62
     6
100
AcDbLine
 10
397.359947
 20
607.66234
 30
0.0
 11
397.324075
 21
606.455618
 31
0.0
  0
LINE
  5
31A
100
AcDbEntity
  8
止水栓
  6
CONTINUOUS
 62
     6
100
AcDbLine
 10
396.359506
 20
607.66234
 30
0.0
 11
396.269907
 21
604.648295
 31
0.0
  0
ARC
  5
31B
100
AcDbEntity
  8
止水栓
  6
CONTINUOUS
 62
     6
100
AcDbCircle
 10
406.499985
 20
633.44923
 30
0.0
 40
25.78689
100
AcDbArc
 50
253.141624
 51
286.921477
  0
LINE
  5
31C
100
AcDbEntity
  8
止水栓
  6
CONTINUOUS
 62
     6
100
AcDbLine
 10
399.034276
 20
608.778795
 30
0.0
 11
399.034276
 21
616.25721
 31
0.0
  0
ARC
  5
31D
100
AcDbEntity
  8
止水栓
  6
CONTINUOUS
 62
     6
100
AcDbCircle
 10
406.499985
 20
591.586775
 30
0.0
 40
25.78689
100
AcDbArc
 50
73.078523
 51
106.828962
  0
LINE
  5
31E
100
AcDbEntity
  8
止水栓
  6
CONTINUOUS
 62
     6
100
AcDbLine
 10
419.499985
 20
607.66234
 30
0.0
 11
393.499985
 21
607.66234
 31
0.0
  0
LINE
  5
31F
100
AcDbEntity
  8
止水栓
  6
CONTINUOUS
 62
     6
100
AcDbLine
 10
396.323633
 20
606.455618
 30
0.0
 11
416.716181
 21
606.455618
 31
0.0
  0
LINE
  5
320
100
AcDbEntity
  8
止水栓
  6
CONTINUOUS
 62
     6
100
AcDbLine
 10
418.499985
 20
656.661576
 30
0.0
 11
418.499985
 21
619.150345
 31
0.0
  0
LINE
  5
321
100
AcDbEntity
  8
止水栓
  6
CONTINUOUS
 62
     6
100
AcDbLine
 10
394.499985
 20
656.661576
 30
0.0
 11
394.499985
 21
620.18734
 31
0.0
  0
LINE
  5
322
100
AcDbEntity
  8
止水栓
  6
CONTINUOUS
 62
     6
100
AcDbLine
 10
394.499985
 20
656.661576
 30
0.0
 11
418.499985
 21
656.661576
 31
0.0
  0
LINE
  5
323
100
AcDbEntity
  8
止水栓
  6
CONTINUOUS
 62
     6
100
AcDbLine
 10
415.499985
 20
657.361576
 30
0.0
 11
415.499985
 21
656.661576
 31
0.0
  0
LINE
  5
324
100
AcDbEntity
  8
止水栓
  6
CONTINUOUS
 62
     6
100
AcDbLine
 10
397.499985
 20
657.361576
 30
0.0
 11
397.499985
 21
656.661576
 31
0.0
  0
LINE
  5
325
100
AcDbEntity
  8
止水栓
  6
CONTINUOUS
 62
     6
100
AcDbLine
 10
407.399985
 20
657.361576
 30
0.0
 11
407.399985
 21
656.661576
 31
0.0
  0
LINE
  5
326
100
AcDbEntity
  8
止水栓
  6
CONTINUOUS
 62
     6
100
AcDbLine
 10
405.599985
 20
657.361576
 30
0.0
 11
405.599985
 21
656.661576
 31
0.0
  0
LINE
  5
327
100
AcDbEntity
  8
止水栓
  6
CONTINUOUS
 62
     6
100
AcDbLine
 10
405.599985
 20
657.361576
 30
0.0
 11
397.499985
 21
657.361576
 31
0.0
  0
LINE
  5
328
100
AcDbEntity
  8
止水栓
  6
CONTINUOUS
 62
     6
100
AcDbLine
 10
407.399985
 20
657.361576
 30
0.0
 11
415.499985
 21
657.361576
 31
0.0
  0
ARC
  5
329
100
AcDbEntity
  8
止水栓
  6
CONTINUOUS
 62
     6
100
AcDbCircle
 10
396.856445
 20
572.701014
 30
0.0
 40
25.30016
100
AcDbArc
 50
90.0
 51
113.202393
  0
LINE
  5
32A
100
AcDbEntity
  8
止水栓
  6
CONTINUOUS
 62
     6
100
AcDbLine
 10
396.209473
 20
575.237635
 30
0.0
 11
397.750629
 21
573.699549
 31
0.0
  0
LINE
  5
32B
100
AcDbEntity
  8
止水栓
  6
CONTINUOUS
 62
     6
100
AcDbLine
 10
434.0
 20
583.999842
 30
0.0
 11
434.0
 21
582.000331
 31
0.0
  0
ARC
  5
32C
100
AcDbEntity
  8
止水栓
  6
CONTINUOUS
 62
     6
100
AcDbCircle
 10
420.999512
 20
583.999842
 30
0.0
 40
13.000488
100
AcDbArc
 50
0.000031
 51
66.852539
  0
LINE
  5
32D
100
AcDbEntity
  8
止水栓
  6
CONTINUOUS
 62
     6
100
AcDbLine
 10
397.75
 20
573.699549
 30
0.0
 11
415.25
 21
573.699549
 31
0.0
  0
LINE
  5
32E
100
AcDbEntity
  8
止水栓
  6
CONTINUOUS
 62
     6
100
AcDbLine
 10
416.788086
 20
575.240077
 30
0.0
 11
396.209473
 21
575.237635
 31
0.0
  0
LINE
  5
32F
100
AcDbEntity
  8
止水栓
  6
CONTINUOUS
 62
     6
100
AcDbLine
 10
397.183594
 20
582.000331
 30
0.0
 11
397.435059
 21
574.014491
 31
0.0
  0
LINE
  5
330
100
AcDbEntity
  8
止水栓
  6
CONTINUOUS
 62
     6
100
AcDbLine
 10
395.999512
 20
582.000331
 30
0.0
 11
396.209473
 21
575.237635
 31
0.0
  0
LINE
  5
331
100
AcDbEntity
  8
止水栓
  6
CONTINUOUS
 62
     6
100
AcDbLine
 10
416.998047
 20
582.000331
 30
0.0
 11
416.788086
 21
575.240077
 31
0.0
  0
LINE
  5
332
100
AcDbEntity
  8
止水栓
  6
CONTINUOUS
 62
     6
100
AcDbLine
 10
415.813965
 20
582.000331
 30
0.0
 11
415.564941
 21
574.014491
 31
0.0
  0
LINE
  5
333
100
AcDbEntity
  8
止水栓
  6
CONTINUOUS
 62
     6
100
AcDbLine
 10
415.25
 20
573.699549
 30
0.0
 11
416.788086
 21
575.240077
 31
0.0
  0
ARC
  5
334
100
AcDbEntity
  8
止水栓
  6
CONTINUOUS
 62
     6
100
AcDbCircle
 10
391.998047
 20
583.999842
 30
0.0
 40
12.999535
100
AcDbArc
 50
113.146301
 51
188.848084
  0
LINE
  5
335
100
AcDbEntity
  8
止水栓
  6
EXLTYPE2
 62
     6
100
AcDbLine
 10
329.16
 20
871.770246
 30
0.0
 11
322.4968
 21
871.770246
 31
0.0
  0
LINE
  5
336
100
AcDbEntity
  8
止水栓
  6
EXLTYPE2
 62
     6
100
AcDbLine
 10
329.16
 20
892.270246
 30
0.0
 11
322.4968
 21
892.270246
 31
0.0
  0
LINE
  5
337
100
AcDbEntity
  8
止水栓
  6
EXLTYPE3
 62
     6
100
AcDbLine
 10
291.8
 20
882.000324
 30
0.0
 11
381.999999
 21
882.000324
 31
0.0
  0
ARC
  5
338
100
AcDbEntity
  8
止水栓
  6
EXLTYPE2
 62
     6
100
AcDbCircle
 10
297.5
 20
871.800324
 30
0.0
 40
25.0
100
AcDbArc
 50
333.322579
 51
359.083228
  0
LINE
  5
339
100
AcDbEntity
  8
止水栓
  6
EXLTYPE2
 62
     6
100
AcDbLine
 10
322.4968
 20
871.400324
 30
0.0
 11
322.4968
 21
892.600324
 31
0.0
  0
POLYLINE
  5
33A
100
AcDbEntity
  8
止水栓
  6
EXLTYPE2
 62
     6
100
AcDb2dPolyline
 66
     1
 10
0.0
 20
0.0
 30
0.0
 70
   128
  0
VERTEX
  5
33B
100
AcDbEntity
  8
止水栓
  6
EXLTYPE2
 62
     6
100
AcDbVertex
100
AcDb2dVertex
 10
309.003105
 20
854.500324
 30
0.0
  0
VERTEX
  5
33C
100
AcDbEntity
  8
止水栓
  6
EXLTYPE2
 62
     6
100
AcDbVertex
100
AcDb2dVertex
 10
306.5
 20
854.500324
 30
0.0
  0
SEQEND
  5
33D
100
AcDbEntity
  8
止水栓
  6
EXLTYPE2
 62
     6
  0
ARC
  5
33E
100
AcDbEntity
  8
止水栓
  6
EXLTYPE2
 62
     6
100
AcDbCircle
 10
309.003105
 20
867.200324
 30
0.0
 40
12.7
100
AcDbArc
 50
270.0
 51
328.561141
  0
ARC
  5
33F
100
AcDbEntity
  8
止水栓
  6
EXLTYPE2
 62
     6
100
AcDbCircle
 10
297.5
 20
892.200324
 30
0.0
 40
25.0
100
AcDbArc
 50
0.916772
 51
26.677421
  0
LINE
  5
340
100
AcDbEntity
  8
止水栓
  6
EXLTYPE2
 62
     6
100
AcDbLine
 10
309.003105
 20
909.500324
 30
0.0
 11
306.5
 21
909.500324
 31
0.0
  0
ARC
  5
341
100
AcDbEntity
  8
止水栓
  6
EXLTYPE2
 62
     6
100
AcDbCircle
 10
309.003105
 20
896.800324
 30
0.0
 40
12.7
100
AcDbArc
 50
31.438859
 51
90.0
  0
LINE
  5
342
100
AcDbEntity
  8
止水栓
  6
EXLTYPE2
 62
     6
100
AcDbLine
 10
297.386194
 20
872.120246
 30
0.0
 11
297.386194
 21
891.920246
 31
0.0
  0
LINE
  5
343
100
AcDbEntity
  8
止水栓
  6
EXLTYPE2
 62
     6
100
AcDbLine
 10
296.66
 20
890.670246
 30
0.0
 11
297.386194
 21
891.920246
 31
0.0
  0
LINE
  5
344
100
AcDbEntity
  8
止水栓
  6
EXLTYPE2
 62
     6
100
AcDbLine
 10
296.66
 20
873.370246
 30
0.0
 11
296.66
 21
890.670246
 31
0.0
  0
LINE
  5
345
100
AcDbEntity
  8
止水栓
  6
EXLTYPE2
 62
     6
100
AcDbLine
 10
296.66
 20
873.370246
 30
0.0
 11
297.386194
 21
872.120246
 31
0.0
  0
LINE
  5
346
100
AcDbEntity
  8
止水栓
  6
EXLTYPE2
 62
     6
100
AcDbLine
 10
297.386194
 20
872.120246
 30
0.0
 11
306.5
 21
871.84932
 31
0.0
  0
LINE
  5
347
100
AcDbEntity
  8
止水栓
  6
EXLTYPE2
 62
     6
100
AcDbLine
 10
297.386194
 20
891.920246
 30
0.0
 11
306.5
 21
892.191172
 31
0.0
  0
LINE
  5
348
100
AcDbEntity
  8
止水栓
  6
EXLTYPE2
 62
     6
100
AcDbLine
 10
296.794768
 20
873.138269
 30
0.0
 11
306.5
 21
872.849762
 31
0.0
  0
LINE
  5
349
100
AcDbEntity
  8
止水栓
  6
EXLTYPE2
 62
     6
100
AcDbLine
 10
296.794768
 20
890.902223
 30
0.0
 11
306.5
 21
891.190731
 31
0.0
  0
LINE
  5
34A
100
AcDbEntity
  8
止水栓
  6
EXLTYPE10
 62
     6
100
AcDbLine
 10
360.174045
 20
861.687554
 30
0.0
 11
360.174045
 21
783.483554
 31
0.0
  0
LINE
  5
34B
100
AcDbEntity
  8
止水栓
  6
EXLTYPE2
 62
     6
100
AcDbLine
 10
349.204051
 20
857.001497
 30
0.0
 11
371.144121
 21
857.001497
 31
0.0
  0
LINE
  5
34C
100
AcDbEntity
  8
止水栓
  6
EXLTYPE2
 62
     6
100
AcDbLine
 10
353.42329
 20
819.001985
 30
0.0
 11
353.42329
 21
811.001985
 31
0.0
  0
LINE
  5
34D
100
AcDbEntity
  8
止水栓
  6
EXLTYPE2
 62
     6
100
AcDbLine
 10
366.92329
 20
819.001985
 30
0.0
 11
366.92329
 21
811.001985
 31
0.0
  0
LINE
  5
34E
100
AcDbEntity
  8
止水栓
  6
EXLTYPE2
 62
     6
100
AcDbLine
 10
353.42329
 20
811.001985
 30
0.0
 11
366.92329
 21
811.001985
 31
0.0
  0
LINE
  5
34F
100
AcDbEntity
  8
止水栓
  6
EXLTYPE2
 62
     6
100
AcDbLine
 10
349.67329
 20
845.001985
 30
0.0
 11
349.67329
 21
840.001985
 31
0.0
  0
LINE
  5
350
100
AcDbEntity
  8
止水栓
  6
EXLTYPE2
 62
     6
100
AcDbLine
 10
370.67329
 20
845.001985
 30
0.0
 11
370.67329
 21
840.001985
 31
0.0
  0
LINE
  5
351
100
AcDbEntity
  8
止水栓
  6
EXLTYPE2
 62
     6
100
AcDbLine
 10
355.42329
 20
827.001985
 30
0.0
 11
364.92329
 21
827.001985
 31
0.0
  0
LINE
  5
352
100
AcDbEntity
  8
止水栓
  6
EXLTYPE2
 62
     6
100
AcDbLine
 10
355.42329
 20
822.001985
 30
0.0
 11
364.92329
 21
822.001985
 31
0.0
  0
LINE
  5
353
100
AcDbEntity
  8
止水栓
  6
EXLTYPE2
 62
     6
100
AcDbLine
 10
355.42329
 20
830.001985
 30
0.0
 11
364.92329
 21
830.001985
 31
0.0
  0
LINE
  5
354
100
AcDbEntity
  8
止水栓
  6
EXLTYPE2
 62
     6
100
AcDbLine
 10
353.42329
 20
819.001985
 30
0.0
 11
366.92329
 21
819.001985
 31
0.0
  0
ARC
  5
355
100
AcDbEntity
  8
止水栓
  6
EXLTYPE2
 62
     6
100
AcDbCircle
 10
355.42329
 20
824.501985
 30
0.0
 40
2.5
100
AcDbArc
 50
180.0
 51
270.0
  0
ARC
  5
356
100
AcDbEntity
  8
止水栓
  6
EXLTYPE2
 62
     6
100
AcDbCircle
 10
355.42329
 20
824.501985
 30
0.0
 40
2.5
100
AcDbArc
 50
90.0
 51
180.0
  0
ARC
  5
357
100
AcDbEntity
  8
止水栓
  6
EXLTYPE2
 62
     6
100
AcDbCircle
 10
355.42329
 20
832.501985
 30
0.0
 40
2.5
100
AcDbArc
 50
180.0
 51
270.0
  0
LINE
  5
358
100
AcDbEntity
  8
止水栓
  6
EXLTYPE2
 62
     6
100
AcDbLine
 10
354.42329
 20
830.001985
 30
0.0
 11
354.42329
 21
827.001985
 31
0.0
  0
LINE
  5
359
100
AcDbEntity
  8
止水栓
  6
EXLTYPE2
 62
     6
100
AcDbLine
 10
354.42329
 20
822.001985
 30
0.0
 11
354.42329
 21
819.001985
 31
0.0
  0
LINE
  5
35A
100
AcDbEntity
  8
止水栓
  6
EXLTYPE2
 62
     6
100
AcDbLine
 10
365.92329
 20
830.001985
 30
0.0
 11
365.92329
 21
827.001985
 31
0.0
  0
ARC
  5
35B
100
AcDbEntity
  8
止水栓
  6
EXLTYPE2
 62
     6
100
AcDbCircle
 10
364.92329
 20
824.501985
 30
0.0
 40
2.5
100
AcDbArc
 50
270.0
 51
0.0
  0
ARC
  5
35C
100
AcDbEntity
  8
止水栓
  6
EXLTYPE2
 62
     6
100
AcDbCircle
 10
364.92329
 20
824.501985
 30
0.0
 40
2.5
100
AcDbArc
 50
0.0
 51
90.0
  0
LINE
  5
35D
100
AcDbEntity
  8
止水栓
  6
EXLTYPE2
 62
     6
100
AcDbLine
 10
365.92329
 20
822.001985
 30
0.0
 11
365.92329
 21
819.001985
 31
0.0
  0
ARC
  5
35E
100
AcDbEntity
  8
止水栓
  6
EXLTYPE2
 62
     6
100
AcDbCircle
 10
364.92329
 20
832.501985
 30
0.0
 40
2.5
100
AcDbArc
 50
270.0
 51
0.0
  0
LINE
  5
35F
100
AcDbEntity
  8
止水栓
  6
EXLTYPE2
 62
     6
100
AcDbLine
 10
355.42329
 20
835.001985
 30
0.0
 11
364.92329
 21
835.001985
 31
0.0
  0
LINE
  5
360
100
AcDbEntity
  8
止水栓
  6
EXLTYPE2
 62
     6
100
AcDbLine
 10
354.42329
 20
838.001985
 30
0.0
 11
365.92329
 21
838.001985
 31
0.0
  0
LINE
  5
361
100
AcDbEntity
  8
止水栓
  6
EXLTYPE2
 62
     6
100
AcDbLine
 10
354.42329
 20
838.001985
 30
0.0
 11
354.42329
 21
835.001985
 31
0.0
  0
LINE
  5
362
100
AcDbEntity
  8
止水栓
  6
EXLTYPE2
 62
     6
100
AcDbLine
 10
356.17329
 20
840.001985
 30
0.0
 11
356.17329
 21
838.001985
 31
0.0
  0
ARC
  5
363
100
AcDbEntity
  8
止水栓
  6
EXLTYPE2
 62
     6
100
AcDbCircle
 10
355.42329
 20
832.501985
 30
0.0
 40
2.5
100
AcDbArc
 50
90.0
 51
180.0
  0
LINE
  5
364
100
AcDbEntity
  8
止水栓
  6
EXLTYPE2
 62
     6
100
AcDbLine
 10
365.92329
 20
838.001985
 30
0.0
 11
365.92329
 21
835.001985
 31
0.0
  0
LINE
  5
365
100
AcDbEntity
  8
止水栓
  6
EXLTYPE2
 62
     6
100
AcDbLine
 10
364.17329
 20
840.001985
 30
0.0
 11
364.17329
 21
838.001985
 31
0.0
  0
ARC
  5
366
100
AcDbEntity
  8
止水栓
  6
EXLTYPE2
 62
     6
100
AcDbCircle
 10
364.92329
 20
832.501985
 30
0.0
 40
2.5
100
AcDbArc
 50
0.0
 51
90.0
  0
LINE
  5
367
100
AcDbEntity
  8
止水栓
  6
EXLTYPE2
 62
     6
100
AcDbLine
 10
349.67329
 20
840.001985
 30
0.0
 11
370.67329
 21
840.001985
 31
0.0
  0
POLYLINE
  5
368
100
AcDbEntity
  8
止水栓
  6
EXLTYPE2
 62
     6
100
AcDb2dPolyline
 66
     1
 10
0.0
 20
0.0
 30
0.0
 70
   128
  0
VERTEX
  5
369
100
AcDbEntity
  8
止水栓
  6
EXLTYPE2
 62
     6
100
AcDbVertex
100
AcDb2dVertex
 10
354.316356
 20
850.778353
 30
0.0
  0
VERTEX
  5
36A
100
AcDbEntity
  8
止水栓
  6
EXLTYPE2
 62
     6
100
AcDbVertex
100
AcDb2dVertex
 10
354.338329
 20
850.294954
 30
0.0
  0
VERTEX
  5
36B
100
AcDbEntity
  8
止水栓
  6
EXLTYPE2
 62
     6
100
AcDbVertex
100
AcDb2dVertex
 10
354.404247
 20
849.813997
 30
0.0
  0
VERTEX
  5
36C
100
AcDbEntity
  8
止水栓
  6
EXLTYPE2
 62
     6
100
AcDbVertex
100
AcDb2dVertex
 10
354.51411
 20
849.340364
 30
0.0
  0
VERTEX
  5
36D
100
AcDbEntity
  8
止水栓
  6
EXLTYPE2
 62
     6
100
AcDbVertex
100
AcDb2dVertex
 10
354.667919
 20
848.876497
 30
0.0
  0
VERTEX
  5
36E
100
AcDbEntity
  8
止水栓
  6
EXLTYPE2
 62
     6
100
AcDbVertex
100
AcDb2dVertex
 10
354.86079
 20
848.42972
 30
0.0
  0
VERTEX
  5
36F
100
AcDbEntity
  8
止水栓
  6
EXLTYPE2
 62
     6
100
AcDbVertex
100
AcDb2dVertex
 10
355.097606
 20
847.997591
 30
0.0
  0
VERTEX
  5
370
100
AcDbEntity
  8
止水栓
  6
EXLTYPE2
 62
     6
100
AcDbVertex
100
AcDb2dVertex
 10
355.371044
 20
847.589876
 30
0.0
  0
VERTEX
  5
371
100
AcDbEntity
  8
止水栓
  6
EXLTYPE2
 62
     6
100
AcDbVertex
100
AcDb2dVertex
 10
355.681102
 20
847.204134
 30
0.0
  0
VERTEX
  5
372
100
AcDbEntity
  8
止水栓
  6
EXLTYPE2
 62
     6
100
AcDbVertex
100
AcDb2dVertex
 10
356.022899
 20
846.847689
 30
0.0
  0
VERTEX
  5
373
100
AcDbEntity
  8
止水栓
  6
EXLTYPE2
 62
     6
100
AcDbVertex
100
AcDb2dVertex
 10
356.398876
 20
846.518099
 30
0.0
  0
VERTEX
  5
374
100
AcDbEntity
  8
止水栓
  6
EXLTYPE2
 62
     6
100
AcDbVertex
100
AcDb2dVertex
 10
356.801708
 20
846.22513
 30
0.0
  0
VERTEX
  5
375
100
AcDbEntity
  8
止水栓
  6
EXLTYPE2
 62
     6
100
AcDbVertex
100
AcDb2dVertex
 10
357.231395
 20
845.961458
 30
0.0
  0
VERTEX
  5
376
100
AcDbEntity
  8
止水栓
  6
EXLTYPE2
 62
     6
100
AcDbVertex
100
AcDb2dVertex
 10
357.683055
 20
845.736849
 30
0.0
  0
VERTEX
  5
377
100
AcDbEntity
  8
止水栓
  6
EXLTYPE2
 62
     6
100
AcDbVertex
100
AcDb2dVertex
 10
358.151805
 20
845.551302
 30
0.0
  0
VERTEX
  5
378
100
AcDbEntity
  8
止水栓
  6
EXLTYPE2
 62
     6
100
AcDbVertex
100
AcDb2dVertex
 10
358.637645
 20
845.407259
 30
0.0
  0
VERTEX
  5
379
100
AcDbEntity
  8
止水栓
  6
EXLTYPE2
 62
     6
100
AcDbVertex
100
AcDb2dVertex
 10
359.133251
 20
845.302278
 30
0.0
  0
VERTEX
  5
37A
100
AcDbEntity
  8
止水栓
  6
EXLTYPE2
 62
     6
100
AcDbVertex
100
AcDb2dVertex
 10
359.638622
 20
845.238802
 30
0.0
  0
VERTEX
  5
37B
100
AcDbEntity
  8
止水栓
  6
EXLTYPE2
 62
     6
100
AcDbVertex
100
AcDb2dVertex
 10
360.146434
 20
845.216829
 30
0.0
  0
VERTEX
  5
37C
100
AcDbEntity
  8
止水栓
  6
EXLTYPE2
 62
     6
100
AcDbVertex
100
AcDb2dVertex
 10
360.1562
 20
845.216829
 30
0.0
  0
VERTEX
  5
37D
100
AcDbEntity
  8
止水栓
  6
EXLTYPE2
 62
     6
100
AcDbVertex
100
AcDb2dVertex
 10
360.163524
 20
845.216829
 30
0.0
  0
VERTEX
  5
37E
100
AcDbEntity
  8
止水栓
  6
EXLTYPE2
 62
     6
100
AcDbVertex
100
AcDb2dVertex
 10
360.17329
 20
845.216829
 30
0.0
  0
SEQEND
  5
37F
100
AcDbEntity
  8
止水栓
  6
EXLTYPE2
 62
     6
  0
POLYLINE
  5
380
100
AcDbEntity
  8
止水栓
  6
EXLTYPE2
 62
     6
100
AcDb2dPolyline
 66
     1
 10
0.0
 20
0.0
 30
0.0
 70
   128
  0
VERTEX
  5
381
100
AcDbEntity
  8
止水栓
  6
EXLTYPE2
 62
     6
100
AcDbVertex
100
AcDb2dVertex
 10
360.17329
 20
845.216829
 30
0.0
  0
VERTEX
  5
382
100
AcDbEntity
  8
止水栓
  6
EXLTYPE2
 62
     6
100
AcDbVertex
100
AcDb2dVertex
 10
360.671337
 20
845.238802
 30
0.0
  0
VERTEX
  5
383
100
AcDbEntity
  8
止水栓
  6
EXLTYPE2
 62
     6
100
AcDbVertex
100
AcDb2dVertex
 10
361.166942
 20
845.30472
 30
0.0
  0
VERTEX
  5
384
100
AcDbEntity
  8
止水栓
  6
EXLTYPE2
 62
     6
100
AcDbVertex
100
AcDb2dVertex
 10
361.655223
 20
845.407259
 30
0.0
  0
VERTEX
  5
385
100
AcDbEntity
  8
止水栓
  6
EXLTYPE2
 62
     6
100
AcDbVertex
100
AcDb2dVertex
 10
362.141063
 20
845.553743
 30
0.0
  0
VERTEX
  5
386
100
AcDbEntity
  8
止水栓
  6
EXLTYPE2
 62
     6
100
AcDbVertex
100
AcDb2dVertex
 10
362.609813
 20
845.73929
 30
0.0
  0
VERTEX
  5
387
100
AcDbEntity
  8
止水栓
  6
EXLTYPE2
 62
     6
100
AcDbVertex
100
AcDb2dVertex
 10
363.061473
 20
845.961458
 30
0.0
  0
VERTEX
  5
388
100
AcDbEntity
  8
止水栓
  6
EXLTYPE2
 62
     6
100
AcDbVertex
100
AcDb2dVertex
 10
363.491161
 20
846.222689
 30
0.0
  0
VERTEX
  5
389
100
AcDbEntity
  8
止水栓
  6
EXLTYPE2
 62
     6
100
AcDbVertex
100
AcDb2dVertex
 10
363.893993
 20
846.518099
 30
0.0
  0
VERTEX
  5
38A
100
AcDbEntity
  8
止水栓
  6
EXLTYPE2
 62
     6
100
AcDbVertex
100
AcDb2dVertex
 10
364.269969
 20
846.845247
 30
0.0
  0
VERTEX
  5
38B
100
AcDbEntity
  8
止水栓
  6
EXLTYPE2
 62
     6
100
AcDbVertex
100
AcDb2dVertex
 10
364.611766
 20
847.204134
 30
0.0
  0
VERTEX
  5
38C
100
AcDbEntity
  8
止水栓
  6
EXLTYPE2
 62
     6
100
AcDbVertex
100
AcDb2dVertex
 10
364.921825
 20
847.589876
 30
0.0
  0
VERTEX
  5
38D
100
AcDbEntity
  8
止水栓
  6
EXLTYPE2
 62
     6
100
AcDbVertex
100
AcDb2dVertex
 10
365.195262
 20
847.997591
 30
0.0
  0
VERTEX
  5
38E
100
AcDbEntity
  8
止水栓
  6
EXLTYPE2
 62
     6
100
AcDbVertex
100
AcDb2dVertex
 10
365.432079
 20
848.427278
 30
0.0
  0
VERTEX
  5
38F
100
AcDbEntity
  8
止水栓
  6
EXLTYPE2
 62
     6
100
AcDbVertex
100
AcDb2dVertex
 10
365.62495
 20
848.876497
 30
0.0
  0
VERTEX
  5
390
100
AcDbEntity
  8
止水栓
  6
EXLTYPE2
 62
     6
100
AcDbVertex
100
AcDb2dVertex
 10
365.778759
 20
849.340364
 30
0.0
  0
VERTEX
  5
391
100
AcDbEntity
  8
止水栓
  6
EXLTYPE2
 62
     6
100
AcDbVertex
100
AcDb2dVertex
 10
365.888622
 20
849.813997
 30
0.0
  0
VERTEX
  5
392
100
AcDbEntity
  8
止水栓
  6
EXLTYPE2
 62
     6
100
AcDbVertex
100
AcDb2dVertex
 10
365.95454
 20
850.294954
 30
0.0
  0
VERTEX
  5
393
100
AcDbEntity
  8
止水栓
  6
EXLTYPE2
 62
     6
100
AcDbVertex
100
AcDb2dVertex
 10
365.978954
 20
850.778353
 30
0.0
  0
VERTEX
  5
394
100
AcDbEntity
  8
止水栓
  6
EXLTYPE2
 62
     6
100
AcDbVertex
100
AcDb2dVertex
 10
365.95454
 20
851.264193
 30
0.0
  0
VERTEX
  5
395
100
AcDbEntity
  8
止水栓
  6
EXLTYPE2
 62
     6
100
AcDbVertex
100
AcDb2dVertex
 10
365.888622
 20
851.74515
 30
0.0
  0
VERTEX
  5
396
100
AcDbEntity
  8
止水栓
  6
EXLTYPE2
 62
     6
100
AcDbVertex
100
AcDb2dVertex
 10
365.778759
 20
852.218782
 30
0.0
  0
VERTEX
  5
397
100
AcDbEntity
  8
止水栓
  6
EXLTYPE2
 62
     6
100
AcDbVertex
100
AcDb2dVertex
 10
365.62495
 20
852.680208
 30
0.0
  0
VERTEX
  5
398
100
AcDbEntity
  8
止水栓
  6
EXLTYPE2
 62
     6
100
AcDbVertex
100
AcDb2dVertex
 10
365.432079
 20
853.129427
 30
0.0
  0
VERTEX
  5
399
100
AcDbEntity
  8
止水栓
  6
EXLTYPE2
 62
     6
100
AcDbVertex
100
AcDb2dVertex
 10
365.195262
 20
853.559114
 30
0.0
  0
VERTEX
  5
39A
100
AcDbEntity
  8
止水栓
  6
EXLTYPE2
 62
     6
100
AcDbVertex
100
AcDb2dVertex
 10
364.921825
 20
853.969271
 30
0.0
  0
VERTEX
  5
39B
100
AcDbEntity
  8
止水栓
  6
EXLTYPE2
 62
     6
100
AcDbVertex
100
AcDb2dVertex
 10
364.611766
 20
854.352571
 30
0.0
  0
VERTEX
  5
39C
100
AcDbEntity
  8
止水栓
  6
EXLTYPE2
 62
     6
100
AcDbVertex
100
AcDb2dVertex
 10
364.269969
 20
854.711458
 30
0.0
  0
VERTEX
  5
39D
100
AcDbEntity
  8
止水栓
  6
EXLTYPE2
 62
     6
100
AcDbVertex
100
AcDb2dVertex
 10
363.893993
 20
855.038607
 30
0.0
  0
VERTEX
  5
39E
100
AcDbEntity
  8
止水栓
  6
EXLTYPE2
 62
     6
100
AcDbVertex
100
AcDb2dVertex
 10
363.491161
 20
855.334017
 30
0.0
  0
VERTEX
  5
39F
100
AcDbEntity
  8
止水栓
  6
EXLTYPE2
 62
     6
100
AcDbVertex
100
AcDb2dVertex
 10
363.061473
 20
855.595247
 30
0.0
  0
VERTEX
  5
3A0
100
AcDbEntity
  8
止水栓
  6
EXLTYPE2
 62
     6
100
AcDbVertex
100
AcDb2dVertex
 10
362.609813
 20
855.819857
 30
0.0
  0
VERTEX
  5
3A1
100
AcDbEntity
  8
止水栓
  6
EXLTYPE2
 62
     6
100
AcDbVertex
100
AcDb2dVertex
 10
362.141063
 20
856.005403
 30
0.0
  0
VERTEX
  5
3A2
100
AcDbEntity
  8
止水栓
  6
EXLTYPE2
 62
     6
100
AcDbVertex
100
AcDb2dVertex
 10
361.655223
 20
856.149446
 30
0.0
  0
VERTEX
  5
3A3
100
AcDbEntity
  8
止水栓
  6
EXLTYPE2
 62
     6
100
AcDbVertex
100
AcDb2dVertex
 10
361.159618
 20
856.254427
 30
0.0
  0
VERTEX
  5
3A4
100
AcDbEntity
  8
止水栓
  6
EXLTYPE2
 62
     6
100
AcDbVertex
100
AcDb2dVertex
 10
360.654247
 20
856.317903
 30
0.0
  0
VERTEX
  5
3A5
100
AcDbEntity
  8
止水栓
  6
EXLTYPE2
 62
     6
100
AcDbVertex
100
AcDb2dVertex
 10
360.146434
 20
856.339876
 30
0.0
  0
VERTEX
  5
3A6
100
AcDbEntity
  8
止水栓
  6
EXLTYPE2
 62
     6
100
AcDbVertex
100
AcDb2dVertex
 10
359.638622
 20
856.317903
 30
0.0
  0
VERTEX
  5
3A7
100
AcDbEntity
  8
止水栓
  6
EXLTYPE2
 62
     6
100
AcDbVertex
100
AcDb2dVertex
 10
359.133251
 20
856.254427
 30
0.0
  0
VERTEX
  5
3A8
100
AcDbEntity
  8
止水栓
  6
EXLTYPE2
 62
     6
100
AcDbVertex
100
AcDb2dVertex
 10
358.637645
 20
856.149446
 30
0.0
  0
VERTEX
  5
3A9
100
AcDbEntity
  8
止水栓
  6
EXLTYPE2
 62
     6
100
AcDbVertex
100
AcDb2dVertex
 10
358.151805
 20
856.005403
 30
0.0
  0
VERTEX
  5
3AA
100
AcDbEntity
  8
止水栓
  6
EXLTYPE2
 62
     6
100
AcDbVertex
100
AcDb2dVertex
 10
357.683055
 20
855.819857
 30
0.0
  0
VERTEX
  5
3AB
100
AcDbEntity
  8
止水栓
  6
EXLTYPE2
 62
     6
100
AcDbVertex
100
AcDb2dVertex
 10
357.231395
 20
855.595247
 30
0.0
  0
VERTEX
  5
3AC
100
AcDbEntity
  8
止水栓
  6
EXLTYPE2
 62
     6
100
AcDbVertex
100
AcDb2dVertex
 10
356.801708
 20
855.334017
 30
0.0
  0
VERTEX
  5
3AD
100
AcDbEntity
  8
止水栓
  6
EXLTYPE2
 62
     6
100
AcDbVertex
100
AcDb2dVertex
 10
356.398876
 20
855.038607
 30
0.0
  0
VERTEX
  5
3AE
100
AcDbEntity
  8
止水栓
  6
EXLTYPE2
 62
     6
100
AcDbVertex
100
AcDb2dVertex
 10
356.022899
 20
854.711458
 30
0.0
  0
VERTEX
  5
3AF
100
AcDbEntity
  8
止水栓
  6
EXLTYPE2
 62
     6
100
AcDbVertex
100
AcDb2dVertex
 10
355.681102
 20
854.352571
 30
0.0
  0
VERTEX
  5
3B0
100
AcDbEntity
  8
止水栓
  6
EXLTYPE2
 62
     6
100
AcDbVertex
100
AcDb2dVertex
 10
355.371044
 20
853.969271
 30
0.0
  0
VERTEX
  5
3B1
100
AcDbEntity
  8
止水栓
  6
EXLTYPE2
 62
     6
100
AcDbVertex
100
AcDb2dVertex
 10
355.097606
 20
853.559114
 30
0.0
  0
VERTEX
  5
3B2
100
AcDbEntity
  8
止水栓
  6
EXLTYPE2
 62
     6
100
AcDbVertex
100
AcDb2dVertex
 10
354.86079
 20
853.129427
 30
0.0
  0
VERTEX
  5
3B3
100
AcDbEntity
  8
止水栓
  6
EXLTYPE2
 62
     6
100
AcDbVertex
100
AcDb2dVertex
 10
354.667919
 20
852.680208
 30
0.0
  0
VERTEX
  5
3B4
100
AcDbEntity
  8
止水栓
  6
EXLTYPE2
 62
     6
100
AcDbVertex
100
AcDb2dVertex
 10
354.51411
 20
852.218782
 30
0.0
  0
VERTEX
  5
3B5
100
AcDbEntity
  8
止水栓
  6
EXLTYPE2
 62
     6
100
AcDbVertex
100
AcDb2dVertex
 10
354.404247
 20
851.74515
 30
0.0
  0
VERTEX
  5
3B6
100
AcDbEntity
  8
止水栓
  6
EXLTYPE2
 62
     6
100
AcDbVertex
100
AcDb2dVertex
 10
354.338329
 20
851.264193
 30
0.0
  0
VERTEX
  5
3B7
100
AcDbEntity
  8
止水栓
  6
EXLTYPE2
 62
     6
100
AcDbVertex
100
AcDb2dVertex
 10
354.316356
 20
850.780794
 30
0.0
  0
SEQEND
  5
3B8
100
AcDbEntity
  8
止水栓
  6
EXLTYPE2
 62
     6
  0
LINE
  5
3B9
100
AcDbEntity
  8
止水栓
  6
EXLTYPE2
 62
     6
100
AcDbLine
 10
349.204052
 20
845.001985
 30
0.0
 11
371.142528
 21
845.001985
 31
0.0
  0
POLYLINE
  5
3BA
100
AcDbEntity
  8
止水栓
  6
EXLTYPE2
 62
     6
100
AcDb2dPolyline
 66
     1
 10
0.0
 20
0.0
 30
0.0
 70
   128
  0
VERTEX
  5
3BB
100
AcDbEntity
  8
止水栓
  6
EXLTYPE2
 62
     6
100
AcDbVertex
100
AcDb2dVertex
 10
347.76118
 20
852.043001
 30
0.0
  0
VERTEX
  5
3BC
100
AcDbEntity
  8
止水栓
  6
EXLTYPE2
 62
     6
100
AcDbVertex
100
AcDb2dVertex
 10
347.714794
 20
851.618196
 30
0.0
  0
VERTEX
  5
3BD
100
AcDbEntity
  8
止水栓
  6
EXLTYPE2
 62
     6
100
AcDbVertex
100
AcDb2dVertex
 10
347.687938
 20
851.186068
 30
0.0
  0
VERTEX
  5
3BE
100
AcDbEntity
  8
止水栓
  6
EXLTYPE2
 62
     6
100
AcDbVertex
100
AcDb2dVertex
 10
347.678173
 20
850.751497
 30
0.0
  0
SEQEND
  5
3BF
100
AcDbEntity
  8
止水栓
  6
EXLTYPE2
 62
     6
  0
POLYLINE
  5
3C0
100
AcDbEntity
  8
止水栓
  6
EXLTYPE2
 62
     6
100
AcDb2dPolyline
 66
     1
 10
0.0
 20
0.0
 30
0.0
 70
   128
  0
VERTEX
  5
3C1
100
AcDbEntity
  8
止水栓
  6
EXLTYPE2
 62
     6
100
AcDbVertex
100
AcDb2dVertex
 10
349.091747
 20
855.272982
 30
0.0
  0
VERTEX
  5
3C2
100
AcDbEntity
  8
止水栓
  6
EXLTYPE2
 62
     6
100
AcDbVertex
100
AcDb2dVertex
 10
348.903759
 20
855.072786
 30
0.0
  0
VERTEX
  5
3C3
100
AcDbEntity
  8
止水栓
  6
EXLTYPE2
 62
     6
100
AcDbVertex
100
AcDb2dVertex
 10
348.723094
 20
854.838411
 30
0.0
  0
VERTEX
  5
3C4
100
AcDbEntity
  8
止水栓
  6
EXLTYPE2
 62
     6
100
AcDbVertex
100
AcDb2dVertex
 10
348.552196
 20
854.574739
 30
0.0
  0
VERTEX
  5
3C5
100
AcDbEntity
  8
止水栓
  6
EXLTYPE2
 62
     6
100
AcDbVertex
100
AcDb2dVertex
 10
348.395946
 20
854.279329
 30
0.0
  0
VERTEX
  5
3C6
100
AcDbEntity
  8
止水栓
  6
EXLTYPE2
 62
     6
100
AcDbVertex
100
AcDb2dVertex
 10
348.251903
 20
853.959505
 30
0.0
  0
VERTEX
  5
3C7
100
AcDbEntity
  8
止水栓
  6
EXLTYPE2
 62
     6
100
AcDbVertex
100
AcDb2dVertex
 10
348.120067
 20
853.612825
 30
0.0
  0
VERTEX
  5
3C8
100
AcDbEntity
  8
止水栓
  6
EXLTYPE2
 62
     6
100
AcDbVertex
100
AcDb2dVertex
 10
348.005321
 20
853.246614
 30
0.0
  0
VERTEX
  5
3C9
100
AcDbEntity
  8
止水栓
  6
EXLTYPE2
 62
     6
100
AcDbVertex
100
AcDb2dVertex
 10
347.907665
 20
852.860872
 30
0.0
  0
VERTEX
  5
3CA
100
AcDbEntity
  8
止水栓
  6
EXLTYPE2
 62
     6
100
AcDbVertex
100
AcDb2dVertex
 10
347.827098
 20
852.45804
 30
0.0
  0
VERTEX
  5
3CB
100
AcDbEntity
  8
止水栓
  6
EXLTYPE2
 62
     6
100
AcDbVertex
100
AcDb2dVertex
 10
347.76118
 20
852.043001
 30
0.0
  0
SEQEND
  5
3CC
100
AcDbEntity
  8
止水栓
  6
EXLTYPE2
 62
     6
  0
ARC
  5
3CD
100
AcDbEntity
  8
止水栓
  6
EXLTYPE2
 62
     6
100
AcDbCircle
 10
358.422802
 20
851.002962
 30
0.0
 40
10.998535
100
AcDbArc
 50
146.94841
 51
213.059082
  0
POLYLINE
  5
3CE
100
AcDbEntity
  8
止水栓
  6
EXLTYPE2
 62
     6
100
AcDb2dPolyline
 66
     1
 10
0.0
 20
0.0
 30
0.0
 70
   128
  0
VERTEX
  5
3CF
100
AcDbEntity
  8
止水栓
  6
EXLTYPE2
 62
     6
100
AcDbVertex
100
AcDb2dVertex
 10
347.678173
 20
850.751497
 30
0.0
  0
VERTEX
  5
3D0
100
AcDbEntity
  8
止水栓
  6
EXLTYPE2
 62
     6
100
AcDbVertex
100
AcDb2dVertex
 10
347.687938
 20
850.314485
 30
0.0
  0
VERTEX
  5
3D1
100
AcDbEntity
  8
止水栓
  6
EXLTYPE2
 62
     6
100
AcDbVertex
100
AcDb2dVertex
 10
347.714794
 20
849.882357
 30
0.0
  0
VERTEX
  5
3D2
100
AcDbEntity
  8
止水栓
  6
EXLTYPE2
 62
     6
100
AcDbVertex
100
AcDb2dVertex
 10
347.76118
 20
849.457552
 30
0.0
  0
VERTEX
  5
3D3
100
AcDbEntity
  8
止水栓
  6
EXLTYPE2
 62
     6
100
AcDbVertex
100
AcDb2dVertex
 10
347.827098
 20
849.042513
 30
0.0
  0
VERTEX
  5
3D4
100
AcDbEntity
  8
止水栓
  6
EXLTYPE2
 62
     6
100
AcDbVertex
100
AcDb2dVertex
 10
347.907665
 20
848.642122
 30
0.0
  0
VERTEX
  5
3D5
100
AcDbEntity
  8
止水栓
  6
EXLTYPE2
 62
     6
100
AcDbVertex
100
AcDb2dVertex
 10
348.005321
 20
848.25638
 30
0.0
  0
VERTEX
  5
3D6
100
AcDbEntity
  8
止水栓
  6
EXLTYPE2
 62
     6
100
AcDbVertex
100
AcDb2dVertex
 10
348.122509
 20
847.887728
 30
0.0
  0
VERTEX
  5
3D7
100
AcDbEntity
  8
止水栓
  6
EXLTYPE2
 62
     6
100
AcDbVertex
100
AcDb2dVertex
 10
348.251903
 20
847.543489
 30
0.0
  0
VERTEX
  5
3D8
100
AcDbEntity
  8
止水栓
  6
EXLTYPE2
 62
     6
100
AcDbVertex
100
AcDb2dVertex
 10
348.395946
 20
847.221224
 30
0.0
  0
VERTEX
  5
3D9
100
AcDbEntity
  8
止水栓
  6
EXLTYPE2
 62
     6
100
AcDbVertex
100
AcDb2dVertex
 10
348.554637
 20
846.928255
 30
0.0
  0
VERTEX
  5
3DA
100
AcDbEntity
  8
止水栓
  6
EXLTYPE2
 62
     6
100
AcDbVertex
100
AcDb2dVertex
 10
348.723094
 20
846.662142
 30
0.0
  0
VERTEX
  5
3DB
100
AcDbEntity
  8
止水栓
  6
EXLTYPE2
 62
     6
100
AcDbVertex
100
AcDb2dVertex
 10
348.903759
 20
846.430208
 30
0.0
  0
VERTEX
  5
3DC
100
AcDbEntity
  8
止水栓
  6
EXLTYPE2
 62
     6
100
AcDbVertex
100
AcDb2dVertex
 10
349.091747
 20
846.227571
 30
0.0
  0
VERTEX
  5
3DD
100
AcDbEntity
  8
止水栓
  6
EXLTYPE2
 62
     6
100
AcDbVertex
100
AcDb2dVertex
 10
349.289501
 20
846.061556
 30
0.0
  0
VERTEX
  5
3DE
100
AcDbEntity
  8
止水栓
  6
EXLTYPE2
 62
     6
100
AcDbVertex
100
AcDb2dVertex
 10
349.494579
 20
845.92972
 30
0.0
  0
VERTEX
  5
3DF
100
AcDbEntity
  8
止水栓
  6
EXLTYPE2
 62
     6
100
AcDbVertex
100
AcDb2dVertex
 10
349.702098
 20
845.836946
 30
0.0
  0
VERTEX
  5
3E0
100
AcDbEntity
  8
止水栓
  6
EXLTYPE2
 62
     6
100
AcDbVertex
100
AcDb2dVertex
 10
349.914501
 20
845.778353
 30
0.0
  0
VERTEX
  5
3E1
100
AcDbEntity
  8
止水栓
  6
EXLTYPE2
 62
     6
100
AcDbVertex
100
AcDb2dVertex
 10
350.126903
 20
845.761263
 30
0.0
  0
VERTEX
  5
3E2
100
AcDbEntity
  8
止水栓
  6
EXLTYPE2
 62
     6
100
AcDbVertex
100
AcDb2dVertex
 10
350.341747
 20
845.780794
 30
0.0
  0
VERTEX
  5
3E3
100
AcDbEntity
  8
止水栓
  6
EXLTYPE2
 62
     6
100
AcDbVertex
100
AcDb2dVertex
 10
350.554149
 20
845.836946
 30
0.0
  0
VERTEX
  5
3E4
100
AcDbEntity
  8
止水栓
  6
EXLTYPE2
 62
     6
100
AcDbVertex
100
AcDb2dVertex
 10
350.761669
 20
845.92972
 30
0.0
  0
VERTEX
  5
3E5
100
AcDbEntity
  8
止水栓
  6
EXLTYPE2
 62
     6
100
AcDbVertex
100
AcDb2dVertex
 10
350.966747
 20
846.061556
 30
0.0
  0
VERTEX
  5
3E6
100
AcDbEntity
  8
止水栓
  6
EXLTYPE2
 62
     6
100
AcDbVertex
100
AcDb2dVertex
 10
351.164501
 20
846.227571
 30
0.0
  0
VERTEX
  5
3E7
100
AcDbEntity
  8
止水栓
  6
EXLTYPE2
 62
     6
100
AcDbVertex
100
AcDb2dVertex
 10
351.352489
 20
846.430208
 30
0.0
  0
VERTEX
  5
3E8
100
AcDbEntity
  8
止水栓
  6
EXLTYPE2
 62
     6
100
AcDbVertex
100
AcDb2dVertex
 10
351.533153
 20
846.664583
 30
0.0
  0
VERTEX
  5
3E9
100
AcDbEntity
  8
止水栓
  6
EXLTYPE2
 62
     6
100
AcDbVertex
100
AcDb2dVertex
 10
351.70161
 20
846.928255
 30
0.0
  0
VERTEX
  5
3EA
100
AcDbEntity
  8
止水栓
  6
EXLTYPE2
 62
     6
100
AcDbVertex
100
AcDb2dVertex
 10
351.860302
 20
847.221224
 30
0.0
  0
VERTEX
  5
3EB
100
AcDbEntity
  8
止水栓
  6
EXLTYPE2
 62
     6
100
AcDbVertex
100
AcDb2dVertex
 10
352.004344
 20
847.543489
 30
0.0
  0
VERTEX
  5
3EC
100
AcDbEntity
  8
止水栓
  6
EXLTYPE2
 62
     6
100
AcDbVertex
100
AcDb2dVertex
 10
352.133739
 20
847.887728
 30
0.0
  0
VERTEX
  5
3ED
100
AcDbEntity
  8
止水栓
  6
EXLTYPE2
 62
     6
100
AcDbVertex
100
AcDb2dVertex
 10
352.248485
 20
848.25638
 30
0.0
  0
VERTEX
  5
3EE
100
AcDbEntity
  8
止水栓
  6
EXLTYPE2
 62
     6
100
AcDbVertex
100
AcDb2dVertex
 10
352.348583
 20
848.642122
 30
0.0
  0
VERTEX
  5
3EF
100
AcDbEntity
  8
止水栓
  6
EXLTYPE2
 62
     6
100
AcDbVertex
100
AcDb2dVertex
 10
352.429149
 20
849.044954
 30
0.0
  0
VERTEX
  5
3F0
100
AcDbEntity
  8
止水栓
  6
EXLTYPE2
 62
     6
100
AcDbVertex
100
AcDb2dVertex
 10
352.495067
 20
849.459993
 30
0.0
  0
VERTEX
  5
3F1
100
AcDbEntity
  8
止水栓
  6
EXLTYPE2
 62
     6
100
AcDbVertex
100
AcDb2dVertex
 10
352.541454
 20
849.884798
 30
0.0
  0
VERTEX
  5
3F2
100
AcDbEntity
  8
止水栓
  6
EXLTYPE2
 62
     6
100
AcDbVertex
100
AcDb2dVertex
 10
352.568309
 20
850.316927
 30
0.0
  0
VERTEX
  5
3F3
100
AcDbEntity
  8
止水栓
  6
EXLTYPE2
 62
     6
100
AcDbVertex
100
AcDb2dVertex
 10
352.578075
 20
850.751497
 30
0.0
  0
VERTEX
  5
3F4
100
AcDbEntity
  8
止水栓
  6
EXLTYPE2
 62
     6
100
AcDbVertex
100
AcDb2dVertex
 10
352.568309
 20
851.186068
 30
0.0
  0
VERTEX
  5
3F5
100
AcDbEntity
  8
止水栓
  6
EXLTYPE2
 62
     6
100
AcDbVertex
100
AcDb2dVertex
 10
352.539012
 20
851.618196
 30
0.0
  0
VERTEX
  5
3F6
100
AcDbEntity
  8
止水栓
  6
EXLTYPE2
 62
     6
100
AcDbVertex
100
AcDb2dVertex
 10
352.492626
 20
852.043001
 30
0.0
  0
VERTEX
  5
3F7
100
AcDbEntity
  8
止水栓
  6
EXLTYPE2
 62
     6
100
AcDbVertex
100
AcDb2dVertex
 10
352.429149
 20
852.45804
 30
0.0
  0
VERTEX
  5
3F8
100
AcDbEntity
  8
止水栓
  6
EXLTYPE2
 62
     6
100
AcDbVertex
100
AcDb2dVertex
 10
352.348583
 20
852.860872
 30
0.0
  0
VERTEX
  5
3F9
100
AcDbEntity
  8
止水栓
  6
EXLTYPE2
 62
     6
100
AcDbVertex
100
AcDb2dVertex
 10
352.248485
 20
853.246614
 30
0.0
  0
VERTEX
  5
3FA
100
AcDbEntity
  8
止水栓
  6
EXLTYPE2
 62
     6
100
AcDbVertex
100
AcDb2dVertex
 10
352.133739
 20
853.612825
 30
0.0
  0
VERTEX
  5
3FB
100
AcDbEntity
  8
止水栓
  6
EXLTYPE2
 62
     6
100
AcDbVertex
100
AcDb2dVertex
 10
352.004344
 20
853.959505
 30
0.0
  0
VERTEX
  5
3FC
100
AcDbEntity
  8
止水栓
  6
EXLTYPE2
 62
     6
100
AcDbVertex
100
AcDb2dVertex
 10
351.860302
 20
854.279329
 30
0.0
  0
VERTEX
  5
3FD
100
AcDbEntity
  8
止水栓
  6
EXLTYPE2
 62
     6
100
AcDbVertex
100
AcDb2dVertex
 10
351.70161
 20
854.574739
 30
0.0
  0
VERTEX
  5
3FE
100
AcDbEntity
  8
止水栓
  6
EXLTYPE2
 62
     6
100
AcDbVertex
100
AcDb2dVertex
 10
351.533153
 20
854.838411
 30
0.0
  0
VERTEX
  5
3FF
100
AcDbEntity
  8
止水栓
  6
EXLTYPE2
 62
     6
100
AcDbVertex
100
AcDb2dVertex
 10
351.352489
 20
855.072786
 30
0.0
  0
VERTEX
  5
400
100
AcDbEntity
  8
止水栓
  6
EXLTYPE2
 62
     6
100
AcDbVertex
100
AcDb2dVertex
 10
351.164501
 20
855.272982
 30
0.0
  0
VERTEX
  5
401
100
AcDbEntity
  8
止水栓
  6
EXLTYPE2
 62
     6
100
AcDbVertex
100
AcDb2dVertex
 10
350.966747
 20
855.441439
 30
0.0
  0
VERTEX
  5
402
100
AcDbEntity
  8
止水栓
  6
EXLTYPE2
 62
     6
100
AcDbVertex
100
AcDb2dVertex
 10
350.761669
 20
855.570833
 30
0.0
  0
VERTEX
  5
403
100
AcDbEntity
  8
止水栓
  6
EXLTYPE2
 62
     6
100
AcDbVertex
100
AcDb2dVertex
 10
350.554149
 20
855.666048
 30
0.0
  0
VERTEX
  5
404
100
AcDbEntity
  8
止水栓
  6
EXLTYPE2
 62
     6
100
AcDbVertex
100
AcDb2dVertex
 10
350.341747
 20
855.7222
 30
0.0
  0
VERTEX
  5
405
100
AcDbEntity
  8
止水栓
  6
EXLTYPE2
 62
     6
100
AcDbVertex
100
AcDb2dVertex
 10
350.126903
 20
855.741732
 30
0.0
  0
VERTEX
  5
406
100
AcDbEntity
  8
止水栓
  6
EXLTYPE2
 62
     6
100
AcDbVertex
100
AcDb2dVertex
 10
349.914501
 20
855.7222
 30
0.0
  0
VERTEX
  5
407
100
AcDbEntity
  8
止水栓
  6
EXLTYPE2
 62
     6
100
AcDbVertex
100
AcDb2dVertex
 10
349.702098
 20
855.666048
 30
0.0
  0
VERTEX
  5
408
100
AcDbEntity
  8
止水栓
  6
EXLTYPE2
 62
     6
100
AcDbVertex
100
AcDb2dVertex
 10
349.494579
 20
855.570833
 30
0.0
  0
VERTEX
  5
409
100
AcDbEntity
  8
止水栓
  6
EXLTYPE2
 62
     6
100
AcDbVertex
100
AcDb2dVertex
 10
349.289501
 20
855.441439
 30
0.0
  0
VERTEX
  5
40A
100
AcDbEntity
  8
止水栓
  6
EXLTYPE2
 62
     6
100
AcDbVertex
100
AcDb2dVertex
 10
349.091747
 20
855.272982
 30
0.0
  0
SEQEND
  5
40B
100
AcDbEntity
  8
止水栓
  6
EXLTYPE2
 62
     6
  0
POLYLINE
  5
40C
100
AcDbEntity
  8
止水栓
  6
EXLTYPE2
 62
     6
100
AcDb2dPolyline
 66
     1
 10
0.0
 20
0.0
 30
0.0
 70
   128
  0
VERTEX
  5
40D
100
AcDbEntity
  8
止水栓
  6
EXLTYPE2
 62
     6
100
AcDbVertex
100
AcDb2dVertex
 10
367.775829
 20
850.744173
 30
0.0
  0
VERTEX
  5
40E
100
AcDbEntity
  8
止水栓
  6
EXLTYPE2
 62
     6
100
AcDbVertex
100
AcDb2dVertex
 10
367.785594
 20
850.341341
 30
0.0
  0
VERTEX
  5
40F
100
AcDbEntity
  8
止水栓
  6
EXLTYPE2
 62
     6
100
AcDbVertex
100
AcDb2dVertex
 10
367.814891
 20
849.94095
 30
0.0
  0
VERTEX
  5
410
100
AcDbEntity
  8
止水栓
  6
EXLTYPE2
 62
     6
100
AcDbVertex
100
AcDb2dVertex
 10
367.861278
 20
849.545443
 30
0.0
  0
VERTEX
  5
411
100
AcDbEntity
  8
止水栓
  6
EXLTYPE2
 62
     6
100
AcDbVertex
100
AcDb2dVertex
 10
367.924755
 20
849.162142
 30
0.0
  0
VERTEX
  5
412
100
AcDbEntity
  8
止水栓
  6
EXLTYPE2
 62
     6
100
AcDbVertex
100
AcDb2dVertex
 10
368.005321
 20
848.788607
 30
0.0
  0
VERTEX
  5
413
100
AcDbEntity
  8
止水栓
  6
EXLTYPE2
 62
     6
100
AcDbVertex
100
AcDb2dVertex
 10
368.105419
 20
848.42972
 30
0.0
  0
VERTEX
  5
414
100
AcDbEntity
  8
止水栓
  6
EXLTYPE2
 62
     6
100
AcDbVertex
100
AcDb2dVertex
 10
368.220165
 20
848.090364
 30
0.0
  0
VERTEX
  5
415
100
AcDbEntity
  8
止水栓
  6
EXLTYPE2
 62
     6
100
AcDbVertex
100
AcDb2dVertex
 10
368.349559
 20
847.768099
 30
0.0
  0
VERTEX
  5
416
100
AcDbEntity
  8
止水栓
  6
EXLTYPE2
 62
     6
100
AcDbVertex
100
AcDb2dVertex
 10
368.493602
 20
847.470247
 30
0.0
  0
VERTEX
  5
417
100
AcDbEntity
  8
止水栓
  6
EXLTYPE2
 62
     6
100
AcDbVertex
100
AcDb2dVertex
 10
368.652294
 20
847.199251
 30
0.0
  0
VERTEX
  5
418
100
AcDbEntity
  8
止水栓
  6
EXLTYPE2
 62
     6
100
AcDbVertex
100
AcDb2dVertex
 10
368.820751
 20
846.952669
 30
0.0
  0
VERTEX
  5
419
100
AcDbEntity
  8
止水栓
  6
EXLTYPE2
 62
     6
100
AcDbVertex
100
AcDb2dVertex
 10
369.001415
 20
846.735384
 30
0.0
  0
VERTEX
  5
41A
100
AcDbEntity
  8
止水栓
  6
EXLTYPE2
 62
     6
100
AcDbVertex
100
AcDb2dVertex
 10
369.191844
 20
846.547396
 30
0.0
  0
VERTEX
  5
41B
100
AcDbEntity
  8
止水栓
  6
EXLTYPE2
 62
     6
100
AcDbVertex
100
AcDb2dVertex
 10
369.389598
 20
846.393587
 30
0.0
  0
VERTEX
  5
41C
100
AcDbEntity
  8
止水栓
  6
EXLTYPE2
 62
     6
100
AcDbVertex
100
AcDb2dVertex
 10
369.592235
 20
846.273958
 30
0.0
  0
VERTEX
  5
41D
100
AcDbEntity
  8
止水栓
  6
EXLTYPE2
 62
     6
100
AcDbVertex
100
AcDb2dVertex
 10
369.802196
 20
846.186068
 30
0.0
  0
VERTEX
  5
41E
100
AcDbEntity
  8
止水栓
  6
EXLTYPE2
 62
     6
100
AcDbVertex
100
AcDb2dVertex
 10
370.012157
 20
846.132357
 30
0.0
  0
VERTEX
  5
41F
100
AcDbEntity
  8
止水栓
  6
EXLTYPE2
 62
     6
100
AcDbVertex
100
AcDb2dVertex
 10
370.227001
 20
846.115267
 30
0.0
  0
VERTEX
  5
420
100
AcDbEntity
  8
止水栓
  6
EXLTYPE2
 62
     6
100
AcDbVertex
100
AcDb2dVertex
 10
370.439403
 20
846.132357
 30
0.0
  0
VERTEX
  5
421
100
AcDbEntity
  8
止水栓
  6
EXLTYPE2
 62
     6
100
AcDbVertex
100
AcDb2dVertex
 10
370.651805
 20
846.186068
 30
0.0
  0
VERTEX
  5
422
100
AcDbEntity
  8
止水栓
  6
EXLTYPE2
 62
     6
100
AcDbVertex
100
AcDb2dVertex
 10
370.861766
 20
846.273958
 30
0.0
  0
VERTEX
  5
423
100
AcDbEntity
  8
止水栓
  6
EXLTYPE2
 62
     6
100
AcDbVertex
100
AcDb2dVertex
 10
371.064403
 20
846.393587
 30
0.0
  0
VERTEX
  5
424
100
AcDbEntity
  8
止水栓
  6
EXLTYPE2
 62
     6
100
AcDbVertex
100
AcDb2dVertex
 10
371.262157
 20
846.549837
 30
0.0
  0
VERTEX
  5
425
100
AcDbEntity
  8
止水栓
  6
EXLTYPE2
 62
     6
100
AcDbVertex
100
AcDb2dVertex
 10
371.450145
 20
846.735384
 30
0.0
  0
VERTEX
  5
426
100
AcDbEntity
  8
止水栓
  6
EXLTYPE2
 62
     6
100
AcDbVertex
100
AcDb2dVertex
 10
371.630809
 20
846.952669
 30
0.0
  0
VERTEX
  5
427
100
AcDbEntity
  8
止水栓
  6
EXLTYPE2
 62
     6
100
AcDbVertex
100
AcDb2dVertex
 10
371.801708
 20
847.19681
 30
0.0
  0
VERTEX
  5
428
100
AcDbEntity
  8
止水栓
  6
EXLTYPE2
 62
     6
100
AcDbVertex
100
AcDb2dVertex
 10
371.957958
 20
847.470247
 30
0.0
  0
VERTEX
  5
429
100
AcDbEntity
  8
止水栓
  6
EXLTYPE2
 62
     6
100
AcDbVertex
100
AcDb2dVertex
 10
372.102001
 20
847.768099
 30
0.0
  0
VERTEX
  5
42A
100
AcDbEntity
  8
止水栓
  6
EXLTYPE2
 62
     6
100
AcDbVertex
100
AcDb2dVertex
 10
372.233837
 20
848.090364
 30
0.0
  0
VERTEX
  5
42B
100
AcDbEntity
  8
止水栓
  6
EXLTYPE2
 62
     6
100
AcDbVertex
100
AcDb2dVertex
 10
372.348583
 20
848.42972
 30
0.0
  0
VERTEX
  5
42C
100
AcDbEntity
  8
止水栓
  6
EXLTYPE2
 62
     6
100
AcDbVertex
100
AcDb2dVertex
 10
372.446239
 20
848.788607
 30
0.0
  0
VERTEX
  5
42D
100
AcDbEntity
  8
止水栓
  6
EXLTYPE2
 62
     6
100
AcDbVertex
100
AcDb2dVertex
 10
372.526805
 20
849.1597
 30
0.0
  0
VERTEX
  5
42E
100
AcDbEntity
  8
止水栓
  6
EXLTYPE2
 62
     6
100
AcDbVertex
100
AcDb2dVertex
 10
372.592723
 20
849.545443
 30
0.0
  0
VERTEX
  5
42F
100
AcDbEntity
  8
止水栓
  6
EXLTYPE2
 62
     6
100
AcDbVertex
100
AcDb2dVertex
 10
372.63911
 20
849.94095
 30
0.0
  0
VERTEX
  5
430
100
AcDbEntity
  8
止水栓
  6
EXLTYPE2
 62
     6
100
AcDbVertex
100
AcDb2dVertex
 10
372.665966
 20
850.341341
 30
0.0
  0
VERTEX
  5
431
100
AcDbEntity
  8
止水栓
  6
EXLTYPE2
 62
     6
100
AcDbVertex
100
AcDb2dVertex
 10
372.675731
 20
850.744173
 30
0.0
  0
VERTEX
  5
432
100
AcDbEntity
  8
止水栓
  6
EXLTYPE2
 62
     6
100
AcDbVertex
100
AcDb2dVertex
 10
372.665966
 20
851.147005
 30
0.0
  0
VERTEX
  5
433
100
AcDbEntity
  8
止水栓
  6
EXLTYPE2
 62
     6
100
AcDbVertex
100
AcDb2dVertex
 10
372.63911
 20
851.547396
 30
0.0
  0
VERTEX
  5
434
100
AcDbEntity
  8
止水栓
  6
EXLTYPE2
 62
     6
100
AcDbVertex
100
AcDb2dVertex
 10
372.592723
 20
851.942903
 30
0.0
  0
VERTEX
  5
435
100
AcDbEntity
  8
止水栓
  6
EXLTYPE2
 62
     6
100
AcDbVertex
100
AcDb2dVertex
 10
372.529247
 20
852.328646
 30
0.0
  0
VERTEX
  5
436
100
AcDbEntity
  8
止水栓
  6
EXLTYPE2
 62
     6
100
AcDbVertex
100
AcDb2dVertex
 10
372.446239
 20
852.702181
 30
0.0
  0
VERTEX
  5
437
100
AcDbEntity
  8
止水栓
  6
EXLTYPE2
 62
     6
100
AcDbVertex
100
AcDb2dVertex
 10
372.348583
 20
853.061068
 30
0.0
  0
VERTEX
  5
438
100
AcDbEntity
  8
止水栓
  6
EXLTYPE2
 62
     6
100
AcDbVertex
100
AcDb2dVertex
 10
372.233837
 20
853.400423
 30
0.0
  0
VERTEX
  5
439
100
AcDbEntity
  8
止水栓
  6
EXLTYPE2
 62
     6
100
AcDbVertex
100
AcDb2dVertex
 10
372.102001
 20
853.722689
 30
0.0
  0
VERTEX
  5
43A
100
AcDbEntity
  8
止水栓
  6
EXLTYPE2
 62
     6
100
AcDbVertex
100
AcDb2dVertex
 10
371.957958
 20
854.018099
 30
0.0
  0
VERTEX
  5
43B
100
AcDbEntity
  8
止水栓
  6
EXLTYPE2
 62
     6
100
AcDbVertex
100
AcDb2dVertex
 10
371.801708
 20
854.291536
 30
0.0
  0
VERTEX
  5
43C
100
AcDbEntity
  8
止水栓
  6
EXLTYPE2
 62
     6
100
AcDbVertex
100
AcDb2dVertex
 10
371.630809
 20
854.538118
 30
0.0
  0
VERTEX
  5
43D
100
AcDbEntity
  8
止水栓
  6
EXLTYPE2
 62
     6
100
AcDbVertex
100
AcDb2dVertex
 10
371.452587
 20
854.755403
 30
0.0
  0
VERTEX
  5
43E
100
AcDbEntity
  8
止水栓
  6
EXLTYPE2
 62
     6
100
AcDbVertex
100
AcDb2dVertex
 10
371.262157
 20
854.94095
 30
0.0
  0
VERTEX
  5
43F
100
AcDbEntity
  8
止水栓
  6
EXLTYPE2
 62
     6
100
AcDbVertex
100
AcDb2dVertex
 10
371.064403
 20
855.094759
 30
0.0
  0
VERTEX
  5
440
100
AcDbEntity
  8
止水栓
  6
EXLTYPE2
 62
     6
100
AcDbVertex
100
AcDb2dVertex
 10
370.861766
 20
855.216829
 30
0.0
  0
VERTEX
  5
441
100
AcDbEntity
  8
止水栓
  6
EXLTYPE2
 62
     6
100
AcDbVertex
100
AcDb2dVertex
 10
370.651805
 20
855.30472
 30
0.0
  0
VERTEX
  5
442
100
AcDbEntity
  8
止水栓
  6
EXLTYPE2
 62
     6
100
AcDbVertex
100
AcDb2dVertex
 10
370.439403
 20
855.358431
 30
0.0
  0
VERTEX
  5
443
100
AcDbEntity
  8
止水栓
  6
EXLTYPE2
 62
     6
100
AcDbVertex
100
AcDb2dVertex
 10
370.227001
 20
855.375521
 30
0.0
  0
VERTEX
  5
444
100
AcDbEntity
  8
止水栓
  6
EXLTYPE2
 62
     6
100
AcDbVertex
100
AcDb2dVertex
 10
370.012157
 20
855.355989
 30
0.0
  0
VERTEX
  5
445
100
AcDbEntity
  8
止水栓
  6
EXLTYPE2
 62
     6
100
AcDbVertex
100
AcDb2dVertex
 10
369.802196
 20
855.30472
 30
0.0
  0
VERTEX
  5
446
100
AcDbEntity
  8
止水栓
  6
EXLTYPE2
 62
     6
100
AcDbVertex
100
AcDb2dVertex
 10
369.592235
 20
855.216829
 30
0.0
  0
VERTEX
  5
447
100
AcDbEntity
  8
止水栓
  6
EXLTYPE2
 62
     6
100
AcDbVertex
100
AcDb2dVertex
 10
369.389598
 20
855.094759
 30
0.0
  0
VERTEX
  5
448
100
AcDbEntity
  8
止水栓
  6
EXLTYPE2
 62
     6
100
AcDbVertex
100
AcDb2dVertex
 10
369.191844
 20
854.94095
 30
0.0
  0
SEQEND
  5
449
100
AcDbEntity
  8
止水栓
  6
EXLTYPE2
 62
     6
  0
POLYLINE
  5
44A
100
AcDbEntity
  8
止水栓
  6
EXLTYPE2
 62
     6
100
AcDb2dPolyline
 66
     1
 10
0.0
 20
0.0
 30
0.0
 70
   128
  0
VERTEX
  5
44B
100
AcDbEntity
  8
止水栓
  6
EXLTYPE2
 62
     6
100
AcDbVertex
100
AcDb2dVertex
 10
367.861278
 20
851.942903
 30
0.0
  0
VERTEX
  5
44C
100
AcDbEntity
  8
止水栓
  6
EXLTYPE2
 62
     6
100
AcDbVertex
100
AcDb2dVertex
 10
367.814891
 20
851.549837
 30
0.0
  0
VERTEX
  5
44D
100
AcDbEntity
  8
止水栓
  6
EXLTYPE2
 62
     6
100
AcDbVertex
100
AcDb2dVertex
 10
367.785594
 20
851.149446
 30
0.0
  0
VERTEX
  5
44E
100
AcDbEntity
  8
止水栓
  6
EXLTYPE2
 62
     6
100
AcDbVertex
100
AcDb2dVertex
 10
367.775829
 20
850.746614
 30
0.0
  0
SEQEND
  5
44F
100
AcDbEntity
  8
止水栓
  6
EXLTYPE2
 62
     6
  0
POLYLINE
  5
450
100
AcDbEntity
  8
止水栓
  6
EXLTYPE2
 62
     6
100
AcDb2dPolyline
 66
     1
 10
0.0
 20
0.0
 30
0.0
 70
   128
  0
VERTEX
  5
451
100
AcDbEntity
  8
止水栓
  6
EXLTYPE2
 62
     6
100
AcDbVertex
100
AcDb2dVertex
 10
369.191844
 20
854.94095
 30
0.0
  0
VERTEX
  5
452
100
AcDbEntity
  8
止水栓
  6
EXLTYPE2
 62
     6
100
AcDbVertex
100
AcDb2dVertex
 10
369.001415
 20
854.755403
 30
0.0
  0
VERTEX
  5
453
100
AcDbEntity
  8
止水栓
  6
EXLTYPE2
 62
     6
100
AcDbVertex
100
AcDb2dVertex
 10
368.820751
 20
854.538118
 30
0.0
  0
VERTEX
  5
454
100
AcDbEntity
  8
止水栓
  6
EXLTYPE2
 62
     6
100
AcDbVertex
100
AcDb2dVertex
 10
368.652294
 20
854.291536
 30
0.0
  0
VERTEX
  5
455
100
AcDbEntity
  8
止水栓
  6
EXLTYPE2
 62
     6
100
AcDbVertex
100
AcDb2dVertex
 10
368.493602
 20
854.018099
 30
0.0
  0
VERTEX
  5
456
100
AcDbEntity
  8
止水栓
  6
EXLTYPE2
 62
     6
100
AcDbVertex
100
AcDb2dVertex
 10
368.349559
 20
853.720247
 30
0.0
  0
VERTEX
  5
457
100
AcDbEntity
  8
止水栓
  6
EXLTYPE2
 62
     6
100
AcDbVertex
100
AcDb2dVertex
 10
368.220165
 20
853.400423
 30
0.0
  0
VERTEX
  5
458
100
AcDbEntity
  8
止水栓
  6
EXLTYPE2
 62
     6
100
AcDbVertex
100
AcDb2dVertex
 10
368.105419
 20
853.061068
 30
0.0
  0
VERTEX
  5
459
100
AcDbEntity
  8
止水栓
  6
EXLTYPE2
 62
     6
100
AcDbVertex
100
AcDb2dVertex
 10
368.005321
 20
852.702181
 30
0.0
  0
VERTEX
  5
45A
100
AcDbEntity
  8
止水栓
  6
EXLTYPE2
 62
     6
100
AcDbVertex
100
AcDb2dVertex
 10
367.924755
 20
852.328646
 30
0.0
  0
VERTEX
  5
45B
100
AcDbEntity
  8
止水栓
  6
EXLTYPE2
 62
     6
100
AcDbVertex
100
AcDb2dVertex
 10
367.861278
 20
851.942903
 30
0.0
  0
SEQEND
  5
45C
100
AcDbEntity
  8
止水栓
  6
EXLTYPE2
 62
     6
  0
ARC
  5
45D
100
AcDbEntity
  8
止水栓
  6
EXLTYPE2
 62
     6
100
AcDbCircle
 10
361.923778
 20
851.002962
 30
0.0
 40
10.99987
100
AcDbArc
 50
326.937744
 51
33.054687
  0
ARC
  5
45E
100
AcDbEntity
  8
止水栓
  6
EXLTYPE10
 62
     6
100
AcDbCircle
 10
374.838055
 20
783.483554
 30
0.0
 40
14.664011
100
AcDbArc
 50
180.0
 51
333.038028
  0
LINE
  5
45F
100
AcDbEntity
  8
止水栓
  6
EXLTYPE2
 62
     6
100
AcDbLine
 10
353.673285
 20
811.001985
 30
0.0
 11
353.673285
 21
799.287612
 31
0.0
  0
LINE
  5
460
100
AcDbEntity
  8
止水栓
  6
EXLTYPE2
 62
     6
100
AcDbLine
 10
366.673285
 20
811.001985
 30
0.0
 11
366.673285
 21
799.287612
 31
0.0
  0
LINE
  5
461
100
AcDbEntity
  8
止水栓
  6
EXLTYPE2
 62
     6
100
AcDbLine
 10
353.67329
 20
803.995204
 30
0.0
 11
353.67329
 21
799.287612
 31
0.0
  0
LINE
  5
462
100
AcDbEntity
  8
止水栓
  6
EXLTYPE2
 62
     6
100
AcDbLine
 10
366.67329
 20
803.995204
 30
0.0
 11
366.67329
 21
799.287612
 31
0.0
  0
LINE
  5
463
100
AcDbEntity
  8
止水栓
  6
EXLTYPE2
 62
     6
100
AcDbLine
 10
353.67329
 20
801.170613
 30
0.0
 11
353.67329
 21
799.287612
 31
0.0
  0
LINE
  5
464
100
AcDbEntity
  8
止水栓
  6
EXLTYPE2
 62
     6
100
AcDbLine
 10
366.67329
 20
801.170613
 30
0.0
 11
366.67329
 21
799.287612
 31
0.0
  0
LINE
  5
465
100
AcDbEntity
  8
止水栓
  6
EXLTYPE2
 62
     6
100
AcDbLine
 10
369.436802
 20
862.000284
 30
0.0
 11
369.436802
 21
858.000324
 31
0.0
  0
LINE
  5
466
100
AcDbEntity
  8
止水栓
  6
EXLTYPE2
 62
     6
100
AcDbLine
 10
350.911287
 20
862.000284
 30
0.0
 11
350.911287
 21
858.000324
 31
0.0
  0
LINE
  5
467
100
AcDbEntity
  8
止水栓
  6
EXLTYPE2
 62
     6
100
AcDbLine
 10
370.638771
 20
858.000324
 30
0.0
 11
370.638771
 21
866.149367
 31
0.0
  0
LINE
  5
468
100
AcDbEntity
  8
止水栓
  6
EXLTYPE2
 62
     6
100
AcDbLine
 10
349.683762
 20
865.000324
 30
0.0
 11
349.683762
 21
858.000324
 31
0.0
  0
LINE
  5
469
100
AcDbEntity
  8
止水栓
  6
EXLTYPE2
 62
     6
100
AcDbLine
 10
370.638751
 20
862.000284
 30
0.0
 11
349.683762
 21
862.000284
 31
0.0
  0
LINE
  5
46A
100
AcDbEntity
  8
止水栓
  6
EXLTYPE2
 62
     6
100
AcDbLine
 10
349.683762
 20
864.126415
 30
0.0
 11
350.911286
 21
862.000286
 31
0.0
  0
ARC
  5
46B
100
AcDbEntity
  8
止水栓
  6
EXLTYPE2
 62
     6
100
AcDbCircle
 10
344.551217
 20
900.500324
 30
0.0
 40
6.5
100
AcDbArc
 50
242.204228
 51
270.0
  0
ARC
  5
46C
100
AcDbEntity
  8
止水栓
  6
EXLTYPE2
 62
     6
100
AcDbCircle
 10
344.551217
 20
863.500324
 30
0.0
 40
6.5
100
AcDbArc
 50
90.0
 51
117.795772
  0
ARC
  5
46D
100
AcDbEntity
  8
止水栓
  6
EXLTYPE2
 62
     6
100
AcDbCircle
 10
351.059556
 20
875.625324
 30
0.0
 40
18.612052
100
AcDbArc
 50
159.969519
 51
200.030481
  0
ARC
  5
46E
100
AcDbEntity
  8
止水栓
  6
EXLTYPE2
 62
     6
100
AcDbCircle
 10
351.059556
 20
888.375324
 30
0.0
 40
18.612052
100
AcDbArc
 50
159.969519
 51
200.030481
  0
ARC
  5
46F
100
AcDbEntity
  8
止水栓
  6
EXLTYPE2
 62
     6
100
AcDbCircle
 10
331.337175
 20
875.625324
 30
0.0
 40
10.182953
100
AcDbArc
 50
321.240977
 51
38.759023
  0
ARC
  5
470
100
AcDbEntity
  8
止水栓
  6
EXLTYPE2
 62
     6
100
AcDbCircle
 10
331.337175
 20
888.375324
 30
0.0
 40
10.182953
100
AcDbArc
 50
321.240977
 51
38.759023
  0
LINE
  5
471
100
AcDbEntity
  8
止水栓
  6
EXLTYPE2
 62
     6
100
AcDbLine
 10
332.158829
 20
894.250324
 30
0.0
 11
332.447504
 21
894.750324
 31
0.0
  0
LINE
  5
472
100
AcDbEntity
  8
止水栓
  6
EXLTYPE2
 62
     6
100
AcDbLine
 10
332.158829
 20
869.750324
 30
0.0
 11
332.447504
 21
869.250324
 31
0.0
  0
LINE
  5
473
100
AcDbEntity
  8
止水栓
  6
EXLTYPE2
 62
     6
100
AcDbLine
 10
341.520128
 20
869.250324
 30
0.0
 11
332.447504
 21
869.250324
 31
0.0
  0
LINE
  5
474
100
AcDbEntity
  8
止水栓
  6
EXLTYPE2
 62
     6
100
AcDbLine
 10
341.520128
 20
894.750324
 30
0.0
 11
332.447504
 21
894.750324
 31
0.0
  0
LINE
  5
475
100
AcDbEntity
  8
止水栓
  6
EXLTYPE2
 62
     6
100
AcDbLine
 10
332.158829
 20
894.250324
 30
0.0
 11
332.158829
 21
869.750324
 31
0.0
  0
LINE
  5
476
100
AcDbEntity
  8
止水栓
  6
EXLTYPE2
 62
     6
100
AcDbLine
 10
330.955307
 20
871.823973
 30
0.0
 11
330.955307
 21
892.21652
 31
0.0
  0
LINE
  5
477
100
AcDbEntity
  8
止水栓
  6
EXLTYPE2
 62
     6
100
AcDbLine
 10
332.162029
 20
871.859845
 30
0.0
 11
329.147985
 21
871.770246
 31
0.0
  0
LINE
  5
478
100
AcDbEntity
  8
止水栓
  6
EXLTYPE2
 62
     6
100
AcDbLine
 10
332.162029
 20
872.860287
 30
0.0
 11
330.955307
 21
872.824414
 31
0.0
  0
LINE
  5
479
100
AcDbEntity
  8
止水栓
  6
EXLTYPE2
 62
     6
100
AcDbLine
 10
329.147985
 20
871.770246
 30
0.0
 11
330.955307
 21
872.824414
 31
0.0
  0
LINE
  5
47A
100
AcDbEntity
  8
止水栓
  6
EXLTYPE2
 62
     6
100
AcDbLine
 10
332.162029
 20
892.180648
 30
0.0
 11
329.147985
 21
892.270246
 31
0.0
  0
LINE
  5
47B
100
AcDbEntity
  8
止水栓
  6
EXLTYPE2
 62
     6
100
AcDbLine
 10
332.162029
 20
891.180206
 30
0.0
 11
330.955307
 21
891.216078
 31
0.0
  0
LINE
  5
47C
100
AcDbEntity
  8
止水栓
  6
EXLTYPE2
 62
     6
100
AcDbLine
 10
329.147985
 20
892.270246
 30
0.0
 11
330.955307
 21
891.216078
 31
0.0
  0
LINE
  5
47D
100
AcDbEntity
  8
止水栓
  6
EXLTYPE2
 62
     6
100
AcDbLine
 10
344.6718
 20
870.000324
 30
0.0
 11
344.551217
 21
870.000324
 31
0.0
  0
ARC
  5
47E
100
AcDbEntity
  8
止水栓
  6
EXLTYPE2
 62
     6
100
AcDbCircle
 10
344.683762
 20
865.000324
 30
0.0
 40
5.0
100
AcDbArc
 50
0.0
 51
90.0
  0
LINE
  5
47F
100
AcDbEntity
  8
止水栓
  6
EXLTYPE2
 62
     6
100
AcDbLine
 10
344.551217
 20
894.000324
 30
0.0
 11
381.161252
 21
894.000324
 31
0.0
  0
LINE
  5
480
100
AcDbEntity
  8
止水栓
  6
EXLTYPE2
 62
     6
100
AcDbLine
 10
370.638767
 20
864.126413
 30
0.0
 11
369.411243
 21
862.000284
 31
0.0
  0
ARC
  5
481
100
AcDbEntity
  8
止水栓
  6
EXLTYPE2
 62
     6
100
AcDbCircle
 10
375.596619
 20
865.501497
 30
0.0
 40
5.0
100
AcDbArc
 50
115.872755
 51
172.555023
  0
LINE
  5
482
100
AcDbEntity
  8
止水栓
  6
EXLTYPE2
 62
     6
100
AcDbLine
 10
381.161252
 20
870.000324
 30
0.0
 11
373.414749
 21
870.000324
 31
0.0
  0
LINE
  5
483
100
AcDbEntity
  8
止水栓
  6
EXLTYPE2
 62
     6
100
AcDbLine
 10
381.161252
 20
870.000324
 30
0.0
 11
381.161252
 21
894.000324
 31
0.0
  0
LINE
  5
484
100
AcDbEntity
  8
止水栓
  6
EXLTYPE2
 62
     6
100
AcDbLine
 10
381.861252
 20
891.000324
 30
0.0
 11
381.161252
 21
891.000324
 31
0.0
  0
LINE
  5
485
100
AcDbEntity
  8
止水栓
  6
EXLTYPE2
 62
     6
100
AcDbLine
 10
381.861252
 20
873.000324
 30
0.0
 11
381.161252
 21
873.000324
 31
0.0
  0
LINE
  5
486
100
AcDbEntity
  8
止水栓
  6
EXLTYPE2
 62
     6
100
AcDbLine
 10
381.861252
 20
882.900324
 30
0.0
 11
381.161252
 21
882.900324
 31
0.0
  0
LINE
  5
487
100
AcDbEntity
  8
止水栓
  6
EXLTYPE2
 62
     6
100
AcDbLine
 10
381.861252
 20
881.100324
 30
0.0
 11
381.161252
 21
881.100324
 31
0.0
  0
LINE
  5
488
100
AcDbEntity
  8
止水栓
  6
EXLTYPE2
 62
     6
100
AcDbLine
 10
381.861252
 20
881.100324
 30
0.0
 11
381.861252
 21
873.000324
 31
0.0
  0
LINE
  5
489
100
AcDbEntity
  8
止水栓
  6
EXLTYPE2
 62
     6
100
AcDbLine
 10
381.861252
 20
882.900324
 30
0.0
 11
381.861252
 21
891.000324
 31
0.0
  0
LEADER
  5
48A
100
AcDbEntity
  8
止水栓
  6
CONTINUOUS
 62
     6
100
AcDbLeader
  3
STANDARD
 73
     3
 74
     1
 75
     0
 40
0.0
 76
     2
 10
396.018839
 20
578.910403
 30
0.0
 10
279.500004
 20
508.859549
 30
0.0
 77
     6
1001
ACAD
1000
DSTYLE
1002
{
1070
    41
1040
35.0
1070
     5
1000
_EX_NORM
1070
     6
1000
_EX_NORM
1070
     7
1000
_EX_NORM
1070
   341
1005
32
1002
}
  0
LINE
  5
48B
100
AcDbEntity
  8
止水栓
  6
CONTINUOUS
 62
     6
100
AcDbLine
 10
279.500004
 20
508.859549
 30
0.0
 11
192.500004
 21
508.859549
 31
0.0
  0
TEXT
  5
48C
100
AcDbEntity
  8
止水栓
  6
CONTINUOUS
 62
     2
100
AcDbText
 10
224.85784
 20
527.559549
 30
0.0
 40
25.0
  1
１
 41
0.84
  7
EXCADSTD
 72
     5
 11
244.85784
 21
527.559549
 31
0.0
100
AcDbText
  0
TEXT
  5
48D
100
AcDbEntity
  8
止水栓
  6
CONTINUOUS
 62
     2
100
AcDbText
 10
188.35784
 20
512.359549
 30
0.0
 40
40.0
  1
Ｒ
 41
0.945
  7
EXCADSTD
 72
     5
 11
224.35784
 21
512.359549
 31
0.0
100
AcDbText
  0
TEXT
  5
48E
100
AcDbEntity
  8
止水栓
  6
CONTINUOUS
 62
     6
100
AcDbText
 10
234.85784
 20
512.359549
 30
0.0
 40
40.0
  1
／ 
 41
0.945
  7
EXCADSTD
 72
     5
 11
270.85784
 21
512.359549
 31
0.0
100
AcDbText
  0
TEXT
  5
48F
100
AcDbEntity
  8
止水栓
  6
CONTINUOUS
 62
     2
100
AcDbText
 10
255.45784
 20
512.259549
 30
0.0
 40
25.0
  1
２
 41
0.84
  7
EXCADSTD
 72
     5
 11
275.45784
 21
512.259549
 31
0.0
100
AcDbText
  0
LINE
  5
490
100
AcDbEntity
  8
止水栓
  6
CONTINUOUS
 62
     6
100
AcDbLine
 10
412.251984
 20
2277.772837
 30
0.0
 11
412.251984
 21
2280.772837
 31
0.0
  0
LINE
  5
491
100
AcDbEntity
  8
止水栓
  6
CONTINUOUS
 62
     6
100
AcDbLine
 10
400.751984
 20
2277.772837
 30
0.0
 11
400.751984
 21
2280.772837
 31
0.0
  0
LINE
  5
492
100
AcDbEntity
  8
止水栓
  6
CONTINUOUS
 62
     6
100
AcDbLine
 10
413.251984
 20
2296.772837
 30
0.0
 11
399.751984
 21
2296.772837
 31
0.0
  0
LINE
  5
493
100
AcDbEntity
  8
止水栓
  6
CONTINUOUS
 62
     6
100
AcDbLine
 10
411.251984
 20
2280.772837
 30
0.0
 11
401.751984
 21
2280.772837
 31
0.0
  0
LINE
  5
494
100
AcDbEntity
  8
止水栓
  6
CONTINUOUS
 62
     6
100
AcDbLine
 10
411.251984
 20
2285.772837
 30
0.0
 11
401.751984
 21
2285.772837
 31
0.0
  0
LINE
  5
495
100
AcDbEntity
  8
止水栓
  6
CONTINUOUS
 62
     6
100
AcDbLine
 10
413.251984
 20
2288.772837
 30
0.0
 11
399.751984
 21
2288.772837
 31
0.0
  0
LINE
  5
496
100
AcDbEntity
  8
止水栓
  6
CONTINUOUS
 62
     6
100
AcDbLine
 10
413.251984
 20
2288.772837
 30
0.0
 11
413.251984
 21
2296.772837
 31
0.0
  0
ARC
  5
497
100
AcDbEntity
  8
止水栓
  6
CONTINUOUS
 62
     6
100
AcDbCircle
 10
411.251984
 20
2283.272837
 30
0.0
 40
2.5
100
AcDbArc
 50
0.0
 51
90.0
  0
ARC
  5
498
100
AcDbEntity
  8
止水栓
  6
CONTINUOUS
 62
     6
100
AcDbCircle
 10
411.251984
 20
2283.272837
 30
0.0
 40
2.5
100
AcDbArc
 50
270.0
 51
0.0
  0
LINE
  5
499
100
AcDbEntity
  8
止水栓
  6
CONTINUOUS
 62
     6
100
AcDbLine
 10
412.251984
 20
2285.772837
 30
0.0
 11
412.251984
 21
2288.772837
 31
0.0
  0
LINE
  5
49A
100
AcDbEntity
  8
止水栓
  6
CONTINUOUS
 62
     6
100
AcDbLine
 10
399.751984
 20
2288.772837
 30
0.0
 11
399.751984
 21
2296.772837
 31
0.0
  0
ARC
  5
49B
100
AcDbEntity
  8
止水栓
  6
CONTINUOUS
 62
     6
100
AcDbCircle
 10
401.751984
 20
2283.272837
 30
0.0
 40
2.5
100
AcDbArc
 50
90.0
 51
180.0
  0
ARC
  5
49C
100
AcDbEntity
  8
止水栓
  6
CONTINUOUS
 62
     6
100
AcDbCircle
 10
401.751984
 20
2283.272837
 30
0.0
 40
2.5
100
AcDbArc
 50
180.0
 51
270.0
  0
LINE
  5
49D
100
AcDbEntity
  8
止水栓
  6
CONTINUOUS
 62
     6
100
AcDbLine
 10
400.751984
 20
2285.772837
 30
0.0
 11
400.751984
 21
2288.772837
 31
0.0
  0
POLYLINE
  5
49E
100
AcDbEntity
  8
止水栓
  6
CONTINUOUS
 62
     6
100
AcDb2dPolyline
 66
     1
 10
0.0
 20
0.0
 30
0.0
 70
   128
  0
VERTEX
  5
49F
100
AcDbEntity
  8
止水栓
  6
CONTINUOUS
 62
     6
100
AcDbVertex
100
AcDb2dVertex
 10
412.358917
 20
2256.996469
 30
0.0
  0
VERTEX
  5
4A0
100
AcDbEntity
  8
止水栓
  6
CONTINUOUS
 62
     6
100
AcDbVertex
100
AcDb2dVertex
 10
412.336945
 20
2257.479868
 30
0.0
  0
VERTEX
  5
4A1
100
AcDbEntity
  8
止水栓
  6
CONTINUOUS
 62
     6
100
AcDbVertex
100
AcDb2dVertex
 10
412.271027
 20
2257.960825
 30
0.0
  0
VERTEX
  5
4A2
100
AcDbEntity
  8
止水栓
  6
CONTINUOUS
 62
     6
100
AcDbVertex
100
AcDb2dVertex
 10
412.161163
 20
2258.434458
 30
0.0
  0
VERTEX
  5
4A3
100
AcDbEntity
  8
止水栓
  6
CONTINUOUS
 62
     6
100
AcDbVertex
100
AcDb2dVertex
 10
412.007355
 20
2258.898325
 30
0.0
  0
VERTEX
  5
4A4
100
AcDbEntity
  8
止水栓
  6
CONTINUOUS
 62
     6
100
AcDbVertex
100
AcDb2dVertex
 10
411.814484
 20
2259.345102
 30
0.0
  0
VERTEX
  5
4A5
100
AcDbEntity
  8
止水栓
  6
CONTINUOUS
 62
     6
100
AcDbVertex
100
AcDb2dVertex
 10
411.577667
 20
2259.777231
 30
0.0
  0
VERTEX
  5
4A6
100
AcDbEntity
  8
止水栓
  6
CONTINUOUS
 62
     6
100
AcDbVertex
100
AcDb2dVertex
 10
411.30423
 20
2260.184946
 30
0.0
  0
VERTEX
  5
4A7
100
AcDbEntity
  8
止水栓
  6
CONTINUOUS
 62
     6
100
AcDbVertex
100
AcDb2dVertex
 10
410.994171
 20
2260.570688
 30
0.0
  0
VERTEX
  5
4A8
100
AcDbEntity
  8
止水栓
  6
CONTINUOUS
 62
     6
100
AcDbVertex
100
AcDb2dVertex
 10
410.652374
 20
2260.927133
 30
0.0
  0
VERTEX
  5
4A9
100
AcDbEntity
  8
止水栓
  6
CONTINUOUS
 62
     6
100
AcDbVertex
100
AcDb2dVertex
 10
410.276398
 20
2261.256723
 30
0.0
  0
VERTEX
  5
4AA
100
AcDbEntity
  8
止水栓
  6
CONTINUOUS
 62
     6
100
AcDbVertex
100
AcDb2dVertex
 10
409.873566
 20
2261.549692
 30
0.0
  0
VERTEX
  5
4AB
100
AcDbEntity
  8
止水栓
  6
CONTINUOUS
 62
     6
100
AcDbVertex
100
AcDb2dVertex
 10
409.443878
 20
2261.813364
 30
0.0
  0
VERTEX
  5
4AC
100
AcDbEntity
  8
止水栓
  6
CONTINUOUS
 62
     6
100
AcDbVertex
100
AcDb2dVertex
 10
408.992218
 20
2262.037973
 30
0.0
  0
VERTEX
  5
4AD
100
AcDbEntity
  8
止水栓
  6
CONTINUOUS
 62
     6
100
AcDbVertex
100
AcDb2dVertex
 10
408.523468
 20
2262.22352
 30
0.0
  0
VERTEX
  5
4AE
100
AcDbEntity
  8
止水栓
  6
CONTINUOUS
 62
     6
100
AcDbVertex
100
AcDb2dVertex
 10
408.037628
 20
2262.367563
 30
0.0
  0
VERTEX
  5
4AF
100
AcDbEntity
  8
止水栓
  6
CONTINUOUS
 62
     6
100
AcDbVertex
100
AcDb2dVertex
 10
407.542023
 20
2262.472544
 30
0.0
  0
VERTEX
  5
4B0
100
AcDbEntity
  8
止水栓
  6
CONTINUOUS
 62
     6
100
AcDbVertex
100
AcDb2dVertex
 10
407.036652
 20
2262.53602
 30
0.0
  0
VERTEX
  5
4B1
100
AcDbEntity
  8
止水栓
  6
CONTINUOUS
 62
     6
100
AcDbVertex
100
AcDb2dVertex
 10
406.528839
 20
2262.557993
 30
0.0
  0
VERTEX
  5
4B2
100
AcDbEntity
  8
止水栓
  6
CONTINUOUS
 62
     6
100
AcDbVertex
100
AcDb2dVertex
 10
406.519074
 20
2262.557993
 30
0.0
  0
VERTEX
  5
4B3
100
AcDbEntity
  8
止水栓
  6
CONTINUOUS
 62
     6
100
AcDbVertex
100
AcDb2dVertex
 10
406.511749
 20
2262.557993
 30
0.0
  0
VERTEX
  5
4B4
100
AcDbEntity
  8
止水栓
  6
CONTINUOUS
 62
     6
100
AcDbVertex
100
AcDb2dVertex
 10
406.501984
 20
2262.557993
 30
0.0
  0
SEQEND
  5
4B5
100
AcDbEntity
  8
止水栓
  6
CONTINUOUS
 62
     6
  0
LINE
  5
4B6
100
AcDbEntity
  8
止水栓
  6
CONTINUOUS
 62
     6
100
AcDbLine
 10
411.251984
 20
2272.772837
 30
0.0
 11
401.751984
 21
2272.772837
 31
0.0
  0
LINE
  5
4B7
100
AcDbEntity
  8
止水栓
  6
CONTINUOUS
 62
     6
100
AcDbLine
 10
412.251984
 20
2269.772837
 30
0.0
 11
400.751984
 21
2269.772837
 31
0.0
  0
LINE
  5
4B8
100
AcDbEntity
  8
止水栓
  6
CONTINUOUS
 62
     6
100
AcDbLine
 10
411.251984
 20
2277.772837
 30
0.0
 11
401.751984
 21
2277.772837
 31
0.0
  0
POLYLINE
  5
4B9
100
AcDbEntity
  8
止水栓
  6
CONTINUOUS
 62
     6
100
AcDb2dPolyline
 66
     1
 10
0.0
 20
0.0
 30
0.0
 70
   128
  0
VERTEX
  5
4BA
100
AcDbEntity
  8
止水栓
  6
CONTINUOUS
 62
     6
100
AcDbVertex
100
AcDb2dVertex
 10
406.501984
 20
2262.557993
 30
0.0
  0
VERTEX
  5
4BB
100
AcDbEntity
  8
止水栓
  6
CONTINUOUS
 62
     6
100
AcDbVertex
100
AcDb2dVertex
 10
406.003937
 20
2262.53602
 30
0.0
  0
VERTEX
  5
4BC
100
AcDbEntity
  8
止水栓
  6
CONTINUOUS
 62
     6
100
AcDbVertex
100
AcDb2dVertex
 10
405.508331
 20
2262.470102
 30
0.0
  0
VERTEX
  5
4BD
100
AcDbEntity
  8
止水栓
  6
CONTINUOUS
 62
     6
100
AcDbVertex
100
AcDb2dVertex
 10
405.02005
 20
2262.367563
 30
0.0
  0
VERTEX
  5
4BE
100
AcDbEntity
  8
止水栓
  6
CONTINUOUS
 62
     6
100
AcDbVertex
100
AcDb2dVertex
 10
404.53421
 20
2262.221079
 30
0.0
  0
VERTEX
  5
4BF
100
AcDbEntity
  8
止水栓
  6
CONTINUOUS
 62
     6
100
AcDbVertex
100
AcDb2dVertex
 10
404.06546
 20
2262.035532
 30
0.0
  0
VERTEX
  5
4C0
100
AcDbEntity
  8
止水栓
  6
CONTINUOUS
 62
     6
100
AcDbVertex
100
AcDb2dVertex
 10
403.6138
 20
2261.813364
 30
0.0
  0
VERTEX
  5
4C1
100
AcDbEntity
  8
止水栓
  6
CONTINUOUS
 62
     6
100
AcDbVertex
100
AcDb2dVertex
 10
403.184113
 20
2261.552133
 30
0.0
  0
VERTEX
  5
4C2
100
AcDbEntity
  8
止水栓
  6
CONTINUOUS
 62
     6
100
AcDbVertex
100
AcDb2dVertex
 10
402.781281
 20
2261.256723
 30
0.0
  0
VERTEX
  5
4C3
100
AcDbEntity
  8
止水栓
  6
CONTINUOUS
 62
     6
100
AcDbVertex
100
AcDb2dVertex
 10
402.405304
 20
2260.929575
 30
0.0
  0
VERTEX
  5
4C4
100
AcDbEntity
  8
止水栓
  6
CONTINUOUS
 62
     6
100
AcDbVertex
100
AcDb2dVertex
 10
402.063507
 20
2260.570688
 30
0.0
  0
VERTEX
  5
4C5
100
AcDbEntity
  8
止水栓
  6
CONTINUOUS
 62
     6
100
AcDbVertex
100
AcDb2dVertex
 10
401.753449
 20
2260.184946
 30
0.0
  0
VERTEX
  5
4C6
100
AcDbEntity
  8
止水栓
  6
CONTINUOUS
 62
     6
100
AcDbVertex
100
AcDb2dVertex
 10
401.480011
 20
2259.777231
 30
0.0
  0
VERTEX
  5
4C7
100
AcDbEntity
  8
止水栓
  6
CONTINUOUS
 62
     6
100
AcDbVertex
100
AcDb2dVertex
 10
401.243195
 20
2259.347544
 30
0.0
  0
VERTEX
  5
4C8
100
AcDbEntity
  8
止水栓
  6
CONTINUOUS
 62
     6
100
AcDbVertex
100
AcDb2dVertex
 10
401.050324
 20
2258.898325
 30
0.0
  0
VERTEX
  5
4C9
100
AcDbEntity
  8
止水栓
  6
CONTINUOUS
 62
     6
100
AcDbVertex
100
AcDb2dVertex
 10
400.896515
 20
2258.434458
 30
0.0
  0
VERTEX
  5
4CA
100
AcDbEntity
  8
止水栓
  6
CONTINUOUS
 62
     6
100
AcDbVertex
100
AcDb2dVertex
 10
400.786652
 20
2257.960825
 30
0.0
  0
VERTEX
  5
4CB
100
AcDbEntity
  8
止水栓
  6
CONTINUOUS
 62
     6
100
AcDbVertex
100
AcDb2dVertex
 10
400.720734
 20
2257.479868
 30
0.0
  0
VERTEX
  5
4CC
100
AcDbEntity
  8
止水栓
  6
CONTINUOUS
 62
     6
100
AcDbVertex
100
AcDb2dVertex
 10
400.69632
 20
2256.996469
 30
0.0
  0
VERTEX
  5
4CD
100
AcDbEntity
  8
止水栓
  6
CONTINUOUS
 62
     6
100
AcDbVertex
100
AcDb2dVertex
 10
400.720734
 20
2256.510629
 30
0.0
  0
VERTEX
  5
4CE
100
AcDbEntity
  8
止水栓
  6
CONTINUOUS
 62
     6
100
AcDbVertex
100
AcDb2dVertex
 10
400.786652
 20
2256.029672
 30
0.0
  0
VERTEX
  5
4CF
100
AcDbEntity
  8
止水栓
  6
CONTINUOUS
 62
     6
100
AcDbVertex
100
AcDb2dVertex
 10
400.896515
 20
2255.55604
 30
0.0
  0
VERTEX
  5
4D0
100
AcDbEntity
  8
止水栓
  6
CONTINUOUS
 62
     6
100
AcDbVertex
100
AcDb2dVertex
 10
401.050324
 20
2255.094614
 30
0.0
  0
VERTEX
  5
4D1
100
AcDbEntity
  8
止水栓
  6
CONTINUOUS
 62
     6
100
AcDbVertex
100
AcDb2dVertex
 10
401.243195
 20
2254.645395
 30
0.0
  0
VERTEX
  5
4D2
100
AcDbEntity
  8
止水栓
  6
CONTINUOUS
 62
     6
100
AcDbVertex
100
AcDb2dVertex
 10
401.480011
 20
2254.215708
 30
0.0
  0
VERTEX
  5
4D3
100
AcDbEntity
  8
止水栓
  6
CONTINUOUS
 62
     6
100
AcDbVertex
100
AcDb2dVertex
 10
401.753449
 20
2253.805551
 30
0.0
  0
VERTEX
  5
4D4
100
AcDbEntity
  8
止水栓
  6
CONTINUOUS
 62
     6
100
AcDbVertex
100
AcDb2dVertex
 10
402.063507
 20
2253.422251
 30
0.0
  0
VERTEX
  5
4D5
100
AcDbEntity
  8
止水栓
  6
CONTINUOUS
 62
     6
100
AcDbVertex
100
AcDb2dVertex
 10
402.405304
 20
2253.063364
 30
0.0
  0
VERTEX
  5
4D6
100
AcDbEntity
  8
止水栓
  6
CONTINUOUS
 62
     6
100
AcDbVertex
100
AcDb2dVertex
 10
402.781281
 20
2252.736215
 30
0.0
  0
VERTEX
  5
4D7
100
AcDbEntity
  8
止水栓
  6
CONTINUOUS
 62
     6
100
AcDbVertex
100
AcDb2dVertex
 10
403.184113
 20
2252.440805
 30
0.0
  0
VERTEX
  5
4D8
100
AcDbEntity
  8
止水栓
  6
CONTINUOUS
 62
     6
100
AcDbVertex
100
AcDb2dVertex
 10
403.6138
 20
2252.179575
 30
0.0
  0
VERTEX
  5
4D9
100
AcDbEntity
  8
止水栓
  6
CONTINUOUS
 62
     6
100
AcDbVertex
100
AcDb2dVertex
 10
404.06546
 20
2251.954965
 30
0.0
  0
VERTEX
  5
4DA
100
AcDbEntity
  8
止水栓
  6
CONTINUOUS
 62
     6
100
AcDbVertex
100
AcDb2dVertex
 10
404.53421
 20
2251.769419
 30
0.0
  0
VERTEX
  5
4DB
100
AcDbEntity
  8
止水栓
  6
CONTINUOUS
 62
     6
100
AcDbVertex
100
AcDb2dVertex
 10
405.02005
 20
2251.625376
 30
0.0
  0
VERTEX
  5
4DC
100
AcDbEntity
  8
止水栓
  6
CONTINUOUS
 62
     6
100
AcDbVertex
100
AcDb2dVertex
 10
405.515656
 20
2251.520395
 30
0.0
  0
VERTEX
  5
4DD
100
AcDbEntity
  8
止水栓
  6
CONTINUOUS
 62
     6
100
AcDbVertex
100
AcDb2dVertex
 10
406.021027
 20
2251.456919
 30
0.0
  0
VERTEX
  5
4DE
100
AcDbEntity
  8
止水栓
  6
CONTINUOUS
 62
     6
100
AcDbVertex
100
AcDb2dVertex
 10
406.528839
 20
2251.434946
 30
0.0
  0
VERTEX
  5
4DF
100
AcDbEntity
  8
止水栓
  6
CONTINUOUS
 62
     6
100
AcDbVertex
100
AcDb2dVertex
 10
407.036652
 20
2251.456919
 30
0.0
  0
VERTEX
  5
4E0
100
AcDbEntity
  8
止水栓
  6
CONTINUOUS
 62
     6
100
AcDbVertex
100
AcDb2dVertex
 10
407.542023
 20
2251.520395
 30
0.0
  0
VERTEX
  5
4E1
100
AcDbEntity
  8
止水栓
  6
CONTINUOUS
 62
     6
100
AcDbVertex
100
AcDb2dVertex
 10
408.037628
 20
2251.625376
 30
0.0
  0
VERTEX
  5
4E2
100
AcDbEntity
  8
止水栓
  6
CONTINUOUS
 62
     6
100
AcDbVertex
100
AcDb2dVertex
 10
408.523468
 20
2251.769419
 30
0.0
  0
VERTEX
  5
4E3
100
AcDbEntity
  8
止水栓
  6
CONTINUOUS
 62
     6
100
AcDbVertex
100
AcDb2dVertex
 10
408.992218
 20
2251.954965
 30
0.0
  0
VERTEX
  5
4E4
100
AcDbEntity
  8
止水栓
  6
CONTINUOUS
 62
     6
100
AcDbVertex
100
AcDb2dVertex
 10
409.443878
 20
2252.179575
 30
0.0
  0
VERTEX
  5
4E5
100
AcDbEntity
  8
止水栓
  6
CONTINUOUS
 62
     6
100
AcDbVertex
100
AcDb2dVertex
 10
409.873566
 20
2252.440805
 30
0.0
  0
VERTEX
  5
4E6
100
AcDbEntity
  8
止水栓
  6
CONTINUOUS
 62
     6
100
AcDbVertex
100
AcDb2dVertex
 10
410.276398
 20
2252.736215
 30
0.0
  0
VERTEX
  5
4E7
100
AcDbEntity
  8
止水栓
  6
CONTINUOUS
 62
     6
100
AcDbVertex
100
AcDb2dVertex
 10
410.652374
 20
2253.063364
 30
0.0
  0
VERTEX
  5
4E8
100
AcDbEntity
  8
止水栓
  6
CONTINUOUS
 62
     6
100
AcDbVertex
100
AcDb2dVertex
 10
410.994171
 20
2253.422251
 30
0.0
  0
VERTEX
  5
4E9
100
AcDbEntity
  8
止水栓
  6
CONTINUOUS
 62
     6
100
AcDbVertex
100
AcDb2dVertex
 10
411.30423
 20
2253.805551
 30
0.0
  0
VERTEX
  5
4EA
100
AcDbEntity
  8
止水栓
  6
CONTINUOUS
 62
     6
100
AcDbVertex
100
AcDb2dVertex
 10
411.577667
 20
2254.215708
 30
0.0
  0
VERTEX
  5
4EB
100
AcDbEntity
  8
止水栓
  6
CONTINUOUS
 62
     6
100
AcDbVertex
100
AcDb2dVertex
 10
411.814484
 20
2254.645395
 30
0.0
  0
VERTEX
  5
4EC
100
AcDbEntity
  8
止水栓
  6
CONTINUOUS
 62
     6
100
AcDbVertex
100
AcDb2dVertex
 10
412.007355
 20
2255.094614
 30
0.0
  0
VERTEX
  5
4ED
100
AcDbEntity
  8
止水栓
  6
CONTINUOUS
 62
     6
100
AcDbVertex
100
AcDb2dVertex
 10
412.161163
 20
2255.55604
 30
0.0
  0
VERTEX
  5
4EE
100
AcDbEntity
  8
止水栓
  6
CONTINUOUS
 62
     6
100
AcDbVertex
100
AcDb2dVertex
 10
412.271027
 20
2256.029672
 30
0.0
  0
VERTEX
  5
4EF
100
AcDbEntity
  8
止水栓
  6
CONTINUOUS
 62
     6
100
AcDbVertex
100
AcDb2dVertex
 10
412.336945
 20
2256.510629
 30
0.0
  0
VERTEX
  5
4F0
100
AcDbEntity
  8
止水栓
  6
CONTINUOUS
 62
     6
100
AcDbVertex
100
AcDb2dVertex
 10
412.358917
 20
2256.994028
 30
0.0
  0
SEQEND
  5
4F1
100
AcDbEntity
  8
止水栓
  6
CONTINUOUS
 62
     6
  0
LINE
  5
4F2
100
AcDbEntity
  8
止水栓
  6
CONTINUOUS
 62
     6
100
AcDbLine
 10
417.001984
 20
2267.772837
 30
0.0
 11
396.001984
 21
2267.772837
 31
0.0
  0
LINE
  5
4F3
100
AcDbEntity
  8
止水栓
  6
CONTINUOUS
 62
     6
100
AcDbLine
 10
417.471222
 20
2262.772837
 30
0.0
 11
395.532745
 21
2262.772837
 31
0.0
  0
LINE
  5
4F4
100
AcDbEntity
  8
止水栓
  6
CONTINUOUS
 62
     6
100
AcDbLine
 10
417.001984
 20
2262.772837
 30
0.0
 11
417.001984
 21
2267.772837
 31
0.0
  0
LINE
  5
4F5
100
AcDbEntity
  8
止水栓
  6
CONTINUOUS
 62
     6
100
AcDbLine
 10
412.251984
 20
2269.772837
 30
0.0
 11
412.251984
 21
2272.772837
 31
0.0
  0
LINE
  5
4F6
100
AcDbEntity
  8
止水栓
  6
CONTINUOUS
 62
     6
100
AcDbLine
 10
410.501984
 20
2267.772837
 30
0.0
 11
410.501984
 21
2269.772837
 31
0.0
  0
ARC
  5
4F7
100
AcDbEntity
  8
止水栓
  6
CONTINUOUS
 62
     6
100
AcDbCircle
 10
411.251984
 20
2275.272837
 30
0.0
 40
2.5
100
AcDbArc
 50
0.0
 51
90.0
  0
ARC
  5
4F8
100
AcDbEntity
  8
止水栓
  6
CONTINUOUS
 62
     6
100
AcDbCircle
 10
411.251984
 20
2275.272837
 30
0.0
 40
2.5
100
AcDbArc
 50
270.0
 51
0.0
  0
POLYLINE
  5
4F9
100
AcDbEntity
  8
止水栓
  6
CONTINUOUS
 62
     6
100
AcDb2dPolyline
 66
     1
 10
0.0
 20
0.0
 30
0.0
 70
   128
  0
VERTEX
  5
4FA
100
AcDbEntity
  8
止水栓
  6
CONTINUOUS
 62
     6
100
AcDbVertex
100
AcDb2dVertex
 10
418.914093
 20
2255.731821
 30
0.0
  0
VERTEX
  5
4FB
100
AcDbEntity
  8
止水栓
  6
CONTINUOUS
 62
     6
100
AcDbVertex
100
AcDb2dVertex
 10
418.96048
 20
2256.156626
 30
0.0
  0
VERTEX
  5
4FC
100
AcDbEntity
  8
止水栓
  6
CONTINUOUS
 62
     6
100
AcDbVertex
100
AcDb2dVertex
 10
418.987335
 20
2256.588754
 30
0.0
  0
VERTEX
  5
4FD
100
AcDbEntity
  8
止水栓
  6
CONTINUOUS
 62
     6
100
AcDbVertex
100
AcDb2dVertex
 10
418.997101
 20
2257.023325
 30
0.0
  0
SEQEND
  5
4FE
100
AcDbEntity
  8
止水栓
  6
CONTINUOUS
 62
     6
  0
POLYLINE
  5
4FF
100
AcDbEntity
  8
止水栓
  6
CONTINUOUS
 62
     6
100
AcDb2dPolyline
 66
     1
 10
0.0
 20
0.0
 30
0.0
 70
   128
  0
VERTEX
  5
500
100
AcDbEntity
  8
止水栓
  6
CONTINUOUS
 62
     6
100
AcDbVertex
100
AcDb2dVertex
 10
417.583527
 20
2252.50184
 30
0.0
  0
VERTEX
  5
501
100
AcDbEntity
  8
止水栓
  6
CONTINUOUS
 62
     6
100
AcDbVertex
100
AcDb2dVertex
 10
417.771515
 20
2252.702036
 30
0.0
  0
VERTEX
  5
502
100
AcDbEntity
  8
止水栓
  6
CONTINUOUS
 62
     6
100
AcDbVertex
100
AcDb2dVertex
 10
417.952179
 20
2252.936411
 30
0.0
  0
VERTEX
  5
503
100
AcDbEntity
  8
止水栓
  6
CONTINUOUS
 62
     6
100
AcDbVertex
100
AcDb2dVertex
 10
418.123077
 20
2253.200083
 30
0.0
  0
VERTEX
  5
504
100
AcDbEntity
  8
止水栓
  6
CONTINUOUS
 62
     6
100
AcDbVertex
100
AcDb2dVertex
 10
418.279327
 20
2253.495493
 30
0.0
  0
VERTEX
  5
505
100
AcDbEntity
  8
止水栓
  6
CONTINUOUS
 62
     6
100
AcDbVertex
100
AcDb2dVertex
 10
418.42337
 20
2253.815317
 30
0.0
  0
VERTEX
  5
506
100
AcDbEntity
  8
止水栓
  6
CONTINUOUS
 62
     6
100
AcDbVertex
100
AcDb2dVertex
 10
418.555206
 20
2254.161997
 30
0.0
  0
VERTEX
  5
507
100
AcDbEntity
  8
止水栓
  6
CONTINUOUS
 62
     6
100
AcDbVertex
100
AcDb2dVertex
 10
418.669952
 20
2254.528208
 30
0.0
  0
VERTEX
  5
508
100
AcDbEntity
  8
止水栓
  6
CONTINUOUS
 62
     6
100
AcDbVertex
100
AcDb2dVertex
 10
418.767609
 20
2254.91395
 30
0.0
  0
VERTEX
  5
509
100
AcDbEntity
  8
止水栓
  6
CONTINUOUS
 62
     6
100
AcDbVertex
100
AcDb2dVertex
 10
418.848175
 20
2255.316782
 30
0.0
  0
VERTEX
  5
50A
100
AcDbEntity
  8
止水栓
  6
CONTINUOUS
 62
     6
100
AcDbVertex
100
AcDb2dVertex
 10
418.914093
 20
2255.731821
 30
0.0
  0
SEQEND
  5
50B
100
AcDbEntity
  8
止水栓
  6
CONTINUOUS
 62
     6
  0
POLYLINE
  5
50C
100
AcDbEntity
  8
止水栓
  6
CONTINUOUS
 62
     6
100
AcDb2dPolyline
 66
     1
 10
0.0
 20
0.0
 30
0.0
 70
   128
  0
VERTEX
  5
50D
100
AcDbEntity
  8
止水栓
  6
CONTINUOUS
 62
     6
100
AcDbVertex
100
AcDb2dVertex
 10
418.997101
 20
2257.023325
 30
0.0
  0
VERTEX
  5
50E
100
AcDbEntity
  8
止水栓
  6
CONTINUOUS
 62
     6
100
AcDbVertex
100
AcDb2dVertex
 10
418.987335
 20
2257.460337
 30
0.0
  0
VERTEX
  5
50F
100
AcDbEntity
  8
止水栓
  6
CONTINUOUS
 62
     6
100
AcDbVertex
100
AcDb2dVertex
 10
418.96048
 20
2257.892465
 30
0.0
  0
VERTEX
  5
510
100
AcDbEntity
  8
止水栓
  6
CONTINUOUS
 62
     6
100
AcDbVertex
100
AcDb2dVertex
 10
418.914093
 20
2258.31727
 30
0.0
  0
VERTEX
  5
511
100
AcDbEntity
  8
止水栓
  6
CONTINUOUS
 62
     6
100
AcDbVertex
100
AcDb2dVertex
 10
418.848175
 20
2258.732309
 30
0.0
  0
VERTEX
  5
512
100
AcDbEntity
  8
止水栓
  6
CONTINUOUS
 62
     6
100
AcDbVertex
100
AcDb2dVertex
 10
418.767609
 20
2259.1327
 30
0.0
  0
VERTEX
  5
513
100
AcDbEntity
  8
止水栓
  6
CONTINUOUS
 62
     6
100
AcDbVertex
100
AcDb2dVertex
 10
418.669952
 20
2259.518442
 30
0.0
  0
VERTEX
  5
514
100
AcDbEntity
  8
止水栓
  6
CONTINUOUS
 62
     6
100
AcDbVertex
100
AcDb2dVertex
 10
418.552765
 20
2259.887094
 30
0.0
  0
VERTEX
  5
515
100
AcDbEntity
  8
止水栓
  6
CONTINUOUS
 62
     6
100
AcDbVertex
100
AcDb2dVertex
 10
418.42337
 20
2260.231333
 30
0.0
  0
VERTEX
  5
516
100
AcDbEntity
  8
止水栓
  6
CONTINUOUS
 62
     6
100
AcDbVertex
100
AcDb2dVertex
 10
418.279327
 20
2260.553598
 30
0.0
  0
VERTEX
  5
517
100
AcDbEntity
  8
止水栓
  6
CONTINUOUS
 62
     6
100
AcDbVertex
100
AcDb2dVertex
 10
418.120636
 20
2260.846567
 30
0.0
  0
VERTEX
  5
518
100
AcDbEntity
  8
止水栓
  6
CONTINUOUS
 62
     6
100
AcDbVertex
100
AcDb2dVertex
 10
417.952179
 20
2261.11268
 30
0.0
  0
VERTEX
  5
519
100
AcDbEntity
  8
止水栓
  6
CONTINUOUS
 62
     6
100
AcDbVertex
100
AcDb2dVertex
 10
417.771515
 20
2261.344614
 30
0.0
  0
VERTEX
  5
51A
100
AcDbEntity
  8
止水栓
  6
CONTINUOUS
 62
     6
100
AcDbVertex
100
AcDb2dVertex
 10
417.583527
 20
2261.547251
 30
0.0
  0
VERTEX
  5
51B
100
AcDbEntity
  8
止水栓
  6
CONTINUOUS
 62
     6
100
AcDbVertex
100
AcDb2dVertex
 10
417.385773
 20
2261.713266
 30
0.0
  0
VERTEX
  5
51C
100
AcDbEntity
  8
止水栓
  6
CONTINUOUS
 62
     6
100
AcDbVertex
100
AcDb2dVertex
 10
417.180695
 20
2261.845102
 30
0.0
  0
VERTEX
  5
51D
100
AcDbEntity
  8
止水栓
  6
CONTINUOUS
 62
     6
100
AcDbVertex
100
AcDb2dVertex
 10
416.973175
 20
2261.937876
 30
0.0
  0
VERTEX
  5
51E
100
AcDbEntity
  8
止水栓
  6
CONTINUOUS
 62
     6
100
AcDbVertex
100
AcDb2dVertex
 10
416.760773
 20
2261.996469
 30
0.0
  0
VERTEX
  5
51F
100
AcDbEntity
  8
止水栓
  6
CONTINUOUS
 62
     6
100
AcDbVertex
100
AcDb2dVertex
 10
416.54837
 20
2262.013559
 30
0.0
  0
VERTEX
  5
520
100
AcDbEntity
  8
止水栓
  6
CONTINUOUS
 62
     6
100
AcDbVertex
100
AcDb2dVertex
 10
416.333527
 20
2261.994028
 30
0.0
  0
VERTEX
  5
521
100
AcDbEntity
  8
止水栓
  6
CONTINUOUS
 62
     6
100
AcDbVertex
100
AcDb2dVertex
 10
416.121124
 20
2261.937876
 30
0.0
  0
VERTEX
  5
522
100
AcDbEntity
  8
止水栓
  6
CONTINUOUS
 62
     6
100
AcDbVertex
100
AcDb2dVertex
 10
415.913605
 20
2261.845102
 30
0.0
  0
VERTEX
  5
523
100
AcDbEntity
  8
止水栓
  6
CONTINUOUS
 62
     6
100
AcDbVertex
100
AcDb2dVertex
 10
415.708527
 20
2261.713266
 30
0.0
  0
VERTEX
  5
524
100
AcDbEntity
  8
止水栓
  6
CONTINUOUS
 62
     6
100
AcDbVertex
100
AcDb2dVertex
 10
415.510773
 20
2261.547251
 30
0.0
  0
VERTEX
  5
525
100
AcDbEntity
  8
止水栓
  6
CONTINUOUS
 62
     6
100
AcDbVertex
100
AcDb2dVertex
 10
415.322784
 20
2261.344614
 30
0.0
  0
VERTEX
  5
526
100
AcDbEntity
  8
止水栓
  6
CONTINUOUS
 62
     6
100
AcDbVertex
100
AcDb2dVertex
 10
415.14212
 20
2261.110239
 30
0.0
  0
VERTEX
  5
527
100
AcDbEntity
  8
止水栓
  6
CONTINUOUS
 62
     6
100
AcDbVertex
100
AcDb2dVertex
 10
414.973663
 20
2260.846567
 30
0.0
  0
VERTEX
  5
528
100
AcDbEntity
  8
止水栓
  6
CONTINUOUS
 62
     6
100
AcDbVertex
100
AcDb2dVertex
 10
414.814972
 20
2260.553598
 30
0.0
  0
VERTEX
  5
529
100
AcDbEntity
  8
止水栓
  6
CONTINUOUS
 62
     6
100
AcDbVertex
100
AcDb2dVertex
 10
414.670929
 20
2260.231333
 30
0.0
  0
VERTEX
  5
52A
100
AcDbEntity
  8
止水栓
  6
CONTINUOUS
 62
     6
100
AcDbVertex
100
AcDb2dVertex
 10
414.541534
 20
2259.887094
 30
0.0
  0
VERTEX
  5
52B
100
AcDbEntity
  8
止水栓
  6
CONTINUOUS
 62
     6
100
AcDbVertex
100
AcDb2dVertex
 10
414.426788
 20
2259.518442
 30
0.0
  0
VERTEX
  5
52C
100
AcDbEntity
  8
止水栓
  6
CONTINUOUS
 62
     6
100
AcDbVertex
100
AcDb2dVertex
 10
414.326691
 20
2259.1327
 30
0.0
  0
VERTEX
  5
52D
100
AcDbEntity
  8
止水栓
  6
CONTINUOUS
 62
     6
100
AcDbVertex
100
AcDb2dVertex
 10
414.246124
 20
2258.729868
 30
0.0
  0
VERTEX
  5
52E
100
AcDbEntity
  8
止水栓
  6
CONTINUOUS
 62
     6
100
AcDbVertex
100
AcDb2dVertex
 10
414.180206
 20
2258.314829
 30
0.0
  0
VERTEX
  5
52F
100
AcDbEntity
  8
止水栓
  6
CONTINUOUS
 62
     6
100
AcDbVertex
100
AcDb2dVertex
 10
414.13382
 20
2257.890024
 30
0.0
  0
VERTEX
  5
530
100
AcDbEntity
  8
止水栓
  6
CONTINUOUS
 62
     6
100
AcDbVertex
100
AcDb2dVertex
 10
414.106964
 20
2257.457895
 30
0.0
  0
VERTEX
  5
531
100
AcDbEntity
  8
止水栓
  6
CONTINUOUS
 62
     6
100
AcDbVertex
100
AcDb2dVertex
 10
414.097199
 20
2257.023325
 30
0.0
  0
VERTEX
  5
532
100
AcDbEntity
  8
止水栓
  6
CONTINUOUS
 62
     6
100
AcDbVertex
100
AcDb2dVertex
 10
414.106964
 20
2256.588754
 30
0.0
  0
VERTEX
  5
533
100
AcDbEntity
  8
止水栓
  6
CONTINUOUS
 62
     6
100
AcDbVertex
100
AcDb2dVertex
 10
414.136261
 20
2256.156626
 30
0.0
  0
VERTEX
  5
534
100
AcDbEntity
  8
止水栓
  6
CONTINUOUS
 62
     6
100
AcDbVertex
100
AcDb2dVertex
 10
414.182648
 20
2255.731821
 30
0.0
  0
VERTEX
  5
535
100
AcDbEntity
  8
止水栓
  6
CONTINUOUS
 62
     6
100
AcDbVertex
100
AcDb2dVertex
 10
414.246124
 20
2255.316782
 30
0.0
  0
VERTEX
  5
536
100
AcDbEntity
  8
止水栓
  6
CONTINUOUS
 62
     6
100
AcDbVertex
100
AcDb2dVertex
 10
414.326691
 20
2254.91395
 30
0.0
  0
VERTEX
  5
537
100
AcDbEntity
  8
止水栓
  6
CONTINUOUS
 62
     6
100
AcDbVertex
100
AcDb2dVertex
 10
414.426788
 20
2254.528208
 30
0.0
  0
VERTEX
  5
538
100
AcDbEntity
  8
止水栓
  6
CONTINUOUS
 62
     6
100
AcDbVertex
100
AcDb2dVertex
 10
414.541534
 20
2254.161997
 30
0.0
  0
VERTEX
  5
539
100
AcDbEntity
  8
止水栓
  6
CONTINUOUS
 62
     6
100
AcDbVertex
100
AcDb2dVertex
 10
414.670929
 20
2253.815317
 30
0.0
  0
VERTEX
  5
53A
100
AcDbEntity
  8
止水栓
  6
CONTINUOUS
 62
     6
100
AcDbVertex
100
AcDb2dVertex
 10
414.814972
 20
2253.495493
 30
0.0
  0
VERTEX
  5
53B
100
AcDbEntity
  8
止水栓
  6
CONTINUOUS
 62
     6
100
AcDbVertex
100
AcDb2dVertex
 10
414.973663
 20
2253.200083
 30
0.0
  0
VERTEX
  5
53C
100
AcDbEntity
  8
止水栓
  6
CONTINUOUS
 62
     6
100
AcDbVertex
100
AcDb2dVertex
 10
415.14212
 20
2252.936411
 30
0.0
  0
VERTEX
  5
53D
100
AcDbEntity
  8
止水栓
  6
CONTINUOUS
 62
     6
100
AcDbVertex
100
AcDb2dVertex
 10
415.322784
 20
2252.702036
 30
0.0
  0
VERTEX
  5
53E
100
AcDbEntity
  8
止水栓
  6
CONTINUOUS
 62
     6
100
AcDbVertex
100
AcDb2dVertex
 10
415.510773
 20
2252.50184
 30
0.0
  0
VERTEX
  5
53F
100
AcDbEntity
  8
止水栓
  6
CONTINUOUS
 62
     6
100
AcDbVertex
100
AcDb2dVertex
 10
415.708527
 20
2252.333383
 30
0.0
  0
VERTEX
  5
540
100
AcDbEntity
  8
止水栓
  6
CONTINUOUS
 62
     6
100
AcDbVertex
100
AcDb2dVertex
 10
415.913605
 20
2252.203989
 30
0.0
  0
VERTEX
  5
541
100
AcDbEntity
  8
止水栓
  6
CONTINUOUS
 62
     6
100
AcDbVertex
100
AcDb2dVertex
 10
416.121124
 20
2252.108774
 30
0.0
  0
VERTEX
  5
542
100
AcDbEntity
  8
止水栓
  6
CONTINUOUS
 62
     6
100
AcDbVertex
100
AcDb2dVertex
 10
416.333527
 20
2252.052622
 30
0.0
  0
VERTEX
  5
543
100
AcDbEntity
  8
止水栓
  6
CONTINUOUS
 62
     6
100
AcDbVertex
100
AcDb2dVertex
 10
416.54837
 20
2252.03309
 30
0.0
  0
VERTEX
  5
544
100
AcDbEntity
  8
止水栓
  6
CONTINUOUS
 62
     6
100
AcDbVertex
100
AcDb2dVertex
 10
416.760773
 20
2252.052622
 30
0.0
  0
VERTEX
  5
545
100
AcDbEntity
  8
止水栓
  6
CONTINUOUS
 62
     6
100
AcDbVertex
100
AcDb2dVertex
 10
416.973175
 20
2252.108774
 30
0.0
  0
VERTEX
  5
546
100
AcDbEntity
  8
止水栓
  6
CONTINUOUS
 62
     6
100
AcDbVertex
100
AcDb2dVertex
 10
417.180695
 20
2252.203989
 30
0.0
  0
VERTEX
  5
547
100
AcDbEntity
  8
止水栓
  6
CONTINUOUS
 62
     6
100
AcDbVertex
100
AcDb2dVertex
 10
417.385773
 20
2252.333383
 30
0.0
  0
VERTEX
  5
548
100
AcDbEntity
  8
止水栓
  6
CONTINUOUS
 62
     6
100
AcDbVertex
100
AcDb2dVertex
 10
417.583527
 20
2252.50184
 30
0.0
  0
SEQEND
  5
549
100
AcDbEntity
  8
止水栓
  6
CONTINUOUS
 62
     6
  0
LINE
  5
54A
100
AcDbEntity
  8
止水栓
  6
CONTINUOUS
 62
     6
100
AcDbLine
 10
396.001984
 20
2262.772837
 30
0.0
 11
396.001984
 21
2267.772837
 31
0.0
  0
LINE
  5
54B
100
AcDbEntity
  8
止水栓
  6
CONTINUOUS
 62
     6
100
AcDbLine
 10
400.751984
 20
2269.772837
 30
0.0
 11
400.751984
 21
2272.772837
 31
0.0
  0
LINE
  5
54C
100
AcDbEntity
  8
止水栓
  6
CONTINUOUS
 62
     6
100
AcDbLine
 10
402.501984
 20
2267.772837
 30
0.0
 11
402.501984
 21
2269.772837
 31
0.0
  0
ARC
  5
54D
100
AcDbEntity
  8
止水栓
  6
CONTINUOUS
 62
     6
100
AcDbCircle
 10
401.751984
 20
2275.272837
 30
0.0
 40
2.5
100
AcDbArc
 50
90.0
 51
180.0
  0
ARC
  5
54E
100
AcDbEntity
  8
止水栓
  6
CONTINUOUS
 62
     6
100
AcDbCircle
 10
401.751984
 20
2275.272837
 30
0.0
 40
2.5
100
AcDbArc
 50
180.0
 51
270.0
  0
POLYLINE
  5
54F
100
AcDbEntity
  8
止水栓
  6
CONTINUOUS
 62
     6
100
AcDb2dPolyline
 66
     1
 10
0.0
 20
0.0
 30
0.0
 70
   128
  0
VERTEX
  5
550
100
AcDbEntity
  8
止水栓
  6
CONTINUOUS
 62
     6
100
AcDbVertex
100
AcDb2dVertex
 10
398.899445
 20
2257.030649
 30
0.0
  0
VERTEX
  5
551
100
AcDbEntity
  8
止水栓
  6
CONTINUOUS
 62
     6
100
AcDbVertex
100
AcDb2dVertex
 10
398.889679
 20
2257.433481
 30
0.0
  0
VERTEX
  5
552
100
AcDbEntity
  8
止水栓
  6
CONTINUOUS
 62
     6
100
AcDbVertex
100
AcDb2dVertex
 10
398.860382
 20
2257.833872
 30
0.0
  0
VERTEX
  5
553
100
AcDbEntity
  8
止水栓
  6
CONTINUOUS
 62
     6
100
AcDbVertex
100
AcDb2dVertex
 10
398.813995
 20
2258.229379
 30
0.0
  0
VERTEX
  5
554
100
AcDbEntity
  8
止水栓
  6
CONTINUOUS
 62
     6
100
AcDbVertex
100
AcDb2dVertex
 10
398.750519
 20
2258.61268
 30
0.0
  0
VERTEX
  5
555
100
AcDbEntity
  8
止水栓
  6
CONTINUOUS
 62
     6
100
AcDbVertex
100
AcDb2dVertex
 10
398.669952
 20
2258.986215
 30
0.0
  0
VERTEX
  5
556
100
AcDbEntity
  8
止水栓
  6
CONTINUOUS
 62
     6
100
AcDbVertex
100
AcDb2dVertex
 10
398.569855
 20
2259.345102
 30
0.0
  0
VERTEX
  5
557
100
AcDbEntity
  8
止水栓
  6
CONTINUOUS
 62
     6
100
AcDbVertex
100
AcDb2dVertex
 10
398.455109
 20
2259.684458
 30
0.0
  0
VERTEX
  5
558
100
AcDbEntity
  8
止水栓
  6
CONTINUOUS
 62
     6
100
AcDbVertex
100
AcDb2dVertex
 10
398.325714
 20
2260.006723
 30
0.0
  0
VERTEX
  5
559
100
AcDbEntity
  8
止水栓
  6
CONTINUOUS
 62
     6
100
AcDbVertex
100
AcDb2dVertex
 10
398.181671
 20
2260.304575
 30
0.0
  0
VERTEX
  5
55A
100
AcDbEntity
  8
止水栓
  6
CONTINUOUS
 62
     6
100
AcDbVertex
100
AcDb2dVertex
 10
398.02298
 20
2260.575571
 30
0.0
  0
VERTEX
  5
55B
100
AcDbEntity
  8
止水栓
  6
CONTINUOUS
 62
     6
100
AcDbVertex
100
AcDb2dVertex
 10
397.854523
 20
2260.822153
 30
0.0
  0
VERTEX
  5
55C
100
AcDbEntity
  8
止水栓
  6
CONTINUOUS
 62
     6
100
AcDbVertex
100
AcDb2dVertex
 10
397.673859
 20
2261.039438
 30
0.0
  0
VERTEX
  5
55D
100
AcDbEntity
  8
止水栓
  6
CONTINUOUS
 62
     6
100
AcDbVertex
100
AcDb2dVertex
 10
397.483429
 20
2261.227426
 30
0.0
  0
VERTEX
  5
55E
100
AcDbEntity
  8
止水栓
  6
CONTINUOUS
 62
     6
100
AcDbVertex
100
AcDb2dVertex
 10
397.285675
 20
2261.381235
 30
0.0
  0
VERTEX
  5
55F
100
AcDbEntity
  8
止水栓
  6
CONTINUOUS
 62
     6
100
AcDbVertex
100
AcDb2dVertex
 10
397.083038
 20
2261.500864
 30
0.0
  0
VERTEX
  5
560
100
AcDbEntity
  8
止水栓
  6
CONTINUOUS
 62
     6
100
AcDbVertex
100
AcDb2dVertex
 10
396.873077
 20
2261.588754
 30
0.0
  0
VERTEX
  5
561
100
AcDbEntity
  8
止水栓
  6
CONTINUOUS
 62
     6
100
AcDbVertex
100
AcDb2dVertex
 10
396.663117
 20
2261.642465
 30
0.0
  0
VERTEX
  5
562
100
AcDbEntity
  8
止水栓
  6
CONTINUOUS
 62
     6
100
AcDbVertex
100
AcDb2dVertex
 10
396.448273
 20
2261.659555
 30
0.0
  0
VERTEX
  5
563
100
AcDbEntity
  8
止水栓
  6
CONTINUOUS
 62
     6
100
AcDbVertex
100
AcDb2dVertex
 10
396.23587
 20
2261.642465
 30
0.0
  0
VERTEX
  5
564
100
AcDbEntity
  8
止水栓
  6
CONTINUOUS
 62
     6
100
AcDbVertex
100
AcDb2dVertex
 10
396.023468
 20
2261.588754
 30
0.0
  0
VERTEX
  5
565
100
AcDbEntity
  8
止水栓
  6
CONTINUOUS
 62
     6
100
AcDbVertex
100
AcDb2dVertex
 10
395.813507
 20
2261.500864
 30
0.0
  0
VERTEX
  5
566
100
AcDbEntity
  8
止水栓
  6
CONTINUOUS
 62
     6
100
AcDbVertex
100
AcDb2dVertex
 10
395.61087
 20
2261.381235
 30
0.0
  0
VERTEX
  5
567
100
AcDbEntity
  8
止水栓
  6
CONTINUOUS
 62
     6
100
AcDbVertex
100
AcDb2dVertex
 10
395.413117
 20
2261.224985
 30
0.0
  0
VERTEX
  5
568
100
AcDbEntity
  8
止水栓
  6
CONTINUOUS
 62
     6
100
AcDbVertex
100
AcDb2dVertex
 10
395.225128
 20
2261.039438
 30
0.0
  0
VERTEX
  5
569
100
AcDbEntity
  8
止水栓
  6
CONTINUOUS
 62
     6
100
AcDbVertex
100
AcDb2dVertex
 10
395.044464
 20
2260.822153
 30
0.0
  0
VERTEX
  5
56A
100
AcDbEntity
  8
止水栓
  6
CONTINUOUS
 62
     6
100
AcDbVertex
100
AcDb2dVertex
 10
394.873566
 20
2260.578012
 30
0.0
  0
VERTEX
  5
56B
100
AcDbEntity
  8
止水栓
  6
CONTINUOUS
 62
     6
100
AcDbVertex
100
AcDb2dVertex
 10
394.717316
 20
2260.304575
 30
0.0
  0
VERTEX
  5
56C
100
AcDbEntity
  8
止水栓
  6
CONTINUOUS
 62
     6
100
AcDbVertex
100
AcDb2dVertex
 10
394.573273
 20
2260.006723
 30
0.0
  0
VERTEX
  5
56D
100
AcDbEntity
  8
止水栓
  6
CONTINUOUS
 62
     6
100
AcDbVertex
100
AcDb2dVertex
 10
394.441437
 20
2259.684458
 30
0.0
  0
VERTEX
  5
56E
100
AcDbEntity
  8
止水栓
  6
CONTINUOUS
 62
     6
100
AcDbVertex
100
AcDb2dVertex
 10
394.326691
 20
2259.345102
 30
0.0
  0
VERTEX
  5
56F
100
AcDbEntity
  8
止水栓
  6
CONTINUOUS
 62
     6
100
AcDbVertex
100
AcDb2dVertex
 10
394.229034
 20
2258.986215
 30
0.0
  0
VERTEX
  5
570
100
AcDbEntity
  8
止水栓
  6
CONTINUOUS
 62
     6
100
AcDbVertex
100
AcDb2dVertex
 10
394.148468
 20
2258.615122
 30
0.0
  0
VERTEX
  5
571
100
AcDbEntity
  8
止水栓
  6
CONTINUOUS
 62
     6
100
AcDbVertex
100
AcDb2dVertex
 10
394.08255
 20
2258.229379
 30
0.0
  0
VERTEX
  5
572
100
AcDbEntity
  8
止水栓
  6
CONTINUOUS
 62
     6
100
AcDbVertex
100
AcDb2dVertex
 10
394.036163
 20
2257.833872
 30
0.0
  0
VERTEX
  5
573
100
AcDbEntity
  8
止水栓
  6
CONTINUOUS
 62
     6
100
AcDbVertex
100
AcDb2dVertex
 10
394.009308
 20
2257.433481
 30
0.0
  0
VERTEX
  5
574
100
AcDbEntity
  8
止水栓
  6
CONTINUOUS
 62
     6
100
AcDbVertex
100
AcDb2dVertex
 10
393.999542
 20
2257.030649
 30
0.0
  0
VERTEX
  5
575
100
AcDbEntity
  8
止水栓
  6
CONTINUOUS
 62
     6
100
AcDbVertex
100
AcDb2dVertex
 10
394.009308
 20
2256.627817
 30
0.0
  0
VERTEX
  5
576
100
AcDbEntity
  8
止水栓
  6
CONTINUOUS
 62
     6
100
AcDbVertex
100
AcDb2dVertex
 10
394.036163
 20
2256.227426
 30
0.0
  0
VERTEX
  5
577
100
AcDbEntity
  8
止水栓
  6
CONTINUOUS
 62
     6
100
AcDbVertex
100
AcDb2dVertex
 10
394.08255
 20
2255.831919
 30
0.0
  0
VERTEX
  5
578
100
AcDbEntity
  8
止水栓
  6
CONTINUOUS
 62
     6
100
AcDbVertex
100
AcDb2dVertex
 10
394.146027
 20
2255.446176
 30
0.0
  0
VERTEX
  5
579
100
AcDbEntity
  8
止水栓
  6
CONTINUOUS
 62
     6
100
AcDbVertex
100
AcDb2dVertex
 10
394.229034
 20
2255.072641
 30
0.0
  0
VERTEX
  5
57A
100
AcDbEntity
  8
止水栓
  6
CONTINUOUS
 62
     6
100
AcDbVertex
100
AcDb2dVertex
 10
394.326691
 20
2254.713754
 30
0.0
  0
VERTEX
  5
57B
100
AcDbEntity
  8
止水栓
  6
CONTINUOUS
 62
     6
100
AcDbVertex
100
AcDb2dVertex
 10
394.441437
 20
2254.374399
 30
0.0
  0
VERTEX
  5
57C
100
AcDbEntity
  8
止水栓
  6
CONTINUOUS
 62
     6
100
AcDbVertex
100
AcDb2dVertex
 10
394.573273
 20
2254.052133
 30
0.0
  0
VERTEX
  5
57D
100
AcDbEntity
  8
止水栓
  6
CONTINUOUS
 62
     6
100
AcDbVertex
100
AcDb2dVertex
 10
394.717316
 20
2253.756723
 30
0.0
  0
VERTEX
  5
57E
100
AcDbEntity
  8
止水栓
  6
CONTINUOUS
 62
     6
100
AcDbVertex
100
AcDb2dVertex
 10
394.873566
 20
2253.483286
 30
0.0
  0
VERTEX
  5
57F
100
AcDbEntity
  8
止水栓
  6
CONTINUOUS
 62
     6
100
AcDbVertex
100
AcDb2dVertex
 10
395.044464
 20
2253.236704
 30
0.0
  0
VERTEX
  5
580
100
AcDbEntity
  8
止水栓
  6
CONTINUOUS
 62
     6
100
AcDbVertex
100
AcDb2dVertex
 10
395.222687
 20
2253.019419
 30
0.0
  0
VERTEX
  5
581
100
AcDbEntity
  8
止水栓
  6
CONTINUOUS
 62
     6
100
AcDbVertex
100
AcDb2dVertex
 10
395.413117
 20
2252.833872
 30
0.0
  0
VERTEX
  5
582
100
AcDbEntity
  8
止水栓
  6
CONTINUOUS
 62
     6
100
AcDbVertex
100
AcDb2dVertex
 10
395.61087
 20
2252.680063
 30
0.0
  0
VERTEX
  5
583
100
AcDbEntity
  8
止水栓
  6
CONTINUOUS
 62
     6
100
AcDbVertex
100
AcDb2dVertex
 10
395.813507
 20
2252.557993
 30
0.0
  0
VERTEX
  5
584
100
AcDbEntity
  8
止水栓
  6
CONTINUOUS
 62
     6
100
AcDbVertex
100
AcDb2dVertex
 10
396.023468
 20
2252.470102
 30
0.0
  0
VERTEX
  5
585
100
AcDbEntity
  8
止水栓
  6
CONTINUOUS
 62
     6
100
AcDbVertex
100
AcDb2dVertex
 10
396.23587
 20
2252.416391
 30
0.0
  0
VERTEX
  5
586
100
AcDbEntity
  8
止水栓
  6
CONTINUOUS
 62
     6
100
AcDbVertex
100
AcDb2dVertex
 10
396.448273
 20
2252.399301
 30
0.0
  0
VERTEX
  5
587
100
AcDbEntity
  8
止水栓
  6
CONTINUOUS
 62
     6
100
AcDbVertex
100
AcDb2dVertex
 10
396.663117
 20
2252.418833
 30
0.0
  0
VERTEX
  5
588
100
AcDbEntity
  8
止水栓
  6
CONTINUOUS
 62
     6
100
AcDbVertex
100
AcDb2dVertex
 10
396.873077
 20
2252.470102
 30
0.0
  0
VERTEX
  5
589
100
AcDbEntity
  8
止水栓
  6
CONTINUOUS
 62
     6
100
AcDbVertex
100
AcDb2dVertex
 10
397.083038
 20
2252.557993
 30
0.0
  0
VERTEX
  5
58A
100
AcDbEntity
  8
止水栓
  6
CONTINUOUS
 62
     6
100
AcDbVertex
100
AcDb2dVertex
 10
397.285675
 20
2252.680063
 30
0.0
  0
VERTEX
  5
58B
100
AcDbEntity
  8
止水栓
  6
CONTINUOUS
 62
     6
100
AcDbVertex
100
AcDb2dVertex
 10
397.483429
 20
2252.833872
 30
0.0
  0
SEQEND
  5
58C
100
AcDbEntity
  8
止水栓
  6
CONTINUOUS
 62
     6
  0
POLYLINE
  5
58D
100
AcDbEntity
  8
止水栓
  6
CONTINUOUS
 62
     6
100
AcDb2dPolyline
 66
     1
 10
0.0
 20
0.0
 30
0.0
 70
   128
  0
VERTEX
  5
58E
100
AcDbEntity
  8
止水栓
  6
CONTINUOUS
 62
     6
100
AcDbVertex
100
AcDb2dVertex
 10
398.813995
 20
2255.831919
 30
0.0
  0
VERTEX
  5
58F
100
AcDbEntity
  8
止水栓
  6
CONTINUOUS
 62
     6
100
AcDbVertex
100
AcDb2dVertex
 10
398.860382
 20
2256.224985
 30
0.0
  0
VERTEX
  5
590
100
AcDbEntity
  8
止水栓
  6
CONTINUOUS
 62
     6
100
AcDbVertex
100
AcDb2dVertex
 10
398.889679
 20
2256.625376
 30
0.0
  0
VERTEX
  5
591
100
AcDbEntity
  8
止水栓
  6
CONTINUOUS
 62
     6
100
AcDbVertex
100
AcDb2dVertex
 10
398.899445
 20
2257.028208
 30
0.0
  0
SEQEND
  5
592
100
AcDbEntity
  8
止水栓
  6
CONTINUOUS
 62
     6
  0
POLYLINE
  5
593
100
AcDbEntity
  8
止水栓
  6
CONTINUOUS
 62
     6
100
AcDb2dPolyline
 66
     1
 10
0.0
 20
0.0
 30
0.0
 70
   128
  0
VERTEX
  5
594
100
AcDbEntity
  8
止水栓
  6
CONTINUOUS
 62
     6
100
AcDbVertex
100
AcDb2dVertex
 10
397.483429
 20
2252.833872
 30
0.0
  0
VERTEX
  5
595
100
AcDbEntity
  8
止水栓
  6
CONTINUOUS
 62
     6
100
AcDbVertex
100
AcDb2dVertex
 10
397.673859
 20
2253.019419
 30
0.0
  0
VERTEX
  5
596
100
AcDbEntity
  8
止水栓
  6
CONTINUOUS
 62
     6
100
AcDbVertex
100
AcDb2dVertex
 10
397.854523
 20
2253.236704
 30
0.0
  0
VERTEX
  5
597
100
AcDbEntity
  8
止水栓
  6
CONTINUOUS
 62
     6
100
AcDbVertex
100
AcDb2dVertex
 10
398.02298
 20
2253.483286
 30
0.0
  0
VERTEX
  5
598
100
AcDbEntity
  8
止水栓
  6
CONTINUOUS
 62
     6
100
AcDbVertex
100
AcDb2dVertex
 10
398.181671
 20
2253.756723
 30
0.0
  0
VERTEX
  5
599
100
AcDbEntity
  8
止水栓
  6
CONTINUOUS
 62
     6
100
AcDbVertex
100
AcDb2dVertex
 10
398.325714
 20
2254.054575
 30
0.0
  0
VERTEX
  5
59A
100
AcDbEntity
  8
止水栓
  6
CONTINUOUS
 62
     6
100
AcDbVertex
100
AcDb2dVertex
 10
398.455109
 20
2254.374399
 30
0.0
  0
VERTEX
  5
59B
100
AcDbEntity
  8
止水栓
  6
CONTINUOUS
 62
     6
100
AcDbVertex
100
AcDb2dVertex
 10
398.569855
 20
2254.713754
 30
0.0
  0
VERTEX
  5
59C
100
AcDbEntity
  8
止水栓
  6
CONTINUOUS
 62
     6
100
AcDbVertex
100
AcDb2dVertex
 10
398.669952
 20
2255.072641
 30
0.0
  0
VERTEX
  5
59D
100
AcDbEntity
  8
止水栓
  6
CONTINUOUS
 62
     6
100
AcDbVertex
100
AcDb2dVertex
 10
398.750519
 20
2255.446176
 30
0.0
  0
VERTEX
  5
59E
100
AcDbEntity
  8
止水栓
  6
CONTINUOUS
 62
     6
100
AcDbVertex
100
AcDb2dVertex
 10
398.813995
 20
2255.831919
 30
0.0
  0
SEQEND
  5
59F
100
AcDbEntity
  8
止水栓
  6
CONTINUOUS
 62
     6
  0
LINE
  5
5A0
100
AcDbEntity
  8
止水栓
  6
CONTINUOUS
 62
     6
100
AcDbLine
 10
417.471222
 20
2250.773325
 30
0.0
 11
395.53122
 21
2250.773325
 31
0.0
  0
ARC
  5
5A1
100
AcDbEntity
  8
止水栓
  6
CONTINUOUS
 62
     6
100
AcDbCircle
 10
404.751495
 20
2256.77186
 30
0.0
 40
10.99987
100
AcDbArc
 50
146.937744
 51
213.054688
  0
ARC
  5
5A2
100
AcDbEntity
  8
止水栓
  6
CONTINUOUS
 62
     6
100
AcDbCircle
 10
408.252472
 20
2256.77186
 30
0.0
 40
10.998535
100
AcDbArc
 50
326.94841
 51
33.059082
  0
LINE
  5
5A3
100
AcDbEntity
  8
止水栓
  6
CONTINUOUS
 62
     6
100
AcDbLine
 10
400.001221
 20
2296.772837
 30
0.0
 11
400.001221
 21
2317.498764
 31
0.0
  0
LINE
  5
5A4
100
AcDbEntity
  8
止水栓
  6
CONTINUOUS
 62
     6
100
AcDbLine
 10
413.001221
 20
2296.772837
 30
0.0
 11
413.001221
 21
2317.498764
 31
0.0
  0
LINE
  5
5A5
100
AcDbEntity
  8
止水栓
  6
EXLTYPE3
 62
     6
100
AcDbLine
 10
406.5
 20
571.0
 30
0.0
 11
406.5
 21
660.00001
 31
0.0
  0
LINE
  5
5A6
100
AcDbEntity
  8
止水栓
  6
EXLTYPE3
 62
     6
100
AcDbLine
 10
1474.482913
 20
781.689607
 30
0.0
 11
1474.482913
 21
875.419626
 31
0.0
  0
LINE
  5
5A7
100
AcDbEntity
  8
止水栓
  6
CONTINUOUS
 62
     6
100
AcDbLine
 10
1327.983184
 20
626.411587
 30
0.0
 11
1324.483011
 21
626.411587
 31
0.0
  0
LINE
  5
5A8
100
AcDbEntity
  8
止水栓
  6
CONTINUOUS
 62
     6
100
AcDbLine
 10
1321.482971
 20
625.184086
 30
0.0
 11
1327.983184
 21
625.184086
 31
0.0
  0
LINE
  5
5A9
100
AcDbEntity
  8
止水栓
  6
CONTINUOUS
 62
     6
100
AcDbLine
 10
1324.483011
 20
644.911587
 30
0.0
 11
1327.983184
 21
644.911587
 31
0.0
  0
LINE
  5
5AA
100
AcDbEntity
  8
止水栓
  6
CONTINUOUS
 62
     6
100
AcDbLine
 10
1327.983184
 20
646.139095
 30
0.0
 11
1320.333928
 21
646.139095
 31
0.0
  0
LINE
  5
5AB
100
AcDbEntity
  8
止水栓
  6
CONTINUOUS
 62
     6
100
AcDbLine
 10
1324.483011
 20
646.139075
 30
0.0
 11
1324.483011
 21
625.184086
 31
0.0
  0
LINE
  5
5AC
100
AcDbEntity
  8
止水栓
  6
CONTINUOUS
 62
     6
100
AcDbLine
 10
1322.35688
 20
625.184086
 30
0.0
 11
1324.483009
 21
626.41161
 31
0.0
  0
ARC
  5
5AD
100
AcDbEntity
  8
止水栓
  6
CONTINUOUS
 62
     6
100
AcDbCircle
 10
1285.982971
 20
620.051541
 30
0.0
 40
6.5
100
AcDbArc
 50
332.204228
 51
0.0
  0
ARC
  5
5AE
100
AcDbEntity
  8
止水栓
  6
CONTINUOUS
 62
     6
100
AcDbCircle
 10
1322.982971
 20
620.051541
 30
0.0
 40
6.5
100
AcDbArc
 50
180.0
 51
207.795772
  0
ARC
  5
5AF
100
AcDbEntity
  8
止水栓
  6
CONTINUOUS
 62
     6
100
AcDbCircle
 10
1310.857971
 20
626.55988
 30
0.0
 40
18.612052
100
AcDbArc
 50
249.969519
 51
290.030481
  0
ARC
  5
5B0
100
AcDbEntity
  8
止水栓
  6
CONTINUOUS
 62
     6
100
AcDbCircle
 10
1298.107971
 20
626.55988
 30
0.0
 40
18.612052
100
AcDbArc
 50
249.969519
 51
290.030481
  0
ARC
  5
5B1
100
AcDbEntity
  8
止水栓
  6
CONTINUOUS
 62
     6
100
AcDbCircle
 10
1310.857971
 20
606.837499
 30
0.0
 40
10.182953
100
AcDbArc
 50
51.240977
 51
128.759023
  0
ARC
  5
5B2
100
AcDbEntity
  8
止水栓
  6
CONTINUOUS
 62
     6
100
AcDbCircle
 10
1298.107971
 20
606.837499
 30
0.0
 40
10.182953
100
AcDbArc
 50
51.240977
 51
128.759023
  0
LINE
  5
5B3
100
AcDbEntity
  8
止水栓
  6
CONTINUOUS
 62
     6
100
AcDbLine
 10
1292.232971
 20
607.659153
 30
0.0
 11
1291.732971
 21
607.947828
 31
0.0
  0
LINE
  5
5B4
100
AcDbEntity
  8
止水栓
  6
CONTINUOUS
 62
     6
100
AcDbLine
 10
1316.732971
 20
607.659153
 30
0.0
 11
1317.232971
 21
607.947828
 31
0.0
  0
LINE
  5
5B5
100
AcDbEntity
  8
止水栓
  6
CONTINUOUS
 62
     6
100
AcDbLine
 10
1317.232971
 20
617.020452
 30
0.0
 11
1317.232971
 21
607.947828
 31
0.0
  0
LINE
  5
5B6
100
AcDbEntity
  8
止水栓
  6
CONTINUOUS
 62
     6
100
AcDbLine
 10
1291.732971
 20
617.020452
 30
0.0
 11
1291.732971
 21
607.947828
 31
0.0
  0
LINE
  5
5B7
100
AcDbEntity
  8
止水栓
  6
CONTINUOUS
 62
     6
100
AcDbLine
 10
1292.232971
 20
607.659153
 30
0.0
 11
1316.732971
 21
607.659153
 31
0.0
  0
LINE
  5
5B8
100
AcDbEntity
  8
止水栓
  6
CONTINUOUS
 62
     6
100
AcDbLine
 10
1314.659322
 20
606.455631
 30
0.0
 11
1294.266775
 21
606.455631
 31
0.0
  0
LINE
  5
5B9
100
AcDbEntity
  8
止水栓
  6
CONTINUOUS
 62
     6
100
AcDbLine
 10
1314.62345
 20
607.662353
 30
0.0
 11
1314.713049
 21
604.648309
 31
0.0
  0
LINE
  5
5BA
100
AcDbEntity
  8
止水栓
  6
CONTINUOUS
 62
     6
100
AcDbLine
 10
1313.623008
 20
607.662353
 30
0.0
 11
1313.65888
 21
606.455631
 31
0.0
  0
LINE
  5
5BB
100
AcDbEntity
  8
止水栓
  6
CONTINUOUS
 62
     6
100
AcDbLine
 10
1314.713049
 20
604.648309
 30
0.0
 11
1313.65888
 21
606.455631
 31
0.0
  0
LINE
  5
5BC
100
AcDbEntity
  8
止水栓
  6
CONTINUOUS
 62
     6
100
AcDbLine
 10
1314.713049
 20
604.648309
 30
0.0
 11
1314.713049
 21
597.985108
 31
0.0
  0
LINE
  5
5BD
100
AcDbEntity
  8
止水栓
  6
CONTINUOUS
 62
     6
100
AcDbLine
 10
1294.302647
 20
607.662353
 30
0.0
 11
1294.213049
 21
604.648309
 31
0.0
  0
LINE
  5
5BE
100
AcDbEntity
  8
止水栓
  6
CONTINUOUS
 62
     6
100
AcDbLine
 10
1295.303089
 20
607.662353
 30
0.0
 11
1295.267217
 21
606.455631
 31
0.0
  0
LINE
  5
5BF
100
AcDbEntity
  8
止水栓
  6
CONTINUOUS
 62
     6
100
AcDbLine
 10
1294.213049
 20
604.648309
 30
0.0
 11
1295.267217
 21
606.455631
 31
0.0
  0
LINE
  5
5C0
100
AcDbEntity
  8
止水栓
  6
CONTINUOUS
 62
     6
100
AcDbLine
 10
1294.213049
 20
604.648309
 30
0.0
 11
1294.213049
 21
597.985108
 31
0.0
  0
LINE
  5
5C1
100
AcDbEntity
  8
止水栓
  6
CONTINUOUS
 62
     6
100
AcDbLine
 10
1331.982971
 20
581.985108
 30
0.0
 11
1331.982971
 21
583.985108
 31
0.0
  0
ARC
  5
5C2
100
AcDbEntity
  8
止水栓
  6
CONTINUOUS
 62
     6
100
AcDbCircle
 10
1317.982971
 20
583.985108
 30
0.0
 40
14.0
100
AcDbArc
 50
0.0
 51
90.0
  0
LINE
  5
5C3
100
AcDbEntity
  8
止水栓
  6
CONTINUOUS
 62
     6
100
AcDbLine
 10
1276.982971
 20
581.985108
 30
0.0
 11
1276.982971
 21
583.985108
 31
0.0
  0
ARC
  5
5C4
100
AcDbEntity
  8
止水栓
  6
CONTINUOUS
 62
     6
100
AcDbCircle
 10
1290.982971
 20
583.985108
 30
0.0
 40
14.0
100
AcDbArc
 50
90.0
 51
180.0
  0
LINE
  5
5C5
100
AcDbEntity
  8
止水栓
  6
CONTINUOUS
 62
     6
100
AcDbLine
 10
1294.182971
 20
576.305108
 30
0.0
 11
1294.213596
 21
575.325108
 31
0.0
  0
LINE
  5
5C6
100
AcDbEntity
  8
止水栓
  6
CONTINUOUS
 62
     6
100
AcDbLine
 10
1294.182971
 20
581.985108
 30
0.0
 11
1294.182971
 21
576.305108
 31
0.0
  0
LINE
  5
5C7
100
AcDbEntity
  8
止水栓
  6
CONTINUOUS
 62
     6
100
AcDbLine
 10
1294.214596
 20
575.324108
 30
0.0
 11
1295.713596
 21
573.825108
 31
0.0
  0
LINE
  5
5C8
100
AcDbEntity
  8
止水栓
  6
CONTINUOUS
 62
     6
100
AcDbLine
 10
1295.412455
 20
574.145624
 30
0.0
 11
1295.167471
 21
581.985108
 31
0.0
  0
LINE
  5
5C9
100
AcDbEntity
  8
止水栓
  6
CONTINUOUS
 62
     6
100
AcDbLine
 10
1313.252346
 20
573.825108
 30
0.0
 11
1295.713596
 21
573.825108
 31
0.0
  0
LINE
  5
5CA
100
AcDbEntity
  8
止水栓
  6
CONTINUOUS
 62
     6
100
AcDbLine
 10
1314.751346
 20
575.324108
 30
0.0
 11
1313.252346
 21
573.825108
 31
0.0
  0
LINE
  5
5CB
100
AcDbEntity
  8
止水栓
  6
CONTINUOUS
 62
     6
100
AcDbLine
 10
1314.782971
 20
576.305108
 30
0.0
 11
1314.752346
 21
575.325108
 31
0.0
  0
LINE
  5
5CC
100
AcDbEntity
  8
止水栓
  6
CONTINUOUS
 62
     6
100
AcDbLine
 10
1314.752346
 20
575.325108
 30
0.0
 11
1294.213596
 21
575.325108
 31
0.0
  0
LINE
  5
5CD
100
AcDbEntity
  8
止水栓
  6
CONTINUOUS
 62
     6
100
AcDbLine
 10
1313.553487
 20
574.145624
 30
0.0
 11
1313.798471
 21
581.985108
 31
0.0
  0
LINE
  5
5CE
100
AcDbEntity
  8
止水栓
  6
CONTINUOUS
 62
     6
100
AcDbLine
 10
1314.782971
 20
581.985108
 30
0.0
 11
1314.782971
 21
576.305108
 31
0.0
  0
LINE
  5
5CF
100
AcDbEntity
  8
止水栓
  6
CONTINUOUS
 62
     6
100
AcDbLine
 10
1317.982971
 20
597.985108
 30
0.0
 11
1290.982971
 21
597.985108
 31
0.0
  0
LINE
  5
5D0
100
AcDbEntity
  8
止水栓
  6
CONTINUOUS
 62
     6
100
AcDbLine
 10
1316.482971
 20
620.172124
 30
0.0
 11
1316.482971
 21
620.051541
 31
0.0
  0
ARC
  5
5D1
100
AcDbEntity
  8
止水栓
  6
CONTINUOUS
 62
     6
100
AcDbCircle
 10
1321.482971
 20
620.184086
 30
0.0
 40
5.0
100
AcDbArc
 50
90.0
 51
180.0
  0
LINE
  5
5D2
100
AcDbEntity
  8
止水栓
  6
CONTINUOUS
 62
     6
100
AcDbLine
 10
1292.482971
 20
620.051541
 30
0.0
 11
1292.482971
 21
656.661576
 31
0.0
  0
LINE
  5
5D3
100
AcDbEntity
  8
止水栓
  6
CONTINUOUS
 62
     6
100
AcDbLine
 10
1322.356882
 20
646.139091
 30
0.0
 11
1324.483011
 21
644.911567
 31
0.0
  0
ARC
  5
5D4
100
AcDbEntity
  8
止水栓
  6
CONTINUOUS
 62
     6
100
AcDbCircle
 10
1320.981798
 20
651.096943
 30
0.0
 40
5.0
100
AcDbArc
 50
205.872755
 51
262.555023
  0
LINE
  5
5D5
100
AcDbEntity
  8
止水栓
  6
CONTINUOUS
 62
     6
100
AcDbLine
 10
1316.482971
 20
656.661576
 30
0.0
 11
1316.482971
 21
648.915073
 31
0.0
  0
LINE
  5
5D6
100
AcDbEntity
  8
止水栓
  6
CONTINUOUS
 62
     6
100
AcDbLine
 10
1316.482971
 20
656.661576
 30
0.0
 11
1292.482971
 21
656.661576
 31
0.0
  0
LINE
  5
5D7
100
AcDbEntity
  8
止水栓
  6
CONTINUOUS
 62
     6
100
AcDbLine
 10
1295.482971
 20
657.361576
 30
0.0
 11
1295.482971
 21
656.661576
 31
0.0
  0
LINE
  5
5D8
100
AcDbEntity
  8
止水栓
  6
CONTINUOUS
 62
     6
100
AcDbLine
 10
1313.482971
 20
657.361576
 30
0.0
 11
1313.482971
 21
656.661576
 31
0.0
  0
LINE
  5
5D9
100
AcDbEntity
  8
止水栓
  6
CONTINUOUS
 62
     6
100
AcDbLine
 10
1303.582971
 20
657.361576
 30
0.0
 11
1303.582971
 21
656.661576
 31
0.0
  0
LINE
  5
5DA
100
AcDbEntity
  8
止水栓
  6
CONTINUOUS
 62
     6
100
AcDbLine
 10
1305.382971
 20
657.361576
 30
0.0
 11
1305.382971
 21
656.661576
 31
0.0
  0
LINE
  5
5DB
100
AcDbEntity
  8
止水栓
  6
CONTINUOUS
 62
     6
100
AcDbLine
 10
1305.382971
 20
657.361576
 30
0.0
 11
1313.482971
 21
657.361576
 31
0.0
  0
LINE
  5
5DC
100
AcDbEntity
  8
止水栓
  6
CONTINUOUS
 62
     6
100
AcDbLine
 10
1303.582971
 20
657.361576
 30
0.0
 11
1295.482971
 21
657.361576
 31
0.0
  0
ARC
  5
5DD
100
AcDbEntity
  8
止水栓
  6
EXLTYPE3
 62
     6
100
AcDbCircle
 10
1389.482942
 20
781.689607
 30
0.0
 40
84.999971
100
AcDbArc
 50
180.0
 51
0.0
  0
LINE
  5
5DE
100
AcDbEntity
  8
止水栓
  6
CONTINUOUS
 62
     6
100
AcDbLine
 10
1304.482971
 20
842.469033
 30
0.0
 11
1304.482971
 21
781.689607
 31
0.0
  0
ARC
  5
5DF
100
AcDbEntity
  8
止水栓
  6
EXLTYPE2
 62
     6
100
AcDbCircle
 10
1304.482971
 20
881.998849
 30
0.0
 40
27.5
100
AcDbArc
 50
294.79044
 51
244.998019
  0
LINE
  5
5E0
100
AcDbEntity
  8
止水栓
  6
CONTINUOUS
 62
     6
100
AcDbLine
 10
1314.960471
 20
868.854668
 30
0.0
 11
1314.960471
 21
859.468544
 31
0.0
  0
LINE
  5
5E1
100
AcDbEntity
  8
止水栓
  6
CONTINUOUS
 62
     6
100
AcDbLine
 10
1294.005471
 20
868.854668
 30
0.0
 11
1294.005471
 21
859.468544
 31
0.0
  0
LINE
  5
5E2
100
AcDbEntity
  8
止水栓
  6
CONTINUOUS
 62
     6
100
AcDbLine
 10
1313.798471
 20
859.468544
 30
0.0
 11
1313.798471
 21
861.998849
 31
0.0
  0
LINE
  5
5E3
100
AcDbEntity
  8
止水栓
  6
CONTINUOUS
 62
     6
100
AcDbLine
 10
1295.167471
 20
859.468544
 30
0.0
 11
1295.167471
 21
861.998849
 31
0.0
  0
LINE
  5
5E4
100
AcDbEntity
  8
止水栓
  6
EXLTYPE2
 62
     6
100
AcDbLine
 10
1293.513732
 20
859.468544
 30
0.0
 11
1315.452209
 21
859.468544
 31
0.0
  0
LINE
  5
5E5
100
AcDbEntity
  8
止水栓
  6
CONTINUOUS
 62
     6
100
AcDbLine
 10
1313.798471
 20
861.998849
 30
0.0
 11
1315.012169
 21
864.101065
 31
0.0
  0
LINE
  5
5E6
100
AcDbEntity
  8
止水栓
  6
CONTINUOUS
 62
     6
100
AcDbLine
 10
1295.167471
 20
861.998849
 30
0.0
 11
1293.953773
 21
864.101065
 31
0.0
  0
LINE
  5
5E7
100
AcDbEntity
  8
止水栓
  6
CONTINUOUS
 62
     6
100
AcDbLine
 10
1294.005471
 20
861.998849
 30
0.0
 11
1314.960471
 21
861.998849
 31
0.0
  0
CIRCLE
  5
5E8
100
AcDbEntity
  8
止水栓
  6
CONTINUOUS
 62
     6
100
AcDbCircle
 10
1304.482971
 20
881.998849
 30
0.0
 40
12.0
  0
CIRCLE
  5
5E9
100
AcDbEntity
  8
止水栓
  6
CONTINUOUS
 62
     6
100
AcDbCircle
 10
1304.482971
 20
881.998849
 30
0.0
 40
9.959438
  0
CIRCLE
  5
5EA
100
AcDbEntity
  8
止水栓
  6
CONTINUOUS
 62
     6
100
AcDbCircle
 10
1304.482971
 20
881.998849
 30
0.0
 40
9.273367
  0
ARC
  5
5EB
100
AcDbEntity
  8
止水栓
  6
CONTINUOUS
 62
     6
100
AcDbCircle
 10
1360.460471
 20
868.854668
 30
0.0
 40
45.5
100
AcDbArc
 50
166.785665
 51
180.0
  0
ARC
  5
5EC
100
AcDbEntity
  8
止水栓
  6
CONTINUOUS
 62
     6
100
AcDbCircle
 10
1248.505471
 20
868.854668
 30
0.0
 40
45.5
100
AcDbArc
 50
0.0
 51
13.214335
  0
LINE
  5
5ED
100
AcDbEntity
  8
止水栓
  6
CONTINUOUS
 62
     6
100
AcDbLine
 10
1313.702156
 20
880.997872
 30
0.0
 11
1295.263786
 21
880.997872
 31
0.0
  0
LINE
  5
5EE
100
AcDbEntity
  8
止水栓
  6
CONTINUOUS
 62
     6
100
AcDbLine
 10
1295.263521
 20
882.997384
 30
0.0
 11
1313.702421
 21
882.997384
 31
0.0
  0
ARC
  5
5EF
100
AcDbEntity
  8
止水栓
  6
EXLTYPE2
 62
     6
100
AcDbCircle
 10
1306.233459
 20
853.47001
 30
0.0
 40
10.99987
100
AcDbArc
 50
326.937744
 51
33.047067
  0
POLYLINE
  5
5F0
100
AcDbEntity
  8
止水栓
  6
EXLTYPE2
 62
     6
100
AcDb2dPolyline
 66
     1
 10
0.0
 20
0.0
 30
0.0
 70
   128
  0
VERTEX
  5
5F1
100
AcDbEntity
  8
止水栓
  6
EXLTYPE2
 62
     6
100
AcDbVertex
100
AcDb2dVertex
 10
1298.626037
 20
853.2454
 30
0.0
  0
VERTEX
  5
5F2
100
AcDbEntity
  8
止水栓
  6
EXLTYPE2
 62
     6
100
AcDbVertex
100
AcDb2dVertex
 10
1298.64801
 20
852.762002
 30
0.0
  0
VERTEX
  5
5F3
100
AcDbEntity
  8
止水栓
  6
EXLTYPE2
 62
     6
100
AcDbVertex
100
AcDb2dVertex
 10
1298.713928
 20
852.281045
 30
0.0
  0
VERTEX
  5
5F4
100
AcDbEntity
  8
止水栓
  6
EXLTYPE2
 62
     6
100
AcDbVertex
100
AcDb2dVertex
 10
1298.823791
 20
851.807412
 30
0.0
  0
VERTEX
  5
5F5
100
AcDbEntity
  8
止水栓
  6
EXLTYPE2
 62
     6
100
AcDbVertex
100
AcDb2dVertex
 10
1298.9776
 20
851.343545
 30
0.0
  0
VERTEX
  5
5F6
100
AcDbEntity
  8
止水栓
  6
EXLTYPE2
 62
     6
100
AcDbVertex
100
AcDb2dVertex
 10
1299.170471
 20
850.896767
 30
0.0
  0
VERTEX
  5
5F7
100
AcDbEntity
  8
止水栓
  6
EXLTYPE2
 62
     6
100
AcDbVertex
100
AcDb2dVertex
 10
1299.407287
 20
850.464639
 30
0.0
  0
VERTEX
  5
5F8
100
AcDbEntity
  8
止水栓
  6
EXLTYPE2
 62
     6
100
AcDbVertex
100
AcDb2dVertex
 10
1299.680725
 20
850.056924
 30
0.0
  0
VERTEX
  5
5F9
100
AcDbEntity
  8
止水栓
  6
EXLTYPE2
 62
     6
100
AcDbVertex
100
AcDb2dVertex
 10
1299.990783
 20
849.671182
 30
0.0
  0
VERTEX
  5
5FA
100
AcDbEntity
  8
止水栓
  6
EXLTYPE2
 62
     6
100
AcDbVertex
100
AcDb2dVertex
 10
1300.33258
 20
849.314736
 30
0.0
  0
VERTEX
  5
5FB
100
AcDbEntity
  8
止水栓
  6
EXLTYPE2
 62
     6
100
AcDbVertex
100
AcDb2dVertex
 10
1300.708557
 20
848.985146
 30
0.0
  0
VERTEX
  5
5FC
100
AcDbEntity
  8
止水栓
  6
EXLTYPE2
 62
     6
100
AcDbVertex
100
AcDb2dVertex
 10
1301.111389
 20
848.692178
 30
0.0
  0
VERTEX
  5
5FD
100
AcDbEntity
  8
止水栓
  6
EXLTYPE2
 62
     6
100
AcDbVertex
100
AcDb2dVertex
 10
1301.541076
 20
848.428506
 30
0.0
  0
VERTEX
  5
5FE
100
AcDbEntity
  8
止水栓
  6
EXLTYPE2
 62
     6
100
AcDbVertex
100
AcDb2dVertex
 10
1301.992736
 20
848.203896
 30
0.0
  0
VERTEX
  5
5FF
100
AcDbEntity
  8
止水栓
  6
EXLTYPE2
 62
     6
100
AcDbVertex
100
AcDb2dVertex
 10
1302.461486
 20
848.018349
 30
0.0
  0
VERTEX
  5
600
100
AcDbEntity
  8
止水栓
  6
EXLTYPE2
 62
     6
100
AcDbVertex
100
AcDb2dVertex
 10
1302.947326
 20
847.874307
 30
0.0
  0
VERTEX
  5
601
100
AcDbEntity
  8
止水栓
  6
EXLTYPE2
 62
     6
100
AcDbVertex
100
AcDb2dVertex
 10
1303.442932
 20
847.769326
 30
0.0
  0
VERTEX
  5
602
100
AcDbEntity
  8
止水栓
  6
EXLTYPE2
 62
     6
100
AcDbVertex
100
AcDb2dVertex
 10
1303.948303
 20
847.705849
 30
0.0
  0
VERTEX
  5
603
100
AcDbEntity
  8
止水栓
  6
EXLTYPE2
 62
     6
100
AcDbVertex
100
AcDb2dVertex
 10
1304.456115
 20
847.683877
 30
0.0
  0
VERTEX
  5
604
100
AcDbEntity
  8
止水栓
  6
EXLTYPE2
 62
     6
100
AcDbVertex
100
AcDb2dVertex
 10
1304.465881
 20
847.683877
 30
0.0
  0
VERTEX
  5
605
100
AcDbEntity
  8
止水栓
  6
EXLTYPE2
 62
     6
100
AcDbVertex
100
AcDb2dVertex
 10
1304.473205
 20
847.683877
 30
0.0
  0
VERTEX
  5
606
100
AcDbEntity
  8
止水栓
  6
EXLTYPE2
 62
     6
100
AcDbVertex
100
AcDb2dVertex
 10
1304.482971
 20
847.683877
 30
0.0
  0
SEQEND
  5
607
100
AcDbEntity
  8
止水栓
  6
EXLTYPE2
 62
     6
  0
POLYLINE
  5
608
100
AcDbEntity
  8
止水栓
  6
EXLTYPE2
 62
     6
100
AcDb2dPolyline
 66
     1
 10
0.0
 20
0.0
 30
0.0
 70
   128
  0
VERTEX
  5
609
100
AcDbEntity
  8
止水栓
  6
EXLTYPE2
 62
     6
100
AcDbVertex
100
AcDb2dVertex
 10
1304.482971
 20
847.683877
 30
0.0
  0
VERTEX
  5
60A
100
AcDbEntity
  8
止水栓
  6
EXLTYPE2
 62
     6
100
AcDbVertex
100
AcDb2dVertex
 10
1304.981018
 20
847.705849
 30
0.0
  0
VERTEX
  5
60B
100
AcDbEntity
  8
止水栓
  6
EXLTYPE2
 62
     6
100
AcDbVertex
100
AcDb2dVertex
 10
1305.476623
 20
847.771767
 30
0.0
  0
VERTEX
  5
60C
100
AcDbEntity
  8
止水栓
  6
EXLTYPE2
 62
     6
100
AcDbVertex
100
AcDb2dVertex
 10
1305.964904
 20
847.874307
 30
0.0
  0
VERTEX
  5
60D
100
AcDbEntity
  8
止水栓
  6
EXLTYPE2
 62
     6
100
AcDbVertex
100
AcDb2dVertex
 10
1306.450744
 20
848.020791
 30
0.0
  0
VERTEX
  5
60E
100
AcDbEntity
  8
止水栓
  6
EXLTYPE2
 62
     6
100
AcDbVertex
100
AcDb2dVertex
 10
1306.919494
 20
848.206338
 30
0.0
  0
VERTEX
  5
60F
100
AcDbEntity
  8
止水栓
  6
EXLTYPE2
 62
     6
100
AcDbVertex
100
AcDb2dVertex
 10
1307.371154
 20
848.428506
 30
0.0
  0
VERTEX
  5
610
100
AcDbEntity
  8
止水栓
  6
EXLTYPE2
 62
     6
100
AcDbVertex
100
AcDb2dVertex
 10
1307.800842
 20
848.689736
 30
0.0
  0
VERTEX
  5
611
100
AcDbEntity
  8
止水栓
  6
EXLTYPE2
 62
     6
100
AcDbVertex
100
AcDb2dVertex
 10
1308.203674
 20
848.985146
 30
0.0
  0
VERTEX
  5
612
100
AcDbEntity
  8
止水栓
  6
EXLTYPE2
 62
     6
100
AcDbVertex
100
AcDb2dVertex
 10
1308.57965
 20
849.312295
 30
0.0
  0
VERTEX
  5
613
100
AcDbEntity
  8
止水栓
  6
EXLTYPE2
 62
     6
100
AcDbVertex
100
AcDb2dVertex
 10
1308.921447
 20
849.671182
 30
0.0
  0
VERTEX
  5
614
100
AcDbEntity
  8
止水栓
  6
EXLTYPE2
 62
     6
100
AcDbVertex
100
AcDb2dVertex
 10
1309.231506
 20
850.056924
 30
0.0
  0
VERTEX
  5
615
100
AcDbEntity
  8
止水栓
  6
EXLTYPE2
 62
     6
100
AcDbVertex
100
AcDb2dVertex
 10
1309.504943
 20
850.464639
 30
0.0
  0
VERTEX
  5
616
100
AcDbEntity
  8
止水栓
  6
EXLTYPE2
 62
     6
100
AcDbVertex
100
AcDb2dVertex
 10
1309.74176
 20
850.894326
 30
0.0
  0
VERTEX
  5
617
100
AcDbEntity
  8
止水栓
  6
EXLTYPE2
 62
     6
100
AcDbVertex
100
AcDb2dVertex
 10
1309.934631
 20
851.343545
 30
0.0
  0
VERTEX
  5
618
100
AcDbEntity
  8
止水栓
  6
EXLTYPE2
 62
     6
100
AcDbVertex
100
AcDb2dVertex
 10
1310.08844
 20
851.807412
 30
0.0
  0
VERTEX
  5
619
100
AcDbEntity
  8
止水栓
  6
EXLTYPE2
 62
     6
100
AcDbVertex
100
AcDb2dVertex
 10
1310.198303
 20
852.281045
 30
0.0
  0
VERTEX
  5
61A
100
AcDbEntity
  8
止水栓
  6
EXLTYPE2
 62
     6
100
AcDbVertex
100
AcDb2dVertex
 10
1310.264221
 20
852.762002
 30
0.0
  0
VERTEX
  5
61B
100
AcDbEntity
  8
止水栓
  6
EXLTYPE2
 62
     6
100
AcDbVertex
100
AcDb2dVertex
 10
1310.288635
 20
853.2454
 30
0.0
  0
VERTEX
  5
61C
100
AcDbEntity
  8
止水栓
  6
EXLTYPE2
 62
     6
100
AcDbVertex
100
AcDb2dVertex
 10
1310.264221
 20
853.73124
 30
0.0
  0
VERTEX
  5
61D
100
AcDbEntity
  8
止水栓
  6
EXLTYPE2
 62
     6
100
AcDbVertex
100
AcDb2dVertex
 10
1310.198303
 20
854.212197
 30
0.0
  0
VERTEX
  5
61E
100
AcDbEntity
  8
止水栓
  6
EXLTYPE2
 62
     6
100
AcDbVertex
100
AcDb2dVertex
 10
1310.08844
 20
854.68583
 30
0.0
  0
VERTEX
  5
61F
100
AcDbEntity
  8
止水栓
  6
EXLTYPE2
 62
     6
100
AcDbVertex
100
AcDb2dVertex
 10
1309.934631
 20
855.147256
 30
0.0
  0
VERTEX
  5
620
100
AcDbEntity
  8
止水栓
  6
EXLTYPE2
 62
     6
100
AcDbVertex
100
AcDb2dVertex
 10
1309.74176
 20
855.596474
 30
0.0
  0
VERTEX
  5
621
100
AcDbEntity
  8
止水栓
  6
EXLTYPE2
 62
     6
100
AcDbVertex
100
AcDb2dVertex
 10
1309.504943
 20
856.026162
 30
0.0
  0
VERTEX
  5
622
100
AcDbEntity
  8
止水栓
  6
EXLTYPE2
 62
     6
100
AcDbVertex
100
AcDb2dVertex
 10
1309.231506
 20
856.436318
 30
0.0
  0
VERTEX
  5
623
100
AcDbEntity
  8
止水栓
  6
EXLTYPE2
 62
     6
100
AcDbVertex
100
AcDb2dVertex
 10
1308.921447
 20
856.819619
 30
0.0
  0
VERTEX
  5
624
100
AcDbEntity
  8
止水栓
  6
EXLTYPE2
 62
     6
100
AcDbVertex
100
AcDb2dVertex
 10
1308.57965
 20
857.178506
 30
0.0
  0
VERTEX
  5
625
100
AcDbEntity
  8
止水栓
  6
EXLTYPE2
 62
     6
100
AcDbVertex
100
AcDb2dVertex
 10
1308.203674
 20
857.505654
 30
0.0
  0
VERTEX
  5
626
100
AcDbEntity
  8
止水栓
  6
EXLTYPE2
 62
     6
100
AcDbVertex
100
AcDb2dVertex
 10
1307.800842
 20
857.801064
 30
0.0
  0
VERTEX
  5
627
100
AcDbEntity
  8
止水栓
  6
EXLTYPE2
 62
     6
100
AcDbVertex
100
AcDb2dVertex
 10
1307.371154
 20
858.062295
 30
0.0
  0
VERTEX
  5
628
100
AcDbEntity
  8
止水栓
  6
EXLTYPE2
 62
     6
100
AcDbVertex
100
AcDb2dVertex
 10
1306.919494
 20
858.286904
 30
0.0
  0
VERTEX
  5
629
100
AcDbEntity
  8
止水栓
  6
EXLTYPE2
 62
     6
100
AcDbVertex
100
AcDb2dVertex
 10
1306.450744
 20
858.472451
 30
0.0
  0
VERTEX
  5
62A
100
AcDbEntity
  8
止水栓
  6
EXLTYPE2
 62
     6
100
AcDbVertex
100
AcDb2dVertex
 10
1305.964904
 20
858.616494
 30
0.0
  0
VERTEX
  5
62B
100
AcDbEntity
  8
止水栓
  6
EXLTYPE2
 62
     6
100
AcDbVertex
100
AcDb2dVertex
 10
1305.469299
 20
858.721474
 30
0.0
  0
VERTEX
  5
62C
100
AcDbEntity
  8
止水栓
  6
EXLTYPE2
 62
     6
100
AcDbVertex
100
AcDb2dVertex
 10
1304.963928
 20
858.784951
 30
0.0
  0
VERTEX
  5
62D
100
AcDbEntity
  8
止水栓
  6
EXLTYPE2
 62
     6
100
AcDbVertex
100
AcDb2dVertex
 10
1304.456115
 20
858.806924
 30
0.0
  0
VERTEX
  5
62E
100
AcDbEntity
  8
止水栓
  6
EXLTYPE2
 62
     6
100
AcDbVertex
100
AcDb2dVertex
 10
1303.948303
 20
858.784951
 30
0.0
  0
VERTEX
  5
62F
100
AcDbEntity
  8
止水栓
  6
EXLTYPE2
 62
     6
100
AcDbVertex
100
AcDb2dVertex
 10
1303.442932
 20
858.721474
 30
0.0
  0
VERTEX
  5
630
100
AcDbEntity
  8
止水栓
  6
EXLTYPE2
 62
     6
100
AcDbVertex
100
AcDb2dVertex
 10
1302.947326
 20
858.616494
 30
0.0
  0
VERTEX
  5
631
100
AcDbEntity
  8
止水栓
  6
EXLTYPE2
 62
     6
100
AcDbVertex
100
AcDb2dVertex
 10
1302.461486
 20
858.472451
 30
0.0
  0
VERTEX
  5
632
100
AcDbEntity
  8
止水栓
  6
EXLTYPE2
 62
     6
100
AcDbVertex
100
AcDb2dVertex
 10
1301.992736
 20
858.286904
 30
0.0
  0
VERTEX
  5
633
100
AcDbEntity
  8
止水栓
  6
EXLTYPE2
 62
     6
100
AcDbVertex
100
AcDb2dVertex
 10
1301.541076
 20
858.062295
 30
0.0
  0
VERTEX
  5
634
100
AcDbEntity
  8
止水栓
  6
EXLTYPE2
 62
     6
100
AcDbVertex
100
AcDb2dVertex
 10
1301.111389
 20
857.801064
 30
0.0
  0
VERTEX
  5
635
100
AcDbEntity
  8
止水栓
  6
EXLTYPE2
 62
     6
100
AcDbVertex
100
AcDb2dVertex
 10
1300.708557
 20
857.505654
 30
0.0
  0
VERTEX
  5
636
100
AcDbEntity
  8
止水栓
  6
EXLTYPE2
 62
     6
100
AcDbVertex
100
AcDb2dVertex
 10
1300.33258
 20
857.178506
 30
0.0
  0
VERTEX
  5
637
100
AcDbEntity
  8
止水栓
  6
EXLTYPE2
 62
     6
100
AcDbVertex
100
AcDb2dVertex
 10
1299.990783
 20
856.819619
 30
0.0
  0
VERTEX
  5
638
100
AcDbEntity
  8
止水栓
  6
EXLTYPE2
 62
     6
100
AcDbVertex
100
AcDb2dVertex
 10
1299.680725
 20
856.436318
 30
0.0
  0
VERTEX
  5
639
100
AcDbEntity
  8
止水栓
  6
EXLTYPE2
 62
     6
100
AcDbVertex
100
AcDb2dVertex
 10
1299.407287
 20
856.026162
 30
0.0
  0
VERTEX
  5
63A
100
AcDbEntity
  8
止水栓
  6
EXLTYPE2
 62
     6
100
AcDbVertex
100
AcDb2dVertex
 10
1299.170471
 20
855.596474
 30
0.0
  0
VERTEX
  5
63B
100
AcDbEntity
  8
止水栓
  6
EXLTYPE2
 62
     6
100
AcDbVertex
100
AcDb2dVertex
 10
1298.9776
 20
855.147256
 30
0.0
  0
VERTEX
  5
63C
100
AcDbEntity
  8
止水栓
  6
EXLTYPE2
 62
     6
100
AcDbVertex
100
AcDb2dVertex
 10
1298.823791
 20
854.68583
 30
0.0
  0
VERTEX
  5
63D
100
AcDbEntity
  8
止水栓
  6
EXLTYPE2
 62
     6
100
AcDbVertex
100
AcDb2dVertex
 10
1298.713928
 20
854.212197
 30
0.0
  0
VERTEX
  5
63E
100
AcDbEntity
  8
止水栓
  6
EXLTYPE2
 62
     6
100
AcDbVertex
100
AcDb2dVertex
 10
1298.64801
 20
853.73124
 30
0.0
  0
VERTEX
  5
63F
100
AcDbEntity
  8
止水栓
  6
EXLTYPE2
 62
     6
100
AcDbVertex
100
AcDb2dVertex
 10
1298.626037
 20
853.247842
 30
0.0
  0
SEQEND
  5
640
100
AcDbEntity
  8
止水栓
  6
EXLTYPE2
 62
     6
  0
LINE
  5
641
100
AcDbEntity
  8
止水栓
  6
EXLTYPE2
 62
     6
100
AcDbLine
 10
1314.982971
 20
847.469033
 30
0.0
 11
1314.982971
 21
842.469033
 31
0.0
  0
POLYLINE
  5
642
100
AcDbEntity
  8
止水栓
  6
EXLTYPE2
 62
     6
100
AcDb2dPolyline
 66
     1
 10
0.0
 20
0.0
 30
0.0
 70
   128
  0
VERTEX
  5
643
100
AcDbEntity
  8
止水栓
  6
EXLTYPE2
 62
     6
100
AcDbVertex
100
AcDb2dVertex
 10
1312.08551
 20
853.211221
 30
0.0
  0
VERTEX
  5
644
100
AcDbEntity
  8
止水栓
  6
EXLTYPE2
 62
     6
100
AcDbVertex
100
AcDb2dVertex
 10
1312.095275
 20
852.808389
 30
0.0
  0
VERTEX
  5
645
100
AcDbEntity
  8
止水栓
  6
EXLTYPE2
 62
     6
100
AcDbVertex
100
AcDb2dVertex
 10
1312.124572
 20
852.407998
 30
0.0
  0
VERTEX
  5
646
100
AcDbEntity
  8
止水栓
  6
EXLTYPE2
 62
     6
100
AcDbVertex
100
AcDb2dVertex
 10
1312.170959
 20
852.01249
 30
0.0
  0
VERTEX
  5
647
100
AcDbEntity
  8
止水栓
  6
EXLTYPE2
 62
     6
100
AcDbVertex
100
AcDb2dVertex
 10
1312.234436
 20
851.629189
 30
0.0
  0
VERTEX
  5
648
100
AcDbEntity
  8
止水栓
  6
EXLTYPE2
 62
     6
100
AcDbVertex
100
AcDb2dVertex
 10
1312.315002
 20
851.255654
 30
0.0
  0
VERTEX
  5
649
100
AcDbEntity
  8
止水栓
  6
EXLTYPE2
 62
     6
100
AcDbVertex
100
AcDb2dVertex
 10
1312.4151
 20
850.896767
 30
0.0
  0
VERTEX
  5
64A
100
AcDbEntity
  8
止水栓
  6
EXLTYPE2
 62
     6
100
AcDbVertex
100
AcDb2dVertex
 10
1312.529846
 20
850.557412
 30
0.0
  0
VERTEX
  5
64B
100
AcDbEntity
  8
止水栓
  6
EXLTYPE2
 62
     6
100
AcDbVertex
100
AcDb2dVertex
 10
1312.65924
 20
850.235146
 30
0.0
  0
VERTEX
  5
64C
100
AcDbEntity
  8
止水栓
  6
EXLTYPE2
 62
     6
100
AcDbVertex
100
AcDb2dVertex
 10
1312.803283
 20
849.937295
 30
0.0
  0
VERTEX
  5
64D
100
AcDbEntity
  8
止水栓
  6
EXLTYPE2
 62
     6
100
AcDbVertex
100
AcDb2dVertex
 10
1312.961975
 20
849.666299
 30
0.0
  0
VERTEX
  5
64E
100
AcDbEntity
  8
止水栓
  6
EXLTYPE2
 62
     6
100
AcDbVertex
100
AcDb2dVertex
 10
1313.130432
 20
849.419717
 30
0.0
  0
VERTEX
  5
64F
100
AcDbEntity
  8
止水栓
  6
EXLTYPE2
 62
     6
100
AcDbVertex
100
AcDb2dVertex
 10
1313.311096
 20
849.202432
 30
0.0
  0
VERTEX
  5
650
100
AcDbEntity
  8
止水栓
  6
EXLTYPE2
 62
     6
100
AcDbVertex
100
AcDb2dVertex
 10
1313.501525
 20
849.014443
 30
0.0
  0
VERTEX
  5
651
100
AcDbEntity
  8
止水栓
  6
EXLTYPE2
 62
     6
100
AcDbVertex
100
AcDb2dVertex
 10
1313.699279
 20
848.860635
 30
0.0
  0
VERTEX
  5
652
100
AcDbEntity
  8
止水栓
  6
EXLTYPE2
 62
     6
100
AcDbVertex
100
AcDb2dVertex
 10
1313.901916
 20
848.741006
 30
0.0
  0
VERTEX
  5
653
100
AcDbEntity
  8
止水栓
  6
EXLTYPE2
 62
     6
100
AcDbVertex
100
AcDb2dVertex
 10
1314.111877
 20
848.653115
 30
0.0
  0
VERTEX
  5
654
100
AcDbEntity
  8
止水栓
  6
EXLTYPE2
 62
     6
100
AcDbVertex
100
AcDb2dVertex
 10
1314.321838
 20
848.599404
 30
0.0
  0
VERTEX
  5
655
100
AcDbEntity
  8
止水栓
  6
EXLTYPE2
 62
     6
100
AcDbVertex
100
AcDb2dVertex
 10
1314.536682
 20
848.582314
 30
0.0
  0
VERTEX
  5
656
100
AcDbEntity
  8
止水栓
  6
EXLTYPE2
 62
     6
100
AcDbVertex
100
AcDb2dVertex
 10
1314.749084
 20
848.599404
 30
0.0
  0
VERTEX
  5
657
100
AcDbEntity
  8
止水栓
  6
EXLTYPE2
 62
     6
100
AcDbVertex
100
AcDb2dVertex
 10
1314.961486
 20
848.653115
 30
0.0
  0
VERTEX
  5
658
100
AcDbEntity
  8
止水栓
  6
EXLTYPE2
 62
     6
100
AcDbVertex
100
AcDb2dVertex
 10
1315.171447
 20
848.741006
 30
0.0
  0
VERTEX
  5
659
100
AcDbEntity
  8
止水栓
  6
EXLTYPE2
 62
     6
100
AcDbVertex
100
AcDb2dVertex
 10
1315.374084
 20
848.860635
 30
0.0
  0
VERTEX
  5
65A
100
AcDbEntity
  8
止水栓
  6
EXLTYPE2
 62
     6
100
AcDbVertex
100
AcDb2dVertex
 10
1315.571838
 20
849.016885
 30
0.0
  0
VERTEX
  5
65B
100
AcDbEntity
  8
止水栓
  6
EXLTYPE2
 62
     6
100
AcDbVertex
100
AcDb2dVertex
 10
1315.759826
 20
849.202432
 30
0.0
  0
VERTEX
  5
65C
100
AcDbEntity
  8
止水栓
  6
EXLTYPE2
 62
     6
100
AcDbVertex
100
AcDb2dVertex
 10
1315.94049
 20
849.419717
 30
0.0
  0
VERTEX
  5
65D
100
AcDbEntity
  8
止水栓
  6
EXLTYPE2
 62
     6
100
AcDbVertex
100
AcDb2dVertex
 10
1316.111389
 20
849.663857
 30
0.0
  0
VERTEX
  5
65E
100
AcDbEntity
  8
止水栓
  6
EXLTYPE2
 62
     6
100
AcDbVertex
100
AcDb2dVertex
 10
1316.267639
 20
849.937295
 30
0.0
  0
VERTEX
  5
65F
100
AcDbEntity
  8
止水栓
  6
EXLTYPE2
 62
     6
100
AcDbVertex
100
AcDb2dVertex
 10
1316.411682
 20
850.235146
 30
0.0
  0
VERTEX
  5
660
100
AcDbEntity
  8
止水栓
  6
EXLTYPE2
 62
     6
100
AcDbVertex
100
AcDb2dVertex
 10
1316.543518
 20
850.557412
 30
0.0
  0
VERTEX
  5
661
100
AcDbEntity
  8
止水栓
  6
EXLTYPE2
 62
     6
100
AcDbVertex
100
AcDb2dVertex
 10
1316.658264
 20
850.896767
 30
0.0
  0
VERTEX
  5
662
100
AcDbEntity
  8
止水栓
  6
EXLTYPE2
 62
     6
100
AcDbVertex
100
AcDb2dVertex
 10
1316.75592
 20
851.255654
 30
0.0
  0
VERTEX
  5
663
100
AcDbEntity
  8
止水栓
  6
EXLTYPE2
 62
     6
100
AcDbVertex
100
AcDb2dVertex
 10
1316.836486
 20
851.626748
 30
0.0
  0
VERTEX
  5
664
100
AcDbEntity
  8
止水栓
  6
EXLTYPE2
 62
     6
100
AcDbVertex
100
AcDb2dVertex
 10
1316.902404
 20
852.01249
 30
0.0
  0
VERTEX
  5
665
100
AcDbEntity
  8
止水栓
  6
EXLTYPE2
 62
     6
100
AcDbVertex
100
AcDb2dVertex
 10
1316.948791
 20
852.407998
 30
0.0
  0
VERTEX
  5
666
100
AcDbEntity
  8
止水栓
  6
EXLTYPE2
 62
     6
100
AcDbVertex
100
AcDb2dVertex
 10
1316.975647
 20
852.808389
 30
0.0
  0
VERTEX
  5
667
100
AcDbEntity
  8
止水栓
  6
EXLTYPE2
 62
     6
100
AcDbVertex
100
AcDb2dVertex
 10
1316.985412
 20
853.211221
 30
0.0
  0
VERTEX
  5
668
100
AcDbEntity
  8
止水栓
  6
EXLTYPE2
 62
     6
100
AcDbVertex
100
AcDb2dVertex
 10
1316.975647
 20
853.614053
 30
0.0
  0
VERTEX
  5
669
100
AcDbEntity
  8
止水栓
  6
EXLTYPE2
 62
     6
100
AcDbVertex
100
AcDb2dVertex
 10
1316.948791
 20
854.014443
 30
0.0
  0
VERTEX
  5
66A
100
AcDbEntity
  8
止水栓
  6
EXLTYPE2
 62
     6
100
AcDbVertex
100
AcDb2dVertex
 10
1316.902404
 20
854.409951
 30
0.0
  0
VERTEX
  5
66B
100
AcDbEntity
  8
止水栓
  6
EXLTYPE2
 62
     6
100
AcDbVertex
100
AcDb2dVertex
 10
1316.838928
 20
854.795693
 30
0.0
  0
VERTEX
  5
66C
100
AcDbEntity
  8
止水栓
  6
EXLTYPE2
 62
     6
100
AcDbVertex
100
AcDb2dVertex
 10
1316.75592
 20
855.169228
 30
0.0
  0
VERTEX
  5
66D
100
AcDbEntity
  8
止水栓
  6
EXLTYPE2
 62
     6
100
AcDbVertex
100
AcDb2dVertex
 10
1316.658264
 20
855.528115
 30
0.0
  0
VERTEX
  5
66E
100
AcDbEntity
  8
止水栓
  6
EXLTYPE2
 62
     6
100
AcDbVertex
100
AcDb2dVertex
 10
1316.543518
 20
855.867471
 30
0.0
  0
VERTEX
  5
66F
100
AcDbEntity
  8
止水栓
  6
EXLTYPE2
 62
     6
100
AcDbVertex
100
AcDb2dVertex
 10
1316.411682
 20
856.189736
 30
0.0
  0
VERTEX
  5
670
100
AcDbEntity
  8
止水栓
  6
EXLTYPE2
 62
     6
100
AcDbVertex
100
AcDb2dVertex
 10
1316.267639
 20
856.485146
 30
0.0
  0
VERTEX
  5
671
100
AcDbEntity
  8
止水栓
  6
EXLTYPE2
 62
     6
100
AcDbVertex
100
AcDb2dVertex
 10
1316.111389
 20
856.758584
 30
0.0
  0
VERTEX
  5
672
100
AcDbEntity
  8
止水栓
  6
EXLTYPE2
 62
     6
100
AcDbVertex
100
AcDb2dVertex
 10
1315.94049
 20
857.005166
 30
0.0
  0
VERTEX
  5
673
100
AcDbEntity
  8
止水栓
  6
EXLTYPE2
 62
     6
100
AcDbVertex
100
AcDb2dVertex
 10
1315.762268
 20
857.222451
 30
0.0
  0
VERTEX
  5
674
100
AcDbEntity
  8
止水栓
  6
EXLTYPE2
 62
     6
100
AcDbVertex
100
AcDb2dVertex
 10
1315.571838
 20
857.407998
 30
0.0
  0
VERTEX
  5
675
100
AcDbEntity
  8
止水栓
  6
EXLTYPE2
 62
     6
100
AcDbVertex
100
AcDb2dVertex
 10
1315.374084
 20
857.561807
 30
0.0
  0
VERTEX
  5
676
100
AcDbEntity
  8
止水栓
  6
EXLTYPE2
 62
     6
100
AcDbVertex
100
AcDb2dVertex
 10
1315.171447
 20
857.683877
 30
0.0
  0
VERTEX
  5
677
100
AcDbEntity
  8
止水栓
  6
EXLTYPE2
 62
     6
100
AcDbVertex
100
AcDb2dVertex
 10
1314.961486
 20
857.771767
 30
0.0
  0
VERTEX
  5
678
100
AcDbEntity
  8
止水栓
  6
EXLTYPE2
 62
     6
100
AcDbVertex
100
AcDb2dVertex
 10
1314.749084
 20
857.825478
 30
0.0
  0
VERTEX
  5
679
100
AcDbEntity
  8
止水栓
  6
EXLTYPE2
 62
     6
100
AcDbVertex
100
AcDb2dVertex
 10
1314.536682
 20
857.842568
 30
0.0
  0
VERTEX
  5
67A
100
AcDbEntity
  8
止水栓
  6
EXLTYPE2
 62
     6
100
AcDbVertex
100
AcDb2dVertex
 10
1314.321838
 20
857.823037
 30
0.0
  0
VERTEX
  5
67B
100
AcDbEntity
  8
止水栓
  6
EXLTYPE2
 62
     6
100
AcDbVertex
100
AcDb2dVertex
 10
1314.111877
 20
857.771767
 30
0.0
  0
VERTEX
  5
67C
100
AcDbEntity
  8
止水栓
  6
EXLTYPE2
 62
     6
100
AcDbVertex
100
AcDb2dVertex
 10
1313.901916
 20
857.683877
 30
0.0
  0
VERTEX
  5
67D
100
AcDbEntity
  8
止水栓
  6
EXLTYPE2
 62
     6
100
AcDbVertex
100
AcDb2dVertex
 10
1313.699279
 20
857.561807
 30
0.0
  0
VERTEX
  5
67E
100
AcDbEntity
  8
止水栓
  6
EXLTYPE2
 62
     6
100
AcDbVertex
100
AcDb2dVertex
 10
1313.501525
 20
857.407998
 30
0.0
  0
SEQEND
  5
67F
100
AcDbEntity
  8
止水栓
  6
EXLTYPE2
 62
     6
  0
POLYLINE
  5
680
100
AcDbEntity
  8
止水栓
  6
EXLTYPE2
 62
     6
100
AcDb2dPolyline
 66
     1
 10
0.0
 20
0.0
 30
0.0
 70
   128
  0
VERTEX
  5
681
100
AcDbEntity
  8
止水栓
  6
EXLTYPE2
 62
     6
100
AcDbVertex
100
AcDb2dVertex
 10
1312.170959
 20
854.409951
 30
0.0
  0
VERTEX
  5
682
100
AcDbEntity
  8
止水栓
  6
EXLTYPE2
 62
     6
100
AcDbVertex
100
AcDb2dVertex
 10
1312.124572
 20
854.016885
 30
0.0
  0
VERTEX
  5
683
100
AcDbEntity
  8
止水栓
  6
EXLTYPE2
 62
     6
100
AcDbVertex
100
AcDb2dVertex
 10
1312.095275
 20
853.616494
 30
0.0
  0
VERTEX
  5
684
100
AcDbEntity
  8
止水栓
  6
EXLTYPE2
 62
     6
100
AcDbVertex
100
AcDb2dVertex
 10
1312.08551
 20
853.213662
 30
0.0
  0
SEQEND
  5
685
100
AcDbEntity
  8
止水栓
  6
EXLTYPE2
 62
     6
  0
POLYLINE
  5
686
100
AcDbEntity
  8
止水栓
  6
EXLTYPE2
 62
     6
100
AcDb2dPolyline
 66
     1
 10
0.0
 20
0.0
 30
0.0
 70
   128
  0
VERTEX
  5
687
100
AcDbEntity
  8
止水栓
  6
EXLTYPE2
 62
     6
100
AcDbVertex
100
AcDb2dVertex
 10
1313.501525
 20
857.407998
 30
0.0
  0
VERTEX
  5
688
100
AcDbEntity
  8
止水栓
  6
EXLTYPE2
 62
     6
100
AcDbVertex
100
AcDb2dVertex
 10
1313.311096
 20
857.222451
 30
0.0
  0
VERTEX
  5
689
100
AcDbEntity
  8
止水栓
  6
EXLTYPE2
 62
     6
100
AcDbVertex
100
AcDb2dVertex
 10
1313.130432
 20
857.005166
 30
0.0
  0
VERTEX
  5
68A
100
AcDbEntity
  8
止水栓
  6
EXLTYPE2
 62
     6
100
AcDbVertex
100
AcDb2dVertex
 10
1312.961975
 20
856.758584
 30
0.0
  0
VERTEX
  5
68B
100
AcDbEntity
  8
止水栓
  6
EXLTYPE2
 62
     6
100
AcDbVertex
100
AcDb2dVertex
 10
1312.803283
 20
856.485146
 30
0.0
  0
VERTEX
  5
68C
100
AcDbEntity
  8
止水栓
  6
EXLTYPE2
 62
     6
100
AcDbVertex
100
AcDb2dVertex
 10
1312.65924
 20
856.187295
 30
0.0
  0
VERTEX
  5
68D
100
AcDbEntity
  8
止水栓
  6
EXLTYPE2
 62
     6
100
AcDbVertex
100
AcDb2dVertex
 10
1312.529846
 20
855.867471
 30
0.0
  0
VERTEX
  5
68E
100
AcDbEntity
  8
止水栓
  6
EXLTYPE2
 62
     6
100
AcDbVertex
100
AcDb2dVertex
 10
1312.4151
 20
855.528115
 30
0.0
  0
VERTEX
  5
68F
100
AcDbEntity
  8
止水栓
  6
EXLTYPE2
 62
     6
100
AcDbVertex
100
AcDb2dVertex
 10
1312.315002
 20
855.169228
 30
0.0
  0
VERTEX
  5
690
100
AcDbEntity
  8
止水栓
  6
EXLTYPE2
 62
     6
100
AcDbVertex
100
AcDb2dVertex
 10
1312.234436
 20
854.795693
 30
0.0
  0
VERTEX
  5
691
100
AcDbEntity
  8
止水栓
  6
EXLTYPE2
 62
     6
100
AcDbVertex
100
AcDb2dVertex
 10
1312.170959
 20
854.409951
 30
0.0
  0
SEQEND
  5
692
100
AcDbEntity
  8
止水栓
  6
EXLTYPE2
 62
     6
  0
LINE
  5
693
100
AcDbEntity
  8
止水栓
  6
EXLTYPE2
 62
     6
100
AcDbLine
 10
1293.982971
 20
847.469033
 30
0.0
 11
1293.982971
 21
842.469033
 31
0.0
  0
POLYLINE
  5
694
100
AcDbEntity
  8
止水栓
  6
EXLTYPE2
 62
     6
100
AcDb2dPolyline
 66
     1
 10
0.0
 20
0.0
 30
0.0
 70
   128
  0
VERTEX
  5
695
100
AcDbEntity
  8
止水栓
  6
EXLTYPE2
 62
     6
100
AcDbVertex
100
AcDb2dVertex
 10
1292.070861
 20
854.510049
 30
0.0
  0
VERTEX
  5
696
100
AcDbEntity
  8
止水栓
  6
EXLTYPE2
 62
     6
100
AcDbVertex
100
AcDb2dVertex
 10
1292.024475
 20
854.085244
 30
0.0
  0
VERTEX
  5
697
100
AcDbEntity
  8
止水栓
  6
EXLTYPE2
 62
     6
100
AcDbVertex
100
AcDb2dVertex
 10
1291.997619
 20
853.653115
 30
0.0
  0
VERTEX
  5
698
100
AcDbEntity
  8
止水栓
  6
EXLTYPE2
 62
     6
100
AcDbVertex
100
AcDb2dVertex
 10
1291.987854
 20
853.218545
 30
0.0
  0
SEQEND
  5
699
100
AcDbEntity
  8
止水栓
  6
EXLTYPE2
 62
     6
  0
POLYLINE
  5
69A
100
AcDbEntity
  8
止水栓
  6
EXLTYPE2
 62
     6
100
AcDb2dPolyline
 66
     1
 10
0.0
 20
0.0
 30
0.0
 70
   128
  0
VERTEX
  5
69B
100
AcDbEntity
  8
止水栓
  6
EXLTYPE2
 62
     6
100
AcDbVertex
100
AcDb2dVertex
 10
1293.401428
 20
857.740029
 30
0.0
  0
VERTEX
  5
69C
100
AcDbEntity
  8
止水栓
  6
EXLTYPE2
 62
     6
100
AcDbVertex
100
AcDb2dVertex
 10
1293.21344
 20
857.539834
 30
0.0
  0
VERTEX
  5
69D
100
AcDbEntity
  8
止水栓
  6
EXLTYPE2
 62
     6
100
AcDbVertex
100
AcDb2dVertex
 10
1293.032775
 20
857.305459
 30
0.0
  0
VERTEX
  5
69E
100
AcDbEntity
  8
止水栓
  6
EXLTYPE2
 62
     6
100
AcDbVertex
100
AcDb2dVertex
 10
1292.861877
 20
857.041787
 30
0.0
  0
VERTEX
  5
69F
100
AcDbEntity
  8
止水栓
  6
EXLTYPE2
 62
     6
100
AcDbVertex
100
AcDb2dVertex
 10
1292.705627
 20
856.746377
 30
0.0
  0
VERTEX
  5
6A0
100
AcDbEntity
  8
止水栓
  6
EXLTYPE2
 62
     6
100
AcDbVertex
100
AcDb2dVertex
 10
1292.561584
 20
856.426553
 30
0.0
  0
VERTEX
  5
6A1
100
AcDbEntity
  8
止水栓
  6
EXLTYPE2
 62
     6
100
AcDbVertex
100
AcDb2dVertex
 10
1292.429748
 20
856.079873
 30
0.0
  0
VERTEX
  5
6A2
100
AcDbEntity
  8
止水栓
  6
EXLTYPE2
 62
     6
100
AcDbVertex
100
AcDb2dVertex
 10
1292.315002
 20
855.713662
 30
0.0
  0
VERTEX
  5
6A3
100
AcDbEntity
  8
止水栓
  6
EXLTYPE2
 62
     6
100
AcDbVertex
100
AcDb2dVertex
 10
1292.217346
 20
855.32792
 30
0.0
  0
VERTEX
  5
6A4
100
AcDbEntity
  8
止水栓
  6
EXLTYPE2
 62
     6
100
AcDbVertex
100
AcDb2dVertex
 10
1292.136779
 20
854.925088
 30
0.0
  0
VERTEX
  5
6A5
100
AcDbEntity
  8
止水栓
  6
EXLTYPE2
 62
     6
100
AcDbVertex
100
AcDb2dVertex
 10
1292.070861
 20
854.510049
 30
0.0
  0
SEQEND
  5
6A6
100
AcDbEntity
  8
止水栓
  6
EXLTYPE2
 62
     6
  0
ARC
  5
6A7
100
AcDbEntity
  8
止水栓
  6
EXLTYPE2
 62
     6
100
AcDbCircle
 10
1302.732483
 20
853.47001
 30
0.0
 40
10.998535
100
AcDbArc
 50
146.94841
 51
213.059082
  0
LINE
  5
6A8
100
AcDbEntity
  8
止水栓
  6
EXLTYPE2
 62
     6
100
AcDbLine
 10
1293.982971
 20
842.469033
 30
0.0
 11
1314.982971
 21
842.469033
 31
0.0
  0
LINE
  5
6A9
100
AcDbEntity
  8
止水栓
  6
EXLTYPE2
 62
     6
100
AcDbLine
 10
1293.513733
 20
847.469033
 30
0.0
 11
1315.452209
 21
847.469033
 31
0.0
  0
POLYLINE
  5
6AA
100
AcDbEntity
  8
止水栓
  6
EXLTYPE2
 62
     6
100
AcDb2dPolyline
 66
     1
 10
0.0
 20
0.0
 30
0.0
 70
   128
  0
VERTEX
  5
6AB
100
AcDbEntity
  8
止水栓
  6
EXLTYPE2
 62
     6
100
AcDbVertex
100
AcDb2dVertex
 10
1291.987854
 20
853.218545
 30
0.0
  0
VERTEX
  5
6AC
100
AcDbEntity
  8
止水栓
  6
EXLTYPE2
 62
     6
100
AcDbVertex
100
AcDb2dVertex
 10
1291.997619
 20
852.781533
 30
0.0
  0
VERTEX
  5
6AD
100
AcDbEntity
  8
止水栓
  6
EXLTYPE2
 62
     6
100
AcDbVertex
100
AcDb2dVertex
 10
1292.024475
 20
852.349404
 30
0.0
  0
VERTEX
  5
6AE
100
AcDbEntity
  8
止水栓
  6
EXLTYPE2
 62
     6
100
AcDbVertex
100
AcDb2dVertex
 10
1292.070861
 20
851.924599
 30
0.0
  0
VERTEX
  5
6AF
100
AcDbEntity
  8
止水栓
  6
EXLTYPE2
 62
     6
100
AcDbVertex
100
AcDb2dVertex
 10
1292.136779
 20
851.50956
 30
0.0
  0
VERTEX
  5
6B0
100
AcDbEntity
  8
止水栓
  6
EXLTYPE2
 62
     6
100
AcDbVertex
100
AcDb2dVertex
 10
1292.217346
 20
851.10917
 30
0.0
  0
VERTEX
  5
6B1
100
AcDbEntity
  8
止水栓
  6
EXLTYPE2
 62
     6
100
AcDbVertex
100
AcDb2dVertex
 10
1292.315002
 20
850.723428
 30
0.0
  0
VERTEX
  5
6B2
100
AcDbEntity
  8
止水栓
  6
EXLTYPE2
 62
     6
100
AcDbVertex
100
AcDb2dVertex
 10
1292.43219
 20
850.354775
 30
0.0
  0
VERTEX
  5
6B3
100
AcDbEntity
  8
止水栓
  6
EXLTYPE2
 62
     6
100
AcDbVertex
100
AcDb2dVertex
 10
1292.561584
 20
850.010537
 30
0.0
  0
VERTEX
  5
6B4
100
AcDbEntity
  8
止水栓
  6
EXLTYPE2
 62
     6
100
AcDbVertex
100
AcDb2dVertex
 10
1292.705627
 20
849.688271
 30
0.0
  0
VERTEX
  5
6B5
100
AcDbEntity
  8
止水栓
  6
EXLTYPE2
 62
     6
100
AcDbVertex
100
AcDb2dVertex
 10
1292.864318
 20
849.395303
 30
0.0
  0
VERTEX
  5
6B6
100
AcDbEntity
  8
止水栓
  6
EXLTYPE2
 62
     6
100
AcDbVertex
100
AcDb2dVertex
 10
1293.032775
 20
849.129189
 30
0.0
  0
VERTEX
  5
6B7
100
AcDbEntity
  8
止水栓
  6
EXLTYPE2
 62
     6
100
AcDbVertex
100
AcDb2dVertex
 10
1293.21344
 20
848.897256
 30
0.0
  0
VERTEX
  5
6B8
100
AcDbEntity
  8
止水栓
  6
EXLTYPE2
 62
     6
100
AcDbVertex
100
AcDb2dVertex
 10
1293.401428
 20
848.694619
 30
0.0
  0
VERTEX
  5
6B9
100
AcDbEntity
  8
止水栓
  6
EXLTYPE2
 62
     6
100
AcDbVertex
100
AcDb2dVertex
 10
1293.599182
 20
848.528603
 30
0.0
  0
VERTEX
  5
6BA
100
AcDbEntity
  8
止水栓
  6
EXLTYPE2
 62
     6
100
AcDbVertex
100
AcDb2dVertex
 10
1293.80426
 20
848.396767
 30
0.0
  0
VERTEX
  5
6BB
100
AcDbEntity
  8
止水栓
  6
EXLTYPE2
 62
     6
100
AcDbVertex
100
AcDb2dVertex
 10
1294.011779
 20
848.303994
 30
0.0
  0
VERTEX
  5
6BC
100
AcDbEntity
  8
止水栓
  6
EXLTYPE2
 62
     6
100
AcDbVertex
100
AcDb2dVertex
 10
1294.224182
 20
848.2454
 30
0.0
  0
VERTEX
  5
6BD
100
AcDbEntity
  8
止水栓
  6
EXLTYPE2
 62
     6
100
AcDbVertex
100
AcDb2dVertex
 10
1294.436584
 20
848.22831
 30
0.0
  0
VERTEX
  5
6BE
100
AcDbEntity
  8
止水栓
  6
EXLTYPE2
 62
     6
100
AcDbVertex
100
AcDb2dVertex
 10
1294.651428
 20
848.247842
 30
0.0
  0
VERTEX
  5
6BF
100
AcDbEntity
  8
止水栓
  6
EXLTYPE2
 62
     6
100
AcDbVertex
100
AcDb2dVertex
 10
1294.86383
 20
848.303994
 30
0.0
  0
VERTEX
  5
6C0
100
AcDbEntity
  8
止水栓
  6
EXLTYPE2
 62
     6
100
AcDbVertex
100
AcDb2dVertex
 10
1295.07135
 20
848.396767
 30
0.0
  0
VERTEX
  5
6C1
100
AcDbEntity
  8
止水栓
  6
EXLTYPE2
 62
     6
100
AcDbVertex
100
AcDb2dVertex
 10
1295.276428
 20
848.528603
 30
0.0
  0
VERTEX
  5
6C2
100
AcDbEntity
  8
止水栓
  6
EXLTYPE2
 62
     6
100
AcDbVertex
100
AcDb2dVertex
 10
1295.474182
 20
848.694619
 30
0.0
  0
VERTEX
  5
6C3
100
AcDbEntity
  8
止水栓
  6
EXLTYPE2
 62
     6
100
AcDbVertex
100
AcDb2dVertex
 10
1295.66217
 20
848.897256
 30
0.0
  0
VERTEX
  5
6C4
100
AcDbEntity
  8
止水栓
  6
EXLTYPE2
 62
     6
100
AcDbVertex
100
AcDb2dVertex
 10
1295.842834
 20
849.131631
 30
0.0
  0
VERTEX
  5
6C5
100
AcDbEntity
  8
止水栓
  6
EXLTYPE2
 62
     6
100
AcDbVertex
100
AcDb2dVertex
 10
1296.011291
 20
849.395303
 30
0.0
  0
VERTEX
  5
6C6
100
AcDbEntity
  8
止水栓
  6
EXLTYPE2
 62
     6
100
AcDbVertex
100
AcDb2dVertex
 10
1296.169983
 20
849.688271
 30
0.0
  0
VERTEX
  5
6C7
100
AcDbEntity
  8
止水栓
  6
EXLTYPE2
 62
     6
100
AcDbVertex
100
AcDb2dVertex
 10
1296.314025
 20
850.010537
 30
0.0
  0
VERTEX
  5
6C8
100
AcDbEntity
  8
止水栓
  6
EXLTYPE2
 62
     6
100
AcDbVertex
100
AcDb2dVertex
 10
1296.44342
 20
850.354775
 30
0.0
  0
VERTEX
  5
6C9
100
AcDbEntity
  8
止水栓
  6
EXLTYPE2
 62
     6
100
AcDbVertex
100
AcDb2dVertex
 10
1296.558166
 20
850.723428
 30
0.0
  0
VERTEX
  5
6CA
100
AcDbEntity
  8
止水栓
  6
EXLTYPE2
 62
     6
100
AcDbVertex
100
AcDb2dVertex
 10
1296.658264
 20
851.10917
 30
0.0
  0
VERTEX
  5
6CB
100
AcDbEntity
  8
止水栓
  6
EXLTYPE2
 62
     6
100
AcDbVertex
100
AcDb2dVertex
 10
1296.73883
 20
851.512002
 30
0.0
  0
VERTEX
  5
6CC
100
AcDbEntity
  8
止水栓
  6
EXLTYPE2
 62
     6
100
AcDbVertex
100
AcDb2dVertex
 10
1296.804748
 20
851.927041
 30
0.0
  0
VERTEX
  5
6CD
100
AcDbEntity
  8
止水栓
  6
EXLTYPE2
 62
     6
100
AcDbVertex
100
AcDb2dVertex
 10
1296.851135
 20
852.351846
 30
0.0
  0
VERTEX
  5
6CE
100
AcDbEntity
  8
止水栓
  6
EXLTYPE2
 62
     6
100
AcDbVertex
100
AcDb2dVertex
 10
1296.87799
 20
852.783974
 30
0.0
  0
VERTEX
  5
6CF
100
AcDbEntity
  8
止水栓
  6
EXLTYPE2
 62
     6
100
AcDbVertex
100
AcDb2dVertex
 10
1296.887756
 20
853.218545
 30
0.0
  0
VERTEX
  5
6D0
100
AcDbEntity
  8
止水栓
  6
EXLTYPE2
 62
     6
100
AcDbVertex
100
AcDb2dVertex
 10
1296.87799
 20
853.653115
 30
0.0
  0
VERTEX
  5
6D1
100
AcDbEntity
  8
止水栓
  6
EXLTYPE2
 62
     6
100
AcDbVertex
100
AcDb2dVertex
 10
1296.848693
 20
854.085244
 30
0.0
  0
VERTEX
  5
6D2
100
AcDbEntity
  8
止水栓
  6
EXLTYPE2
 62
     6
100
AcDbVertex
100
AcDb2dVertex
 10
1296.802307
 20
854.510049
 30
0.0
  0
VERTEX
  5
6D3
100
AcDbEntity
  8
止水栓
  6
EXLTYPE2
 62
     6
100
AcDbVertex
100
AcDb2dVertex
 10
1296.73883
 20
854.925088
 30
0.0
  0
VERTEX
  5
6D4
100
AcDbEntity
  8
止水栓
  6
EXLTYPE2
 62
     6
100
AcDbVertex
100
AcDb2dVertex
 10
1296.658264
 20
855.32792
 30
0.0
  0
VERTEX
  5
6D5
100
AcDbEntity
  8
止水栓
  6
EXLTYPE2
 62
     6
100
AcDbVertex
100
AcDb2dVertex
 10
1296.558166
 20
855.713662
 30
0.0
  0
VERTEX
  5
6D6
100
AcDbEntity
  8
止水栓
  6
EXLTYPE2
 62
     6
100
AcDbVertex
100
AcDb2dVertex
 10
1296.44342
 20
856.079873
 30
0.0
  0
VERTEX
  5
6D7
100
AcDbEntity
  8
止水栓
  6
EXLTYPE2
 62
     6
100
AcDbVertex
100
AcDb2dVertex
 10
1296.314025
 20
856.426553
 30
0.0
  0
VERTEX
  5
6D8
100
AcDbEntity
  8
止水栓
  6
EXLTYPE2
 62
     6
100
AcDbVertex
100
AcDb2dVertex
 10
1296.169983
 20
856.746377
 30
0.0
  0
VERTEX
  5
6D9
100
AcDbEntity
  8
止水栓
  6
EXLTYPE2
 62
     6
100
AcDbVertex
100
AcDb2dVertex
 10
1296.011291
 20
857.041787
 30
0.0
  0
VERTEX
  5
6DA
100
AcDbEntity
  8
止水栓
  6
EXLTYPE2
 62
     6
100
AcDbVertex
100
AcDb2dVertex
 10
1295.842834
 20
857.305459
 30
0.0
  0
VERTEX
  5
6DB
100
AcDbEntity
  8
止水栓
  6
EXLTYPE2
 62
     6
100
AcDbVertex
100
AcDb2dVertex
 10
1295.66217
 20
857.539834
 30
0.0
  0
VERTEX
  5
6DC
100
AcDbEntity
  8
止水栓
  6
EXLTYPE2
 62
     6
100
AcDbVertex
100
AcDb2dVertex
 10
1295.474182
 20
857.740029
 30
0.0
  0
VERTEX
  5
6DD
100
AcDbEntity
  8
止水栓
  6
EXLTYPE2
 62
     6
100
AcDbVertex
100
AcDb2dVertex
 10
1295.276428
 20
857.908486
 30
0.0
  0
VERTEX
  5
6DE
100
AcDbEntity
  8
止水栓
  6
EXLTYPE2
 62
     6
100
AcDbVertex
100
AcDb2dVertex
 10
1295.07135
 20
858.037881
 30
0.0
  0
VERTEX
  5
6DF
100
AcDbEntity
  8
止水栓
  6
EXLTYPE2
 62
     6
100
AcDbVertex
100
AcDb2dVertex
 10
1294.86383
 20
858.133096
 30
0.0
  0
VERTEX
  5
6E0
100
AcDbEntity
  8
止水栓
  6
EXLTYPE2
 62
     6
100
AcDbVertex
100
AcDb2dVertex
 10
1294.651428
 20
858.189248
 30
0.0
  0
VERTEX
  5
6E1
100
AcDbEntity
  8
止水栓
  6
EXLTYPE2
 62
     6
100
AcDbVertex
100
AcDb2dVertex
 10
1294.436584
 20
858.208779
 30
0.0
  0
VERTEX
  5
6E2
100
AcDbEntity
  8
止水栓
  6
EXLTYPE2
 62
     6
100
AcDbVertex
100
AcDb2dVertex
 10
1294.224182
 20
858.189248
 30
0.0
  0
VERTEX
  5
6E3
100
AcDbEntity
  8
止水栓
  6
EXLTYPE2
 62
     6
100
AcDbVertex
100
AcDb2dVertex
 10
1294.011779
 20
858.133096
 30
0.0
  0
VERTEX
  5
6E4
100
AcDbEntity
  8
止水栓
  6
EXLTYPE2
 62
     6
100
AcDbVertex
100
AcDb2dVertex
 10
1293.80426
 20
858.037881
 30
0.0
  0
VERTEX
  5
6E5
100
AcDbEntity
  8
止水栓
  6
EXLTYPE2
 62
     6
100
AcDbVertex
100
AcDb2dVertex
 10
1293.599182
 20
857.908486
 30
0.0
  0
VERTEX
  5
6E6
100
AcDbEntity
  8
止水栓
  6
EXLTYPE2
 62
     6
100
AcDbVertex
100
AcDb2dVertex
 10
1293.401428
 20
857.740029
 30
0.0
  0
SEQEND
  5
6E7
100
AcDbEntity
  8
止水栓
  6
EXLTYPE2
 62
     6
  0
LINE
  5
6E8
100
AcDbEntity
  8
便座
  6
EXLTYPE3
 62
     6
100
AcDbLine
 10
444.0
 20
2226.999984
 30
0.0
 11
306.5
 21
2226.999984
 31
0.0
  0
LINE
  5
6E9
100
AcDbEntity
  8
便座
  6
CONTINUOUS
 62
     6
100
AcDbLine
 10
589.499916
 20
2614.499968
 30
0.0
 11
609.974919
 21
2614.499981
 31
0.0
  0
LINE
  5
6EA
100
AcDbEntity
  8
便座
  6
CONTINUOUS
 62
     6
100
AcDbLine
 10
589.499916
 20
2439.5
 30
0.0
 11
609.974919
 21
2439.499988
 31
0.0
  0
LINE
  5
6EB
100
AcDbEntity
  8
便座
  6
CONTINUOUS
 62
     6
100
AcDbLine
 10
589.49992
 20
2491.833449
 30
0.0
 11
589.49992
 21
2421.001052
 31
0.0
  0
ARC
  5
6EC
100
AcDbEntity
  8
便座
  6
CONTINUOUS
 62
     6
100
AcDbCircle
 10
776.99992
 20
2179.999984
 30
0.0
 40
530.0
100
AcDbArc
 50
74.521925
 51
90.0
  0
ARC
  5
6ED
100
AcDbEntity
  8
便座
  6
CONTINUOUS
 62
     6
100
AcDbCircle
 10
776.99992
 20
2229.999984
 30
0.0
 40
480.0
100
AcDbArc
 50
90.0
 51
106.511925
  0
ARC
  5
6EE
100
AcDbEntity
  8
便座
  6
CONTINUOUS
 62
     6
100
AcDbCircle
 10
1607.977873
 20
2526.999984
 30
0.0
 40
1000.0
100
AcDbArc
 50
178.088381
 51
181.911438
  0
ARC
  5
6EF
100
AcDbEntity
  8
便座
  6
CONTINUOUS
 62
     6
100
AcDbCircle
 10
849.054717
 20
2613.792171
 30
0.0
 40
260.0
100
AcDbArc
 50
285.478075
 51
310.998954
  0
ARC
  5
6F0
100
AcDbEntity
  8
便座
  6
CONTINUOUS
 62
     6
100
AcDbCircle
 10
776.99992
 20
2873.999984
 30
0.0
 40
530.0
100
AcDbArc
 50
270.0
 51
285.478075
  0
ARC
  5
6F1
100
AcDbEntity
  8
便座
  6
CONTINUOUS
 62
     6
100
AcDbCircle
 10
651.945365
 20
2402.14532
 30
0.0
 40
40.0
100
AcDbArc
 50
183.543389
 51
253.488075
  0
ARC
  5
6F2
100
AcDbEntity
  8
便座
  6
CONTINUOUS
 62
     6
100
AcDbCircle
 10
776.99992
 20
2823.999984
 30
0.0
 40
480.0
100
AcDbArc
 50
253.488075
 51
270.0
  0
ARC
  5
6F3
100
AcDbEntity
  8
便座
  6
CONTINUOUS
 62
     6
100
AcDbCircle
 10
651.945365
 20
2651.854649
 30
0.0
 40
40.0
100
AcDbArc
 50
106.511925
 51
176.456611
  0
ARC
  5
6F4
100
AcDbEntity
  8
便座
  6
CONTINUOUS
 62
     6
100
AcDbCircle
 10
849.054717
 20
2440.207798
 30
0.0
 40
260.0
100
AcDbArc
 50
49.001046
 51
74.521925
  0
ARC
  5
6F5
100
AcDbEntity
  8
便座
  6
CONTINUOUS
 62
     6
100
AcDbCircle
 10
2508.389521
 20
2536.898463
 30
0.0
 40
1900.0
100
AcDbArc
 50
176.464756
 51
179.299805
  0
ARC
  5
6F6
100
AcDbEntity
  8
便座
  6
CONTINUOUS
 62
     6
100
AcDbCircle
 10
2508.389521
 20
2517.101505
 30
0.0
 40
1900.0
100
AcDbArc
 50
180.700195
 51
183.535244
  0
ARC
  5
6F7
100
AcDbEntity
  8
便座
  6
CONTINUOUS
 62
     6
100
AcDbCircle
 10
924.49992
 20
2527.000777
 30
0.0
 40
145.0
100
AcDbArc
 50
359.999687
 51
49.253174
  0
ARC
  5
6F8
100
AcDbEntity
  8
便座
  6
CONTINUOUS
 62
     6
100
AcDbCircle
 10
924.49992
 20
2526.999191
 30
0.0
 40
145.0
100
AcDbArc
 50
310.746826
 51
0.000313
  0
LINE
  5
6F9
100
AcDbEntity
  8
便座
  6
CONTINUOUS
 62
     6
100
AcDbLine
 10
589.49992
 20
2562.166519
 30
0.0
 11
589.49992
 21
2632.998916
 31
0.0
  0
LINE
  5
6FA
100
AcDbEntity
  8
便座
  6
CONTINUOUS
 62
     6
100
AcDbLine
 10
554.667523
 20
2457.001052
 30
0.0
 11
625.49992
 21
2457.001052
 31
0.0
  0
LINE
  5
6FB
100
AcDbEntity
  8
便座
  6
CONTINUOUS
 62
     6
100
AcDbLine
 10
554.667523
 20
2596.998916
 30
0.0
 11
625.49992
 21
2596.998916
 31
0.0
  0
ARC
  5
6FC
100
AcDbEntity
  8
便座
  6
CONTINUOUS
 62
     6
100
AcDbCircle
 10
589.49992
 20
2457.001052
 30
0.0
 40
17.5
100
AcDbArc
 50
200.051043
 51
270.000061
  0
ARC
  5
6FD
100
AcDbEntity
  8
便座
  6
CONTINUOUS
 62
     6
100
AcDbCircle
 10
589.49992
 20
2457.001052
 30
0.0
 40
17.5
100
AcDbArc
 50
89.999924
 51
159.948957
  0
ARC
  5
6FE
100
AcDbEntity
  8
便座
  6
CONTINUOUS
 62
     6
100
AcDbCircle
 10
589.49992
 20
2596.998916
 30
0.0
 40
17.5
100
AcDbArc
 50
200.051043
 51
270.000076
  0
ARC
  5
6FF
100
AcDbEntity
  8
便座
  6
CONTINUOUS
 62
     6
100
AcDbCircle
 10
589.49992
 20
2596.998916
 30
0.0
 40
17.5
100
AcDbArc
 50
89.999939
 51
159.948957
  0
ARC
  5
700
100
AcDbEntity
  8
便座
  6
CONTINUOUS
 62
     6
100
AcDbCircle
 10
570.499935
 20
2457.001052
 30
0.0
 40
6.0
100
AcDbArc
 50
90.0
 51
270.0
  0
ARC
  5
701
100
AcDbEntity
  8
便座
  6
CONTINUOUS
 62
     6
100
AcDbCircle
 10
570.499935
 20
2596.998916
 30
0.0
 40
6.0
100
AcDbArc
 50
90.0
 51
270.0
  0
LINE
  5
702
100
AcDbEntity
  8
便座
  6
CONTINUOUS
 62
     6
100
AcDbLine
 10
580.499935
 20
2451.001052
 30
0.0
 11
570.499935
 21
2451.001052
 31
0.0
  0
LINE
  5
703
100
AcDbEntity
  8
便座
  6
CONTINUOUS
 62
     6
100
AcDbLine
 10
580.499935
 20
2463.001052
 30
0.0
 11
570.499935
 21
2463.001052
 31
0.0
  0
LINE
  5
704
100
AcDbEntity
  8
便座
  6
CONTINUOUS
 62
     6
100
AcDbLine
 10
580.499935
 20
2590.998916
 30
0.0
 11
570.499935
 21
2590.998916
 31
0.0
  0
LINE
  5
705
100
AcDbEntity
  8
便座
  6
CONTINUOUS
 62
     6
100
AcDbLine
 10
580.499935
 20
2602.998916
 30
0.0
 11
570.499935
 21
2602.998916
 31
0.0
  0
ARC
  5
706
100
AcDbEntity
  8
便座
  6
CONTINUOUS
 62
     6
100
AcDbCircle
 10
589.49992
 20
2457.001052
 30
0.0
 40
16.0
100
AcDbArc
 50
202.024313
 51
157.975687
  0
ARC
  5
707
100
AcDbEntity
  8
便座
  6
CONTINUOUS
 62
     6
100
AcDbCircle
 10
589.49992
 20
2596.998916
 30
0.0
 40
16.0
100
AcDbArc
 50
202.024313
 51
157.975687
  0
LINE
  5
708
100
AcDbEntity
  8
便座
  6
CONTINUOUS
 62
     6
100
AcDbLine
 10
608.867245
 20
2579.499966
 30
0.0
 11
589.49994
 21
2579.499968
 31
0.0
  0
LINE
  5
709
100
AcDbEntity
  8
便座
  6
CONTINUOUS
 62
     6
100
AcDbLine
 10
608.867245
 20
2474.500001
 30
0.0
 11
589.49994
 21
2474.5
 31
0.0
  0
ARC
  5
70A
100
AcDbEntity
  8
便座
  6
CONTINUOUS
 62
     6
100
AcDbCircle
 10
589.49992
 20
925.705841
 30
0.0
 40
12.5
100
AcDbArc
 50
0.0
 51
40.089928
  0
ARC
  5
70B
100
AcDbEntity
  8
便座
  6
CONTINUOUS
 62
     6
100
AcDbCircle
 10
589.49992
 20
925.705841
 30
0.0
 40
12.5
100
AcDbArc
 50
135.42374
 51
180.0
  0
ARC
  5
70C
100
AcDbEntity
  8
便座
  6
CONTINUOUS
 62
     6
100
AcDbCircle
 10
601.49992
 20
922.705841
 30
0.0
 40
1.0
100
AcDbArc
 50
270.0
 51
0.0
  0
ARC
  5
70D
100
AcDbEntity
  8
便座
  6
CONTINUOUS
 62
     6
100
AcDbCircle
 10
601.49992
 20
923.705841
 30
0.0
 40
1.0
100
AcDbArc
 50
0.0
 51
90.0
  0
LINE
  5
70E
100
AcDbEntity
  8
便座
  6
CONTINUOUS
 62
     6
100
AcDbLine
 10
602.49992
 20
923.705841
 30
0.0
 11
602.49992
 21
922.705841
 31
0.0
  0
ARC
  5
70F
100
AcDbEntity
  8
便座
  6
CONTINUOUS
 62
     6
100
AcDbCircle
 10
602.19992
 20
925.405841
 30
0.0
 40
0.3
100
AcDbArc
 50
0.0
 51
90.0
  0
ARC
  5
710
100
AcDbEntity
  8
便座
  6
CONTINUOUS
 62
     6
100
AcDbCircle
 10
602.19992
 20
925.005841
 30
0.0
 40
0.3
100
AcDbArc
 50
270.0
 51
0.0
  0
LINE
  5
711
100
AcDbEntity
  8
便座
  6
CONTINUOUS
 62
     6
100
AcDbLine
 10
602.49992
 20
925.005841
 30
0.0
 11
602.49992
 21
925.405841
 31
0.0
  0
ARC
  5
712
100
AcDbEntity
  8
便座
  6
CONTINUOUS
 62
     6
100
AcDbCircle
 10
594.24992
 20
920.705841
 30
0.0
 40
1.0
100
AcDbArc
 50
90.0
 51
180.0
  0
ARC
  5
713
100
AcDbEntity
  8
便座
  6
CONTINUOUS
 62
     6
100
AcDbCircle
 10
591.49992
 20
910.205841
 30
0.0
 40
0.5
100
AcDbArc
 50
0.0
 51
90.0
  0
LINE
  5
714
100
AcDbEntity
  8
便座
  6
CONTINUOUS
 62
     6
100
AcDbLine
 10
576.49992
 20
925.005841
 30
0.0
 11
576.49992
 21
925.405841
 31
0.0
  0
ARC
  5
715
100
AcDbEntity
  8
便座
  6
CONTINUOUS
 62
     6
100
AcDbCircle
 10
576.79992
 20
925.005841
 30
0.0
 40
0.3
100
AcDbArc
 50
180.0
 51
270.0
  0
ARC
  5
716
100
AcDbEntity
  8
便座
  6
CONTINUOUS
 62
     6
100
AcDbCircle
 10
576.79992
 20
925.405841
 30
0.0
 40
0.3
100
AcDbArc
 50
90.0
 51
180.0
  0
ARC
  5
717
100
AcDbEntity
  8
便座
  6
CONTINUOUS
 62
     6
100
AcDbCircle
 10
587.49992
 20
910.205841
 30
0.0
 40
0.5
100
AcDbArc
 50
90.0
 51
180.0
  0
LINE
  5
718
100
AcDbEntity
  8
便座
  6
CONTINUOUS
 62
     6
100
AcDbLine
 10
576.49992
 20
923.705841
 30
0.0
 11
576.49992
 21
922.705841
 31
0.0
  0
LINE
  5
719
100
AcDbEntity
  8
便座
  6
CONTINUOUS
 62
     6
100
AcDbLine
 10
577.49992
 20
921.705841
 30
0.0
 11
584.74992
 21
921.705841
 31
0.0
  0
LINE
  5
71A
100
AcDbEntity
  8
便座
  6
CONTINUOUS
 62
     6
100
AcDbLine
 10
585.74992
 20
911.205841
 30
0.0
 11
577.99992
 21
911.205841
 31
0.0
  0
LINE
  5
71B
100
AcDbEntity
  8
便座
  6
CONTINUOUS
 62
     6
100
AcDbLine
 10
585.74992
 20
913.705841
 30
0.0
 11
577.99992
 21
913.705841
 31
0.0
  0
LINE
  5
71C
100
AcDbEntity
  8
便座
  6
CONTINUOUS
 62
     6
100
AcDbLine
 10
585.74992
 20
916.205841
 30
0.0
 11
577.99992
 21
916.205841
 31
0.0
  0
LINE
  5
71D
100
AcDbEntity
  8
便座
  6
CONTINUOUS
 62
     6
100
AcDbLine
 10
585.74992
 20
918.705841
 30
0.0
 11
577.99992
 21
918.705841
 31
0.0
  0
ARC
  5
71E
100
AcDbEntity
  8
便座
  6
CONTINUOUS
 62
     6
100
AcDbCircle
 10
584.74992
 20
920.705841
 30
0.0
 40
1.0
100
AcDbArc
 50
0.0
 51
90.0
  0
ARC
  5
71F
100
AcDbEntity
  8
便座
  6
CONTINUOUS
 62
     6
100
AcDbCircle
 10
577.49992
 20
923.705841
 30
0.0
 40
1.0
100
AcDbArc
 50
90.0
 51
180.0
  0
ARC
  5
720
100
AcDbEntity
  8
便座
  6
CONTINUOUS
 62
     6
100
AcDbCircle
 10
577.49992
 20
922.705841
 30
0.0
 40
1.0
100
AcDbArc
 50
180.0
 51
270.0
  0
LINE
  5
721
100
AcDbEntity
  8
便座
  6
CONTINUOUS
 62
     6
100
AcDbLine
 10
587.49992
 20
910.705841
 30
0.0
 11
591.49992
 21
910.705841
 31
0.0
  0
LINE
  5
722
100
AcDbEntity
  8
便座
  6
CONTINUOUS
 62
     6
100
AcDbLine
 10
593.24992
 20
918.705841
 30
0.0
 11
600.99992
 21
918.705841
 31
0.0
  0
LINE
  5
723
100
AcDbEntity
  8
便座
  6
CONTINUOUS
 62
     6
100
AcDbLine
 10
593.24992
 20
916.205841
 30
0.0
 11
600.99992
 21
916.205841
 31
0.0
  0
LINE
  5
724
100
AcDbEntity
  8
便座
  6
CONTINUOUS
 62
     6
100
AcDbLine
 10
593.24992
 20
913.705841
 30
0.0
 11
600.99992
 21
913.705841
 31
0.0
  0
LINE
  5
725
100
AcDbEntity
  8
便座
  6
CONTINUOUS
 62
     6
100
AcDbLine
 10
593.24992
 20
911.205841
 30
0.0
 11
600.99992
 21
911.205841
 31
0.0
  0
LINE
  5
726
100
AcDbEntity
  8
便座
  6
CONTINUOUS
 62
     6
100
AcDbLine
 10
601.49992
 20
921.705841
 30
0.0
 11
594.24992
 21
921.705841
 31
0.0
  0
LINE
  5
727
100
AcDbEntity
  8
便座
  6
CONTINUOUS
 62
     6
100
AcDbLine
 10
577.49992
 20
924.705841
 30
0.0
 11
601.49992
 21
924.705841
 31
0.0
  0
LINE
  5
728
100
AcDbEntity
  8
便座
  6
CONTINUOUS
 62
     6
100
AcDbLine
 10
576.99992
 20
925.705841
 30
0.0
 11
601.99992
 21
925.705841
 31
0.0
  0
LINE
  5
729
100
AcDbEntity
  8
便座
  6
CONTINUOUS
 62
     6
100
AcDbLine
 10
576.79992
 20
925.705841
 30
0.0
 11
602.19992
 21
925.705841
 31
0.0
  0
LINE
  5
72A
100
AcDbEntity
  8
便座
  6
CONTINUOUS
 62
     6
100
AcDbLine
 10
576.79992
 20
924.705841
 30
0.0
 11
602.19992
 21
924.705841
 31
0.0
  0
ARC
  5
72B
100
AcDbEntity
  8
便座
  6
CONTINUOUS
 62
     6
100
AcDbCircle
 10
599.99992
 20
905.205841
 30
0.0
 40
1.0
100
AcDbArc
 50
270.0
 51
0.0
  0
ARC
  5
72C
100
AcDbEntity
  8
便座
  6
CONTINUOUS
 62
     6
100
AcDbCircle
 10
592.24992
 20
905.205841
 30
0.0
 40
1.0
100
AcDbArc
 50
270.0
 51
0.0
  0
LINE
  5
72D
100
AcDbEntity
  8
便座
  6
CONTINUOUS
 62
     6
100
AcDbLine
 10
585.74992
 20
906.205841
 30
0.0
 11
577.99992
 21
906.205841
 31
0.0
  0
LINE
  5
72E
100
AcDbEntity
  8
便座
  6
CONTINUOUS
 62
     6
100
AcDbLine
 10
585.74992
 20
908.705841
 30
0.0
 11
577.99992
 21
908.705841
 31
0.0
  0
ARC
  5
72F
100
AcDbEntity
  8
便座
  6
CONTINUOUS
 62
     6
100
AcDbCircle
 10
586.74992
 20
905.205841
 30
0.0
 40
1.0
100
AcDbArc
 50
180.0
 51
270.0
  0
ARC
  5
730
100
AcDbEntity
  8
便座
  6
CONTINUOUS
 62
     6
100
AcDbCircle
 10
578.99992
 20
905.205841
 30
0.0
 40
1.0
100
AcDbArc
 50
180.0
 51
270.0
  0
LINE
  5
731
100
AcDbEntity
  8
便座
  6
CONTINUOUS
 62
     6
100
AcDbLine
 10
593.24992
 20
908.705841
 30
0.0
 11
600.99992
 21
908.705841
 31
0.0
  0
LINE
  5
732
100
AcDbEntity
  8
便座
  6
CONTINUOUS
 62
     6
100
AcDbLine
 10
593.24992
 20
906.205841
 30
0.0
 11
600.99992
 21
906.205841
 31
0.0
  0
LINE
  5
733
100
AcDbEntity
  8
便座
  6
CONTINUOUS
 62
     6
100
AcDbLine
 10
578.99992
 20
904.205841
 30
0.0
 11
599.99992
 21
904.205841
 31
0.0
  0
LINE
  5
734
100
AcDbEntity
  8
便座
  6
CONTINUOUS
 62
     6
100
AcDbLine
 10
599.459206
 20
905.205841
 30
0.0
 11
599.459206
 21
921.705841
 31
0.0
  0
LINE
  5
735
100
AcDbEntity
  8
便座
  6
CONTINUOUS
 62
     6
100
AcDbLine
 10
596.891977
 20
905.205841
 30
0.0
 11
596.891977
 21
921.705841
 31
0.0
  0
LINE
  5
736
100
AcDbEntity
  8
便座
  6
CONTINUOUS
 62
     6
100
AcDbLine
 10
593.24992
 20
920.705841
 30
0.0
 11
593.24992
 21
905.205841
 31
0.0
  0
LINE
  5
737
100
AcDbEntity
  8
便座
  6
CONTINUOUS
 62
     6
100
AcDbLine
 10
600.99992
 20
921.705841
 30
0.0
 11
600.99992
 21
905.205841
 31
0.0
  0
LINE
  5
738
100
AcDbEntity
  8
便座
  6
CONTINUOUS
 62
     6
100
AcDbLine
 10
591.99992
 20
904.205841
 30
0.0
 11
591.99992
 21
910.205841
 31
0.0
  0
LINE
  5
739
100
AcDbEntity
  8
便座
  6
CONTINUOUS
 62
     6
100
AcDbLine
 10
586.99992
 20
904.205841
 30
0.0
 11
586.99992
 21
910.205841
 31
0.0
  0
LINE
  5
73A
100
AcDbEntity
  8
便座
  6
CONTINUOUS
 62
     6
100
AcDbLine
 10
577.99992
 20
921.705841
 30
0.0
 11
577.99992
 21
905.205841
 31
0.0
  0
LINE
  5
73B
100
AcDbEntity
  8
便座
  6
CONTINUOUS
 62
     6
100
AcDbLine
 10
585.74992
 20
920.705841
 30
0.0
 11
585.74992
 21
905.205841
 31
0.0
  0
LINE
  5
73C
100
AcDbEntity
  8
便座
  6
CONTINUOUS
 62
     6
100
AcDbLine
 10
582.107863
 20
905.205841
 30
0.0
 11
582.107863
 21
921.705841
 31
0.0
  0
LINE
  5
73D
100
AcDbEntity
  8
便座
  6
CONTINUOUS
 62
     6
100
AcDbLine
 10
579.540634
 20
905.205841
 30
0.0
 11
579.540634
 21
921.705841
 31
0.0
  0
LINE
  5
73E
100
AcDbEntity
  8
便座
  6
CONTINUOUS
 62
     6
100
AcDbLine
 10
687.794684
 20
986.904796
 30
0.0
 11
688.291552
 21
985.859943
 31
0.0
  0
LINE
  5
73F
100
AcDbEntity
  8
便座
  6
CONTINUOUS
 62
     6
100
AcDbLine
 10
683.557358
 20
991.424207
 30
0.0
 11
684.660567
 21
990.648605
 31
0.0
  0
LINE
  5
740
100
AcDbEntity
  8
便座
  6
CONTINUOUS
 62
     6
100
AcDbLine
 10
628.929352
 20
978.000324
 30
0.0
 11
627.390327
 21
1007.366676
 31
0.0
  0
ARC
  5
741
100
AcDbEntity
  8
便座
  6
CONTINUOUS
 62
     6
100
AcDbCircle
 10
677.21867
 20
981.234882
 30
0.0
 40
12.0
100
AcDbArc
 50
28.196236
 51
51.672324
  0
ARC
  5
742
100
AcDbEntity
  8
便座
  6
CONTINUOUS
 62
     6
100
AcDbCircle
 10
497.093365
 20
691.690693
 30
0.0
 40
353.0
100
AcDbArc
 50
58.114288
 51
60.155516
  0
ARC
  5
743
100
AcDbEntity
  8
便座
  6
CONTINUOUS
 62
     6
100
AcDbCircle
 10
690.5984
 20
986.823505
 30
0.0
 40
2.5
100
AcDbArc
 50
202.670105
 51
269.180908
  0
LINE
  5
744
100
AcDbEntity
  8
便座
  6
CONTINUOUS
 62
     6
100
AcDbLine
 10
690.562664
 20
984.323749
 30
0.0
 11
729.995648
 21
983.759937
 31
0.0
  0
LINE
  5
745
100
AcDbEntity
  8
便座
  6
CONTINUOUS
 62
     6
100
AcDbLine
 10
729.995648
 20
992.619343
 30
0.0
 11
729.995648
 21
983.500324
 31
0.0
  0
LINE
  5
746
100
AcDbEntity
  8
便座
  6
CONTINUOUS
 62
     6
100
AcDbLine
 10
748.995648
 20
992.038837
 30
0.0
 11
748.995648
 21
983.500324
 31
0.0
  0
LINE
  5
747
100
AcDbEntity
  8
便座
  6
CONTINUOUS
 62
     6
100
AcDbLine
 10
729.995648
 20
983.500324
 30
0.0
 11
748.995648
 21
983.500324
 31
0.0
  0
ARC
  5
748
100
AcDbEntity
  8
便座
  6
CONTINUOUS
 62
     6
100
AcDbCircle
 10
731.326214
 20
1392.765339
 30
0.0
 40
400.0
100
AcDbArc
 50
264.506714
 51
268.25
  0
ARC
  5
749
100
AcDbEntity
  8
便座
  6
CONTINUOUS
 62
     6
100
AcDbCircle
 10
605.954559
 20
993.000324
 30
0.0
 40
5.0
100
AcDbArc
 50
270.0
 51
357.410775
  0
LINE
  5
74A
100
AcDbEntity
  8
便座
  6
CONTINUOUS
 62
     6
100
AcDbLine
 10
629.297878
 20
1002.000324
 30
0.0
 11
633.459637
 21
1002.000324
 31
0.0
  0
ARC
  5
74B
100
AcDbEntity
  8
便座
  6
CONTINUOUS
 62
     6
100
AcDbCircle
 10
633.459637
 20
1003.000324
 30
0.0
 40
1.0
100
AcDbArc
 50
270.0
 51
358.001953
  0
ARC
  5
74C
100
AcDbEntity
  8
便座
  6
CONTINUOUS
 62
     6
100
AcDbCircle
 10
619.49992
 20
1006.400318
 30
0.0
 40
10.4
100
AcDbArc
 50
182.011902
 51
217.758146
  0
LINE
  5
74D
100
AcDbEntity
  8
便座
  6
CONTINUOUS
 62
     6
100
AcDbLine
 10
611.607067
 20
1007.31655
 30
0.0
 11
610.949454
 21
992.774448
 31
0.0
  0
ARC
  5
74E
100
AcDbEntity
  8
便座
  6
CONTINUOUS
 62
     6
100
AcDbCircle
 10
618.59992
 20
1007.000324
 30
0.0
 40
7.0
100
AcDbArc
 50
90.0
 51
177.410775
  0
ARC
  5
74F
100
AcDbEntity
  8
便座
  6
CONTINUOUS
 62
     6
100
AcDbCircle
 10
619.49992
 20
1007.000324
 30
0.0
 40
11.0
100
AcDbArc
 50
318.89534
 51
0.0
  0
LINE
  5
750
100
AcDbEntity
  8
便座
  6
CONTINUOUS
 62
     6
100
AcDbLine
 10
620.39992
 20
1014.000324
 30
0.0
 11
618.59992
 21
1014.000324
 31
0.0
  0
ARC
  5
751
100
AcDbEntity
  8
便座
  6
CONTINUOUS
 62
     6
100
AcDbCircle
 10
620.39992
 20
1007.000324
 30
0.0
 40
7.0
100
AcDbArc
 50
3.0
 51
90.0
  0
LINE
  5
752
100
AcDbEntity
  8
便座
  6
CONTINUOUS
 62
     6
100
AcDbLine
 10
630.496571
 20
1006.808368
 30
0.0
 11
630.610943
 21
1013.361698
 31
0.0
  0
LINE
  5
753
100
AcDbEntity
  8
便座
  6
CONTINUOUS
 62
     6
100
AcDbLine
 10
634.459057
 20
1002.965473
 30
0.0
 11
634.763363
 21
1011.680195
 31
0.0
  0
ARC
  5
754
100
AcDbEntity
  8
便座
  6
CONTINUOUS
 62
     6
100
AcDbCircle
 10
641.415661
 20
949.985309
 30
0.0
 40
100.0
100
AcDbArc
 50
96.243958
 51
102.081549
  0
ARC
  5
755
100
AcDbEntity
  8
便座
  6
CONTINUOUS
 62
     6
100
AcDbCircle
 10
623.624848
 20
1033.102618
 30
0.0
 40
15.0
100
AcDbArc
 50
102.081549
 51
181.270441
  0
LINE
  5
756
100
AcDbEntity
  8
便座
  6
CONTINUOUS
 62
     6
100
AcDbLine
 10
608.628536
 20
1032.770044
 30
0.0
 11
608.905132
 21
1020.297817
 31
0.0
  0
LINE
  5
757
100
AcDbEntity
  8
便座
  6
CONTINUOUS
 62
     6
100
AcDbLine
 10
632.099517
 20
1024.125484
 30
0.0
 11
631.902803
 21
1012.869374
 31
0.0
  0
LINE
  5
758
100
AcDbEntity
  8
便座
  6
CONTINUOUS
 62
     6
100
AcDbLine
 10
630.169079
 20
1028.12334
 30
0.0
 11
630.10622
 21
1024.526516
 31
0.0
  0
ARC
  5
759
100
AcDbEntity
  8
便座
  6
CONTINUOUS
 62
     6
100
AcDbCircle
 10
756.132336
 20
1919.26485
 30
0.0
 40
900.0
100
AcDbArc
 50
261.610657
 51
267.881714
  0
ARC
  5
75A
100
AcDbEntity
  8
便座
  6
CONTINUOUS
 62
     6
100
AcDbCircle
 10
724.075009
 20
194.493732
 30
0.0
 40
860.0
100
AcDbArc
 50
90.042389
 51
96.243958
  0
ARC
  5
75B
100
AcDbEntity
  8
便座
  6
CONTINUOUS
 62
     6
100
AcDbCircle
 10
632.11842
 20
1078.360241
 30
0.0
 40
50.0
100
AcDbArc
 50
242.001892
 51
261.610718
  0
LINE
  5
75C
100
AcDbEntity
  8
便座
  6
CONTINUOUS
 62
     6
100
AcDbLine
 10
608.520855
 20
1019.532673
 30
0.0
 11
608.620846
 21
1019.532673
 31
0.0
  0
LINE
  5
75D
100
AcDbEntity
  8
便座
  6
CONTINUOUS
 62
     6
100
AcDbLine
 10
610.620846
 20
1017.532917
 30
0.0
 11
610.869061
 21
1017.532917
 31
0.0
  0
LINE
  5
75E
100
AcDbEntity
  8
便座
  6
CONTINUOUS
 62
     6
100
AcDbLine
 10
608.924038
 20
1018.474216
 30
0.0
 11
609.101009
 21
1006.249775
 31
0.0
  0
LINE
  5
75F
100
AcDbEntity
  8
便座
  6
CONTINUOUS
 62
     6
100
AcDbLine
 10
608.642529
 20
1019.239216
 30
0.0
 11
609.106335
 21
1006.035236
 31
0.0
  0
ARC
  5
760
100
AcDbEntity
  8
便座
  6
CONTINUOUS
 62
     6
100
AcDbCircle
 10
619.429669
 20
1014.532917
 30
0.0
 40
12.0
100
AcDbArc
 50
77.444244
 51
155.376892
  0
ARC
  5
761
100
AcDbEntity
  8
便座
  6
CONTINUOUS
 62
     6
100
AcDbCircle
 10
610.620846
 20
1019.532917
 30
0.0
 40
2.0
100
AcDbArc
 50
180.0
 51
270.0
  0
ARC
  5
762
100
AcDbEntity
  8
便座
  6
CONTINUOUS
 62
     6
100
AcDbCircle
 10
719.863415
 20
1465.48418
 30
0.0
 40
450.0
100
AcDbArc
 50
257.444275
 51
267.439697
  0
ARC
  5
763
100
AcDbEntity
  8
便座
  6
CONTINUOUS
 62
     6
100
AcDbCircle
 10
708.351132
 20
1153.867527
 30
0.0
 40
160.0
100
AcDbArc
 50
243.787048
 51
264.506714
  0
ARC
  5
764
100
AcDbEntity
  8
便座
  6
CONTINUOUS
 62
     6
100
AcDbCircle
 10
610.869061
 20
982.532917
 30
0.0
 40
35.0
100
AcDbArc
 50
80.909973
 51
90.0
  0
ARC
  5
765
100
AcDbEntity
  8
便座
  6
CONTINUOUS
 62
     6
100
AcDbCircle
 10
604.549603
 20
943.035267
 30
0.0
 40
75.0
100
AcDbArc
 50
63.787048
 51
80.909973
  0
ARC
  5
766
100
AcDbEntity
  8
便座
  6
CONTINUOUS
 62
     6
100
AcDbCircle
 10
929.499954
 20
1016.847846
 30
0.0
 40
9.25
100
AcDbArc
 50
205.281893
 51
330.930377
  0
ARC
  5
767
100
AcDbEntity
  8
便座
  6
CONTINUOUS
 62
     6
100
AcDbCircle
 10
1013.438508
 20
981.004186
 30
0.0
 40
8.0
100
AcDbArc
 50
156.581694
 51
172.607427
  0
ARC
  5
768
100
AcDbEntity
  8
便座
  6
CONTINUOUS
 62
     6
100
AcDbCircle
 10
1003.015026
 20
982.356586
 30
0.0
 40
2.5
100
AcDbArc
 50
269.180298
 51
352.607427
  0
ARC
  5
769
100
AcDbEntity
  8
便座
  6
EXLTYPE2
 62
     6
100
AcDbCircle
 10
1013.512615
 20
982.13216
 30
0.0
 40
14.0
100
AcDbArc
 50
171.310969
 51
178.810746
  0
ARC
  5
76A
100
AcDbEntity
  8
便座
  6
EXLTYPE2
 62
     6
100
AcDbCircle
 10
1002.015093
 20
982.370841
 30
0.0
 40
2.5
100
AcDbArc
 50
178.810746
 51
269.18083
  0
ARC
  5
76B
100
AcDbEntity
  8
便座
  6
CONTINUOUS
 62
     6
100
AcDbCircle
 10
1054.828045
 20
989.703449
 30
0.0
 40
14.0
100
AcDbArc
 50
6.375153
 51
92.909413
  0
LINE
  5
76C
100
AcDbEntity
  8
便座
  6
CONTINUOUS
 62
     6
100
AcDbLine
 10
743.995634
 20
978.500314
 30
0.0
 11
734.995661
 21
978.500314
 31
0.0
  0
ARC
  5
76D
100
AcDbEntity
  8
便座
  6
CONTINUOUS
 62
     6
100
AcDbCircle
 10
938.9956
 20
982.000324
 30
0.0
 40
5.0
100
AcDbArc
 50
270.0
 51
0.0
  0
ARC
  5
76E
100
AcDbEntity
  8
便座
  6
CONTINUOUS
 62
     6
100
AcDbCircle
 10
918.998516
 20
982.000324
 30
0.0
 40
5.0
100
AcDbArc
 50
180.0
 51
270.0
  0
ARC
  5
76F
100
AcDbEntity
  8
便座
  6
CONTINUOUS
 62
     6
100
AcDbCircle
 10
734.995661
 20
983.500314
 30
0.0
 40
5.0
100
AcDbArc
 50
180.0
 51
270.0
  0
ARC
  5
770
100
AcDbEntity
  8
便座
  6
CONTINUOUS
 62
     6
100
AcDbCircle
 10
743.995634
 20
983.500314
 30
0.0
 40
5.0
100
AcDbArc
 50
270.0
 51
0.0
  0
LINE
  5
771
100
AcDbEntity
  8
便座
  6
CONTINUOUS
 62
     6
100
AcDbLine
 10
1066.904949
 20
1010.338321
 30
0.0
 11
1067.004925
 21
1010.338321
 31
0.0
  0
LINE
  5
772
100
AcDbEntity
  8
便座
  6
CONTINUOUS
 62
     6
100
AcDbLine
 10
1064.548138
 20
1008.338321
 30
0.0
 11
1064.904949
 21
1008.338321
 31
0.0
  0
LINE
  5
773
100
AcDbEntity
  8
便座
  6
CONTINUOUS
 62
     6
100
AcDbLine
 10
1066.952435
 20
1010.83797
 30
0.0
 11
1067.004925
 21
1010.338321
 31
0.0
  0
ARC
  5
774
100
AcDbEntity
  8
便座
  6
CONTINUOUS
 62
     6
100
AcDbCircle
 10
724.918392
 20
-945.506024
 30
0.0
 40
2000.0
100
AcDbArc
 50
81.432617
 51
90.042389
  0
ARC
  5
775
100
AcDbEntity
  8
便座
  6
CONTINUOUS
 62
     6
100
AcDbCircle
 10
2581.768231
 20
50985.312824
 30
0.0
 40
50000.0
100
AcDbArc
 50
267.869141
 51
268.261108
  0
ARC
  5
776
100
AcDbEntity
  8
便座
  6
CONTINUOUS
 62
     6
100
AcDbCircle
 10
970.722729
 20
686.082172
 30
0.0
 40
350.0
100
AcDbArc
 50
77.491272
 51
81.432617
  0
ARC
  5
777
100
AcDbEntity
  8
便座
  6
CONTINUOUS
 62
     6
100
AcDbCircle
 10
1034.616253
 20
974.079258
 30
0.0
 40
55.0
100
AcDbArc
 50
65.145721
 51
77.491241
  0
ARC
  5
778
100
AcDbEntity
  8
便座
  6
CONTINUOUS
 62
     6
100
AcDbCircle
 10
1051.008465
 20
1009.46706
 30
0.0
 40
16.0
100
AcDbArc
 50
5.994843
 51
65.145721
  0
ARC
  5
779
100
AcDbEntity
  8
便座
  6
CONTINUOUS
 62
     6
100
AcDbCircle
 10
1064.904949
 20
1010.338321
 30
0.0
 40
2.0
100
AcDbArc
 50
270.0
 51
0.0
  0
ARC
  5
77A
100
AcDbEntity
  8
便座
  6
CONTINUOUS
 62
     6
100
AcDbCircle
 10
967.499371
 20
1000.393787
 30
0.0
 40
100.0
100
AcDbArc
 50
5.995056
 51
6.167908
  0
LINE
  5
77B
100
AcDbEntity
  8
便座
  6
CONTINUOUS
 62
     6
100
AcDbLine
 10
1069.49992
 20
984.24654
 30
0.0
 11
1069.4091
 21
984.24654
 31
0.0
  0
LINE
  5
77C
100
AcDbEntity
  8
便座
  6
CONTINUOUS
 62
     6
100
AcDbLine
 10
1055.261639
 20
1003.696735
 30
0.0
 11
877.880016
 21
1009.192829
 31
0.0
  0
LINE
  5
77D
100
AcDbEntity
  8
便座
  6
CONTINUOUS
 62
     6
100
AcDbLine
 10
913.998516
 20
982.000324
 30
0.0
 11
943.995587
 21
982.000324
 31
0.0
  0
LINE
  5
77E
100
AcDbEntity
  8
便座
  6
CONTINUOUS
 62
     6
100
AcDbLine
 10
913.998516
 20
986.997577
 30
0.0
 11
913.998516
 21
982.000324
 31
0.0
  0
LINE
  5
77F
100
AcDbEntity
  8
便座
  6
CONTINUOUS
 62
     6
100
AcDbLine
 10
943.995587
 20
986.081074
 30
0.0
 11
943.995587
 21
982.000324
 31
0.0
  0
LINE
  5
780
100
AcDbEntity
  8
便座
  6
CONTINUOUS
 62
     6
100
AcDbLine
 10
1069.44743
 20
984.746601
 30
0.0
 11
1069.49992
 21
984.24654
 31
0.0
  0
LINE
  5
781
100
AcDbEntity
  8
便座
  6
CONTINUOUS
 62
     6
100
AcDbLine
 10
1067.855816
 20
982.296833
 30
0.0
 11
719.110821
 21
992.951923
 31
0.0
  0
LINE
  5
782
100
AcDbEntity
  8
便座
  6
CONTINUOUS
 62
     6
100
AcDbLine
 10
943.82423
 20
980.70261
 30
0.0
 11
1002.97926
 21
979.8568
 31
0.0
  0
LINE
  5
783
100
AcDbEntity
  8
便座
  6
CONTINUOUS
 62
     6
100
AcDbLine
 10
748.995648
 20
983.488285
 30
0.0
 11
914.075207
 21
981.127964
 31
0.0
  0
ARC
  5
784
100
AcDbEntity
  8
便座
  6
CONTINUOUS
 62
     6
100
AcDbCircle
 10
1067.4091
 20
984.246296
 30
0.0
 40
2.0
100
AcDbArc
 50
282.906372
 51
0.007874
  0
ARC
  5
785
100
AcDbEntity
  8
便座
  6
CONTINUOUS
 62
     6
100
AcDbCircle
 10
74.925335
 20
880.219806
 30
0.0
 40
1000.0
100
AcDbArc
 50
5.999908
 51
6.375183
  0
ARC
  5
786
100
AcDbEntity
  8
便座
  6
CONTINUOUS
 62
     6
100
AcDbCircle
 10
1280.484722
 20
14002.956379
 30
0.0
 40
13000.0
100
AcDbArc
 50
267.439697
 51
268.225281
  0
LINE
  5
787
100
AcDbEntity
  8
便座
  6
CONTINUOUS
 62
     6
100
AcDbLine
 10
571.99992
 20
993.000324
 30
0.0
 11
563.052134
 21
993.000324
 31
0.0
  0
LINE
  5
788
100
AcDbEntity
  8
便座
  6
CONTINUOUS
 62
     6
100
AcDbLine
 10
571.99992
 20
993.000324
 30
0.0
 11
582.052134
 21
988.000324
 31
0.0
  0
LINE
  5
789
100
AcDbEntity
  8
便座
  6
CONTINUOUS
 62
     6
100
AcDbLine
 10
563.052134
 20
993.000324
 30
0.0
 11
563.052134
 21
978.000324
 31
0.0
  0
LINE
  5
78A
100
AcDbEntity
  8
便座
  6
CONTINUOUS
 62
     6
100
AcDbLine
 10
628.929352
 20
978.000324
 30
0.0
 11
563.052134
 21
978.000324
 31
0.0
  0
LINE
  5
78B
100
AcDbEntity
  8
便座
  6
CONTINUOUS
 62
     6
100
AcDbLine
 10
571.99992
 20
978.000324
 30
0.0
 11
571.99992
 21
986.500324
 31
0.0
  0
ARC
  5
78C
100
AcDbEntity
  8
便座
  6
CONTINUOUS
 62
     6
100
AcDbCircle
 10
573.49992
 20
986.500324
 30
0.0
 40
1.5
100
AcDbArc
 50
90.0
 51
180.0
  0
LINE
  5
78D
100
AcDbEntity
  8
便座
  6
CONTINUOUS
 62
     6
100
AcDbLine
 10
605.954559
 20
988.000324
 30
0.0
 11
573.49992
 21
988.000324
 31
0.0
  0
LINE
  5
78E
100
AcDbEntity
  8
便座
  6
CONTINUOUS
 62
     6
100
AcDbLine
 10
574.99992
 20
978.000324
 30
0.0
 11
574.99992
 21
977.000324
 31
0.0
  0
LINE
  5
78F
100
AcDbEntity
  8
便座
  6
CONTINUOUS
 62
     6
100
AcDbLine
 10
603.99992
 20
978.000324
 30
0.0
 11
603.99992
 21
977.000324
 31
0.0
  0
ARC
  5
790
100
AcDbEntity
  8
便座
  6
CONTINUOUS
 62
     6
100
AcDbCircle
 10
1443.527787
 20
990.906981
 30
0.0
 40
25.0
100
AcDbArc
 50
114.103088
 51
136.552825
  0
ARC
  5
791
100
AcDbEntity
  8
便座
  6
CONTINUOUS
 62
     6
100
AcDbCircle
 10
1434.089701
 20
999.846867
 30
0.0
 40
11.999999
100
AcDbArc
 50
133.725278
 51
175.999878
  0
ARC
  5
792
100
AcDbEntity
  8
便座
  6
CONTINUOUS
 62
     6
100
AcDbCircle
 10
1461.482971
 20
1016.070352
 30
0.0
 40
8.75
100
AcDbArc
 50
210.391563
 51
324.82305
  0
ARC
  5
793
100
AcDbEntity
  8
便座
  6
CONTINUOUS
 62
     6
100
AcDbCircle
 10
1747.482971
 20
1016.070352
 30
0.0
 40
8.75
100
AcDbArc
 50
215.175899
 51
329.609488
  0
ARC
  5
794
100
AcDbEntity
  8
便座
  6
CONTINUOUS
 62
     6
100
AcDbCircle
 10
1474.989695
 20
943.955764
 30
0.0
 40
100.0
100
AcDbArc
 50
104.360601
 51
114.355896
  0
LINE
  5
795
100
AcDbEntity
  8
便座
  6
CONTINUOUS
 62
     6
100
AcDbLine
 10
1423.200958
 20
1019.872029
 30
0.0
 11
1423.253509
 21
1020.372029
 31
0.0
  0
LINE
  5
796
100
AcDbEntity
  8
便座
  6
CONTINUOUS
 62
     6
100
AcDbLine
 10
1423.200958
 20
1019.872029
 30
0.0
 11
1423.300964
 21
1019.872029
 31
0.0
  0
ARC
  5
797
100
AcDbEntity
  8
便座
  6
CONTINUOUS
 62
     6
100
AcDbCircle
 10
1522.705715
 20
1009.919275
 30
0.0
 40
100.0
100
AcDbArc
 50
173.882447
 51
174.000122
  0
ARC
  5
798
100
AcDbEntity
  8
便座
  6
CONTINUOUS
 62
     6
100
AcDbCircle
 10
1441.172667
 20
1018.657914
 30
0.0
 40
18.0
100
AcDbArc
 50
114.355896
 51
173.882447
  0
ARC
  5
799
100
AcDbEntity
  8
便座
  6
CONTINUOUS
 62
     6
100
AcDbCircle
 10
1425.301208
 20
1019.872029
 30
0.0
 40
2.0
100
AcDbArc
 50
180.0
 51
233.946045
  0
ARC
  5
79A
100
AcDbEntity
  8
便座
  6
CONTINUOUS
 62
     6
100
AcDbCircle
 10
1512.19327
 20
798.642651
 30
0.0
 40
250.0
100
AcDbArc
 50
97.255982
 51
104.360601
  0
ARC
  5
79B
100
AcDbEntity
  8
便座
  6
CONTINUOUS
 62
     6
100
AcDbCircle
 10
1604.482631
 20
73.790363
 30
0.0
 40
980.703979
100
AcDbArc
 50
82.744002
 51
97.255982
  0
LINE
  5
79C
100
AcDbEntity
  8
便座
  6
CONTINUOUS
 62
     6
100
AcDbLine
 10
1549.982987
 20
977.000324
 30
0.0
 11
1549.982987
 21
979.500324
 31
0.0
  0
LINE
  5
79D
100
AcDbEntity
  8
便座
  6
CONTINUOUS
 62
     6
100
AcDbLine
 10
1518.982987
 20
977.000324
 30
0.0
 11
1518.982987
 21
979.500324
 31
0.0
  0
LINE
  5
79E
100
AcDbEntity
  8
便座
  6
CONTINUOUS
 62
     6
100
AcDbLine
 10
1551.982987
 20
979.500324
 30
0.0
 11
1516.982987
 21
979.500324
 31
0.0
  0
LINE
  5
79F
100
AcDbEntity
  8
便座
  6
CONTINUOUS
 62
     6
100
AcDbLine
 10
1551.982987
 20
980.316163
 30
0.0
 11
1551.982987
 21
979.500324
 31
0.0
  0
LINE
  5
7A0
100
AcDbEntity
  8
便座
  6
CONTINUOUS
 62
     6
100
AcDbLine
 10
1516.982987
 20
981.133067
 30
0.0
 11
1516.982987
 21
979.500324
 31
0.0
  0
LINE
  5
7A1
100
AcDbEntity
  8
便座
  6
CONTINUOUS
 62
     6
100
AcDbLine
 10
1658.982955
 20
977.000324
 30
0.0
 11
1658.982955
 21
979.500324
 31
0.0
  0
LINE
  5
7A2
100
AcDbEntity
  8
便座
  6
CONTINUOUS
 62
     6
100
AcDbLine
 10
1689.982955
 20
977.000324
 30
0.0
 11
1689.982955
 21
979.500324
 31
0.0
  0
LINE
  5
7A3
100
AcDbEntity
  8
便座
  6
CONTINUOUS
 62
     6
100
AcDbLine
 10
1656.982955
 20
979.500324
 30
0.0
 11
1691.982955
 21
979.500324
 31
0.0
  0
LINE
  5
7A4
100
AcDbEntity
  8
便座
  6
CONTINUOUS
 62
     6
100
AcDbLine
 10
1656.982955
 20
980.316163
 30
0.0
 11
1656.982955
 21
979.500324
 31
0.0
  0
LINE
  5
7A5
100
AcDbEntity
  8
便座
  6
CONTINUOUS
 62
     6
100
AcDbLine
 10
1691.982955
 20
981.133067
 30
0.0
 11
1691.982955
 21
979.500324
 31
0.0
  0
ARC
  5
7A6
100
AcDbEntity
  8
便座
  6
CONTINUOUS
 62
     6
100
AcDbCircle
 10
1765.438167
 20
990.907005
 30
0.0
 40
25.0
100
AcDbArc
 50
43.447065
 51
65.896475
  0
ARC
  5
7A7
100
AcDbEntity
  8
便座
  6
CONTINUOUS
 62
     6
100
AcDbCircle
 10
1774.87628
 20
999.846882
 30
0.0
 40
12.0
100
AcDbArc
 50
4.000061
 51
43.447065
  0
LINE
  5
7A8
100
AcDbEntity
  8
便座
  6
CONTINUOUS
 62
     6
100
AcDbLine
 10
1785.765047
 20
1019.872027
 30
0.0
 11
1785.71249
 21
1020.372042
 31
0.0
  0
LINE
  5
7A9
100
AcDbEntity
  8
便座
  6
CONTINUOUS
 62
     6
100
AcDbLine
 10
1785.765047
 20
1019.872027
 30
0.0
 11
1785.665019
 21
1019.872027
 31
0.0
  0
LINE
  5
7AA
100
AcDbEntity
  8
便座
  6
EXLTYPE1
 62
     6
100
AcDbLine
 10
1421.542161
 20
993.516776
 30
0.0
 11
1421.450999
 21
992.652315
 31
0.0
  0
LINE
  5
7AB
100
AcDbEntity
  8
便座
  6
CONTINUOUS
 62
     6
100
AcDbLine
 10
1421.551011
 20
992.652315
 30
0.0
 11
1421.450999
 21
992.652315
 31
0.0
  0
LINE
  5
7AC
100
AcDbEntity
  8
便座
  6
CONTINUOUS
 62
     6
100
AcDbLine
 10
1421.450999
 20
992.652315
 30
0.0
 11
1422.130845
 21
1000.83991
 31
0.0
  0
LINE
  5
7AD
100
AcDbEntity
  8
便座
  6
CONTINUOUS
 62
     6
100
AcDbLine
 10
1425.995981
 20
988.932425
 30
0.0
 11
1425.995981
 21
983.500296
 31
0.0
  0
LINE
  5
7AE
100
AcDbEntity
  8
便座
  6
CONTINUOUS
 62
     6
100
AcDbLine
 10
1451.11144
 20
978.500296
 30
0.0
 11
1430.995981
 21
978.500296
 31
0.0
  0
LINE
  5
7AF
100
AcDbEntity
  8
便座
  6
CONTINUOUS
 62
     6
100
AcDbLine
 10
1449.682149
 20
983.500296
 30
0.0
 11
1425.995981
 21
983.500296
 31
0.0
  0
LINE
  5
7B0
100
AcDbEntity
  8
便座
  6
CONTINUOUS
 62
     6
100
AcDbLine
 10
1498.733154
 20
984.161714
 30
0.0
 11
1498.733154
 21
982.000324
 31
0.0
  0
LINE
  5
7B1
100
AcDbEntity
  8
便座
  6
CONTINUOUS
 62
     6
100
AcDbLine
 10
1449.682149
 20
986.680364
 30
0.0
 11
1449.682149
 21
982.000324
 31
0.0
  0
LINE
  5
7B2
100
AcDbEntity
  8
便座
  6
CONTINUOUS
 62
     6
100
AcDbLine
 10
1449.682149
 20
982.000324
 30
0.0
 11
1498.733187
 21
982.000324
 31
0.0
  0
LINE
  5
7B3
100
AcDbEntity
  8
便座
  6
CONTINUOUS
 62
     6
100
AcDbLine
 10
1782.969976
 20
988.932425
 30
0.0
 11
1782.969976
 21
983.500296
 31
0.0
  0
LINE
  5
7B4
100
AcDbEntity
  8
便座
  6
CONTINUOUS
 62
     6
100
AcDbLine
 10
1759.283793
 20
983.500296
 30
0.0
 11
1782.969976
 21
983.500296
 31
0.0
  0
LINE
  5
7B5
100
AcDbEntity
  8
便座
  6
CONTINUOUS
 62
     6
100
AcDbLine
 10
1757.854553
 20
978.500296
 30
0.0
 11
1777.969976
 21
978.500296
 31
0.0
  0
LINE
  5
7B6
100
AcDbEntity
  8
便座
  6
CONTINUOUS
 62
     6
100
AcDbLine
 10
1759.283793
 20
986.680364
 30
0.0
 11
1759.283793
 21
982.000324
 31
0.0
  0
LINE
  5
7B7
100
AcDbEntity
  8
便座
  6
CONTINUOUS
 62
     6
100
AcDbLine
 10
1759.283793
 20
982.000324
 30
0.0
 11
1710.232787
 21
982.000324
 31
0.0
  0
LINE
  5
7B8
100
AcDbEntity
  8
便座
  6
CONTINUOUS
 62
     6
100
AcDbLine
 10
1710.232787
 20
984.161714
 30
0.0
 11
1710.232787
 21
982.000324
 31
0.0
  0
LINE
  5
7B9
100
AcDbEntity
  8
便座
  6
CONTINUOUS
 62
     6
100
AcDbLine
 10
1449.682149
 20
986.680364
 30
0.0
 11
1449.682149
 21
982.000324
 31
0.0
  0
LINE
  5
7BA
100
AcDbEntity
  8
便座
  6
CONTINUOUS
 62
     6
100
AcDbLine
 10
1449.682149
 20
982.000324
 30
0.0
 11
1498.733154
 21
982.000324
 31
0.0
  0
LINE
  5
7BB
100
AcDbEntity
  8
便座
  6
CONTINUOUS
 62
     6
100
AcDbLine
 10
1498.733154
 20
984.161714
 30
0.0
 11
1498.733154
 21
982.000324
 31
0.0
  0
ARC
  5
7BC
100
AcDbEntity
  8
便座
  6
CONTINUOUS
 62
     6
100
AcDbCircle
 10
1686.260246
 20
1009.919228
 30
0.0
 40
100.0
100
AcDbArc
 50
5.999878
 51
6.117554
  0
ARC
  5
7BD
100
AcDbEntity
  8
便座
  6
CONTINUOUS
 62
     6
100
AcDbCircle
 10
1767.793314
 20
1018.657903
 30
0.0
 40
17.999999
100
AcDbArc
 50
6.117493
 51
65.644104
  0
ARC
  5
7BE
100
AcDbEntity
  8
便座
  6
CONTINUOUS
 62
     6
100
AcDbCircle
 10
1696.772671
 20
798.642644
 30
0.0
 40
250.0
100
AcDbArc
 50
75.639404
 51
82.744019
  0
ARC
  5
7BF
100
AcDbEntity
  8
便座
  6
CONTINUOUS
 62
     6
100
AcDbCircle
 10
1733.976243
 20
943.955754
 30
0.0
 40
100.0
100
AcDbArc
 50
65.644104
 51
75.639404
  0
ARC
  5
7C0
100
AcDbEntity
  8
便座
  6
CONTINUOUS
 62
     6
100
AcDbCircle
 10
1783.664761
 20
1019.872027
 30
0.0
 40
2.0
100
AcDbArc
 50
306.05365
 51
0.0
  0
ARC
  5
7C1
100
AcDbEntity
  8
便座
  6
CONTINUOUS
 62
     6
100
AcDbCircle
 10
1759.611212
 20
1091.931964
 30
0.0
 40
80.0
100
AcDbArc
 50
272.654083
 51
278.712982
  0
ARC
  5
7C2
100
AcDbEntity
  8
便座
  6
CONTINUOUS
 62
     6
100
AcDbCircle
 10
1604.48192
 20
4438.403183
 30
0.0
 40
3430.064833
100
AcDbArc
 50
270.000031
 51
272.654053
  0
ARC
  5
7C3
100
AcDbEntity
  8
便座
  6
CONTINUOUS
 62
     6
100
AcDbCircle
 10
1767.185404
 20
1042.50895
 30
0.0
 40
30.0
100
AcDbArc
 50
278.713013
 51
306.053986
  0
ARC
  5
7C4
100
AcDbEntity
  8
便座
  6
CONTINUOUS
 62
     6
100
AcDbCircle
 10
1604.482971
 20
3982.297091
 30
0.0
 40
3000.0
100
AcDbArc
 50
270.0
 51
272.360474
  0
ARC
  5
7C5
100
AcDbEntity
  8
便座
  6
CONTINUOUS
 62
     6
100
AcDbCircle
 10
1690.974093
 20
1884.079045
 30
0.0
 40
900.0
100
AcDbArc
 50
272.360474
 51
273.987213
  0
ARC
  5
7C6
100
AcDbEntity
  8
便座
  6
CONTINUOUS
 62
     6
100
AcDbCircle
 10
1604.482971
 20
3982.297091
 30
0.0
 40
3000.0
100
AcDbArc
 50
267.639526
 51
270.0
  0
ARC
  5
7C7
100
AcDbEntity
  8
便座
  6
CONTINUOUS
 62
     6
100
AcDbCircle
 10
1502.041767
 20
986.742281
 30
0.0
 40
4.5
100
AcDbArc
 50
222.67218
 51
263.243591
  0
ARC
  5
7C8
100
AcDbEntity
  8
便座
  6
CONTINUOUS
 62
     6
100
AcDbCircle
 10
1522.100599
 20
1156.058212
 30
0.0
 40
175.0
100
AcDbArc
 50
263.243652
 51
268.328918
  0
ARC
  5
7C9
100
AcDbEntity
  8
便座
  6
CONTINUOUS
 62
     6
100
AcDbCircle
 10
1517.991882
 20
1884.079045
 30
0.0
 40
900.0
100
AcDbArc
 50
266.012817
 51
267.639526
  0
ARC
  5
7CA
100
AcDbEntity
  8
便座
  6
CONTINUOUS
 62
     6
100
AcDbCircle
 10
1429.613603
 20
1000.605535
 30
0.0
 40
11.999999
100
AcDbArc
 50
232.682495
 51
263.78595
  0
ARC
  5
7CB
100
AcDbEntity
  8
便座
  6
CONTINUOUS
 62
     6
100
AcDbCircle
 10
1423.551014
 20
992.652315
 30
0.0
 40
2.0
100
AcDbArc
 50
180.0
 51
232.682495
  0
ARC
  5
7CC
100
AcDbEntity
  8
便座
  6
CONTINUOUS
 62
     6
100
AcDbCircle
 10
1504.085055
 20
1684.563131
 30
0.0
 40
700.0
100
AcDbArc
 50
263.785889
 51
266.012817
  0
ARC
  5
7CD
100
AcDbEntity
  8
便座
  6
CONTINUOUS
 62
     6
100
AcDbCircle
 10
1430.995981
 20
983.500296
 30
0.0
 40
5.0
100
AcDbArc
 50
180.0
 51
270.0
  0
ARC
  5
7CE
100
AcDbEntity
  8
便座
  6
CONTINUOUS
 62
     6
100
AcDbCircle
 10
1493.733154
 20
982.000324
 30
0.0
 40
5.0
100
AcDbArc
 50
270.0
 51
0.0
  0
ARC
  5
7CF
100
AcDbEntity
  8
便座
  6
CONTINUOUS
 62
     6
100
AcDbCircle
 10
1454.682149
 20
982.000324
 30
0.0
 40
5.0
100
AcDbArc
 50
180.0
 51
270.0
  0
ARC
  5
7D0
100
AcDbEntity
  8
便座
  6
CONTINUOUS
 62
     6
100
AcDbCircle
 10
1777.969976
 20
983.500296
 30
0.0
 40
5.0
100
AcDbArc
 50
270.0
 51
0.0
  0
ARC
  5
7D1
100
AcDbEntity
  8
便座
  6
CONTINUOUS
 62
     6
100
AcDbCircle
 10
1754.283826
 20
982.000324
 30
0.0
 40
5.0
100
AcDbArc
 50
270.0
 51
0.0
  0
ARC
  5
7D2
100
AcDbEntity
  8
便座
  6
CONTINUOUS
 62
     6
100
AcDbCircle
 10
1715.232787
 20
982.000324
 30
0.0
 40
5.0
100
AcDbArc
 50
180.0
 51
270.0
  0
ARC
  5
7D3
100
AcDbEntity
  8
便座
  6
CONTINUOUS
 62
     6
100
AcDbCircle
 10
1449.354746
 20
1091.931964
 30
0.0
 40
80.0
100
AcDbArc
 50
261.286987
 51
267.345947
  0
ARC
  5
7D4
100
AcDbEntity
  8
便座
  6
CONTINUOUS
 62
     6
100
AcDbCircle
 10
1502.041767
 20
986.742281
 30
0.0
 40
4.5
100
AcDbArc
 50
227.60022
 51
263.243591
  0
ARC
  5
7D5
100
AcDbEntity
  8
便座
  6
CONTINUOUS
 62
     6
100
AcDbCircle
 10
1500.693162
 20
985.265297
 30
0.0
 40
2.5
100
AcDbArc
 50
218.372742
 51
227.601257
  0
ARC
  5
7D6
100
AcDbEntity
  8
便座
  6
CONTINUOUS
 62
     6
100
AcDbCircle
 10
1517.991882
 20
1884.079045
 30
0.0
 40
900.0
100
AcDbArc
 50
266.012817
 51
267.639526
  0
ARC
  5
7D7
100
AcDbEntity
  8
便座
  6
CONTINUOUS
 62
     6
100
AcDbCircle
 10
1454.682149
 20
982.000324
 30
0.0
 40
5.0
100
AcDbArc
 50
180.0
 51
270.0
  0
ARC
  5
7D8
100
AcDbEntity
  8
便座
  6
CONTINUOUS
 62
     6
100
AcDbCircle
 10
1493.733154
 20
982.000324
 30
0.0
 40
5.0
100
AcDbArc
 50
270.0
 51
0.0
  0
LINE
  5
7D9
100
AcDbEntity
  8
便座
  6
EXLTYPE1
 62
     6
100
AcDbLine
 10
1787.423824
 20
993.516801
 30
0.0
 11
1787.514949
 21
992.652299
 31
0.0
  0
LINE
  5
7DA
100
AcDbEntity
  8
便座
  6
CONTINUOUS
 62
     6
100
AcDbLine
 10
1787.414974
 20
992.652299
 30
0.0
 11
1787.514949
 21
992.652299
 31
0.0
  0
LINE
  5
7DB
100
AcDbEntity
  8
便座
  6
CONTINUOUS
 62
     6
100
AcDbLine
 10
1787.514949
 20
992.652299
 30
0.0
 11
1786.835142
 21
1000.839921
 31
0.0
  0
ARC
  5
7DC
100
AcDbEntity
  8
便座
  6
CONTINUOUS
 62
     6
100
AcDbCircle
 10
1604.483871
 20
3979.856769
 30
0.0
 40
3000.0
100
AcDbArc
 50
268.326229
 51
271.671082
  0
ARC
  5
7DD
100
AcDbEntity
  8
便座
  6
CONTINUOUS
 62
     6
100
AcDbCircle
 10
1686.865395
 20
1156.058224
 30
0.0
 40
175.0
100
AcDbArc
 50
271.671082
 51
276.756348
  0
ARC
  5
7DE
100
AcDbEntity
  8
便座
  6
CONTINUOUS
 62
     6
100
AcDbCircle
 10
1706.924189
 20
986.742271
 30
0.0
 40
4.5
100
AcDbArc
 50
276.756409
 51
312.399658
  0
ARC
  5
7DF
100
AcDbEntity
  8
便座
  6
CONTINUOUS
 62
     6
100
AcDbCircle
 10
1708.272821
 20
985.265342
 30
0.0
 40
2.5
100
AcDbArc
 50
312.39917
 51
321.627472
  0
ARC
  5
7E0
100
AcDbEntity
  8
便座
  6
CONTINUOUS
 62
     6
100
AcDbCircle
 10
1704.880914
 20
1684.563164
 30
0.0
 40
700.0
100
AcDbArc
 50
273.987213
 51
276.214112
  0
ARC
  5
7E1
100
AcDbEntity
  8
便座
  6
CONTINUOUS
 62
     6
100
AcDbCircle
 10
1779.352354
 20
1000.605548
 30
0.0
 40
12.0
100
AcDbArc
 50
276.214051
 51
307.317505
  0
ARC
  5
7E2
100
AcDbEntity
  8
便座
  6
CONTINUOUS
 62
     6
100
AcDbCircle
 10
1785.414974
 20
992.6523
 30
0.0
 40
2.0
100
AcDbArc
 50
307.317505
 51
0.0
  0
ARC
  5
7E3
100
AcDbEntity
  8
便座
  6
CONTINUOUS
 62
     6
100
AcDbCircle
 10
1449.354724
 20
1091.93196
 30
0.0
 40
80.0
100
AcDbArc
 50
261.287033
 51
267.345932
  0
ARC
  5
7E4
100
AcDbEntity
  8
便座
  6
CONTINUOUS
 62
     6
100
AcDbCircle
 10
1604.484018
 20
4438.403156
 30
0.0
 40
3430.064941
100
AcDbArc
 50
267.345932
 51
269.999985
  0
ARC
  5
7E5
100
AcDbEntity
  8
便座
  6
CONTINUOUS
 62
     6
100
AcDbCircle
 10
1441.780523
 20
1042.508988
 30
0.0
 40
30.0
100
AcDbArc
 50
233.946045
 51
261.287033
  0
ARC
  5
7E6
100
AcDbEntity
  8
便座
  6
CONTINUOUS
 62
     6
100
AcDbCircle
 10
1333.98172
 20
637.411306
 30
0.0
 40
10.99987
100
AcDbArc
 50
56.937744
 51
123.054688
  0
LINE
  5
7E7
100
AcDbEntity
  8
便座
  6
CONTINUOUS
 62
     6
100
AcDbLine
 10
1339.982696
 20
646.160818
 30
0.0
 11
1344.982696
 21
646.160818
 31
0.0
  0
POLYLINE
  5
7E8
100
AcDbEntity
  8
便座
  6
CONTINUOUS
 62
     6
100
AcDb2dPolyline
 66
     1
 10
0.0
 20
0.0
 30
0.0
 70
   128
  0
VERTEX
  5
7E9
100
AcDbEntity
  8
便座
  6
CONTINUOUS
 62
     6
100
AcDbVertex
100
AcDb2dVertex
 10
1334.240509
 20
643.263357
 30
0.0
  0
VERTEX
  5
7EA
100
AcDbEntity
  8
便座
  6
CONTINUOUS
 62
     6
100
AcDbVertex
100
AcDb2dVertex
 10
1334.643341
 20
643.273122
 30
0.0
  0
VERTEX
  5
7EB
100
AcDbEntity
  8
便座
  6
CONTINUOUS
 62
     6
100
AcDbVertex
100
AcDb2dVertex
 10
1335.043731
 20
643.302419
 30
0.0
  0
VERTEX
  5
7EC
100
AcDbEntity
  8
便座
  6
CONTINUOUS
 62
     6
100
AcDbVertex
100
AcDb2dVertex
 10
1335.439239
 20
643.348806
 30
0.0
  0
VERTEX
  5
7ED
100
AcDbEntity
  8
便座
  6
CONTINUOUS
 62
     6
100
AcDbVertex
100
AcDb2dVertex
 10
1335.82254
 20
643.412282
 30
0.0
  0
VERTEX
  5
7EE
100
AcDbEntity
  8
便座
  6
CONTINUOUS
 62
     6
100
AcDbVertex
100
AcDb2dVertex
 10
1336.196075
 20
643.492849
 30
0.0
  0
VERTEX
  5
7EF
100
AcDbEntity
  8
便座
  6
CONTINUOUS
 62
     6
100
AcDbVertex
100
AcDb2dVertex
 10
1336.554962
 20
643.592947
 30
0.0
  0
VERTEX
  5
7F0
100
AcDbEntity
  8
便座
  6
CONTINUOUS
 62
     6
100
AcDbVertex
100
AcDb2dVertex
 10
1336.894317
 20
643.707693
 30
0.0
  0
VERTEX
  5
7F1
100
AcDbEntity
  8
便座
  6
CONTINUOUS
 62
     6
100
AcDbVertex
100
AcDb2dVertex
 10
1337.216583
 20
643.837087
 30
0.0
  0
VERTEX
  5
7F2
100
AcDbEntity
  8
便座
  6
CONTINUOUS
 62
     6
100
AcDbVertex
100
AcDb2dVertex
 10
1337.514434
 20
643.98113
 30
0.0
  0
VERTEX
  5
7F3
100
AcDbEntity
  8
便座
  6
CONTINUOUS
 62
     6
100
AcDbVertex
100
AcDb2dVertex
 10
1337.78543
 20
644.139822
 30
0.0
  0
VERTEX
  5
7F4
100
AcDbEntity
  8
便座
  6
CONTINUOUS
 62
     6
100
AcDbVertex
100
AcDb2dVertex
 10
1338.032013
 20
644.308279
 30
0.0
  0
VERTEX
  5
7F5
100
AcDbEntity
  8
便座
  6
CONTINUOUS
 62
     6
100
AcDbVertex
100
AcDb2dVertex
 10
1338.249298
 20
644.488943
 30
0.0
  0
VERTEX
  5
7F6
100
AcDbEntity
  8
便座
  6
CONTINUOUS
 62
     6
100
AcDbVertex
100
AcDb2dVertex
 10
1338.437286
 20
644.679372
 30
0.0
  0
VERTEX
  5
7F7
100
AcDbEntity
  8
便座
  6
CONTINUOUS
 62
     6
100
AcDbVertex
100
AcDb2dVertex
 10
1338.591095
 20
644.877126
 30
0.0
  0
VERTEX
  5
7F8
100
AcDbEntity
  8
便座
  6
CONTINUOUS
 62
     6
100
AcDbVertex
100
AcDb2dVertex
 10
1338.710723
 20
645.079763
 30
0.0
  0
VERTEX
  5
7F9
100
AcDbEntity
  8
便座
  6
CONTINUOUS
 62
     6
100
AcDbVertex
100
AcDb2dVertex
 10
1338.798614
 20
645.289724
 30
0.0
  0
VERTEX
  5
7FA
100
AcDbEntity
  8
便座
  6
CONTINUOUS
 62
     6
100
AcDbVertex
100
AcDb2dVertex
 10
1338.852325
 20
645.499685
 30
0.0
  0
VERTEX
  5
7FB
100
AcDbEntity
  8
便座
  6
CONTINUOUS
 62
     6
100
AcDbVertex
100
AcDb2dVertex
 10
1338.869415
 20
645.714529
 30
0.0
  0
VERTEX
  5
7FC
100
AcDbEntity
  8
便座
  6
CONTINUOUS
 62
     6
100
AcDbVertex
100
AcDb2dVertex
 10
1338.852325
 20
645.926931
 30
0.0
  0
VERTEX
  5
7FD
100
AcDbEntity
  8
便座
  6
CONTINUOUS
 62
     6
100
AcDbVertex
100
AcDb2dVertex
 10
1338.798614
 20
646.139333
 30
0.0
  0
VERTEX
  5
7FE
100
AcDbEntity
  8
便座
  6
CONTINUOUS
 62
     6
100
AcDbVertex
100
AcDb2dVertex
 10
1338.710723
 20
646.349294
 30
0.0
  0
VERTEX
  5
7FF
100
AcDbEntity
  8
便座
  6
CONTINUOUS
 62
     6
100
AcDbVertex
100
AcDb2dVertex
 10
1338.591095
 20
646.551931
 30
0.0
  0
VERTEX
  5
800
100
AcDbEntity
  8
便座
  6
CONTINUOUS
 62
     6
100
AcDbVertex
100
AcDb2dVertex
 10
1338.434845
 20
646.749685
 30
0.0
  0
VERTEX
  5
801
100
AcDbEntity
  8
便座
  6
CONTINUOUS
 62
     6
100
AcDbVertex
100
AcDb2dVertex
 10
1338.249298
 20
646.937673
 30
0.0
  0
VERTEX
  5
802
100
AcDbEntity
  8
便座
  6
CONTINUOUS
 62
     6
100
AcDbVertex
100
AcDb2dVertex
 10
1338.032013
 20
647.118337
 30
0.0
  0
VERTEX
  5
803
100
AcDbEntity
  8
便座
  6
CONTINUOUS
 62
     6
100
AcDbVertex
100
AcDb2dVertex
 10
1337.787872
 20
647.289236
 30
0.0
  0
VERTEX
  5
804
100
AcDbEntity
  8
便座
  6
CONTINUOUS
 62
     6
100
AcDbVertex
100
AcDb2dVertex
 10
1337.514434
 20
647.445486
 30
0.0
  0
VERTEX
  5
805
100
AcDbEntity
  8
便座
  6
CONTINUOUS
 62
     6
100
AcDbVertex
100
AcDb2dVertex
 10
1337.216583
 20
647.589529
 30
0.0
  0
VERTEX
  5
806
100
AcDbEntity
  8
便座
  6
CONTINUOUS
 62
     6
100
AcDbVertex
100
AcDb2dVertex
 10
1336.894317
 20
647.721364
 30
0.0
  0
VERTEX
  5
807
100
AcDbEntity
  8
便座
  6
CONTINUOUS
 62
     6
100
AcDbVertex
100
AcDb2dVertex
 10
1336.554962
 20
647.836111
 30
0.0
  0
VERTEX
  5
808
100
AcDbEntity
  8
便座
  6
CONTINUOUS
 62
     6
100
AcDbVertex
100
AcDb2dVertex
 10
1336.196075
 20
647.933767
 30
0.0
  0
VERTEX
  5
809
100
AcDbEntity
  8
便座
  6
CONTINUOUS
 62
     6
100
AcDbVertex
100
AcDb2dVertex
 10
1335.824981
 20
648.014333
 30
0.0
  0
VERTEX
  5
80A
100
AcDbEntity
  8
便座
  6
CONTINUOUS
 62
     6
100
AcDbVertex
100
AcDb2dVertex
 10
1335.439239
 20
648.080251
 30
0.0
  0
VERTEX
  5
80B
100
AcDbEntity
  8
便座
  6
CONTINUOUS
 62
     6
100
AcDbVertex
100
AcDb2dVertex
 10
1335.043731
 20
648.126638
 30
0.0
  0
VERTEX
  5
80C
100
AcDbEntity
  8
便座
  6
CONTINUOUS
 62
     6
100
AcDbVertex
100
AcDb2dVertex
 10
1334.643341
 20
648.153493
 30
0.0
  0
VERTEX
  5
80D
100
AcDbEntity
  8
便座
  6
CONTINUOUS
 62
     6
100
AcDbVertex
100
AcDb2dVertex
 10
1334.240509
 20
648.163259
 30
0.0
  0
VERTEX
  5
80E
100
AcDbEntity
  8
便座
  6
CONTINUOUS
 62
     6
100
AcDbVertex
100
AcDb2dVertex
 10
1333.837677
 20
648.153493
 30
0.0
  0
VERTEX
  5
80F
100
AcDbEntity
  8
便座
  6
CONTINUOUS
 62
     6
100
AcDbVertex
100
AcDb2dVertex
 10
1333.437286
 20
648.126638
 30
0.0
  0
VERTEX
  5
810
100
AcDbEntity
  8
便座
  6
CONTINUOUS
 62
     6
100
AcDbVertex
100
AcDb2dVertex
 10
1333.041778
 20
648.080251
 30
0.0
  0
VERTEX
  5
811
100
AcDbEntity
  8
便座
  6
CONTINUOUS
 62
     6
100
AcDbVertex
100
AcDb2dVertex
 10
1332.656036
 20
648.016775
 30
0.0
  0
VERTEX
  5
812
100
AcDbEntity
  8
便座
  6
CONTINUOUS
 62
     6
100
AcDbVertex
100
AcDb2dVertex
 10
1332.282501
 20
647.933767
 30
0.0
  0
VERTEX
  5
813
100
AcDbEntity
  8
便座
  6
CONTINUOUS
 62
     6
100
AcDbVertex
100
AcDb2dVertex
 10
1331.923614
 20
647.836111
 30
0.0
  0
VERTEX
  5
814
100
AcDbEntity
  8
便座
  6
CONTINUOUS
 62
     6
100
AcDbVertex
100
AcDb2dVertex
 10
1331.584259
 20
647.721364
 30
0.0
  0
VERTEX
  5
815
100
AcDbEntity
  8
便座
  6
CONTINUOUS
 62
     6
100
AcDbVertex
100
AcDb2dVertex
 10
1331.261993
 20
647.589529
 30
0.0
  0
VERTEX
  5
816
100
AcDbEntity
  8
便座
  6
CONTINUOUS
 62
     6
100
AcDbVertex
100
AcDb2dVertex
 10
1330.966583
 20
647.445486
 30
0.0
  0
VERTEX
  5
817
100
AcDbEntity
  8
便座
  6
CONTINUOUS
 62
     6
100
AcDbVertex
100
AcDb2dVertex
 10
1330.693145
 20
647.289236
 30
0.0
  0
VERTEX
  5
818
100
AcDbEntity
  8
便座
  6
CONTINUOUS
 62
     6
100
AcDbVertex
100
AcDb2dVertex
 10
1330.446563
 20
647.118337
 30
0.0
  0
VERTEX
  5
819
100
AcDbEntity
  8
便座
  6
CONTINUOUS
 62
     6
100
AcDbVertex
100
AcDb2dVertex
 10
1330.229278
 20
646.940114
 30
0.0
  0
VERTEX
  5
81A
100
AcDbEntity
  8
便座
  6
CONTINUOUS
 62
     6
100
AcDbVertex
100
AcDb2dVertex
 10
1330.043731
 20
646.749685
 30
0.0
  0
VERTEX
  5
81B
100
AcDbEntity
  8
便座
  6
CONTINUOUS
 62
     6
100
AcDbVertex
100
AcDb2dVertex
 10
1329.889923
 20
646.551931
 30
0.0
  0
VERTEX
  5
81C
100
AcDbEntity
  8
便座
  6
CONTINUOUS
 62
     6
100
AcDbVertex
100
AcDb2dVertex
 10
1329.767852
 20
646.349294
 30
0.0
  0
VERTEX
  5
81D
100
AcDbEntity
  8
便座
  6
CONTINUOUS
 62
     6
100
AcDbVertex
100
AcDb2dVertex
 10
1329.679962
 20
646.139333
 30
0.0
  0
VERTEX
  5
81E
100
AcDbEntity
  8
便座
  6
CONTINUOUS
 62
     6
100
AcDbVertex
100
AcDb2dVertex
 10
1329.626251
 20
645.926931
 30
0.0
  0
VERTEX
  5
81F
100
AcDbEntity
  8
便座
  6
CONTINUOUS
 62
     6
100
AcDbVertex
100
AcDb2dVertex
 10
1329.609161
 20
645.714529
 30
0.0
  0
VERTEX
  5
820
100
AcDbEntity
  8
便座
  6
CONTINUOUS
 62
     6
100
AcDbVertex
100
AcDb2dVertex
 10
1329.628692
 20
645.499685
 30
0.0
  0
VERTEX
  5
821
100
AcDbEntity
  8
便座
  6
CONTINUOUS
 62
     6
100
AcDbVertex
100
AcDb2dVertex
 10
1329.679962
 20
645.289724
 30
0.0
  0
VERTEX
  5
822
100
AcDbEntity
  8
便座
  6
CONTINUOUS
 62
     6
100
AcDbVertex
100
AcDb2dVertex
 10
1329.767852
 20
645.079763
 30
0.0
  0
VERTEX
  5
823
100
AcDbEntity
  8
便座
  6
CONTINUOUS
 62
     6
100
AcDbVertex
100
AcDb2dVertex
 10
1329.889923
 20
644.877126
 30
0.0
  0
VERTEX
  5
824
100
AcDbEntity
  8
便座
  6
CONTINUOUS
 62
     6
100
AcDbVertex
100
AcDb2dVertex
 10
1330.043731
 20
644.679372
 30
0.0
  0
SEQEND
  5
825
100
AcDbEntity
  8
便座
  6
CONTINUOUS
 62
     6
  0
POLYLINE
  5
826
100
AcDbEntity
  8
便座
  6
CONTINUOUS
 62
     6
100
AcDb2dPolyline
 66
     1
 10
0.0
 20
0.0
 30
0.0
 70
   128
  0
VERTEX
  5
827
100
AcDbEntity
  8
便座
  6
CONTINUOUS
 62
     6
100
AcDbVertex
100
AcDb2dVertex
 10
1333.041778
 20
643.348806
 30
0.0
  0
VERTEX
  5
828
100
AcDbEntity
  8
便座
  6
CONTINUOUS
 62
     6
100
AcDbVertex
100
AcDb2dVertex
 10
1333.434845
 20
643.302419
 30
0.0
  0
VERTEX
  5
829
100
AcDbEntity
  8
便座
  6
CONTINUOUS
 62
     6
100
AcDbVertex
100
AcDb2dVertex
 10
1333.835235
 20
643.273122
 30
0.0
  0
VERTEX
  5
82A
100
AcDbEntity
  8
便座
  6
CONTINUOUS
 62
     6
100
AcDbVertex
100
AcDb2dVertex
 10
1334.238067
 20
643.263357
 30
0.0
  0
SEQEND
  5
82B
100
AcDbEntity
  8
便座
  6
CONTINUOUS
 62
     6
  0
POLYLINE
  5
82C
100
AcDbEntity
  8
便座
  6
CONTINUOUS
 62
     6
100
AcDb2dPolyline
 66
     1
 10
0.0
 20
0.0
 30
0.0
 70
   128
  0
VERTEX
  5
82D
100
AcDbEntity
  8
便座
  6
CONTINUOUS
 62
     6
100
AcDbVertex
100
AcDb2dVertex
 10
1330.043731
 20
644.679372
 30
0.0
  0
VERTEX
  5
82E
100
AcDbEntity
  8
便座
  6
CONTINUOUS
 62
     6
100
AcDbVertex
100
AcDb2dVertex
 10
1330.229278
 20
644.488943
 30
0.0
  0
VERTEX
  5
82F
100
AcDbEntity
  8
便座
  6
CONTINUOUS
 62
     6
100
AcDbVertex
100
AcDb2dVertex
 10
1330.446563
 20
644.308279
 30
0.0
  0
VERTEX
  5
830
100
AcDbEntity
  8
便座
  6
CONTINUOUS
 62
     6
100
AcDbVertex
100
AcDb2dVertex
 10
1330.693145
 20
644.139822
 30
0.0
  0
VERTEX
  5
831
100
AcDbEntity
  8
便座
  6
CONTINUOUS
 62
     6
100
AcDbVertex
100
AcDb2dVertex
 10
1330.966583
 20
643.98113
 30
0.0
  0
VERTEX
  5
832
100
AcDbEntity
  8
便座
  6
CONTINUOUS
 62
     6
100
AcDbVertex
100
AcDb2dVertex
 10
1331.264434
 20
643.837087
 30
0.0
  0
VERTEX
  5
833
100
AcDbEntity
  8
便座
  6
CONTINUOUS
 62
     6
100
AcDbVertex
100
AcDb2dVertex
 10
1331.584259
 20
643.707693
 30
0.0
  0
VERTEX
  5
834
100
AcDbEntity
  8
便座
  6
CONTINUOUS
 62
     6
100
AcDbVertex
100
AcDb2dVertex
 10
1331.923614
 20
643.592947
 30
0.0
  0
VERTEX
  5
835
100
AcDbEntity
  8
便座
  6
CONTINUOUS
 62
     6
100
AcDbVertex
100
AcDb2dVertex
 10
1332.282501
 20
643.492849
 30
0.0
  0
VERTEX
  5
836
100
AcDbEntity
  8
便座
  6
CONTINUOUS
 62
     6
100
AcDbVertex
100
AcDb2dVertex
 10
1332.656036
 20
643.412282
 30
0.0
  0
VERTEX
  5
837
100
AcDbEntity
  8
便座
  6
CONTINUOUS
 62
     6
100
AcDbVertex
100
AcDb2dVertex
 10
1333.041778
 20
643.348806
 30
0.0
  0
SEQEND
  5
838
100
AcDbEntity
  8
便座
  6
CONTINUOUS
 62
     6
  0
LINE
  5
839
100
AcDbEntity
  8
便座
  6
CONTINUOUS
 62
     6
100
AcDbLine
 10
1344.982696
 20
631.660818
 30
0.0
 11
1346.982696
 21
631.660818
 31
0.0
  0
LINE
  5
83A
100
AcDbEntity
  8
便座
  6
CONTINUOUS
 62
     6
100
AcDbLine
 10
1344.982696
 20
639.660818
 30
0.0
 11
1346.982696
 21
639.660818
 31
0.0
  0
LINE
  5
83B
100
AcDbEntity
  8
便座
  6
CONTINUOUS
 62
     6
100
AcDbLine
 10
1339.982696
 20
625.160818
 30
0.0
 11
1344.982696
 21
625.160818
 31
0.0
  0
ARC
  5
83C
100
AcDbEntity
  8
便座
  6
CONTINUOUS
 62
     6
100
AcDbCircle
 10
1333.98172
 20
633.910329
 30
0.0
 40
10.998535
100
AcDbArc
 50
236.94841
 51
303.059082
  0
LINE
  5
83D
100
AcDbEntity
  8
便座
  6
CONTINUOUS
 62
     6
100
AcDbLine
 10
1346.982696
 20
629.910818
 30
0.0
 11
1346.982696
 21
641.410818
 31
0.0
  0
POLYLINE
  5
83E
100
AcDbEntity
  8
便座
  6
CONTINUOUS
 62
     6
100
AcDb2dPolyline
 66
     1
 10
0.0
 20
0.0
 30
0.0
 70
   128
  0
VERTEX
  5
83F
100
AcDbEntity
  8
便座
  6
CONTINUOUS
 62
     6
100
AcDbVertex
100
AcDb2dVertex
 10
1329.7117
 20
624.579275
 30
0.0
  0
VERTEX
  5
840
100
AcDbEntity
  8
便座
  6
CONTINUOUS
 62
     6
100
AcDbVertex
100
AcDb2dVertex
 10
1329.911895
 20
624.391286
 30
0.0
  0
VERTEX
  5
841
100
AcDbEntity
  8
便座
  6
CONTINUOUS
 62
     6
100
AcDbVertex
100
AcDb2dVertex
 10
1330.14627
 20
624.210622
 30
0.0
  0
VERTEX
  5
842
100
AcDbEntity
  8
便座
  6
CONTINUOUS
 62
     6
100
AcDbVertex
100
AcDb2dVertex
 10
1330.409942
 20
624.039724
 30
0.0
  0
VERTEX
  5
843
100
AcDbEntity
  8
便座
  6
CONTINUOUS
 62
     6
100
AcDbVertex
100
AcDb2dVertex
 10
1330.705352
 20
623.883474
 30
0.0
  0
VERTEX
  5
844
100
AcDbEntity
  8
便座
  6
CONTINUOUS
 62
     6
100
AcDbVertex
100
AcDb2dVertex
 10
1331.025177
 20
623.739431
 30
0.0
  0
VERTEX
  5
845
100
AcDbEntity
  8
便座
  6
CONTINUOUS
 62
     6
100
AcDbVertex
100
AcDb2dVertex
 10
1331.371856
 20
623.607595
 30
0.0
  0
VERTEX
  5
846
100
AcDbEntity
  8
便座
  6
CONTINUOUS
 62
     6
100
AcDbVertex
100
AcDb2dVertex
 10
1331.738067
 20
623.492849
 30
0.0
  0
VERTEX
  5
847
100
AcDbEntity
  8
便座
  6
CONTINUOUS
 62
     6
100
AcDbVertex
100
AcDb2dVertex
 10
1332.123809
 20
623.395193
 30
0.0
  0
VERTEX
  5
848
100
AcDbEntity
  8
便座
  6
CONTINUOUS
 62
     6
100
AcDbVertex
100
AcDb2dVertex
 10
1332.526641
 20
623.314626
 30
0.0
  0
VERTEX
  5
849
100
AcDbEntity
  8
便座
  6
CONTINUOUS
 62
     6
100
AcDbVertex
100
AcDb2dVertex
 10
1332.94168
 20
623.248708
 30
0.0
  0
SEQEND
  5
84A
100
AcDbEntity
  8
便座
  6
CONTINUOUS
 62
     6
  0
POLYLINE
  5
84B
100
AcDbEntity
  8
便座
  6
CONTINUOUS
 62
     6
100
AcDb2dPolyline
 66
     1
 10
0.0
 20
0.0
 30
0.0
 70
   128
  0
VERTEX
  5
84C
100
AcDbEntity
  8
便座
  6
CONTINUOUS
 62
     6
100
AcDbVertex
100
AcDb2dVertex
 10
1332.94168
 20
623.248708
 30
0.0
  0
VERTEX
  5
84D
100
AcDbEntity
  8
便座
  6
CONTINUOUS
 62
     6
100
AcDbVertex
100
AcDb2dVertex
 10
1333.366485
 20
623.202322
 30
0.0
  0
VERTEX
  5
84E
100
AcDbEntity
  8
便座
  6
CONTINUOUS
 62
     6
100
AcDbVertex
100
AcDb2dVertex
 10
1333.798614
 20
623.175466
 30
0.0
  0
VERTEX
  5
84F
100
AcDbEntity
  8
便座
  6
CONTINUOUS
 62
     6
100
AcDbVertex
100
AcDb2dVertex
 10
1334.233184
 20
623.1657
 30
0.0
  0
SEQEND
  5
850
100
AcDbEntity
  8
便座
  6
CONTINUOUS
 62
     6
  0
POLYLINE
  5
851
100
AcDbEntity
  8
便座
  6
CONTINUOUS
 62
     6
100
AcDb2dPolyline
 66
     1
 10
0.0
 20
0.0
 30
0.0
 70
   128
  0
VERTEX
  5
852
100
AcDbEntity
  8
便座
  6
CONTINUOUS
 62
     6
100
AcDbVertex
100
AcDb2dVertex
 10
1334.233184
 20
623.1657
 30
0.0
  0
VERTEX
  5
853
100
AcDbEntity
  8
便座
  6
CONTINUOUS
 62
     6
100
AcDbVertex
100
AcDb2dVertex
 10
1334.670196
 20
623.175466
 30
0.0
  0
VERTEX
  5
854
100
AcDbEntity
  8
便座
  6
CONTINUOUS
 62
     6
100
AcDbVertex
100
AcDb2dVertex
 10
1335.102325
 20
623.202322
 30
0.0
  0
VERTEX
  5
855
100
AcDbEntity
  8
便座
  6
CONTINUOUS
 62
     6
100
AcDbVertex
100
AcDb2dVertex
 10
1335.52713
 20
623.248708
 30
0.0
  0
VERTEX
  5
856
100
AcDbEntity
  8
便座
  6
CONTINUOUS
 62
     6
100
AcDbVertex
100
AcDb2dVertex
 10
1335.942169
 20
623.314626
 30
0.0
  0
VERTEX
  5
857
100
AcDbEntity
  8
便座
  6
CONTINUOUS
 62
     6
100
AcDbVertex
100
AcDb2dVertex
 10
1336.342559
 20
623.395193
 30
0.0
  0
VERTEX
  5
858
100
AcDbEntity
  8
便座
  6
CONTINUOUS
 62
     6
100
AcDbVertex
100
AcDb2dVertex
 10
1336.728302
 20
623.492849
 30
0.0
  0
VERTEX
  5
859
100
AcDbEntity
  8
便座
  6
CONTINUOUS
 62
     6
100
AcDbVertex
100
AcDb2dVertex
 10
1337.096954
 20
623.610036
 30
0.0
  0
VERTEX
  5
85A
100
AcDbEntity
  8
便座
  6
CONTINUOUS
 62
     6
100
AcDbVertex
100
AcDb2dVertex
 10
1337.441192
 20
623.739431
 30
0.0
  0
VERTEX
  5
85B
100
AcDbEntity
  8
便座
  6
CONTINUOUS
 62
     6
100
AcDbVertex
100
AcDb2dVertex
 10
1337.763458
 20
623.883474
 30
0.0
  0
VERTEX
  5
85C
100
AcDbEntity
  8
便座
  6
CONTINUOUS
 62
     6
100
AcDbVertex
100
AcDb2dVertex
 10
1338.056427
 20
624.042165
 30
0.0
  0
VERTEX
  5
85D
100
AcDbEntity
  8
便座
  6
CONTINUOUS
 62
     6
100
AcDbVertex
100
AcDb2dVertex
 10
1338.32254
 20
624.210622
 30
0.0
  0
VERTEX
  5
85E
100
AcDbEntity
  8
便座
  6
CONTINUOUS
 62
     6
100
AcDbVertex
100
AcDb2dVertex
 10
1338.554473
 20
624.391286
 30
0.0
  0
VERTEX
  5
85F
100
AcDbEntity
  8
便座
  6
CONTINUOUS
 62
     6
100
AcDbVertex
100
AcDb2dVertex
 10
1338.75711
 20
624.579275
 30
0.0
  0
VERTEX
  5
860
100
AcDbEntity
  8
便座
  6
CONTINUOUS
 62
     6
100
AcDbVertex
100
AcDb2dVertex
 10
1338.923126
 20
624.777029
 30
0.0
  0
VERTEX
  5
861
100
AcDbEntity
  8
便座
  6
CONTINUOUS
 62
     6
100
AcDbVertex
100
AcDb2dVertex
 10
1339.054962
 20
624.982107
 30
0.0
  0
VERTEX
  5
862
100
AcDbEntity
  8
便座
  6
CONTINUOUS
 62
     6
100
AcDbVertex
100
AcDb2dVertex
 10
1339.147735
 20
625.189626
 30
0.0
  0
VERTEX
  5
863
100
AcDbEntity
  8
便座
  6
CONTINUOUS
 62
     6
100
AcDbVertex
100
AcDb2dVertex
 10
1339.206329
 20
625.402029
 30
0.0
  0
VERTEX
  5
864
100
AcDbEntity
  8
便座
  6
CONTINUOUS
 62
     6
100
AcDbVertex
100
AcDb2dVertex
 10
1339.223419
 20
625.614431
 30
0.0
  0
VERTEX
  5
865
100
AcDbEntity
  8
便座
  6
CONTINUOUS
 62
     6
100
AcDbVertex
100
AcDb2dVertex
 10
1339.203888
 20
625.829275
 30
0.0
  0
VERTEX
  5
866
100
AcDbEntity
  8
便座
  6
CONTINUOUS
 62
     6
100
AcDbVertex
100
AcDb2dVertex
 10
1339.147735
 20
626.041677
 30
0.0
  0
VERTEX
  5
867
100
AcDbEntity
  8
便座
  6
CONTINUOUS
 62
     6
100
AcDbVertex
100
AcDb2dVertex
 10
1339.054962
 20
626.249197
 30
0.0
  0
VERTEX
  5
868
100
AcDbEntity
  8
便座
  6
CONTINUOUS
 62
     6
100
AcDbVertex
100
AcDb2dVertex
 10
1338.923126
 20
626.454275
 30
0.0
  0
VERTEX
  5
869
100
AcDbEntity
  8
便座
  6
CONTINUOUS
 62
     6
100
AcDbVertex
100
AcDb2dVertex
 10
1338.75711
 20
626.652029
 30
0.0
  0
VERTEX
  5
86A
100
AcDbEntity
  8
便座
  6
CONTINUOUS
 62
     6
100
AcDbVertex
100
AcDb2dVertex
 10
1338.554473
 20
626.840017
 30
0.0
  0
VERTEX
  5
86B
100
AcDbEntity
  8
便座
  6
CONTINUOUS
 62
     6
100
AcDbVertex
100
AcDb2dVertex
 10
1338.320098
 20
627.020681
 30
0.0
  0
VERTEX
  5
86C
100
AcDbEntity
  8
便座
  6
CONTINUOUS
 62
     6
100
AcDbVertex
100
AcDb2dVertex
 10
1338.056427
 20
627.189138
 30
0.0
  0
VERTEX
  5
86D
100
AcDbEntity
  8
便座
  6
CONTINUOUS
 62
     6
100
AcDbVertex
100
AcDb2dVertex
 10
1337.763458
 20
627.347829
 30
0.0
  0
VERTEX
  5
86E
100
AcDbEntity
  8
便座
  6
CONTINUOUS
 62
     6
100
AcDbVertex
100
AcDb2dVertex
 10
1337.441192
 20
627.491872
 30
0.0
  0
VERTEX
  5
86F
100
AcDbEntity
  8
便座
  6
CONTINUOUS
 62
     6
100
AcDbVertex
100
AcDb2dVertex
 10
1337.096954
 20
627.621267
 30
0.0
  0
VERTEX
  5
870
100
AcDbEntity
  8
便座
  6
CONTINUOUS
 62
     6
100
AcDbVertex
100
AcDb2dVertex
 10
1336.728302
 20
627.736013
 30
0.0
  0
VERTEX
  5
871
100
AcDbEntity
  8
便座
  6
CONTINUOUS
 62
     6
100
AcDbVertex
100
AcDb2dVertex
 10
1336.342559
 20
627.836111
 30
0.0
  0
VERTEX
  5
872
100
AcDbEntity
  8
便座
  6
CONTINUOUS
 62
     6
100
AcDbVertex
100
AcDb2dVertex
 10
1335.939727
 20
627.916677
 30
0.0
  0
VERTEX
  5
873
100
AcDbEntity
  8
便座
  6
CONTINUOUS
 62
     6
100
AcDbVertex
100
AcDb2dVertex
 10
1335.524688
 20
627.982595
 30
0.0
  0
VERTEX
  5
874
100
AcDbEntity
  8
便座
  6
CONTINUOUS
 62
     6
100
AcDbVertex
100
AcDb2dVertex
 10
1335.099884
 20
628.028982
 30
0.0
  0
VERTEX
  5
875
100
AcDbEntity
  8
便座
  6
CONTINUOUS
 62
     6
100
AcDbVertex
100
AcDb2dVertex
 10
1334.667755
 20
628.055837
 30
0.0
  0
VERTEX
  5
876
100
AcDbEntity
  8
便座
  6
CONTINUOUS
 62
     6
100
AcDbVertex
100
AcDb2dVertex
 10
1334.233184
 20
628.065603
 30
0.0
  0
VERTEX
  5
877
100
AcDbEntity
  8
便座
  6
CONTINUOUS
 62
     6
100
AcDbVertex
100
AcDb2dVertex
 10
1333.798614
 20
628.055837
 30
0.0
  0
VERTEX
  5
878
100
AcDbEntity
  8
便座
  6
CONTINUOUS
 62
     6
100
AcDbVertex
100
AcDb2dVertex
 10
1333.366485
 20
628.02654
 30
0.0
  0
VERTEX
  5
879
100
AcDbEntity
  8
便座
  6
CONTINUOUS
 62
     6
100
AcDbVertex
100
AcDb2dVertex
 10
1332.94168
 20
627.980154
 30
0.0
  0
VERTEX
  5
87A
100
AcDbEntity
  8
便座
  6
CONTINUOUS
 62
     6
100
AcDbVertex
100
AcDb2dVertex
 10
1332.526641
 20
627.916677
 30
0.0
  0
VERTEX
  5
87B
100
AcDbEntity
  8
便座
  6
CONTINUOUS
 62
     6
100
AcDbVertex
100
AcDb2dVertex
 10
1332.123809
 20
627.836111
 30
0.0
  0
VERTEX
  5
87C
100
AcDbEntity
  8
便座
  6
CONTINUOUS
 62
     6
100
AcDbVertex
100
AcDb2dVertex
 10
1331.738067
 20
627.736013
 30
0.0
  0
VERTEX
  5
87D
100
AcDbEntity
  8
便座
  6
CONTINUOUS
 62
     6
100
AcDbVertex
100
AcDb2dVertex
 10
1331.371856
 20
627.621267
 30
0.0
  0
VERTEX
  5
87E
100
AcDbEntity
  8
便座
  6
CONTINUOUS
 62
     6
100
AcDbVertex
100
AcDb2dVertex
 10
1331.025177
 20
627.491872
 30
0.0
  0
VERTEX
  5
87F
100
AcDbEntity
  8
便座
  6
CONTINUOUS
 62
     6
100
AcDbVertex
100
AcDb2dVertex
 10
1330.705352
 20
627.347829
 30
0.0
  0
VERTEX
  5
880
100
AcDbEntity
  8
便座
  6
CONTINUOUS
 62
     6
100
AcDbVertex
100
AcDb2dVertex
 10
1330.409942
 20
627.189138
 30
0.0
  0
VERTEX
  5
881
100
AcDbEntity
  8
便座
  6
CONTINUOUS
 62
     6
100
AcDbVertex
100
AcDb2dVertex
 10
1330.14627
 20
627.020681
 30
0.0
  0
VERTEX
  5
882
100
AcDbEntity
  8
便座
  6
CONTINUOUS
 62
     6
100
AcDbVertex
100
AcDb2dVertex
 10
1329.911895
 20
626.840017
 30
0.0
  0
VERTEX
  5
883
100
AcDbEntity
  8
便座
  6
CONTINUOUS
 62
     6
100
AcDbVertex
100
AcDb2dVertex
 10
1329.7117
 20
626.652029
 30
0.0
  0
VERTEX
  5
884
100
AcDbEntity
  8
便座
  6
CONTINUOUS
 62
     6
100
AcDbVertex
100
AcDb2dVertex
 10
1329.543243
 20
626.454275
 30
0.0
  0
VERTEX
  5
885
100
AcDbEntity
  8
便座
  6
CONTINUOUS
 62
     6
100
AcDbVertex
100
AcDb2dVertex
 10
1329.413848
 20
626.249197
 30
0.0
  0
VERTEX
  5
886
100
AcDbEntity
  8
便座
  6
CONTINUOUS
 62
     6
100
AcDbVertex
100
AcDb2dVertex
 10
1329.318634
 20
626.041677
 30
0.0
  0
VERTEX
  5
887
100
AcDbEntity
  8
便座
  6
CONTINUOUS
 62
     6
100
AcDbVertex
100
AcDb2dVertex
 10
1329.262481
 20
625.829275
 30
0.0
  0
VERTEX
  5
888
100
AcDbEntity
  8
便座
  6
CONTINUOUS
 62
     6
100
AcDbVertex
100
AcDb2dVertex
 10
1329.24295
 20
625.614431
 30
0.0
  0
VERTEX
  5
889
100
AcDbEntity
  8
便座
  6
CONTINUOUS
 62
     6
100
AcDbVertex
100
AcDb2dVertex
 10
1329.262481
 20
625.402029
 30
0.0
  0
VERTEX
  5
88A
100
AcDbEntity
  8
便座
  6
CONTINUOUS
 62
     6
100
AcDbVertex
100
AcDb2dVertex
 10
1329.318634
 20
625.189626
 30
0.0
  0
VERTEX
  5
88B
100
AcDbEntity
  8
便座
  6
CONTINUOUS
 62
     6
100
AcDbVertex
100
AcDb2dVertex
 10
1329.413848
 20
624.982107
 30
0.0
  0
VERTEX
  5
88C
100
AcDbEntity
  8
便座
  6
CONTINUOUS
 62
     6
100
AcDbVertex
100
AcDb2dVertex
 10
1329.543243
 20
624.777029
 30
0.0
  0
VERTEX
  5
88D
100
AcDbEntity
  8
便座
  6
CONTINUOUS
 62
     6
100
AcDbVertex
100
AcDb2dVertex
 10
1329.7117
 20
624.579275
 30
0.0
  0
SEQEND
  5
88E
100
AcDbEntity
  8
便座
  6
CONTINUOUS
 62
     6
  0
POLYLINE
  5
88F
100
AcDbEntity
  8
便座
  6
CONTINUOUS
 62
     6
100
AcDb2dPolyline
 66
     1
 10
0.0
 20
0.0
 30
0.0
 70
   128
  0
VERTEX
  5
890
100
AcDbEntity
  8
便座
  6
CONTINUOUS
 62
     6
100
AcDbVertex
100
AcDb2dVertex
 10
1334.206329
 20
629.803884
 30
0.0
  0
VERTEX
  5
891
100
AcDbEntity
  8
便座
  6
CONTINUOUS
 62
     6
100
AcDbVertex
100
AcDb2dVertex
 10
1334.689727
 20
629.825857
 30
0.0
  0
VERTEX
  5
892
100
AcDbEntity
  8
便座
  6
CONTINUOUS
 62
     6
100
AcDbVertex
100
AcDb2dVertex
 10
1335.170684
 20
629.891775
 30
0.0
  0
VERTEX
  5
893
100
AcDbEntity
  8
便座
  6
CONTINUOUS
 62
     6
100
AcDbVertex
100
AcDb2dVertex
 10
1335.644317
 20
630.001638
 30
0.0
  0
VERTEX
  5
894
100
AcDbEntity
  8
便座
  6
CONTINUOUS
 62
     6
100
AcDbVertex
100
AcDb2dVertex
 10
1336.108184
 20
630.155447
 30
0.0
  0
VERTEX
  5
895
100
AcDbEntity
  8
便座
  6
CONTINUOUS
 62
     6
100
AcDbVertex
100
AcDb2dVertex
 10
1336.554962
 20
630.348318
 30
0.0
  0
VERTEX
  5
896
100
AcDbEntity
  8
便座
  6
CONTINUOUS
 62
     6
100
AcDbVertex
100
AcDb2dVertex
 10
1336.987091
 20
630.585134
 30
0.0
  0
VERTEX
  5
897
100
AcDbEntity
  8
便座
  6
CONTINUOUS
 62
     6
100
AcDbVertex
100
AcDb2dVertex
 10
1337.394805
 20
630.858572
 30
0.0
  0
VERTEX
  5
898
100
AcDbEntity
  8
便座
  6
CONTINUOUS
 62
     6
100
AcDbVertex
100
AcDb2dVertex
 10
1337.780548
 20
631.16863
 30
0.0
  0
VERTEX
  5
899
100
AcDbEntity
  8
便座
  6
CONTINUOUS
 62
     6
100
AcDbVertex
100
AcDb2dVertex
 10
1338.136993
 20
631.510427
 30
0.0
  0
VERTEX
  5
89A
100
AcDbEntity
  8
便座
  6
CONTINUOUS
 62
     6
100
AcDbVertex
100
AcDb2dVertex
 10
1338.466583
 20
631.886404
 30
0.0
  0
VERTEX
  5
89B
100
AcDbEntity
  8
便座
  6
CONTINUOUS
 62
     6
100
AcDbVertex
100
AcDb2dVertex
 10
1338.759552
 20
632.289236
 30
0.0
  0
VERTEX
  5
89C
100
AcDbEntity
  8
便座
  6
CONTINUOUS
 62
     6
100
AcDbVertex
100
AcDb2dVertex
 10
1339.023223
 20
632.718923
 30
0.0
  0
VERTEX
  5
89D
100
AcDbEntity
  8
便座
  6
CONTINUOUS
 62
     6
100
AcDbVertex
100
AcDb2dVertex
 10
1339.247833
 20
633.170583
 30
0.0
  0
VERTEX
  5
89E
100
AcDbEntity
  8
便座
  6
CONTINUOUS
 62
     6
100
AcDbVertex
100
AcDb2dVertex
 10
1339.43338
 20
633.639333
 30
0.0
  0
VERTEX
  5
89F
100
AcDbEntity
  8
便座
  6
CONTINUOUS
 62
     6
100
AcDbVertex
100
AcDb2dVertex
 10
1339.577423
 20
634.125173
 30
0.0
  0
VERTEX
  5
8A0
100
AcDbEntity
  8
便座
  6
CONTINUOUS
 62
     6
100
AcDbVertex
100
AcDb2dVertex
 10
1339.682403
 20
634.620779
 30
0.0
  0
VERTEX
  5
8A1
100
AcDbEntity
  8
便座
  6
CONTINUOUS
 62
     6
100
AcDbVertex
100
AcDb2dVertex
 10
1339.74588
 20
635.12615
 30
0.0
  0
VERTEX
  5
8A2
100
AcDbEntity
  8
便座
  6
CONTINUOUS
 62
     6
100
AcDbVertex
100
AcDb2dVertex
 10
1339.767852
 20
635.633962
 30
0.0
  0
VERTEX
  5
8A3
100
AcDbEntity
  8
便座
  6
CONTINUOUS
 62
     6
100
AcDbVertex
100
AcDb2dVertex
 10
1339.767852
 20
635.643728
 30
0.0
  0
VERTEX
  5
8A4
100
AcDbEntity
  8
便座
  6
CONTINUOUS
 62
     6
100
AcDbVertex
100
AcDb2dVertex
 10
1339.767852
 20
635.651052
 30
0.0
  0
VERTEX
  5
8A5
100
AcDbEntity
  8
便座
  6
CONTINUOUS
 62
     6
100
AcDbVertex
100
AcDb2dVertex
 10
1339.767852
 20
635.660818
 30
0.0
  0
SEQEND
  5
8A6
100
AcDbEntity
  8
便座
  6
CONTINUOUS
 62
     6
  0
POLYLINE
  5
8A7
100
AcDbEntity
  8
便座
  6
CONTINUOUS
 62
     6
100
AcDb2dPolyline
 66
     1
 10
0.0
 20
0.0
 30
0.0
 70
   128
  0
VERTEX
  5
8A8
100
AcDbEntity
  8
便座
  6
CONTINUOUS
 62
     6
100
AcDbVertex
100
AcDb2dVertex
 10
1339.767852
 20
635.660818
 30
0.0
  0
VERTEX
  5
8A9
100
AcDbEntity
  8
便座
  6
CONTINUOUS
 62
     6
100
AcDbVertex
100
AcDb2dVertex
 10
1339.74588
 20
636.158864
 30
0.0
  0
VERTEX
  5
8AA
100
AcDbEntity
  8
便座
  6
CONTINUOUS
 62
     6
100
AcDbVertex
100
AcDb2dVertex
 10
1339.679962
 20
636.65447
 30
0.0
  0
VERTEX
  5
8AB
100
AcDbEntity
  8
便座
  6
CONTINUOUS
 62
     6
100
AcDbVertex
100
AcDb2dVertex
 10
1339.577423
 20
637.142751
 30
0.0
  0
VERTEX
  5
8AC
100
AcDbEntity
  8
便座
  6
CONTINUOUS
 62
     6
100
AcDbVertex
100
AcDb2dVertex
 10
1339.430938
 20
637.628591
 30
0.0
  0
VERTEX
  5
8AD
100
AcDbEntity
  8
便座
  6
CONTINUOUS
 62
     6
100
AcDbVertex
100
AcDb2dVertex
 10
1339.245391
 20
638.097341
 30
0.0
  0
VERTEX
  5
8AE
100
AcDbEntity
  8
便座
  6
CONTINUOUS
 62
     6
100
AcDbVertex
100
AcDb2dVertex
 10
1339.023223
 20
638.549001
 30
0.0
  0
VERTEX
  5
8AF
100
AcDbEntity
  8
便座
  6
CONTINUOUS
 62
     6
100
AcDbVertex
100
AcDb2dVertex
 10
1338.761993
 20
638.978689
 30
0.0
  0
VERTEX
  5
8B0
100
AcDbEntity
  8
便座
  6
CONTINUOUS
 62
     6
100
AcDbVertex
100
AcDb2dVertex
 10
1338.466583
 20
639.381521
 30
0.0
  0
VERTEX
  5
8B1
100
AcDbEntity
  8
便座
  6
CONTINUOUS
 62
     6
100
AcDbVertex
100
AcDb2dVertex
 10
1338.139434
 20
639.757497
 30
0.0
  0
VERTEX
  5
8B2
100
AcDbEntity
  8
便座
  6
CONTINUOUS
 62
     6
100
AcDbVertex
100
AcDb2dVertex
 10
1337.780548
 20
640.099294
 30
0.0
  0
VERTEX
  5
8B3
100
AcDbEntity
  8
便座
  6
CONTINUOUS
 62
     6
100
AcDbVertex
100
AcDb2dVertex
 10
1337.394805
 20
640.409353
 30
0.0
  0
VERTEX
  5
8B4
100
AcDbEntity
  8
便座
  6
CONTINUOUS
 62
     6
100
AcDbVertex
100
AcDb2dVertex
 10
1336.987091
 20
640.68279
 30
0.0
  0
VERTEX
  5
8B5
100
AcDbEntity
  8
便座
  6
CONTINUOUS
 62
     6
100
AcDbVertex
100
AcDb2dVertex
 10
1336.557403
 20
640.919607
 30
0.0
  0
VERTEX
  5
8B6
100
AcDbEntity
  8
便座
  6
CONTINUOUS
 62
     6
100
AcDbVertex
100
AcDb2dVertex
 10
1336.108184
 20
641.112478
 30
0.0
  0
VERTEX
  5
8B7
100
AcDbEntity
  8
便座
  6
CONTINUOUS
 62
     6
100
AcDbVertex
100
AcDb2dVertex
 10
1335.644317
 20
641.266286
 30
0.0
  0
VERTEX
  5
8B8
100
AcDbEntity
  8
便座
  6
CONTINUOUS
 62
     6
100
AcDbVertex
100
AcDb2dVertex
 10
1335.170684
 20
641.37615
 30
0.0
  0
VERTEX
  5
8B9
100
AcDbEntity
  8
便座
  6
CONTINUOUS
 62
     6
100
AcDbVertex
100
AcDb2dVertex
 10
1334.689727
 20
641.442068
 30
0.0
  0
VERTEX
  5
8BA
100
AcDbEntity
  8
便座
  6
CONTINUOUS
 62
     6
100
AcDbVertex
100
AcDb2dVertex
 10
1334.206329
 20
641.466482
 30
0.0
  0
VERTEX
  5
8BB
100
AcDbEntity
  8
便座
  6
CONTINUOUS
 62
     6
100
AcDbVertex
100
AcDb2dVertex
 10
1333.720489
 20
641.442068
 30
0.0
  0
VERTEX
  5
8BC
100
AcDbEntity
  8
便座
  6
CONTINUOUS
 62
     6
100
AcDbVertex
100
AcDb2dVertex
 10
1333.239532
 20
641.37615
 30
0.0
  0
VERTEX
  5
8BD
100
AcDbEntity
  8
便座
  6
CONTINUOUS
 62
     6
100
AcDbVertex
100
AcDb2dVertex
 10
1332.765899
 20
641.266286
 30
0.0
  0
VERTEX
  5
8BE
100
AcDbEntity
  8
便座
  6
CONTINUOUS
 62
     6
100
AcDbVertex
100
AcDb2dVertex
 10
1332.304473
 20
641.112478
 30
0.0
  0
VERTEX
  5
8BF
100
AcDbEntity
  8
便座
  6
CONTINUOUS
 62
     6
100
AcDbVertex
100
AcDb2dVertex
 10
1331.855255
 20
640.919607
 30
0.0
  0
VERTEX
  5
8C0
100
AcDbEntity
  8
便座
  6
CONTINUOUS
 62
     6
100
AcDbVertex
100
AcDb2dVertex
 10
1331.425567
 20
640.68279
 30
0.0
  0
VERTEX
  5
8C1
100
AcDbEntity
  8
便座
  6
CONTINUOUS
 62
     6
100
AcDbVertex
100
AcDb2dVertex
 10
1331.015411
 20
640.409353
 30
0.0
  0
VERTEX
  5
8C2
100
AcDbEntity
  8
便座
  6
CONTINUOUS
 62
     6
100
AcDbVertex
100
AcDb2dVertex
 10
1330.63211
 20
640.099294
 30
0.0
  0
VERTEX
  5
8C3
100
AcDbEntity
  8
便座
  6
CONTINUOUS
 62
     6
100
AcDbVertex
100
AcDb2dVertex
 10
1330.273223
 20
639.757497
 30
0.0
  0
VERTEX
  5
8C4
100
AcDbEntity
  8
便座
  6
CONTINUOUS
 62
     6
100
AcDbVertex
100
AcDb2dVertex
 10
1329.946075
 20
639.381521
 30
0.0
  0
VERTEX
  5
8C5
100
AcDbEntity
  8
便座
  6
CONTINUOUS
 62
     6
100
AcDbVertex
100
AcDb2dVertex
 10
1329.650665
 20
638.978689
 30
0.0
  0
VERTEX
  5
8C6
100
AcDbEntity
  8
便座
  6
CONTINUOUS
 62
     6
100
AcDbVertex
100
AcDb2dVertex
 10
1329.389434
 20
638.549001
 30
0.0
  0
VERTEX
  5
8C7
100
AcDbEntity
  8
便座
  6
CONTINUOUS
 62
     6
100
AcDbVertex
100
AcDb2dVertex
 10
1329.164825
 20
638.097341
 30
0.0
  0
VERTEX
  5
8C8
100
AcDbEntity
  8
便座
  6
CONTINUOUS
 62
     6
100
AcDbVertex
100
AcDb2dVertex
 10
1328.979278
 20
637.628591
 30
0.0
  0
VERTEX
  5
8C9
100
AcDbEntity
  8
便座
  6
CONTINUOUS
 62
     6
100
AcDbVertex
100
AcDb2dVertex
 10
1328.835235
 20
637.142751
 30
0.0
  0
VERTEX
  5
8CA
100
AcDbEntity
  8
便座
  6
CONTINUOUS
 62
     6
100
AcDbVertex
100
AcDb2dVertex
 10
1328.730255
 20
636.647146
 30
0.0
  0
VERTEX
  5
8CB
100
AcDbEntity
  8
便座
  6
CONTINUOUS
 62
     6
100
AcDbVertex
100
AcDb2dVertex
 10
1328.666778
 20
636.141775
 30
0.0
  0
VERTEX
  5
8CC
100
AcDbEntity
  8
便座
  6
CONTINUOUS
 62
     6
100
AcDbVertex
100
AcDb2dVertex
 10
1328.644805
 20
635.633962
 30
0.0
  0
VERTEX
  5
8CD
100
AcDbEntity
  8
便座
  6
CONTINUOUS
 62
     6
100
AcDbVertex
100
AcDb2dVertex
 10
1328.666778
 20
635.12615
 30
0.0
  0
VERTEX
  5
8CE
100
AcDbEntity
  8
便座
  6
CONTINUOUS
 62
     6
100
AcDbVertex
100
AcDb2dVertex
 10
1328.730255
 20
634.620779
 30
0.0
  0
VERTEX
  5
8CF
100
AcDbEntity
  8
便座
  6
CONTINUOUS
 62
     6
100
AcDbVertex
100
AcDb2dVertex
 10
1328.835235
 20
634.125173
 30
0.0
  0
VERTEX
  5
8D0
100
AcDbEntity
  8
便座
  6
CONTINUOUS
 62
     6
100
AcDbVertex
100
AcDb2dVertex
 10
1328.979278
 20
633.639333
 30
0.0
  0
VERTEX
  5
8D1
100
AcDbEntity
  8
便座
  6
CONTINUOUS
 62
     6
100
AcDbVertex
100
AcDb2dVertex
 10
1329.164825
 20
633.170583
 30
0.0
  0
VERTEX
  5
8D2
100
AcDbEntity
  8
便座
  6
CONTINUOUS
 62
     6
100
AcDbVertex
100
AcDb2dVertex
 10
1329.389434
 20
632.718923
 30
0.0
  0
VERTEX
  5
8D3
100
AcDbEntity
  8
便座
  6
CONTINUOUS
 62
     6
100
AcDbVertex
100
AcDb2dVertex
 10
1329.650665
 20
632.289236
 30
0.0
  0
VERTEX
  5
8D4
100
AcDbEntity
  8
便座
  6
CONTINUOUS
 62
     6
100
AcDbVertex
100
AcDb2dVertex
 10
1329.946075
 20
631.886404
 30
0.0
  0
VERTEX
  5
8D5
100
AcDbEntity
  8
便座
  6
CONTINUOUS
 62
     6
100
AcDbVertex
100
AcDb2dVertex
 10
1330.273223
 20
631.510427
 30
0.0
  0
VERTEX
  5
8D6
100
AcDbEntity
  8
便座
  6
CONTINUOUS
 62
     6
100
AcDbVertex
100
AcDb2dVertex
 10
1330.63211
 20
631.16863
 30
0.0
  0
VERTEX
  5
8D7
100
AcDbEntity
  8
便座
  6
CONTINUOUS
 62
     6
100
AcDbVertex
100
AcDb2dVertex
 10
1331.015411
 20
630.858572
 30
0.0
  0
VERTEX
  5
8D8
100
AcDbEntity
  8
便座
  6
CONTINUOUS
 62
     6
100
AcDbVertex
100
AcDb2dVertex
 10
1331.425567
 20
630.585134
 30
0.0
  0
VERTEX
  5
8D9
100
AcDbEntity
  8
便座
  6
CONTINUOUS
 62
     6
100
AcDbVertex
100
AcDb2dVertex
 10
1331.855255
 20
630.348318
 30
0.0
  0
VERTEX
  5
8DA
100
AcDbEntity
  8
便座
  6
CONTINUOUS
 62
     6
100
AcDbVertex
100
AcDb2dVertex
 10
1332.304473
 20
630.155447
 30
0.0
  0
VERTEX
  5
8DB
100
AcDbEntity
  8
便座
  6
CONTINUOUS
 62
     6
100
AcDbVertex
100
AcDb2dVertex
 10
1332.765899
 20
630.001638
 30
0.0
  0
VERTEX
  5
8DC
100
AcDbEntity
  8
便座
  6
CONTINUOUS
 62
     6
100
AcDbVertex
100
AcDb2dVertex
 10
1333.239532
 20
629.891775
 30
0.0
  0
VERTEX
  5
8DD
100
AcDbEntity
  8
便座
  6
CONTINUOUS
 62
     6
100
AcDbVertex
100
AcDb2dVertex
 10
1333.720489
 20
629.825857
 30
0.0
  0
VERTEX
  5
8DE
100
AcDbEntity
  8
便座
  6
CONTINUOUS
 62
     6
100
AcDbVertex
100
AcDb2dVertex
 10
1334.203888
 20
629.803884
 30
0.0
  0
SEQEND
  5
8DF
100
AcDbEntity
  8
便座
  6
CONTINUOUS
 62
     6
  0
ARC
  5
8E0
100
AcDbEntity
  8
便座
  6
CONTINUOUS
 62
     6
100
AcDbCircle
 10
1352.482696
 20
630.910818
 30
0.0
 40
2.5
100
AcDbArc
 50
180.0
 51
270.0
  0
LINE
  5
8E1
100
AcDbEntity
  8
便座
  6
CONTINUOUS
 62
     6
100
AcDbLine
 10
1365.982696
 20
642.410818
 30
0.0
 11
1373.982696
 21
642.410818
 31
0.0
  0
LINE
  5
8E2
100
AcDbEntity
  8
便座
  6
CONTINUOUS
 62
     6
100
AcDbLine
 10
1365.982696
 20
628.910818
 30
0.0
 11
1373.982696
 21
628.910818
 31
0.0
  0
LINE
  5
8E3
100
AcDbEntity
  8
便座
  6
CONTINUOUS
 62
     6
100
AcDbLine
 10
1373.982696
 20
628.910818
 30
0.0
 11
1373.982696
 21
642.410818
 31
0.0
  0
LINE
  5
8E4
100
AcDbEntity
  8
便座
  6
CONTINUOUS
 62
     6
100
AcDbLine
 10
1354.982696
 20
641.410818
 30
0.0
 11
1357.982696
 21
641.410818
 31
0.0
  0
LINE
  5
8E5
100
AcDbEntity
  8
便座
  6
CONTINUOUS
 62
     6
100
AcDbLine
 10
1362.982696
 20
641.410818
 30
0.0
 11
1365.982696
 21
641.410818
 31
0.0
  0
LINE
  5
8E6
100
AcDbEntity
  8
便座
  6
CONTINUOUS
 62
     6
100
AcDbLine
 10
1354.982696
 20
629.910818
 30
0.0
 11
1357.982696
 21
629.910818
 31
0.0
  0
ARC
  5
8E7
100
AcDbEntity
  8
便座
  6
CONTINUOUS
 62
     6
100
AcDbCircle
 10
1352.482696
 20
630.910818
 30
0.0
 40
2.5
100
AcDbArc
 50
270.0
 51
0.0
  0
ARC
  5
8E8
100
AcDbEntity
  8
便座
  6
CONTINUOUS
 62
     6
100
AcDbCircle
 10
1360.482696
 20
630.910818
 30
0.0
 40
2.5
100
AcDbArc
 50
180.0
 51
270.0
  0
LINE
  5
8E9
100
AcDbEntity
  8
便座
  6
CONTINUOUS
 62
     6
100
AcDbLine
 10
1362.982696
 20
629.910818
 30
0.0
 11
1365.982696
 21
629.910818
 31
0.0
  0
ARC
  5
8EA
100
AcDbEntity
  8
便座
  6
CONTINUOUS
 62
     6
100
AcDbCircle
 10
1360.482696
 20
630.910818
 30
0.0
 40
2.5
100
AcDbArc
 50
270.0
 51
0.0
  0
LINE
  5
8EB
100
AcDbEntity
  8
便座
  6
CONTINUOUS
 62
     6
100
AcDbLine
 10
1365.982696
 20
628.910818
 30
0.0
 11
1365.982696
 21
642.410818
 31
0.0
  0
LINE
  5
8EC
100
AcDbEntity
  8
便座
  6
CONTINUOUS
 62
     6
100
AcDbLine
 10
1357.982696
 20
630.910818
 30
0.0
 11
1357.982696
 21
640.410818
 31
0.0
  0
LINE
  5
8ED
100
AcDbEntity
  8
便座
  6
CONTINUOUS
 62
     6
100
AcDbLine
 10
1354.982696
 20
630.910818
 30
0.0
 11
1354.982696
 21
640.410818
 31
0.0
  0
LINE
  5
8EE
100
AcDbEntity
  8
便座
  6
CONTINUOUS
 62
     6
100
AcDbLine
 10
1362.982696
 20
630.910818
 30
0.0
 11
1362.982696
 21
640.410818
 31
0.0
  0
LINE
  5
8EF
100
AcDbEntity
  8
便座
  6
CONTINUOUS
 62
     6
100
AcDbLine
 10
1349.982696
 20
630.910818
 30
0.0
 11
1349.982696
 21
640.410818
 31
0.0
  0
LINE
  5
8F0
100
AcDbEntity
  8
便座
  6
CONTINUOUS
 62
     6
100
AcDbLine
 10
1346.982696
 20
641.410818
 30
0.0
 11
1349.982696
 21
641.410818
 31
0.0
  0
LINE
  5
8F1
100
AcDbEntity
  8
便座
  6
CONTINUOUS
 62
     6
100
AcDbLine
 10
1346.982696
 20
629.910818
 30
0.0
 11
1349.982696
 21
629.910818
 31
0.0
  0
ARC
  5
8F2
100
AcDbEntity
  8
便座
  6
CONTINUOUS
 62
     6
100
AcDbCircle
 10
1352.482696
 20
640.410818
 30
0.0
 40
2.5
100
AcDbArc
 50
0.0
 51
90.0
  0
ARC
  5
8F3
100
AcDbEntity
  8
便座
  6
CONTINUOUS
 62
     6
100
AcDbCircle
 10
1352.482696
 20
640.410818
 30
0.0
 40
2.5
100
AcDbArc
 50
90.0
 51
180.0
  0
ARC
  5
8F4
100
AcDbEntity
  8
便座
  6
CONTINUOUS
 62
     6
100
AcDbCircle
 10
1360.482696
 20
640.410818
 30
0.0
 40
2.5
100
AcDbArc
 50
90.0
 51
180.0
  0
ARC
  5
8F5
100
AcDbEntity
  8
便座
  6
CONTINUOUS
 62
     6
100
AcDbCircle
 10
1360.482696
 20
640.410818
 30
0.0
 40
2.5
100
AcDbArc
 50
0.0
 51
90.0
  0
LINE
  5
8F6
100
AcDbEntity
  8
便座
  6
CONTINUOUS
 62
     6
100
AcDbLine
 10
1327.983184
 20
624.691579
 30
0.0
 11
1327.983184
 21
646.631582
 31
0.0
  0
LINE
  5
8F7
100
AcDbEntity
  8
便座
  6
CONTINUOUS
 62
     6
100
AcDbLine
 10
1344.982696
 20
625.160818
 30
0.0
 11
1344.982696
 21
646.160818
 31
0.0
  0
LINE
  5
8F8
100
AcDbEntity
  8
便座
  6
CONTINUOUS
 62
     6
100
AcDbLine
 10
1339.982696
 20
624.691579
 30
0.0
 11
1339.982696
 21
646.630056
 31
0.0
  0
LINE
  5
8F9
100
AcDbEntity
  8
便座
  6
CONTINUOUS
 62
     6
100
AcDbLine
 10
1373.982696
 20
642.173606
 30
0.0
 11
1422.567159
 21
642.173606
 31
0.0
  0
LINE
  5
8FA
100
AcDbEntity
  8
便座
  6
CONTINUOUS
 62
     6
100
AcDbLine
 10
1373.982696
 20
629.173606
 30
0.0
 11
1422.567159
 21
629.173606
 31
0.0
  0
LINE
  5
8FB
100
AcDbEntity
  8
寸法
  6
CONTINUOUS
 62
     3
100
AcDbLine
 10
330.477709
 20
992.000324
 30
0.0
 11
197.477709
 21
992.000324
 31
0.0
  0
DIMENSION
  5
906
100
AcDbEntity
  8
寸法
  6
CONTINUOUS
 62
     3
100
AcDbDimension
  2
*D15
 10
213.0
 20
1500.000324
 30
0.0
 11
189.5
 21
1246.000324
 31
0.0
 70
   160
  1
508
  3
STANDARD
100
AcDbAlignedDimension
 13
220.477709
 23
992.000324
 33
0.0
 14
326.493225
 24
1500.000324
 34
0.0
 50
90.0
100
AcDbRotatedDimension
1001
ACAD
1000
DSTYLE
1002
{
1070
     6
1000
_EX_NORM
1070
     7
1000
_EX_NORM
1070
    41
1040
30.0
1070
    42
1040
5.0
1070
    44
1040
10.0
1070
    73
1070
     0
1070
    74
1070
     0
1070
    75
1070
     1
1070
    76
1070
     0
1070
    77
1070
     1
1070
    78
1070
     8
1070
   140
1040
40.0
1070
   147
1040
3.5
1070
   173
1070
     1
1070
   176
1070
     3
1070
   177
1070
     3
1070
   178
1070
     2
1070
   271
1070
     2
1070
   279
1070
     2
1070
   280
1070
     0
1070
   287
1070
     5
1070
   340
1005
D3
1002
}
  0
DIMENSION
  5
912
100
AcDbEntity
  8
寸法
  6
CONTINUOUS
 62
     3
100
AcDbDimension
  2
*D16
 10
518.490513
 20
1630.997776
 30
0.0
 11
419.992648
 21
1654.497776
 31
0.0
 70
   160
  1
197
  3
STANDARD
100
AcDbAlignedDimension
 13
321.494782
 23
1495.165791
 33
0.0
 14
518.490513
 24
1424.000324
 34
0.0
100
AcDbRotatedDimension
1001
ACAD
1000
DSTYLE
1002
{
1070
     6
1000
_EX_NORM
1070
     7
1000
_EX_NORM
1070
    41
1040
30.0
1070
    42
1040
5.0
1070
    44
1040
10.0
1070
    73
1070
     0
1070
    74
1070
     0
1070
    75
1070
     0
1070
    76
1070
     0
1070
    77
1070
     1
1070
    78
1070
     8
1070
   140
1040
40.0
1070
   147
1040
3.5
1070
   173
1070
     1
1070
   176
1070
     3
1070
   177
1070
     3
1070
   178
1070
     2
1070
   271
1070
     2
1070
   279
1070
     2
1070
   280
1070
     0
1070
   287
1070
     5
1070
   340
1005
D3
1002
}
  0
DIMENSION
  5
91C
100
AcDbEntity
  8
寸法
  6
CONTINUOUS
 62
     3
100
AcDbDimension
  2
*D17
 10
306.494782
 20
1630.997776
 30
0.0
 11
236.494782
 21
1654.497776
 31
0.0
 70
   160
 52
180.0
  1
15
  3
STANDARD
100
AcDbAlignedDimension
 13
321.509566
 23
1630.997776
 33
0.0
 14
306.494782
 24
1630.997776
 34
0.0
100
AcDbRotatedDimension
1001
ACAD
1000
DSTYLE
1002
{
1070
     6
1000
_EX_NORM
1070
     7
1000
_EX_NORM
1070
    41
1040
30.0
1070
    42
1040
0.0
1070
    44
1040
0.0
1070
    73
1070
     0
1070
    74
1070
     0
1070
    75
1070
     1
1070
    76
1070
     1
1070
    77
1070
     1
1070
    78
1070
     8
1070
   140
1040
40.0
1070
   147
1040
3.5
1070
   173
1070
     1
1070
   176
1070
     3
1070
   177
1070
     3
1070
   178
1070
     2
1070
   271
1070
     2
1070
   279
1070
     2
1070
   280
1070
     2
1070
   287
1070
     5
1070
   340
1005
D3
1002
}
  0
DIMENSION
  5
928
100
AcDbEntity
  8
寸法
  6
CONTINUOUS
 62
     3
100
AcDbDimension
  2
*D18
 10
213.0
 20
582.000324
 30
0.0
 11
189.5
 21
787.000324
 31
0.0
 70
   160
  1
410
  3
STANDARD
100
AcDbAlignedDimension
 13
207.477709
 23
992.000324
 33
0.0
 14
306.5
 24
582.000324
 34
0.0
 50
90.0
100
AcDbRotatedDimension
1001
ACAD
1000
DSTYLE
1002
{
1070
     6
1000
_EX_NORM
1070
     7
1000
_EX_NORM
1070
    41
1040
30.0
1070
    42
1040
5.0
1070
    44
1040
10.0
1070
    73
1070
     0
1070
    74
1070
     0
1070
    75
1070
     1
1070
    76
1070
     0
1070
    77
1070
     1
1070
    78
1070
     8
1070
   140
1040
40.0
1070
   147
1040
3.5
1070
   173
1070
     1
1070
   176
1070
     3
1070
   177
1070
     3
1070
   178
1070
     2
1070
   271
1070
     2
1070
   279
1070
     2
1070
   280
1070
     0
1070
   287
1070
     5
1070
   340
1005
927
1002
}
  0
DIMENSION
  5
934
100
AcDbEntity
  8
寸法
  6
CONTINUOUS
 62
     3
100
AcDbDimension
  2
*D19
 10
1813.982971
 20
1630.997776
 30
0.0
 11
1604.482971
 21
1654.497776
 31
0.0
 70
   160
  1
419
  3
STANDARD
100
AcDbAlignedDimension
 13
1394.982971
 23
1424.000324
 33
0.0
 14
1813.982971
 24
1424.000324
 34
0.0
100
AcDbRotatedDimension
1001
ACAD
1000
DSTYLE
1002
{
1070
     6
1000
_EX_NORM
1070
     7
1000
_EX_NORM
1070
    41
1040
30.0
1070
    42
1040
5.0
1070
    44
1040
10.0
1070
    73
1070
     0
1070
    74
1070
     0
1070
    75
1070
     0
1070
    76
1070
     0
1070
    77
1070
     1
1070
    78
1070
     8
1070
   140
1040
40.0
1070
   147
1040
3.5
1070
   173
1070
     1
1070
   176
1070
     3
1070
   177
1070
     3
1070
   178
1070
     2
1070
   271
1070
     2
1070
   279
1070
     2
1070
   280
1070
     0
1070
   287
1070
     5
1070
   340
1005
D3
1002
}
  0
LINE
  5
935
100
AcDbEntity
  8
寸法
  6
CONTINUOUS
 62
     3
100
AcDbLine
 10
406.5
 20
631.1
 30
0.0
 11
306.5
 21
631.1
 31
0.0
  0
LINE
  5
936
100
AcDbEntity
  8
寸法
  6
CONTINUOUS
 62
     3
100
AcDbLine
 10
376.5
 20
626.1
 30
0.0
 11
406.5
 21
631.1
 31
0.0
  0
LINE
  5
937
100
AcDbEntity
  8
寸法
  6
CONTINUOUS
 62
     3
100
AcDbLine
 10
406.5
 20
631.1
 30
0.0
 11
376.5
 21
636.1
 31
0.0
  0
LINE
  5
938
100
AcDbEntity
  8
寸法
  6
CONTINUOUS
 62
     3
100
AcDbLine
 10
336.5
 20
636.1
 30
0.0
 11
306.5
 21
631.1
 31
0.0
  0
LINE
  5
939
100
AcDbEntity
  8
寸法
  6
CONTINUOUS
 62
     3
100
AcDbLine
 10
306.5
 20
631.1
 30
0.0
 11
336.5
 21
626.1
 31
0.0
  0
DIMENSION
  5
945
100
AcDbEntity
  8
寸法
  6
CONTINUOUS
 62
     3
100
AcDbDimension
  2
*D20
 10
247.0
 20
2226.999984
 30
0.0
 11
223.5
 21
2376.999984
 31
0.0
 70
   160
  3
STANDARD
100
AcDbAlignedDimension
 13
306.5
 23
2526.999984
 33
0.0
 14
306.5
 24
2226.999984
 34
0.0
 50
90.0
100
AcDbRotatedDimension
1001
ACAD
1000
DSTYLE
1002
{
1070
     6
1000
_EX_NORM
1070
     7
1000
_EX_NORM
1070
    41
1040
30.0
1070
    42
1040
5.0
1070
    44
1040
10.0
1070
    73
1070
     0
1070
    74
1070
     0
1070
    75
1070
     0
1070
    76
1070
     0
1070
    77
1070
     1
1070
    78
1070
     8
1070
   140
1040
40.0
1070
   147
1040
3.5
1070
   173
1070
     1
1070
   176
1070
     3
1070
   177
1070
     3
1070
   178
1070
     2
1070
   271
1070
     2
1070
   279
1070
     2
1070
   280
1070
     0
1070
   287
1070
     5
1070
   340
1005
927
1002
}
  0
DIMENSION
  5
951
100
AcDbEntity
  8
寸法
  6
CONTINUOUS
 62
     3
100
AcDbDimension
  2
*D21
 10
1059.427395
 20
2229.0
 30
0.0
 11
824.463658
 21
2252.5
 31
0.0
 70
   160
  1
470
  3
STANDARD
100
AcDbAlignedDimension
 13
589.49992
 23
2421.001052
 33
0.0
 14
1059.427395
 24
2252.0
 34
0.0
100
AcDbRotatedDimension
1001
ACAD
1000
DSTYLE
1002
{
1070
     6
1000
_EX_NORM
1070
     7
1000
_EX_NORM
1070
    41
1040
30.0
1070
    42
1040
5.0
1070
    44
1040
10.0
1070
    73
1070
     0
1070
    74
1070
     0
1070
    75
1070
     0
1070
    76
1070
     0
1070
    77
1070
     1
1070
    78
1070
     8
1070
   140
1040
40.0
1070
   147
1040
3.5
1070
   173
1070
     1
1070
   176
1070
     3
1070
   177
1070
     3
1070
   178
1070
     2
1070
   271
1070
     2
1070
   279
1070
     2
1070
   280
1070
     0
1070
   287
1070
     5
1070
   340
1005
927
1002
}
  0
DIMENSION
  5
95C
100
AcDbEntity
  8
寸法
  6
CONTINUOUS
 62
     3
100
AcDbDimension
  2
*D22
 10
306.5
 20
2107.0
 30
0.0
 11
682.963698
 21
2130.5
 31
0.0
 70
   160
  1
755
  3
STANDARD
100
AcDbAlignedDimension
 13
1059.427395
 23
2527.0
 33
0.0
 14
306.5
 24
2157.0
 34
0.0
100
AcDbRotatedDimension
1001
ACAD
1000
DSTYLE
1002
{
1070
     6
1000
_EX_NORM
1070
     7
1000
_EX_NORM
1070
    41
1040
30.0
1070
    42
1040
5.0
1070
    44
1040
10.0
1070
    73
1070
     0
1070
    74
1070
     0
1070
    75
1070
     0
1070
    76
1070
     1
1070
    77
1070
     1
1070
    78
1070
     8
1070
   140
1040
40.0
1070
   147
1040
3.5
1070
   173
1070
     1
1070
   176
1070
     3
1070
   177
1070
     3
1070
   178
1070
     2
1070
   271
1070
     2
1070
   279
1070
     2
1070
   280
1070
     0
1070
   287
1070
     5
1070
   340
1005
927
1002
}
  0
DIMENSION
  5
968
100
AcDbEntity
  8
寸法
  6
CONTINUOUS
 62
     3
100
AcDbDimension
  2
*D23
 10
1059.427395
 20
2171.0
 30
0.0
 11
690.463698
 21
2194.5
 31
0.0
 70
   160
  1
740
  3
STANDARD
100
AcDbAlignedDimension
 13
321.5
 23
2526.999984
 33
0.0
 14
1059.427395
 24
2526.999984
 34
0.0
100
AcDbRotatedDimension
1001
ACAD
1000
DSTYLE
1002
{
1070
     6
1000
_EX_NORM
1070
     7
1000
_EX_NORM
1070
    41
1040
30.0
1070
    42
1040
5.0
1070
    44
1040
10.0
1070
    73
1070
     0
1070
    74
1070
     0
1070
    75
1070
     0
1070
    76
1070
     0
1070
    77
1070
     1
1070
    78
1070
     8
1070
   140
1040
40.0
1070
   147
1040
3.5
1070
   173
1070
     1
1070
   176
1070
     3
1070
   177
1070
     3
1070
   178
1070
     2
1070
   271
1070
     2
1070
   279
1070
     2
1070
   280
1070
     0
1070
   287
1070
     5
1070
   340
1005
927
1002
}
  0
DIMENSION
  5
974
100
AcDbEntity
  8
寸法
  6
CONTINUOUS
 62
     3
100
AcDbDimension
  2
*D24
 10
359.427395
 20
2783.0
 30
0.0
 11
709.427395
 21
2806.5
 31
0.0
 70
   160
  3
STANDARD
100
AcDbAlignedDimension
 13
1059.427395
 23
2527.0
 33
0.0
 14
359.427395
 24
2526.999984
 34
0.0
100
AcDbRotatedDimension
1001
ACAD
1000
DSTYLE
1002
{
1070
     6
1000
_EX_NORM
1070
     7
1000
_EX_NORM
1070
    41
1040
30.0
1070
    42
1040
5.0
1070
    44
1040
10.0
1070
    73
1070
     0
1070
    74
1070
     0
1070
    75
1070
     0
1070
    76
1070
     0
1070
    77
1070
     1
1070
    78
1070
     8
1070
   140
1040
40.0
1070
   147
1040
3.5
1070
   173
1070
     1
1070
   176
1070
     3
1070
   177
1070
     3
1070
   178
1070
     2
1070
   271
1070
     2
1070
   279
1070
     2
1070
   280
1070
     0
1070
   287
1070
     5
1070
   340
1005
927
1002
}
  0
DIMENSION
  5
97F
100
AcDbEntity
  8
寸法
  6
CONTINUOUS
 62
     2
100
AcDbDimension
  2
*D25
 10
260.0
 20
582.000324
 30
0.0
 11
236.5
 21
732.000324
 31
0.0
 70
   160
  1
300（壁給水）
  3
STANDARD
100
AcDbAlignedDimension
 13
291.8
 23
882.000324
 33
0.0
 14
262.0
 24
582.000324
 34
0.0
 50
90.0
100
AcDbRotatedDimension
1001
ACAD
1000
DSTYLE
1002
{
1070
     6
1000
_EX_NORM
1070
     7
1000
_EX_NORM
1070
    41
1040
30.0
1070
    42
1040
5.0
1070
    44
1040
10.0
1070
    73
1070
     0
1070
    74
1070
     0
1070
    75
1070
     0
1070
    76
1070
     1
1070
    77
1070
     1
1070
    78
1070
     8
1070
   140
1040
40.0
1070
   147
1040
3.5
1070
   173
1070
     1
1070
   176
1070
     3
1070
   177
1070
     3
1070
   178
1070
     2
1070
   271
1070
     2
1070
   279
1070
     2
1070
   280
1070
     0
1070
   287
1070
     5
1070
   340
1005
927
1002
}
  0
DIMENSION
  5
98A
100
AcDbEntity
  8
寸法
  6
CONTINUOUS
 62
     3
100
AcDbDimension
  2
*D26
 10
1178.0
 20
582.000324
 30
0.0
 11
1154.5
 21
779.500164
 31
0.0
 70
   160
  3
STANDARD
100
AcDbAlignedDimension
 13
1055.427397
 23
977.000004
 33
0.0
 14
1060.0
 24
582.000324
 34
0.0
 50
90.0
100
AcDbRotatedDimension
1001
ACAD
1000
DSTYLE
1002
{
1070
     6
1000
_EX_NORM
1070
     7
1000
_EX_NORM
1070
    41
1040
30.0
1070
    42
1040
5.0
1070
    44
1040
10.0
1070
    73
1070
     0
1070
    74
1070
     0
1070
    75
1070
     0
1070
    76
1070
     1
1070
    77
1070
     1
1070
    78
1070
     8
1070
   140
1040
40.0
1070
   147
1040
3.5
1070
   173
1070
     1
1070
   176
1070
     3
1070
   177
1070
     3
1070
   178
1070
     2
1070
   271
1070
     2
1070
   279
1070
     2
1070
   280
1070
     0
1070
   287
1070
     5
1070
   340
1005
927
1002
}
  0
TEXT
  5
98B
100
AcDbEntity
  8
寸法
  6
CONTINUOUS
 62
     2
100
AcDbText
 10
298.3
 20
634.6
 30
0.0
 40
40.0
  1
１００
 41
0.672
  7
EXCADSTD
 72
     5
 11
394.299999
 21
634.6
 31
0.0
100
AcDbText
  0
DIMENSION
  5
997
100
AcDbEntity
  8
寸法
  6
CONTINUOUS
 62
     3
100
AcDbDimension
  2
*D27
 10
1709.482971
 20
440.1
 30
0.0
 11
1604.482971
 21
463.6
 31
0.0
 70
   160
  3
STANDARD
100
AcDbAlignedDimension
 13
1499.482971
 23
551.291666
 33
0.0
 14
1709.482971
 24
551.291666
 34
0.0
100
AcDbRotatedDimension
1001
ACAD
1000
DSTYLE
1002
{
1070
     6
1000
_EX_NORM
1070
     7
1000
_EX_NORM
1070
    41
1040
30.0
1070
    42
1040
5.0
1070
    44
1040
10.0
1070
    73
1070
     0
1070
    74
1070
     0
1070
    75
1070
     0
1070
    76
1070
     0
1070
    77
1070
     1
1070
    78
1070
     8
1070
   140
1040
40.0
1070
   147
1040
3.5
1070
   173
1070
     1
1070
   176
1070
     3
1070
   177
1070
     3
1070
   178
1070
     2
1070
   271
1070
     2
1070
   279
1070
     2
1070
   280
1070
     0
1070
   287
1070
     5
1070
   340
1005
927
1002
}
  0
DIMENSION
  5
9A3
100
AcDbEntity
  8
寸法
  6
CONTINUOUS
 62
     3
100
AcDbDimension
  2
*D28
 10
1563.0
 20
1970.0
 30
0.0
 11
1539.5
 21
2080.0
 31
0.0
 70
   160
  1
40
  3
STANDARD
100
AcDbAlignedDimension
 13
1606.0
 23
2010.0
 33
0.0
 14
1606.0
 24
1970.0
 34
0.0
 50
90.0
100
AcDbRotatedDimension
1001
ACAD
1000
DSTYLE
1002
{
1070
     6
1000
_EX_NORM
1070
     7
1000
_EX_NORM
1070
    41
1040
30.0
1070
    42
1040
5.0
1070
    44
1040
10.0
1070
    73
1070
     0
1070
    74
1070
     0
1070
    75
1070
     0
1070
    76
1070
     0
1070
    77
1070
     1
1070
    78
1070
     8
1070
   140
1040
40.0
1070
   147
1040
3.5
1070
   173
1070
     1
1070
   176
1070
     3
1070
   177
1070
     3
1070
   178
1070
     2
1070
   271
1070
     2
1070
   279
1070
     2
1070
   280
1070
     1
1070
   287
1070
     5
1070
   340
1005
D3
1002
}
  0
DIMENSION
  5
9AF
100
AcDbEntity
  8
寸法
  6
CONTINUOUS
 62
     3
100
AcDbDimension
  2
*D29
 10
306.5
 20
439.0
 30
0.0
 11
406.5
 21
462.5
 31
0.0
 70
   160
  1
200
  3
STANDARD
100
AcDbAlignedDimension
 13
506.5
 23
548.000324
 33
0.0
 14
306.5
 24
582.000324
 34
0.0
100
AcDbRotatedDimension
1001
ACAD
1000
DSTYLE
1002
{
1070
     6
1000
_EX_NORM
1070
     7
1000
_EX_NORM
1070
    41
1040
30.0
1070
    42
1040
52.900324
1070
    44
1040
10.0
1070
    73
1070
     0
1070
    74
1070
     0
1070
    75
1070
     0
1070
    76
1070
     0
1070
    77
1070
     1
1070
    78
1070
     8
1070
   140
1040
40.0
1070
   147
1040
3.5
1070
   173
1070
     1
1070
   176
1070
     3
1070
   177
1070
     3
1070
   178
1070
     2
1070
   271
1070
     2
1070
   279
1070
     2
1070
   280
1070
     0
1070
   287
1070
     5
1070
   340
1005
D3
1002
}
  0
TEXT
  5
9B0
100
AcDbEntity
  8
器具明細表
  6
CONTINUOUS
 62
     2
100
AcDbText
 10
1591.0
 20
2578.0
 30
0.0
 40
50.0
  1
タンクセット
 41
0.5824
  7
EXCADSTD
 72
     5
 11
1799.000011
 21
2578.0
 31
0.0
100
AcDbText
  0
TEXT
  5
9B1
100
AcDbEntity
  8
器具明細表
  6
CONTINUOUS
 62
     2
100
AcDbText
 10
1297.0
 20
2736.0
 30
0.0
 40
50.0
  1
器具明細
 41
1.8144
  7
EXCADSTD
 72
     5
 11
1729.000008
 21
2736.0
 31
0.0
100
AcDbText
  0
LINE
  5
9B2
100
AcDbEntity
  8
器具明細表
  6
CONTINUOUS
 62
     6
100
AcDbLine
 10
1277.0
 20
2577.0
 30
0.0
 11
1958.0
 21
2577.0
 31
0.0
  0
LINE
  5
9B3
100
AcDbEntity
  8
器具明細表
  6
CONTINUOUS
 62
     6
100
AcDbLine
 10
1277.0
 20
2629.0
 30
0.0
 11
1958.0
 21
2629.0
 31
0.0
  0
LINE
  5
9B4
100
AcDbEntity
  8
器具明細表
  6
CONTINUOUS
 62
     6
100
AcDbLine
 10
1277.0
 20
2681.0
 30
0.0
 11
1958.0
 21
2681.0
 31
0.0
  0
LINE
  5
9B5
100
AcDbEntity
  8
器具明細表
  6
CONTINUOUS
 62
     6
100
AcDbLine
 10
1277.0
 20
2733.0
 30
0.0
 11
1958.0
 21
2733.0
 31
0.0
  0
TEXT
  5
9B6
100
AcDbEntity
  8
器具明細表
  6
CONTINUOUS
 62
     2
100
AcDbText
 10
1591.0
 20
2630.0
 30
0.0
 40
50.0
  1
便器セット
 41
0.588
  7
EXCADSTD
 72
     5
 11
1766.00001
 21
2630.0
 31
0.0
100
AcDbText
  0
TEXT
  5
9B7
100
AcDbEntity
  8
器具明細表
  6
CONTINUOUS
 62
     2
100
AcDbText
 10
1869.5
 20
2683.0
 30
0.0
 40
48.0
  1
個数
 41
0.76125
  7
EXCADSTD
 72
     5
 11
1949.2442
 21
2683.0
 31
0.0
100
AcDbText
  0
TEXT
  5
9B8
100
AcDbEntity
  8
器具明細表
  6
CONTINUOUS
 62
     2
100
AcDbText
 10
1638.0
 20
2683.0
 30
0.0
 40
48.0
  1
品名
 41
1.575
  7
EXCADSTD
 72
     5
 11
1802.988
 21
2683.0
 31
0.0
100
AcDbText
  0
TEXT
  5
9B9
100
AcDbEntity
  8
器具明細表
  6
CONTINUOUS
 62
     2
100
AcDbText
 10
1892.549241
 20
2527.315994
 30
0.0
 40
45.0
  1
１
 41
0.84
  7
EXCADSTD
 72
     5
 11
1928.549241
 21
2527.315994
 31
0.0
100
AcDbText
  0
TEXT
  5
9BA
100
AcDbEntity
  8
器具明細表
  6
CONTINUOUS
 62
     2
100
AcDbText
 10
1892.549241
 20
2579.315994
 30
0.0
 40
45.0
  1
１
 41
0.84
  7
EXCADSTD
 72
     5
 11
1928.549241
 21
2579.315994
 31
0.0
100
AcDbText
  0
TEXT
  5
9BB
100
AcDbEntity
  8
器具明細表
  6
CONTINUOUS
 62
     2
100
AcDbText
 10
1892.549241
 20
2631.315994
 30
0.0
 40
45.0
  1
１
 41
0.84
  7
EXCADSTD
 72
     5
 11
1928.549241
 21
2631.315994
 31
0.0
100
AcDbText
  0
TEXT
  5
9BC
100
AcDbEntity
  8
器具明細表
  6
CONTINUOUS
 62
     2
100
AcDbText
 10
1342.0
 20
2683.0
 30
0.0
 40
48.0
  1
品番
 41
1.75
  7
EXCADSTD
 72
     5
 11
1525.32
 21
2683.0
 31
0.0
100
AcDbText
  0
LINE
  5
9BD
100
AcDbEntity
  8
器具明細表
  6
CONTINUOUS
 62
     6
100
AcDbLine
 10
1277.0
 20
2733.0
 30
0.0
 11
1277.0
 21
2525.0
 31
0.0
  0
LINE
  5
9BE
100
AcDbEntity
  8
器具明細表
  6
CONTINUOUS
 62
     6
100
AcDbLine
 10
1588.0
 20
2525.0
 30
0.0
 11
1588.0
 21
2733.0
 31
0.0
  0
LINE
  5
9BF
100
AcDbEntity
  8
器具明細表
  6
CONTINUOUS
 62
     6
100
AcDbLine
 10
1868.0
 20
2733.0
 30
0.0
 11
1868.0
 21
2525.0
 31
0.0
  0
LINE
  5
9C0
100
AcDbEntity
  8
器具明細表
  6
CONTINUOUS
 62
     6
100
AcDbLine
 10
1958.0
 20
2525.0
 30
0.0
 11
1958.0
 21
2733.0
 31
0.0
  0
LINE
  5
9C1
100
AcDbEntity
  8
器具明細表
  6
CONTINUOUS
 62
     6
100
AcDbLine
 10
1277.0
 20
2525.0
 30
0.0
 11
1958.0
 21
2525.0
 31
0.0
  0
TEXT
  5
9C2
100
AcDbEntity
  8
器具明細表
  6
CONTINUOUS
 62
     2
100
AcDbText
 10
1591.0
 20
2529.5
 30
0.0
 40
43.0
  1
前丸便座
 41
0.693488
  7
EXCADSTD
 72
     5
 11
1733.000008
 21
2529.5
 31
0.0
100
AcDbText
  0
TEXT
  5
9C3
100
AcDbEntity
  8
器具明細表
  6
CONTINUOUS
 62
     2
100
AcDbText
 10
1277.0
 20
2529.5
 30
0.0
 40
43.0
  1
ＮＣ８２２Ｗ
 41
0.56
  7
EXCADSTD
 72
     5
 11
1449.000003
 21
2529.5
 31
0.0
100
AcDbText
  0
TEXT
  5
9C4
100
AcDbEntity
  8
器具明細表
  6
CONTINUOUS
 62
     2
100
AcDbText
 10
1540.891216
 20
1754.5
 30
0.0
 40
40.0
  1
床上４０mmカット
 41
0.583704
  7
EXCADSTD
 72
     5
 11
1780.891216
 21
1754.5
 31
0.0
100
AcDbText
  0
ARC
  5
9C5
100
AcDbEntity
  8
器具明細表
  6
CONTINUOUS
 62
     6
100
AcDbCircle
 10
1634.5
 20
1951.336934
 30
0.0
 40
50.0
100
AcDbArc
 50
235.249774
 51
304.750226
  0
ARC
  5
9C6
100
AcDbEntity
  8
器具明細表
  6
CONTINUOUS
 62
     6
100
AcDbCircle
 10
1634.5
 20
1869.172465
 30
0.0
 40
50.0
100
AcDbArc
 50
55.249774
 51
124.750226
  0
ARC
  5
9C7
100
AcDbEntity
  8
器具明細表
  6
CONTINUOUS
 62
     6
100
AcDbCircle
 10
1691.5
 20
1951.336934
 30
0.0
 40
50.0
100
AcDbArc
 50
235.249774
 51
304.750226
  0
LINE
  5
9C8
100
AcDbEntity
  8
器具明細表
  6
CONTINUOUS
 62
     6
100
AcDbLine
 10
1720.0
 20
2010.0
 30
0.0
 11
1720.0
 21
1910.2547
 31
0.0
  0
LINE
  5
9C9
100
AcDbEntity
  8
器具明細表
  6
EXLTYPE3
 62
     6
100
AcDbLine
 10
1663.0
 20
1890.2547
 30
0.0
 11
1663.0
 21
2030.0
 31
0.0
  0
LINE
  5
9CA
100
AcDbEntity
  8
器具明細表
  6
CONTINUOUS
 62
     6
100
AcDbLine
 10
1606.0
 20
1980.0
 30
0.0
 11
1606.0
 21
1910.2547
 31
0.0
  0
LINE
  5
9CB
100
AcDbEntity
  8
器具明細表
  6
CONTINUOUS
 62
     6
100
AcDbLine
 10
1606.0
 20
2010.0
 30
0.0
 11
1606.0
 21
1970.0
 31
0.0
  0
LINE
  5
9CC
100
AcDbEntity
  8
器具明細表
  6
CONTINUOUS
 62
     6
100
AcDbLine
 10
1606.0
 20
2010.0
 30
0.0
 11
1720.0
 21
2010.0
 31
0.0
  0
LINE
  5
9CD
100
AcDbEntity
  8
器具明細表
  6
CONTINUOUS
 62
     2
100
AcDbLine
 10
1606.0
 20
1970.0
 30
0.0
 11
1663.0
 21
1970.0
 31
0.0
  0
TEXT
  5
9CE
100
AcDbEntity
  8
器具明細表
  6
CONTINUOUS
 62
     2
100
AcDbText
 10
1159.391216
 20
1754.5
 30
0.0
 40
40.0
  1
床面カット
 41
0.672
  7
EXCADSTD
 72
     5
 11
1319.391216
 21
1754.5
 31
0.0
100
AcDbText
  0
LINE
  5
9CF
100
AcDbEntity
  8
器具明細表
  6
CONTINUOUS
 62
     6
100
AcDbLine
 10
1277.0
 20
1970.0
 30
0.0
 11
1277.0
 21
1910.2547
 31
0.0
  0
LINE
  5
9D0
100
AcDbEntity
  8
器具明細表
  6
CONTINUOUS
 62
     6
100
AcDbLine
 10
1188.0
 20
1970.0
 30
0.0
 11
1188.0
 21
1910.2547
 31
0.0
  0
ARC
  5
9D1
100
AcDbEntity
  8
器具明細表
  6
CONTINUOUS
 62
     6
100
AcDbCircle
 10
1210.25
 20
1879.278409
 30
0.0
 40
38.139128
100
AcDbArc
 50
54.310642
 51
125.689358
  0
ARC
  5
9D2
100
AcDbEntity
  8
器具明細表
  6
CONTINUOUS
 62
     6
100
AcDbCircle
 10
1210.25
 20
1941.23099
 30
0.0
 40
38.139128
100
AcDbArc
 50
234.310642
 51
305.689358
  0
ARC
  5
9D3
100
AcDbEntity
  8
器具明細表
  6
CONTINUOUS
 62
     6
100
AcDbCircle
 10
1254.75
 20
1941.23099
 30
0.0
 40
38.139128
100
AcDbArc
 50
234.310642
 51
305.689358
  0
LINE
  5
9D4
100
AcDbEntity
  8
器具明細表
  6
CONTINUOUS
 62
     6
100
AcDbLine
 10
1277.0
 20
1970.0
 30
0.0
 11
1188.0
 21
1970.0
 31
0.0
  0
TEXT
  5
9D5
100
AcDbEntity
  8
器具明細表
  6
CONTINUOUS
 62
     2
100
AcDbText
 10
1123.391216
 20
1803.5
 30
0.0
 40
40.0
  1
ＶＰ７５の場合
 41
0.66
  7
EXCADSTD
 72
     5
 11
1343.391216
 21
1803.5
 31
0.0
100
AcDbText
  0
TEXT
  5
9D6
100
AcDbEntity
  8
器具明細表
  6
CONTINUOUS
 62
     2
100
AcDbText
 10
1415.891216
 20
1801.5
 30
0.0
 40
40.0
  1
ＶＵ７５、ＶＵ、ＶＰ１００の場合
 41
0.60375
  7
EXCADSTD
 72
     5
 11
1875.891208
 21
1801.5
 31
0.0
100
AcDbText
  0
LINE
  5
9D7
100
AcDbEntity
  8
器具明細表
  6
CONTINUOUS
 62
     6
100
AcDbLine
 10
1416.0
 20
1798.0
 30
0.0
 11
1879.0
 21
1798.0
 31
0.0
  0
TEXT
  5
9D8
100
AcDbEntity
  8
器具明細表
  6
CONTINUOUS
 62
     2
100
AcDbText
 10
1348.0
 20
1973.5
 30
0.0
 40
40.0
  1
Ｆ．Ｌ
 41
0.833
  7
EXCADSTD
 72
     5
 11
1467.0
 21
1973.5
 31
0.0
100
AcDbText
  0
LINE
  5
9D9
100
AcDbEntity
  8
器具明細表
  6
CONTINUOUS
 62
     6
100
AcDbLine
 10
1098.0
 20
1798.0
 30
0.0
 11
1369.0
 21
1798.0
 31
0.0
  0
LINE
  5
9DA
100
AcDbEntity
  8
器具明細表
  6
CONTINUOUS
 62
     7
100
AcDbLine
 10
1083.5
 20
1970.0
 30
0.0
 11
1836.0
 21
1970.0
 31
0.0
  0
LINE
  5
9DB
100
AcDbEntity
  8
器具明細表
  6
EXLTYPE3
 62
     6
100
AcDbLine
 10
1232.5
 20
1984.0
 30
0.0
 11
1232.5
 21
1890.2547
 31
0.0
  0
TEXT
  5
9DC
100
AcDbEntity
  8
器具明細表
  6
CONTINUOUS
 62
     2
100
AcDbText
 10
1277.0
 20
2581.5
 30
0.0
 40
43.0
  1
ＳＴ７９ＲＵ－１ＡＥ（Ｙ）０Ｆ＃
 41
0.363837
  7
EXCADSTD
 72
     5
 11
1574.999992
 21
2581.5
 31
0.0
100
AcDbText
  0
TEXT
  5
9DD
100
AcDbEntity
  8
器具明細表
  6
CONTINUOUS
 62
     2
100
AcDbText
 10
1277.0
 20
2633.5
 30
0.0
 40
43.0
  1
ＳＣ８４ＳＧ－ＢＴ（ＣＴ）＃
 41
0.424186
  7
EXCADSTD
 72
     5
 11
1580.999987
 21
2633.5
 31
0.0
100
AcDbText
  0
ENDSEC
  0
SECTION
  2
OBJECTS
  0
DICTIONARY
  5
19
100
AcDbDictionary
  3
ACAD_GROUP
350
1A
  3
ACAD_MLINESTYLE
350
1B
  0
DICTIONARY
  5
1A
102
{ACAD_REACTORS
330
19
102
}
100
AcDbDictionary
  0
DICTIONARY
  5
1B
102
{ACAD_REACTORS
330
19
102
}
100
AcDbDictionary
  3
STANDARD
350
1C
  0
MLINESTYLE
  5
1C
102
{ACAD_REACTORS
330
1B
102
}
100
AcDbMlineStyle
  2
Standard
 70
     0
  3

 62
     0
 51
90.0
 52
90.0
 71
     2
 49
0.5
 62
   256
  6
ByLayer
 49
-0.5
 62
   256
  6
ByLayer
  0
ENDSEC
  0
EOF
