  0
SECTION
  2
HEADER
  9
$ACADVER
  1
AC1014
  9
$ACADMAINTVER
 70
     0
  9
$DWGCODEPAGE
  3
ANSI_932
  9
$INSBASE
 10
0.0
 20
0.0
 30
0.0
  9
$EXTMIN
 10
0.0
 20
13.5
 30
0.0
  9
$EXTMAX
 10
200.0
 20
288.5
 30
0.0
  9
$LIMMIN
 10
0.0
 20
0.0
  9
$LIMMAX
 10
210.0
 20
297.0
  9
$ORTHOMODE
 70
     0
  9
$REGENMODE
 70
     1
  9
$FILLMODE
 70
     1
  9
$QTEXTMODE
 70
     0
  9
$MIRRTEXT
 70
     1
  9
$DRAGMODE
 70
     2
  9
$LTSCALE
 40
1.0
  9
$OSMODE
 70
     0
  9
$ATTMODE
 70
     1
  9
$TEXTSIZE
 40
0.2
  9
$TRACEWID
 40
0.05
  9
$TEXTSTYLE
  7
STANDARD
  9
$CLAYER
  8
化粧台
  9
$CELTYPE
  6
CONTINUOUS
  9
$CECOLOR
 62
   256
  9
$CELTSCALE
 40
1.0
  9
$DELOBJ
 70
     1
  9
$DISPSILH
 70
     0
  9
$DIMSCALE
 40
1.0
  9
$DIMASZ
 40
0.18
  9
$DIMEXO
 40
0.0625
  9
$DIMDLI
 40
0.38
  9
$DIMRND
 40
0.0
  9
$DIMDLE
 40
0.0
  9
$DIMEXE
 40
0.18
  9
$DIMTP
 40
0.0
  9
$DIMTM
 40
0.0
  9
$DIMTXT
 40
0.18
  9
$DIMCEN
 40
0.09
  9
$DIMTSZ
 40
0.0
  9
$DIMTOL
 70
     0
  9
$DIMLIM
 70
     0
  9
$DIMTIH
 70
     1
  9
$DIMTOH
 70
     1
  9
$DIMSE1
 70
     0
  9
$DIMSE2
 70
     0
  9
$DIMTAD
 70
     0
  9
$DIMZIN
 70
     0
  9
$DIMBLK
  1

  9
$DIMASO
 70
     1
  9
$DIMSHO
 70
     1
  9
$DIMPOST
  1

  9
$DIMAPOST
  1

  9
$DIMALT
 70
     0
  9
$DIMALTD
 70
     2
  9
$DIMALTF
 40
25.4
  9
$DIMLFAC
 40
1.0
  9
$DIMTOFL
 70
     0
  9
$DIMTVP
 40
0.0
  9
$DIMTIX
 70
     0
  9
$DIMSOXD
 70
     0
  9
$DIMSAH
 70
     0
  9
$DIMBLK1
  1

  9
$DIMBLK2
  1

  9
$DIMSTYLE
  2
STANDARD
  9
$DIMCLRD
 70
     0
  9
$DIMCLRE
 70
     0
  9
$DIMCLRT
 70
     0
  9
$DIMTFAC
 40
1.0
  9
$DIMGAP
 40
0.09
  9
$DIMJUST
 70
     0
  9
$DIMSD1
 70
     0
  9
$DIMSD2
 70
     0
  9
$DIMTOLJ
 70
     1
  9
$DIMTZIN
 70
     0
  9
$DIMALTZ
 70
     0
  9
$DIMALTTZ
 70
     0
  9
$DIMFIT
 70
     3
  9
$DIMUPT
 70
     0
  9
$DIMUNIT
 70
     2
  9
$DIMDEC
 70
     4
  9
$DIMTDEC
 70
     4
  9
$DIMALTU
 70
     2
  9
$DIMALTTD
 70
     2
  9
$DIMTXSTY
  7
STANDARD
  9
$DIMAUNIT
 70
     0
  9
$LUNITS
 70
     2
  9
$LUPREC
 70
     4
  9
$SKETCHINC
 40
0.1
  9
$FILLETRAD
 40
0.0
  9
$AUNITS
 70
     0
  9
$AUPREC
 70
     0
  9
$MENU
  1
acad
  9
$ELEVATION
 40
0.0
  9
$PELEVATION
 40
0.0
  9
$THICKNESS
 40
0.0
  9
$LIMCHECK
 70
     0
  9
$BLIPMODE
 70
     1
  9
$CHAMFERA
 40
0.0
  9
$CHAMFERB
 40
0.0
  9
$CHAMFERC
 40
0.0
  9
$CHAMFERD
 40
0.0
  9
$SKPOLY
 70
     0
  9
$TDCREATE
 40
2454684.090677813
  9
$TDUPDATE
 40
2454684.090677813
  9
$TDINDWG
 40
0.0000000000
  9
$TDUSRTIMER
 40
0.0000000000
  9
$USRTIMER
 70
     1
  9
$ANGBASE
 50
0.0
  9
$ANGDIR
 70
     0
  9
$PDMODE
 70
     0
  9
$PDSIZE
 40
0.0
  9
$PLINEWID
 40
0.0
  9
$COORDS
 70
     1
  9
$SPLFRAME
 70
     0
  9
$SPLINETYPE
 70
     6
  9
$SPLINESEGS
 70
     8
  9
$ATTDIA
 70
     0
  9
$ATTREQ
 70
     1
  9
$HANDLING
 70
     1
  9
$HANDSEED
  5
925
  9
$SURFTAB1
 70
     6
  9
$SURFTAB2
 70
     6
  9
$SURFTYPE
 70
     6
  9
$SURFU
 70
     6
  9
$SURFV
 70
     6
  9
$UCSNAME
  2

  9
$UCSORG
 10
0.0
 20
0.0
 30
0.0
  9
$UCSXDIR
 10
1.0
 20
0.0
 30
0.0
  9
$UCSYDIR
 10
0.0
 20
1.0
 30
0.0
  9
$PUCSNAME
  2

  9
$PUCSORG
 10
0.0
 20
0.0
 30
0.0
  9
$PUCSXDIR
 10
1.0
 20
0.0
 30
0.0
  9
$PUCSYDIR
 10
0.0
 20
1.0
 30
0.0
  9
$USERI1
 70
     0
  9
$USERI2
 70
     0
  9
$USERI3
 70
     0
  9
$USERI4
 70
     0
  9
$USERI5
 70
     0
  9
$USERR1
 40
0.0
  9
$USERR2
 40
0.0
  9
$USERR3
 40
0.0
  9
$USERR4
 40
0.0
  9
$USERR5
 40
0.0
  9
$WORLDVIEW
 70
     1
  9
$SHADEDGE
 70
     3
  9
$SHADEDIF
 70
    70
  9
$TILEMODE
 70
     1
  9
$MAXACTVP
 70
    16
  9
$PINSBASE
 10
0.0
 20
0.0
 30
0.0
  9
$PLIMCHECK
 70
     0
  9
$PEXTMIN
 10
1.000000E+20
 20
1.000000E+20
 30
1.000000E+20
  9
$PEXTMAX
 10
-1.000000E+20
 20
-1.000000E+20
 30
-1.000000E+20
  9
$PLIMMIN
 10
0.0
 20
0.0
  9
$PLIMMAX
 10
12.0
 20
9.0
  9
$UNITMODE
 70
     0
  9
$VISRETAIN
 70
     0
  9
$PLINEGEN
 70
     1
  9
$PSLTSCALE
 70
     0
  9
$TREEDEPTH
 70
  3020
  9
$PICKSTYLE
 70
     1
  9
$CMLSTYLE
  2
Standard
  9
$CMLJUST
 70
     0
  9
$CMLSCALE
 40
1.0
  9
$PROXYGRAPHICS
 70
     0
  9
$MEASUREMENT
 70
     0
  0
ENDSEC
  0
SECTION
  2
CLASSES
  0
CLASS
  1
LWPOLYLINE
  2
AcDbPolyline
  3
"AutoCAD"
 90
        0
280
     0
281
     1
  0
CLASS
  1
IMAGE
  2
AcDbRasterImage
  3
ISM
 90
      127
280
     0
281
     1
  0
CLASS
  1
OLE2FRAME
  2
AcDbOle2Frame
  3
""
 90
        0
280
     0
281
     1
  0
CLASS
  1
HATCH
  2
AcDbHatch
  3
"ACAD_SEDONA"
 90
        0
280
     0
281
     1
  0
CLASS
  1
DICTIONARYVAR
  2
AcDbDictionaryVar
  3
"AutoCAD"
 90
        0
280
     0
281
     0
  0
CLASS
  1
RASTERVARIABLES
  2
AcDbRasterVariables
  3
ISM
 90
        0
280
     0
281
     0
  0
CLASS
  1
IMAGEDEF
  2
AcDbRasterImageDef
  3
ISM
 90
        0
280
     0
281
     0
  0
CLASS
  1
IMAGEDEF_REACTOR
  2
AcDbRasterImageDefReactor
  3
ISM
 90
        1
280
     0
281
     0
  0
CLASS
  1
IDBUFFER
  2
AcDbIdBuffer
  3
"Acad"
 90
        0
280
     0
281
     0
  0
CLASS
  1
SPATIAL_FILTER
  2
AcDbSpatialFilter
  3
"Acad"
 90
        0
280
     0
281
     0
  0
CLASS
  1
XRECORD
  2
AcDbXrecord
  3
"<Built In>"
 90
        0
280
     0
281
     0
  0
CLASS
  1
SORTENTSTABLE
  2
AcDbSortentsTable
  3
"AutoCAD"
 90
        0
280
     0
281
     0
  0
CLASS
  1
LAYER_INDEX
  2
AcDbLayerIndex
  3
"Acad"
 90
        0
280
     0
281
     0
  0
CLASS
  1
SPATIAL_INDEX
  2
AcDbSpatialIndex
  3
"Acad"
 90
        0
280
     0
281
     0
  0
CLASS
  1
OBJECT_PTR
  2
CAseDLPNTableRecord
  3
"ASE-LPNTableRecord"
 90
        1
280
     0
281
     0
  0
CLASS
  1
LAYOUT
  2
AcDbLayout
  3
"AutoCAD 2000"
 90
        1
280
     0
281
     0
  0
CLASS
  1
PLOTSETTINGS
  2
AcDbPlotSettings
  3
"AutoCAD 2000"
 90
        1
280
     0
281
     0
  0
CLASS
  1
ACDBDICTIONARYWDFLT
  2
AcDbDictionaryWithDefault
  3
"AutoCAD 2000"
 90
        1
280
     0
281
     0
  0
CLASS
  1
ACDBPLACEHOLDER
  2
AcDbPlaceHolder
  3
"AutoCAD 2000"
 90
        1
280
     0
281
     0
  0
CLASS
  1
VBA_PROJECT
  2
AcDbVbaProject
  3
"acadvba"
 90
        1
280
     0
281
     0
  0
CLASS
  1
WIPEOUT
  2
AcDbWipeout
  3
WipeOut|AutoCAD Express Tool|expresstools@autodesk.com
 90
      127
280
     0
281
     1
  0
CLASS
  1
WIPEOUTVARIABLES
  2
AcDbWipeoutVariables
  3
WipeOut|AutoCAD Express Tool|expresstools@autodesk.com
 90
        0
280
     0
281
     0
  0
CLASS
  1
RTEXT
  2
RText
  3
RText|AutoCAD Express Tool|expresstools@autodesk.com
 90
        0
280
     0
281
     1
  0
CLASS
  1
ARCALIGNEDTEXT
  2
AcDbArcAlignedText
  3
ATEXT|AutoCAD Express Tool|expresstools@autodesk.com
 90
        0
280
     0
281
     1
  0
ENDSEC
  0
SECTION
  2
TABLES
  0
TABLE
  2
VPORT
  5
7
100
AcDbSymbolTable
 70
     1
  0
VPORT
  5
15
100
AcDbSymbolTableRecord
100
AcDbViewportTableRecord
  2
*ACTIVE
 70
     0
 10
0.0
 20
0.0
 11
1.0
 21
1.0
 12
1500.0
 22
2265.0
 13
0.0
 23
0.0
 14
1.0
 24
1.0
 15
0.0
 25
0.0
 16
0.0
 26
0.0
 36
1.0
 17
0.0
 27
0.0
 37
0.0
 40
4125.0
 41
1.722533
 42
50.0
 43
0.0
 44
0.0
 50
0.0
 51
0.0
 71
     0
 72
   100
 73
     1
 74
     1
 75
     0
 76
     0
 77
     0
 78
     0
  0
ENDTAB
  0
TABLE
  2
LTYPE
  5
4
100
AcDbSymbolTable
 70
     9
  0
LTYPE
  5
11
100
AcDbSymbolTableRecord
100
AcDbLinetypeTableRecord
  2
BYBLOCK
 70
    64
  3

 72
    65
 73
     0
 40
0.0
  0
LTYPE
  5
12
100
AcDbSymbolTableRecord
100
AcDbLinetypeTableRecord
  2
BYLAYER
 70
    64
  3

 72
    65
 73
     0
 40
0.0
  0
LTYPE
  5
13
100
AcDbSymbolTableRecord
100
AcDbLinetypeTableRecord
  2
CONTINUOUS
 70
    64
  3
実線
 72
    65
 73
     0
 40
0.0
  0
LTYPE
  5
1D
100
AcDbSymbolTableRecord
100
AcDbLinetypeTableRecord
  2
EXLTYPE1
 70
    64
  3
破線
 72
    65
 73
     2
 40
3.0
 49
2.0
 74
     0
 49
-1.0
 74
     0
  0
LTYPE
  5
1E
100
AcDbSymbolTableRecord
100
AcDbLinetypeTableRecord
  2
EXLTYPE2
 70
    64
  3
点線
 72
    65
 73
     2
 40
2.0
 49
1.0
 74
     0
 49
-1.0
 74
     0
  0
LTYPE
  5
1F
100
AcDbSymbolTableRecord
100
AcDbLinetypeTableRecord
  2
EXLTYPE3
 70
    64
  3
一点鎖線
 72
    65
 73
     4
 40
10.0
 49
7.0
 74
     0
 49
-1.0
 74
     0
 49
1.0
 74
     0
 49
-1.0
 74
     0
  0
LTYPE
  5
20
100
AcDbSymbolTableRecord
100
AcDbLinetypeTableRecord
  2
EXLTYPE4
 70
    64
  3
二点鎖線
 72
    65
 73
     6
 40
12.0
 49
7.0
 74
     0
 49
-1.0
 74
     0
 49
1.0
 74
     0
 49
-1.0
 74
     0
 49
1.0
 74
     0
 49
-1.0
 74
     0
  0
LTYPE
  5
21
100
AcDbSymbolTableRecord
100
AcDbLinetypeTableRecord
  2
EXLTYPE5
 70
    64
  3
三点鎖線
 72
    65
 73
     8
 40
37.0
 49
30.0
 74
     0
 49
-1.0
 74
     0
 49
1.0
 74
     0
 49
-1.0
 74
     0
 49
1.0
 74
     0
 49
-1.0
 74
     0
 49
1.0
 74
     0
 49
-1.0
 74
     0
  0
LTYPE
  5
22
100
AcDbSymbolTableRecord
100
AcDbLinetypeTableRecord
  2
EXLTYPE6
 70
    64
  3
四点鎖線
 72
    65
 73
    10
 40
39.0
 49
30.0
 74
     0
 49
-1.0
 74
     0
 49
1.0
 74
     0
 49
-1.0
 74
     0
 49
1.0
 74
     0
 49
-1.0
 74
     0
 49
1.0
 74
     0
 49
-1.0
 74
     0
 49
1.0
 74
     0
 49
-1.0
 74
     0
  0
ENDTAB
  0
TABLE
  2
LAYER
  5
2
100
AcDbSymbolTable
 70
     6
  0
LAYER
  5
14
100
AcDbSymbolTableRecord
100
AcDbLayerTableRecord
  2
0
 70
     0
 62
     7
  6
CONTINUOUS
  0
LAYER
  5
25
100
AcDbSymbolTableRecord
100
AcDbLayerTableRecord
  2
枠・表
 70
    64
 62
     7
  6
CONTINUOUS
  0
LAYER
  5
26
100
AcDbSymbolTableRecord
100
AcDbLayerTableRecord
  2
化粧台
 70
    64
 62
     7
  6
CONTINUOUS
  0
LAYER
  5
27
100
AcDbSymbolTableRecord
100
AcDbLayerTableRecord
  2
鏡台
 70
    64
 62
     7
  6
CONTINUOUS
  0
LAYER
  5
28
100
AcDbSymbolTableRecord
100
AcDbLayerTableRecord
  2
付属金具
 70
    64
 62
     7
  6
CONTINUOUS
  0
LAYER
  5
29
100
AcDbSymbolTableRecord
100
AcDbLayerTableRecord
  2
寸法
 70
    64
 62
     7
  6
CONTINUOUS
  0
ENDTAB
  0
TABLE
  2
STYLE
  5
3
100
AcDbSymbolTable
 70
     6
  0
STYLE
  5
17
100
AcDbSymbolTableRecord
100
AcDbTextStyleTableRecord
  2
STANDARD
 70
     0
 40
0.0
 41
1.0
 50
0.0
 71
     0
 42
0.0
  3
monotxt
  4
extfont
  0
STYLE
  5
23
100
AcDbSymbolTableRecord
100
AcDbTextStyleTableRecord
  2
EXCADSTD
 70
    64
 40
0.0
 41
1.0
 50
0.0
 71
     0
 42
0.2
  3
monotxt
  4
extfont
  0
STYLE
  5
24
100
AcDbSymbolTableRecord
100
AcDbTextStyleTableRecord
  2
EXCADVERT
 70
    68
 40
0.0
 41
1.0
 50
0.0
 71
     0
 42
0.286885
  3
monotxt
  4
extfont
  0
STYLE
  5
664
100
AcDbSymbolTableRecord
100
AcDbTextStyleTableRecord
  2
EXCADTTF1
 70
    64
 40
0.0
 41
1.0
 50
0.0
 71
     0
 42
0.2
  3
MS Gothic.ttf
  4

1001
ACAD
1000
MS Gothic
1071
    32817
  0
STYLE
  5
749
100
AcDbSymbolTableRecord
100
AcDbTextStyleTableRecord
  2
EXCADDIM1
 70
    64
 40
0.0
 41
0.84
 50
0.0
 71
     0
 42
0.2
  3
monotxt
  4
extfont
  0
STYLE
  5
90C
100
AcDbSymbolTableRecord
100
AcDbTextStyleTableRecord
  2
EXCADDIM2
 70
    64
 40
0.0
 41
0.95
 50
0.0
 71
     0
 42
0.2
  3
monotxt
  4
extfont
  0
ENDTAB
  0
TABLE
  2
VIEW
  5
5
100
AcDbSymbolTable
 70
     0
  0
ENDTAB
  0
TABLE
  2
UCS
  5
6
100
AcDbSymbolTable
 70
     0
  0
ENDTAB
  0
TABLE
  2
APPID
  5
8
100
AcDbSymbolTable
 70
     1
  0
APPID
  5
16
100
AcDbSymbolTableRecord
100
AcDbRegAppTableRecord
  2
ACAD
 70
     0
  0
ENDTAB
  0
TABLE
  2
DIMSTYLE
  5
9
100
AcDbSymbolTable
 70
     1
  0
DIMSTYLE
105
18
100
AcDbSymbolTableRecord
100
AcDbDimStyleTableRecord
  2
STANDARD
 70
     0
  3

  4

  5

  6

  7

 40
1.0
 41
0.18
 42
0.0625
 43
0.38
 44
0.18
 45
0.0
 46
0.0
 47
0.0
 48
0.0
 71
     0
 72
     0
 73
     1
 74
     1
 75
     0
 76
     0
 77
     0
 78
     0
140
0.18
141
0.09
142
0.0
143
25.4
144
1.0
145
0.0
146
1.0
147
0.09
170
     0
171
     2
172
     1
173
     0
174
     0
175
     0
176
     0
177
     0
178
     0
270
     2
271
     4
272
     4
273
     2
274
     2
275
     0
280
     0
281
     0
282
     0
283
     1
284
     0
285
     0
286
     0
287
     0
288
     0
340
17
  0
ENDTAB
  0
TABLE
  2
BLOCK_RECORD
  5
1
100
AcDbSymbolTable
 70
    39
  0
BLOCK_RECORD
  5
A
100
AcDbSymbolTableRecord
100
AcDbBlockTableRecord
  2
*MODEL_SPACE
  0
BLOCK_RECORD
  5
B
100
AcDbSymbolTableRecord
100
AcDbBlockTableRecord
  2
*PAPER_SPACE
  0
BLOCK_RECORD
  5
2A
100
AcDbSymbolTableRecord
100
AcDbBlockTableRecord
  2
_EX_NORM
  0
BLOCK_RECORD
  5
2B
100
AcDbSymbolTableRecord
100
AcDbBlockTableRecord
  2
_EX_BNORM
  0
BLOCK_RECORD
  5
2C
100
AcDbSymbolTableRecord
100
AcDbBlockTableRecord
  2
_EX_BCIR
  0
BLOCK_RECORD
  5
2D
100
AcDbSymbolTableRecord
100
AcDbBlockTableRecord
  2
_EX_RCIVIL
  0
BLOCK_RECORD
  5
2E
100
AcDbSymbolTableRecord
100
AcDbBlockTableRecord
  2
_EX_SLANT
  0
BLOCK_RECORD
  5
2F
100
AcDbSymbolTableRecord
100
AcDbBlockTableRecord
  2
_EX_NONE
  0
BLOCK_RECORD
  5
30
100
AcDbSymbolTableRecord
100
AcDbBlockTableRecord
  2
_EX_CIVIL
  0
BLOCK_RECORD
  5
31
100
AcDbSymbolTableRecord
100
AcDbBlockTableRecord
  2
_EX_WCIR
  0
BLOCK_RECORD
  5
32
100
AcDbSymbolTableRecord
100
AcDbBlockTableRecord
  2
_EX_WCIR2
  0
BLOCK_RECORD
  5
33
100
AcDbSymbolTableRecord
100
AcDbBlockTableRecord
  2
_EX_WNORM
  0
BLOCK_RECORD
  5
34
100
AcDbSymbolTableRecord
100
AcDbBlockTableRecord
  2
_EX_NNORM
  0
BLOCK_RECORD
  5
35
100
AcDbSymbolTableRecord
100
AcDbBlockTableRecord
  2
_EX_BBOX
  0
BLOCK_RECORD
  5
36
100
AcDbSymbolTableRecord
100
AcDbBlockTableRecord
  2
_EX_WBOX
  0
BLOCK_RECORD
  5
37
100
AcDbSymbolTableRecord
100
AcDbBlockTableRecord
  2
_EX_INTEGRAL
  0
BLOCK_RECORD
  5
73E
100
AcDbSymbolTableRecord
100
AcDbBlockTableRecord
  2
*D14
  0
BLOCK_RECORD
  5
74B
100
AcDbSymbolTableRecord
100
AcDbBlockTableRecord
  2
*D15
  0
BLOCK_RECORD
  5
757
100
AcDbSymbolTableRecord
100
AcDbBlockTableRecord
  2
*D16
  0
BLOCK_RECORD
  5
763
100
AcDbSymbolTableRecord
100
AcDbBlockTableRecord
  2
*D17
  0
BLOCK_RECORD
  5
76F
100
AcDbSymbolTableRecord
100
AcDbBlockTableRecord
  2
*D18
  0
BLOCK_RECORD
  5
801
100
AcDbSymbolTableRecord
100
AcDbBlockTableRecord
  2
*D19
  0
BLOCK_RECORD
  5
840
100
AcDbSymbolTableRecord
100
AcDbBlockTableRecord
  2
*D20
  0
BLOCK_RECORD
  5
84D
100
AcDbSymbolTableRecord
100
AcDbBlockTableRecord
  2
*D21
  0
BLOCK_RECORD
  5
859
100
AcDbSymbolTableRecord
100
AcDbBlockTableRecord
  2
*D22
  0
BLOCK_RECORD
  5
865
100
AcDbSymbolTableRecord
100
AcDbBlockTableRecord
  2
*D23
  0
BLOCK_RECORD
  5
871
100
AcDbSymbolTableRecord
100
AcDbBlockTableRecord
  2
*D24
  0
BLOCK_RECORD
  5
87D
100
AcDbSymbolTableRecord
100
AcDbBlockTableRecord
  2
*D25
  0
BLOCK_RECORD
  5
888
100
AcDbSymbolTableRecord
100
AcDbBlockTableRecord
  2
*D26
  0
BLOCK_RECORD
  5
894
100
AcDbSymbolTableRecord
100
AcDbBlockTableRecord
  2
*D27
  0
BLOCK_RECORD
  5
8A0
100
AcDbSymbolTableRecord
100
AcDbBlockTableRecord
  2
*D28
  0
BLOCK_RECORD
  5
8AB
100
AcDbSymbolTableRecord
100
AcDbBlockTableRecord
  2
*D29
  0
BLOCK_RECORD
  5
8B6
100
AcDbSymbolTableRecord
100
AcDbBlockTableRecord
  2
*D30
  0
BLOCK_RECORD
  5
8C2
100
AcDbSymbolTableRecord
100
AcDbBlockTableRecord
  2
*D31
  0
BLOCK_RECORD
  5
8D0
100
AcDbSymbolTableRecord
100
AcDbBlockTableRecord
  2
*D32
  0
BLOCK_RECORD
  5
8E1
100
AcDbSymbolTableRecord
100
AcDbBlockTableRecord
  2
*D33
  0
BLOCK_RECORD
  5
8EC
100
AcDbSymbolTableRecord
100
AcDbBlockTableRecord
  2
*D34
  0
BLOCK_RECORD
  5
8F8
100
AcDbSymbolTableRecord
100
AcDbBlockTableRecord
  2
*D35
  0
BLOCK_RECORD
  5
904
100
AcDbSymbolTableRecord
100
AcDbBlockTableRecord
  2
*D36
  0
BLOCK_RECORD
  5
90E
100
AcDbSymbolTableRecord
100
AcDbBlockTableRecord
  2
*D37
  0
BLOCK_RECORD
  5
91A
100
AcDbSymbolTableRecord
100
AcDbBlockTableRecord
  2
*D38
  0
ENDTAB
  0
ENDSEC
  0
SECTION
  2
BLOCKS
  0
BLOCK
  5
D
100
AcDbEntity
  8
0
100
AcDbBlockBegin
  2
*MODEL_SPACE
 70
     0
 10
0.0
 20
0.0
 30
0.0
  3
*MODEL_SPACE
  1

  0
ENDBLK
  5
E
100
AcDbEntity
  8
0
100
AcDbBlockEnd
  0
BLOCK
  5
F
100
AcDbEntity
 67
     1
  8
0
100
AcDbBlockBegin
  2
*PAPER_SPACE
 70
     0
 10
0.0
 20
0.0
 30
0.0
  3
*PAPER_SPACE
  1

  0
ENDBLK
  5
10
100
AcDbEntity
 67
     1
  8
0
100
AcDbBlockEnd
  0
BLOCK
  5
38
100
AcDbEntity
  8
0
100
AcDbBlockBegin
  2
_EX_NORM
 70
     0
 10
0.0
 20
0.0
 30
0.0
  3
_EX_NORM
  1

  0
LINE
  5
39
100
AcDbEntity
  8
0
  6
CONTINUOUS
 62
     0
100
AcDbLine
 10
0.0
 20
0.0
 30
0.0
 11
-1.0
 21
0.0
 31
0.0
  0
LINE
  5
3A
100
AcDbEntity
  8
0
  6
CONTINUOUS
 62
     0
100
AcDbLine
 10
0.0
 20
0.0
 30
0.0
 11
-1.0
 21
0.166667
 31
0.0
  0
LINE
  5
3B
100
AcDbEntity
  8
0
  6
CONTINUOUS
 62
     0
100
AcDbLine
 10
0.0
 20
0.0
 30
0.0
 11
-1.0
 21
-0.166667
 31
0.0
  0
ENDBLK
  5
3C
100
AcDbEntity
  8
0
100
AcDbBlockEnd
  0
BLOCK
  5
3D
100
AcDbEntity
  8
0
100
AcDbBlockBegin
  2
_EX_BNORM
 70
     0
 10
0.0
 20
0.0
 30
0.0
  3
_EX_BNORM
  1

  0
LINE
  5
3E
100
AcDbEntity
  8
0
  6
CONTINUOUS
 62
     0
100
AcDbLine
 10
0.0
 20
0.0
 30
0.0
 11
-1.0
 21
0.0
 31
0.0
  0
LINE
  5
3F
100
AcDbEntity
  8
0
  6
CONTINUOUS
 62
     0
100
AcDbLine
 10
0.0
 20
0.0
 30
0.0
 11
-1.0
 21
0.166667
 31
0.0
  0
LINE
  5
40
100
AcDbEntity
  8
0
  6
CONTINUOUS
 62
     0
100
AcDbLine
 10
0.0
 20
0.0
 30
0.0
 11
-1.0
 21
-0.166667
 31
0.0
  0
LINE
  5
41
100
AcDbEntity
  8
0
  6
CONTINUOUS
 62
     0
100
AcDbLine
 10
0.0
 20
0.0
 30
0.0
 11
-1.0
 21
0.083333
 31
0.0
  0
LINE
  5
42
100
AcDbEntity
  8
0
  6
CONTINUOUS
 62
     0
100
AcDbLine
 10
0.0
 20
0.0
 30
0.0
 11
-1.0
 21
-0.083333
 31
0.0
  0
LINE
  5
43
100
AcDbEntity
  8
0
  6
CONTINUOUS
 62
     0
100
AcDbLine
 10
-1.0
 20
0.166667
 30
0.0
 11
-1.0
 21
-0.166667
 31
0.0
  0
ENDBLK
  5
44
100
AcDbEntity
  8
0
100
AcDbBlockEnd
  0
BLOCK
  5
45
100
AcDbEntity
  8
0
100
AcDbBlockBegin
  2
_EX_BCIR
 70
     0
 10
0.0
 20
0.0
 30
0.0
  3
_EX_BCIR
  1

  0
LINE
  5
46
100
AcDbEntity
  8
0
  6
CONTINUOUS
 62
     0
100
AcDbLine
 10
0.0
 20
0.0
 30
0.0
 11
-1.0
 21
0.0
 31
0.0
  0
CIRCLE
  5
47
100
AcDbEntity
  8
0
  6
CONTINUOUS
 62
     0
100
AcDbCircle
 10
0.0
 20
0.0
 30
0.0
 40
0.5
  0
CIRCLE
  5
48
100
AcDbEntity
  8
0
  6
CONTINUOUS
 62
     0
100
AcDbCircle
 10
0.0
 20
0.0
 30
0.0
 40
0.25
  0
ENDBLK
  5
49
100
AcDbEntity
  8
0
100
AcDbBlockEnd
  0
BLOCK
  5
4A
100
AcDbEntity
  8
0
100
AcDbBlockBegin
  2
_EX_RCIVIL
 70
     0
 10
0.0
 20
0.0
 30
0.0
  3
_EX_RCIVIL
  1

  0
LINE
  5
4B
100
AcDbEntity
  8
0
  6
CONTINUOUS
 62
     0
100
AcDbLine
 10
0.0
 20
0.0
 30
0.0
 11
-1.0
 21
0.0
 31
0.0
  0
LINE
  5
4C
100
AcDbEntity
  8
0
  6
CONTINUOUS
 62
     0
100
AcDbLine
 10
-1.0
 20
-0.25
 30
0.0
 11
0.0
 21
-0.25
 31
0.0
  0
LINE
  5
4D
100
AcDbEntity
  8
0
  6
CONTINUOUS
 62
     0
100
AcDbLine
 10
-1.0
 20
-0.125
 30
0.0
 11
0.0
 21
-0.125
 31
0.0
  0
ENDBLK
  5
4E
100
AcDbEntity
  8
0
100
AcDbBlockEnd
  0
BLOCK
  5
4F
100
AcDbEntity
  8
0
100
AcDbBlockBegin
  2
_EX_SLANT
 70
     0
 10
0.0
 20
0.0
 30
0.0
  3
_EX_SLANT
  1

  0
LINE
  5
50
100
AcDbEntity
  8
0
  6
CONTINUOUS
 62
     0
100
AcDbLine
 10
0.0
 20
0.0
 30
0.0
 11
-1.0
 21
0.0
 31
0.0
  0
LINE
  5
51
100
AcDbEntity
  8
0
  6
CONTINUOUS
 62
     0
100
AcDbLine
 10
0.707107
 20
0.707107
 30
0.0
 11
-0.707107
 21
-0.707107
 31
0.0
  0
ENDBLK
  5
52
100
AcDbEntity
  8
0
100
AcDbBlockEnd
  0
BLOCK
  5
53
100
AcDbEntity
  8
0
100
AcDbBlockBegin
  2
_EX_NONE
 70
     0
 10
0.0
 20
0.0
 30
0.0
  3
_EX_NONE
  1

  0
LINE
  5
54
100
AcDbEntity
  8
0
  6
CONTINUOUS
 62
     0
100
AcDbLine
 10
0.0
 20
0.0
 30
0.0
 11
-1.0
 21
0.0
 31
0.0
  0
ENDBLK
  5
55
100
AcDbEntity
  8
0
100
AcDbBlockEnd
  0
BLOCK
  5
56
100
AcDbEntity
  8
0
100
AcDbBlockBegin
  2
_EX_CIVIL
 70
     0
 10
0.0
 20
0.0
 30
0.0
  3
_EX_CIVIL
  1

  0
LINE
  5
57
100
AcDbEntity
  8
0
  6
CONTINUOUS
 62
     0
100
AcDbLine
 10
0.0
 20
0.0
 30
0.0
 11
-1.0
 21
0.0
 31
0.0
  0
LINE
  5
58
100
AcDbEntity
  8
0
  6
CONTINUOUS
 62
     0
100
AcDbLine
 10
-1.0
 20
0.25
 30
0.0
 11
0.0
 21
0.25
 31
0.0
  0
LINE
  5
59
100
AcDbEntity
  8
0
  6
CONTINUOUS
 62
     0
100
AcDbLine
 10
-1.0
 20
0.125
 30
0.0
 11
0.0
 21
0.125
 31
0.0
  0
ENDBLK
  5
5A
100
AcDbEntity
  8
0
100
AcDbBlockEnd
  0
BLOCK
  5
5B
100
AcDbEntity
  8
0
100
AcDbBlockBegin
  2
_EX_WCIR
 70
     0
 10
0.0
 20
0.0
 30
0.0
  3
_EX_WCIR
  1

  0
LINE
  5
5C
100
AcDbEntity
  8
0
  6
CONTINUOUS
 62
     0
100
AcDbLine
 10
0.0
 20
0.0
 30
0.0
 11
-1.0
 21
0.0
 31
0.0
  0
CIRCLE
  5
5D
100
AcDbEntity
  8
0
  6
CONTINUOUS
 62
     0
100
AcDbCircle
 10
0.0
 20
0.0
 30
0.0
 40
0.5
  0
ENDBLK
  5
5E
100
AcDbEntity
  8
0
100
AcDbBlockEnd
  0
BLOCK
  5
5F
100
AcDbEntity
  8
0
100
AcDbBlockBegin
  2
_EX_WCIR2
 70
     0
 10
0.0
 20
0.0
 30
0.0
  3
_EX_WCIR2
  1

  0
LINE
  5
60
100
AcDbEntity
  8
0
  6
CONTINUOUS
 62
     0
100
AcDbLine
 10
-0.5
 20
0.0
 30
0.0
 11
-1.0
 21
0.0
 31
0.0
  0
CIRCLE
  5
61
100
AcDbEntity
  8
0
  6
CONTINUOUS
 62
     0
100
AcDbCircle
 10
0.0
 20
0.0
 30
0.0
 40
0.5
  0
ENDBLK
  5
62
100
AcDbEntity
  8
0
100
AcDbBlockEnd
  0
BLOCK
  5
63
100
AcDbEntity
  8
0
100
AcDbBlockBegin
  2
_EX_WNORM
 70
     0
 10
0.0
 20
0.0
 30
0.0
  3
_EX_WNORM
  1

  0
LINE
  5
64
100
AcDbEntity
  8
0
  6
CONTINUOUS
 62
     0
100
AcDbLine
 10
-1.0
 20
0.0
 30
0.0
 11
-1.0
 21
0.0
 31
0.0
  0
LINE
  5
65
100
AcDbEntity
  8
0
  6
CONTINUOUS
 62
     0
100
AcDbLine
 10
0.0
 20
0.0
 30
0.0
 11
-1.0
 21
0.166667
 31
0.0
  0
LINE
  5
66
100
AcDbEntity
  8
0
  6
CONTINUOUS
 62
     0
100
AcDbLine
 10
0.0
 20
0.0
 30
0.0
 11
-1.0
 21
-0.166667
 31
0.0
  0
LINE
  5
67
100
AcDbEntity
  8
0
  6
CONTINUOUS
 62
     0
100
AcDbLine
 10
-1.0
 20
0.166667
 30
0.0
 11
-1.0
 21
-0.166667
 31
0.0
  0
ENDBLK
  5
68
100
AcDbEntity
  8
0
100
AcDbBlockEnd
  0
BLOCK
  5
69
100
AcDbEntity
  8
0
100
AcDbBlockBegin
  2
_EX_NNORM
 70
     0
 10
0.0
 20
0.0
 30
0.0
  3
_EX_NNORM
  1

  0
LINE
  5
6A
100
AcDbEntity
  8
0
  6
CONTINUOUS
 62
     0
100
AcDbLine
 10
0.0
 20
0.0
 30
0.0
 11
-1.0
 21
0.0
 31
0.0
  0
LINE
  5
6B
100
AcDbEntity
  8
0
  6
CONTINUOUS
 62
     0
100
AcDbLine
 10
0.0
 20
0.0
 30
0.0
 11
-1.0
 21
0.166667
 31
0.0
  0
LINE
  5
6C
100
AcDbEntity
  8
0
  6
CONTINUOUS
 62
     0
100
AcDbLine
 10
0.0
 20
0.0
 30
0.0
 11
-1.0
 21
-0.166667
 31
0.0
  0
LINE
  5
6D
100
AcDbEntity
  8
0
  6
CONTINUOUS
 62
     0
100
AcDbLine
 10
-1.0
 20
0.166667
 30
0.0
 11
-1.0
 21
-0.166667
 31
0.0
  0
ENDBLK
  5
6E
100
AcDbEntity
  8
0
100
AcDbBlockEnd
  0
BLOCK
  5
6F
100
AcDbEntity
  8
0
100
AcDbBlockBegin
  2
_EX_BBOX
 70
     0
 10
0.0
 20
0.0
 30
0.0
  3
_EX_BBOX
  1

  0
LINE
  5
70
100
AcDbEntity
  8
0
  6
CONTINUOUS
 62
     0
100
AcDbLine
 10
0.0
 20
0.0
 30
0.0
 11
-1.0
 21
0.0
 31
0.0
  0
LINE
  5
71
100
AcDbEntity
  8
0
  6
CONTINUOUS
 62
     0
100
AcDbLine
 10
-0.5
 20
0.5
 30
0.0
 11
0.5
 21
0.5
 31
0.0
  0
LINE
  5
72
100
AcDbEntity
  8
0
  6
CONTINUOUS
 62
     0
100
AcDbLine
 10
0.5
 20
0.5
 30
0.0
 11
0.5
 21
-0.5
 31
0.0
  0
LINE
  5
73
100
AcDbEntity
  8
0
  6
CONTINUOUS
 62
     0
100
AcDbLine
 10
0.5
 20
-0.5
 30
0.0
 11
-0.5
 21
-0.5
 31
0.0
  0
LINE
  5
74
100
AcDbEntity
  8
0
  6
CONTINUOUS
 62
     0
100
AcDbLine
 10
-0.5
 20
-0.5
 30
0.0
 11
-0.5
 21
0.5
 31
0.0
  0
LINE
  5
75
100
AcDbEntity
  8
0
  6
CONTINUOUS
 62
     0
100
AcDbLine
 10
-0.25
 20
0.25
 30
0.0
 11
0.25
 21
0.25
 31
0.0
  0
LINE
  5
76
100
AcDbEntity
  8
0
  6
CONTINUOUS
 62
     0
100
AcDbLine
 10
0.25
 20
0.25
 30
0.0
 11
0.25
 21
-0.25
 31
0.0
  0
LINE
  5
77
100
AcDbEntity
  8
0
  6
CONTINUOUS
 62
     0
100
AcDbLine
 10
0.25
 20
-0.25
 30
0.0
 11
-0.25
 21
-0.25
 31
0.0
  0
LINE
  5
78
100
AcDbEntity
  8
0
  6
CONTINUOUS
 62
     0
100
AcDbLine
 10
-0.25
 20
-0.25
 30
0.0
 11
-0.25
 21
0.25
 31
0.0
  0
ENDBLK
  5
79
100
AcDbEntity
  8
0
100
AcDbBlockEnd
  0
BLOCK
  5
7A
100
AcDbEntity
  8
0
100
AcDbBlockBegin
  2
_EX_WBOX
 70
     0
 10
0.0
 20
0.0
 30
0.0
  3
_EX_WBOX
  1

  0
LINE
  5
7B
100
AcDbEntity
  8
0
  6
CONTINUOUS
 62
     0
100
AcDbLine
 10
-0.5
 20
0.0
 30
0.0
 11
-1.0
 21
0.0
 31
0.0
  0
LINE
  5
7C
100
AcDbEntity
  8
0
  6
CONTINUOUS
 62
     0
100
AcDbLine
 10
-0.5
 20
0.5
 30
0.0
 11
0.5
 21
0.5
 31
0.0
  0
LINE
  5
7D
100
AcDbEntity
  8
0
  6
CONTINUOUS
 62
     0
100
AcDbLine
 10
0.5
 20
0.5
 30
0.0
 11
0.5
 21
-0.5
 31
0.0
  0
LINE
  5
7E
100
AcDbEntity
  8
0
  6
CONTINUOUS
 62
     0
100
AcDbLine
 10
0.5
 20
-0.5
 30
0.0
 11
-0.5
 21
-0.5
 31
0.0
  0
LINE
  5
7F
100
AcDbEntity
  8
0
  6
CONTINUOUS
 62
     0
100
AcDbLine
 10
-0.5
 20
-0.5
 30
0.0
 11
-0.5
 21
0.5
 31
0.0
  0
ENDBLK
  5
80
100
AcDbEntity
  8
0
100
AcDbBlockEnd
  0
BLOCK
  5
81
100
AcDbEntity
  8
0
100
AcDbBlockBegin
  2
_EX_INTEGRAL
 70
     0
 10
0.0
 20
0.0
 30
0.0
  3
_EX_INTEGRAL
  1

  0
LINE
  5
82
100
AcDbEntity
  8
0
  6
CONTINUOUS
 62
     0
100
AcDbLine
 10
0.0
 20
0.0
 30
0.0
 11
-1.0
 21
0.0
 31
0.0
  0
ARC
  5
83
100
AcDbEntity
  8
0
  6
CONTINUOUS
 62
     0
100
AcDbCircle
 10
0.542115
 20
0.164992
 30
0.0
 40
0.56667
100
AcDbArc
 50
73.07249
 51
196.927513
  0
ARC
  5
84
100
AcDbEntity
  8
0
  6
CONTINUOUS
 62
     0
100
AcDbCircle
 10
-0.542115
 20
-0.164992
 30
0.0
 40
0.56667
100
AcDbArc
 50
253.072487
 51
16.927513
  0
ENDBLK
  5
85
100
AcDbEntity
  8
0
100
AcDbBlockEnd
  0
BLOCK
  5
73F
100
AcDbEntity
  8
0
100
AcDbBlockBegin
  2
*D14
 70
    65
 10
0.0
 20
0.0
 30
0.0
  3
*D14
  1

  0
LINE
  5
740
100
AcDbEntity
  8
鏡台
  6
CONTINUOUS
 62
     3
100
AcDbLine
 10
602.5
 20
2890.0
 30
0.0
 11
602.5
 21
3016.0
 31
0.0
  0
LINE
  5
741
100
AcDbEntity
  8
鏡台
  6
CONTINUOUS
 62
     3
100
AcDbLine
 10
1262.5
 20
2890.0
 30
0.0
 11
1262.5
 21
3016.0
 31
0.0
  0
TEXT
  5
742
100
AcDbEntity
  8
鏡台
  6
CONTINUOUS
 62
     2
100
AcDbText
 10
869.5
 20
3006.25
 30
0.0
 40
60.0
  1
660
 41
0.84
  7
EXCADSTD
 72
     1
 11
932.5
 21
3006.25
 31
0.0
100
AcDbText
  0
LINE
  5
743
100
AcDbEntity
  8
鏡台
  6
CONTINUOUS
 62
     3
100
AcDbLine
 10
602.5
 20
3001.0
 30
0.0
 11
1262.5
 21
3001.0
 31
0.0
  0
LINE
  5
744
100
AcDbEntity
  8
鏡台
  6
CONTINUOUS
 62
     3
100
AcDbLine
 10
647.5
 20
3008.5
 30
0.0
 11
602.5
 21
3001.0
 31
0.0
  0
LINE
  5
745
100
AcDbEntity
  8
鏡台
  6
CONTINUOUS
 62
     3
100
AcDbLine
 10
602.5
 20
3001.0
 30
0.0
 11
647.5
 21
2993.5
 31
0.0
  0
LINE
  5
746
100
AcDbEntity
  8
鏡台
  6
CONTINUOUS
 62
     3
100
AcDbLine
 10
1217.5
 20
2993.5
 30
0.0
 11
1262.5
 21
3001.0
 31
0.0
  0
LINE
  5
747
100
AcDbEntity
  8
鏡台
  6
CONTINUOUS
 62
     3
100
AcDbLine
 10
1262.5
 20
3001.0
 30
0.0
 11
1217.5
 21
3008.5
 31
0.0
  0
ENDBLK
  5
748
100
AcDbEntity
  8
0
100
AcDbBlockEnd
  0
BLOCK
  5
74C
100
AcDbEntity
  8
0
100
AcDbBlockBegin
  2
*D15
 70
    65
 10
0.0
 20
0.0
 30
0.0
  3
*D15
  1

  0
LINE
  5
74D
100
AcDbEntity
  8
鏡台
  6
CONTINUOUS
 62
     3
100
AcDbLine
 10
670.0
 20
2305.0
 30
0.0
 11
670.0
 21
2354.0
 31
0.0
  0
LINE
  5
74E
100
AcDbEntity
  8
鏡台
  6
CONTINUOUS
 62
     3
100
AcDbLine
 10
932.5
 20
2302.0
 30
0.0
 11
932.5
 21
2354.0
 31
0.0
  0
TEXT
  5
74F
100
AcDbEntity
  8
鏡台
  6
CONTINUOUS
 62
     2
100
AcDbText
 10
738.25
 20
2344.25
 30
0.0
 40
60.0
  1
263
 41
0.84
  7
EXCADSTD
 72
     1
 11
801.25
 21
2344.25
 31
0.0
100
AcDbText
  0
LINE
  5
750
100
AcDbEntity
  8
鏡台
  6
CONTINUOUS
 62
     3
100
AcDbLine
 10
670.0
 20
2339.0
 30
0.0
 11
932.5
 21
2339.0
 31
0.0
  0
LINE
  5
751
100
AcDbEntity
  8
鏡台
  6
CONTINUOUS
 62
     3
100
AcDbLine
 10
715.0
 20
2346.5
 30
0.0
 11
670.0
 21
2339.0
 31
0.0
  0
LINE
  5
752
100
AcDbEntity
  8
鏡台
  6
CONTINUOUS
 62
     3
100
AcDbLine
 10
670.0
 20
2339.0
 30
0.0
 11
715.0
 21
2331.5
 31
0.0
  0
LINE
  5
753
100
AcDbEntity
  8
鏡台
  6
CONTINUOUS
 62
     3
100
AcDbLine
 10
887.5
 20
2331.5
 30
0.0
 11
932.5
 21
2339.0
 31
0.0
  0
LINE
  5
754
100
AcDbEntity
  8
鏡台
  6
CONTINUOUS
 62
     3
100
AcDbLine
 10
932.5
 20
2339.0
 30
0.0
 11
887.5
 21
2346.5
 31
0.0
  0
ENDBLK
  5
755
100
AcDbEntity
  8
0
100
AcDbBlockEnd
  0
BLOCK
  5
758
100
AcDbEntity
  8
0
100
AcDbBlockBegin
  2
*D16
 70
    65
 10
0.0
 20
0.0
 30
0.0
  3
*D16
  1

  0
LINE
  5
759
100
AcDbEntity
  8
鏡台
  6
CONTINUOUS
 62
     3
100
AcDbLine
 10
932.5
 20
2302.0
 30
0.0
 11
932.5
 21
2354.0
 31
0.0
  0
LINE
  5
75A
100
AcDbEntity
  8
鏡台
  6
CONTINUOUS
 62
     3
100
AcDbLine
 10
1195.0
 20
2305.0
 30
0.0
 11
1195.0
 21
2354.0
 31
0.0
  0
TEXT
  5
75B
100
AcDbEntity
  8
鏡台
  6
CONTINUOUS
 62
     2
100
AcDbText
 10
1000.75
 20
2344.25
 30
0.0
 40
60.0
  1
263
 41
0.84
  7
EXCADSTD
 72
     1
 11
1063.75
 21
2344.25
 31
0.0
100
AcDbText
  0
LINE
  5
75C
100
AcDbEntity
  8
鏡台
  6
CONTINUOUS
 62
     3
100
AcDbLine
 10
932.5
 20
2339.0
 30
0.0
 11
1195.0
 21
2339.0
 31
0.0
  0
LINE
  5
75D
100
AcDbEntity
  8
鏡台
  6
CONTINUOUS
 62
     3
100
AcDbLine
 10
977.5
 20
2346.5
 30
0.0
 11
932.5
 21
2339.0
 31
0.0
  0
LINE
  5
75E
100
AcDbEntity
  8
鏡台
  6
CONTINUOUS
 62
     3
100
AcDbLine
 10
932.5
 20
2339.0
 30
0.0
 11
977.5
 21
2331.5
 31
0.0
  0
LINE
  5
75F
100
AcDbEntity
  8
鏡台
  6
CONTINUOUS
 62
     3
100
AcDbLine
 10
1150.0
 20
2331.5
 30
0.0
 11
1195.0
 21
2339.0
 31
0.0
  0
LINE
  5
760
100
AcDbEntity
  8
鏡台
  6
CONTINUOUS
 62
     3
100
AcDbLine
 10
1195.0
 20
2339.0
 30
0.0
 11
1150.0
 21
2346.5
 31
0.0
  0
ENDBLK
  5
761
100
AcDbEntity
  8
0
100
AcDbBlockEnd
  0
BLOCK
  5
764
100
AcDbEntity
  8
0
100
AcDbBlockBegin
  2
*D17
 70
    65
 10
0.0
 20
0.0
 30
0.0
  3
*D17
  1

  0
LINE
  5
765
100
AcDbEntity
  8
鏡台
  6
CONTINUOUS
 62
     3
100
AcDbLine
 10
1318.0
 20
1826.0
 30
0.0
 11
1472.5
 21
1826.0
 31
0.0
  0
LINE
  5
766
100
AcDbEntity
  8
鏡台
  6
CONTINUOUS
 62
     3
100
AcDbLine
 10
1331.076697
 20
1956.0
 30
0.0
 11
1472.5
 21
1956.0
 31
0.0
  0
TEXT
  5
767
100
AcDbEntity
  8
鏡台
  6
CONTINUOUS
 62
     2
100
AcDbText
 10
1452.25
 20
1828.0
 30
0.0
 40
60.0
  1
130
 50
90.0
 41
0.84
  7
EXCADSTD
 72
     1
 11
1452.25
 21
1891.0
 31
0.0
100
AcDbText
  0
LINE
  5
768
100
AcDbEntity
  8
鏡台
  6
CONTINUOUS
 62
     3
100
AcDbLine
 10
1457.5
 20
1781.0
 30
0.0
 11
1457.5
 21
2001.0
 31
0.0
  0
LINE
  5
769
100
AcDbEntity
  8
鏡台
  6
CONTINUOUS
 62
     3
100
AcDbLine
 10
1465.0
 20
1781.0
 30
0.0
 11
1457.5
 21
1826.0
 31
0.0
  0
LINE
  5
76A
100
AcDbEntity
  8
鏡台
  6
CONTINUOUS
 62
     3
100
AcDbLine
 10
1457.5
 20
1826.0
 30
0.0
 11
1450.0
 21
1781.0
 31
0.0
  0
LINE
  5
76B
100
AcDbEntity
  8
鏡台
  6
CONTINUOUS
 62
     3
100
AcDbLine
 10
1450.0
 20
2001.0
 30
0.0
 11
1457.5
 21
1956.0
 31
0.0
  0
LINE
  5
76C
100
AcDbEntity
  8
鏡台
  6
CONTINUOUS
 62
     3
100
AcDbLine
 10
1457.5
 20
1956.0
 30
0.0
 11
1465.0
 21
2001.0
 31
0.0
  0
ENDBLK
  5
76D
100
AcDbEntity
  8
0
100
AcDbBlockEnd
  0
BLOCK
  5
770
100
AcDbEntity
  8
0
100
AcDbBlockBegin
  2
*D18
 70
    65
 10
0.0
 20
0.0
 30
0.0
  3
*D18
  1

  0
LINE
  5
771
100
AcDbEntity
  8
鏡台
  6
CONTINUOUS
 62
     3
100
AcDbLine
 10
1318.0
 20
1826.0
 30
0.0
 11
1532.5
 21
1826.0
 31
0.0
  0
LINE
  5
772
100
AcDbEntity
  8
鏡台
  6
CONTINUOUS
 62
     3
100
AcDbLine
 10
1318.0
 20
2926.0
 30
0.0
 11
1532.5
 21
2926.0
 31
0.0
  0
TEXT
  5
773
100
AcDbEntity
  8
鏡台
  6
CONTINUOUS
 62
     2
100
AcDbText
 10
1512.25
 20
2294.1
 30
0.0
 40
60.0
  1
1100
 50
90.0
 41
0.84
  7
EXCADSTD
 72
     1
 11
1512.25
 21
2376.0
 31
0.0
100
AcDbText
  0
LINE
  5
774
100
AcDbEntity
  8
鏡台
  6
CONTINUOUS
 62
     3
100
AcDbLine
 10
1517.5
 20
1826.0
 30
0.0
 11
1517.5
 21
2926.0
 31
0.0
  0
LINE
  5
775
100
AcDbEntity
  8
鏡台
  6
CONTINUOUS
 62
     3
100
AcDbLine
 10
1510.0
 20
1871.0
 30
0.0
 11
1517.5
 21
1826.0
 31
0.0
  0
LINE
  5
776
100
AcDbEntity
  8
鏡台
  6
CONTINUOUS
 62
     3
100
AcDbLine
 10
1517.5
 20
1826.0
 30
0.0
 11
1525.0
 21
1871.0
 31
0.0
  0
LINE
  5
777
100
AcDbEntity
  8
鏡台
  6
CONTINUOUS
 62
     3
100
AcDbLine
 10
1525.0
 20
2881.0
 30
0.0
 11
1517.5
 21
2926.0
 31
0.0
  0
LINE
  5
778
100
AcDbEntity
  8
鏡台
  6
CONTINUOUS
 62
     3
100
AcDbLine
 10
1517.5
 20
2926.0
 30
0.0
 11
1510.0
 21
2881.0
 31
0.0
  0
ENDBLK
  5
779
100
AcDbEntity
  8
0
100
AcDbBlockEnd
  0
BLOCK
  5
802
100
AcDbEntity
  8
0
100
AcDbBlockBegin
  2
*D19
 70
    65
 10
0.0
 20
0.0
 30
0.0
  3
*D19
  1

  0
LINE
  5
803
100
AcDbEntity
  8
鏡台
  6
CONTINUOUS
 62
     3
100
AcDbLine
 10
2334.5
 20
2908.202357
 30
0.0
 11
2334.5
 21
3016.0
 31
0.0
  0
TEXT
  5
804
100
AcDbEntity
  8
鏡台
  6
CONTINUOUS
 62
     2
100
AcDbText
 10
2376.5
 20
3006.25
 30
0.0
 40
60.0
  1
210
 41
0.84
  7
EXCADSTD
 72
     1
 11
2439.5
 21
3006.25
 31
0.0
100
AcDbText
  0
LINE
  5
805
100
AcDbEntity
  8
鏡台
  6
CONTINUOUS
 62
     3
100
AcDbLine
 10
2334.5
 20
3001.0
 30
0.0
 11
2544.5
 21
3001.0
 31
0.0
  0
LINE
  5
806
100
AcDbEntity
  8
鏡台
  6
CONTINUOUS
 62
     3
100
AcDbLine
 10
2379.5
 20
3008.5
 30
0.0
 11
2334.5
 21
3001.0
 31
0.0
  0
LINE
  5
807
100
AcDbEntity
  8
鏡台
  6
CONTINUOUS
 62
     3
100
AcDbLine
 10
2334.5
 20
3001.0
 30
0.0
 11
2379.5
 21
2993.5
 31
0.0
  0
LINE
  5
808
100
AcDbEntity
  8
鏡台
  6
CONTINUOUS
 62
     3
100
AcDbLine
 10
2499.5
 20
2993.5
 30
0.0
 11
2544.5
 21
3001.0
 31
0.0
  0
LINE
  5
809
100
AcDbEntity
  8
鏡台
  6
CONTINUOUS
 62
     3
100
AcDbLine
 10
2544.5
 20
3001.0
 30
0.0
 11
2499.5
 21
3008.5
 31
0.0
  0
ENDBLK
  5
80A
100
AcDbEntity
  8
0
100
AcDbBlockEnd
  0
BLOCK
  5
841
100
AcDbEntity
  8
0
100
AcDbBlockBegin
  2
*D20
 70
    65
 10
0.0
 20
0.0
 30
0.0
  3
*D20
  1

  0
LINE
  5
842
100
AcDbEntity
  8
寸法
  6
CONTINUOUS
 62
     3
100
AcDbLine
 10
662.5
 20
4063.0
 30
0.0
 11
662.5
 21
4135.0
 31
0.0
  0
LINE
  5
843
100
AcDbEntity
  8
寸法
  6
CONTINUOUS
 62
     3
100
AcDbLine
 10
1202.5
 20
4063.0
 30
0.0
 11
1202.5
 21
4135.0
 31
0.0
  0
TEXT
  5
844
100
AcDbEntity
  8
寸法
  6
CONTINUOUS
 62
     2
100
AcDbText
 10
869.5
 20
4125.25
 30
0.0
 40
60.0
  1
540
 41
0.84
  7
EXCADSTD
 72
     1
 11
932.5
 21
4125.25
 31
0.0
100
AcDbText
  0
LINE
  5
845
100
AcDbEntity
  8
寸法
  6
CONTINUOUS
 62
     3
100
AcDbLine
 10
662.5
 20
4120.0
 30
0.0
 11
1202.5
 21
4120.0
 31
0.0
  0
LINE
  5
846
100
AcDbEntity
  8
寸法
  6
CONTINUOUS
 62
     3
100
AcDbLine
 10
707.5
 20
4127.5
 30
0.0
 11
662.5
 21
4120.0
 31
0.0
  0
LINE
  5
847
100
AcDbEntity
  8
寸法
  6
CONTINUOUS
 62
     3
100
AcDbLine
 10
662.5
 20
4120.0
 30
0.0
 11
707.5
 21
4112.5
 31
0.0
  0
LINE
  5
848
100
AcDbEntity
  8
寸法
  6
CONTINUOUS
 62
     3
100
AcDbLine
 10
1157.5
 20
4112.5
 30
0.0
 11
1202.5
 21
4120.0
 31
0.0
  0
LINE
  5
849
100
AcDbEntity
  8
寸法
  6
CONTINUOUS
 62
     3
100
AcDbLine
 10
1202.5
 20
4120.0
 30
0.0
 11
1157.5
 21
4127.5
 31
0.0
  0
ENDBLK
  5
84A
100
AcDbEntity
  8
0
100
AcDbBlockEnd
  0
BLOCK
  5
84E
100
AcDbEntity
  8
0
100
AcDbBlockBegin
  2
*D21
 70
    65
 10
0.0
 20
0.0
 30
0.0
  3
*D21
  1

  0
LINE
  5
84F
100
AcDbEntity
  8
寸法
  6
CONTINUOUS
 62
     3
100
AcDbLine
 10
1291.0
 20
1024.0
 30
0.0
 11
1291.0
 21
694.0
 31
0.0
  0
LINE
  5
850
100
AcDbEntity
  8
寸法
  6
CONTINUOUS
 62
     3
100
AcDbLine
 10
574.0
 20
1024.0
 30
0.0
 11
574.0
 21
694.0
 31
0.0
  0
TEXT
  5
851
100
AcDbEntity
  8
寸法
  6
CONTINUOUS
 62
     2
100
AcDbText
 10
869.5
 20
714.25
 30
0.0
 40
60.0
  1
717
 41
0.84
  7
EXCADSTD
 72
     1
 11
932.5
 21
714.25
 31
0.0
100
AcDbText
  0
LINE
  5
852
100
AcDbEntity
  8
寸法
  6
CONTINUOUS
 62
     3
100
AcDbLine
 10
1291.0
 20
709.0
 30
0.0
 11
574.0
 21
709.0
 31
0.0
  0
LINE
  5
853
100
AcDbEntity
  8
寸法
  6
CONTINUOUS
 62
     3
100
AcDbLine
 10
1246.0
 20
701.5
 30
0.0
 11
1291.0
 21
709.0
 31
0.0
  0
LINE
  5
854
100
AcDbEntity
  8
寸法
  6
CONTINUOUS
 62
     3
100
AcDbLine
 10
1291.0
 20
709.0
 30
0.0
 11
1246.0
 21
716.5
 31
0.0
  0
LINE
  5
855
100
AcDbEntity
  8
寸法
  6
CONTINUOUS
 62
     3
100
AcDbLine
 10
619.0
 20
716.5
 30
0.0
 11
574.0
 21
709.0
 31
0.0
  0
LINE
  5
856
100
AcDbEntity
  8
寸法
  6
CONTINUOUS
 62
     3
100
AcDbLine
 10
574.0
 20
709.0
 30
0.0
 11
619.0
 21
701.5
 31
0.0
  0
ENDBLK
  5
857
100
AcDbEntity
  8
0
100
AcDbBlockEnd
  0
BLOCK
  5
85A
100
AcDbEntity
  8
0
100
AcDbBlockBegin
  2
*D22
 70
    65
 10
0.0
 20
0.0
 30
0.0
  3
*D22
  1

  0
LINE
  5
85B
100
AcDbEntity
  8
寸法
  6
CONTINUOUS
 62
     3
100
AcDbLine
 10
932.5
 20
884.707107
 30
0.0
 11
932.5
 21
790.207107
 31
0.0
  0
LINE
  5
85C
100
AcDbEntity
  8
寸法
  6
CONTINUOUS
 62
     3
100
AcDbLine
 10
1007.5
 20
1012.49997
 30
0.0
 11
1007.5
 21
790.207107
 31
0.0
  0
TEXT
  5
85D
100
AcDbEntity
  8
寸法
  6
CONTINUOUS
 62
     2
100
AcDbText
 10
790.9
 20
810.457107
 30
0.0
 40
60.0
  1
75
 41
0.84
  7
EXCADSTD
 72
     1
 11
835.0
 21
810.457107
 31
0.0
100
AcDbText
  0
LINE
  5
85E
100
AcDbEntity
  8
寸法
  6
CONTINUOUS
 62
     3
100
AcDbLine
 10
777.249994
 20
805.207107
 30
0.0
 11
1052.5
 21
805.207107
 31
0.0
  0
LINE
  5
85F
100
AcDbEntity
  8
寸法
  6
CONTINUOUS
 62
     3
100
AcDbLine
 10
887.5
 20
797.707107
 30
0.0
 11
932.5
 21
805.207107
 31
0.0
  0
LINE
  5
860
100
AcDbEntity
  8
寸法
  6
CONTINUOUS
 62
     3
100
AcDbLine
 10
932.5
 20
805.207107
 30
0.0
 11
887.5
 21
812.707107
 31
0.0
  0
CIRCLE
  5
861
100
AcDbEntity
  8
寸法
  6
CONTINUOUS
 62
     3
100
AcDbCircle
 10
1007.5
 20
805.207107
 30
0.0
 40
5.25
  0
CIRCLE
  5
862
100
AcDbEntity
  8
寸法
  6
CONTINUOUS
 62
     3
100
AcDbCircle
 10
1007.5
 20
805.207107
 30
0.0
 40
2.625
  0
ENDBLK
  5
863
100
AcDbEntity
  8
0
100
AcDbBlockEnd
  0
BLOCK
  5
866
100
AcDbEntity
  8
0
100
AcDbBlockBegin
  2
*D23
 70
    65
 10
0.0
 20
0.0
 30
0.0
  3
*D23
  1

  0
LINE
  5
867
100
AcDbEntity
  8
寸法
  6
CONTINUOUS
 62
     3
100
AcDbLine
 10
1097.5
 20
1012.49997
 30
0.0
 11
1097.5
 21
790.207107
 31
0.0
  0
LINE
  5
868
100
AcDbEntity
  8
寸法
  6
CONTINUOUS
 62
     3
100
AcDbLine
 10
1007.5
 20
1012.49997
 30
0.0
 11
1007.5
 21
790.207107
 31
0.0
  0
TEXT
  5
869
100
AcDbEntity
  8
寸法
  6
CONTINUOUS
 62
     2
100
AcDbText
 10
1008.4
 20
810.457107
 30
0.0
 40
60.0
  1
90
 41
0.84
  7
EXCADSTD
 72
     1
 11
1052.5
 21
810.457107
 31
0.0
100
AcDbText
  0
LINE
  5
86A
100
AcDbEntity
  8
寸法
  6
CONTINUOUS
 62
     3
100
AcDbLine
 10
1142.5
 20
805.207107
 30
0.0
 11
962.5
 21
805.207107
 31
0.0
  0
LINE
  5
86B
100
AcDbEntity
  8
寸法
  6
CONTINUOUS
 62
     3
100
AcDbLine
 10
1142.5
 20
812.707107
 30
0.0
 11
1097.5
 21
805.207107
 31
0.0
  0
LINE
  5
86C
100
AcDbEntity
  8
寸法
  6
CONTINUOUS
 62
     3
100
AcDbLine
 10
1097.5
 20
805.207107
 30
0.0
 11
1142.5
 21
797.707107
 31
0.0
  0
CIRCLE
  5
86D
100
AcDbEntity
  8
寸法
  6
CONTINUOUS
 62
     3
100
AcDbCircle
 10
1007.5
 20
805.207107
 30
0.0
 40
5.25
  0
CIRCLE
  5
86E
100
AcDbEntity
  8
寸法
  6
CONTINUOUS
 62
     3
100
AcDbCircle
 10
1007.5
 20
805.207107
 30
0.0
 40
2.625
  0
ENDBLK
  5
86F
100
AcDbEntity
  8
0
100
AcDbBlockEnd
  0
BLOCK
  5
872
100
AcDbEntity
  8
0
100
AcDbBlockBegin
  2
*D24
 70
    65
 10
0.0
 20
0.0
 30
0.0
  3
*D24
  1

  0
LINE
  5
873
100
AcDbEntity
  8
寸法
  6
CONTINUOUS
 62
     3
100
AcDbLine
 10
2544.5
 20
1024.0
 30
0.0
 11
2544.5
 21
694.0
 31
0.0
  0
TEXT
  5
874
100
AcDbEntity
  8
寸法
  6
CONTINUOUS
 62
     2
100
AcDbText
 10
2601.5
 20
714.25
 30
0.0
 40
60.0
  1
140
 41
0.84
  7
EXCADSTD
 72
     1
 11
2664.5
 21
714.25
 31
0.0
100
AcDbText
  0
LINE
  5
875
100
AcDbEntity
  8
寸法
  6
CONTINUOUS
 62
     3
100
AcDbLine
 10
2359.5
 20
709.0
 30
0.0
 11
2744.750006
 21
709.0
 31
0.0
  0
LINE
  5
876
100
AcDbEntity
  8
寸法
  6
CONTINUOUS
 62
     3
100
AcDbLine
 10
2359.5
 20
701.5
 30
0.0
 11
2404.5
 21
709.0
 31
0.0
  0
LINE
  5
877
100
AcDbEntity
  8
寸法
  6
CONTINUOUS
 62
     3
100
AcDbLine
 10
2404.5
 20
709.0
 30
0.0
 11
2359.5
 21
716.5
 31
0.0
  0
LINE
  5
878
100
AcDbEntity
  8
寸法
  6
CONTINUOUS
 62
     3
100
AcDbLine
 10
2589.5
 20
716.5
 30
0.0
 11
2544.5
 21
709.0
 31
0.0
  0
LINE
  5
879
100
AcDbEntity
  8
寸法
  6
CONTINUOUS
 62
     3
100
AcDbLine
 10
2544.5
 20
709.0
 30
0.0
 11
2589.5
 21
701.5
 31
0.0
  0
LINE
  5
87A
100
AcDbEntity
  8
寸法
  6
CONTINUOUS
 62
     3
100
AcDbLine
 10
2404.5
 20
881.0
 30
0.0
 11
2404.5
 21
694.0
 31
0.0
  0
ENDBLK
  5
87B
100
AcDbEntity
  8
0
100
AcDbBlockEnd
  0
BLOCK
  5
87E
100
AcDbEntity
  8
0
100
AcDbBlockBegin
  2
*D25
 70
    65
 10
0.0
 20
0.0
 30
0.0
  3
*D25
  1

  0
LINE
  5
87F
100
AcDbEntity
  8
寸法
  6
CONTINUOUS
 62
     3
100
AcDbLine
 10
2459.5
 20
997.49997
 30
0.0
 11
2459.5
 21
790.207107
 31
0.0
  0
TEXT
  5
880
100
AcDbEntity
  8
寸法
  6
CONTINUOUS
 62
     2
100
AcDbText
 10
2615.9
 20
810.457107
 30
0.0
 40
60.0
  1
85（床給水）
 41
0.84
  7
EXCADSTD
 72
     1
 11
2754.5
 21
810.457107
 31
0.0
100
AcDbText
  0
LINE
  5
881
100
AcDbEntity
  8
寸法
  6
CONTINUOUS
 62
     3
100
AcDbLine
 10
2414.5
 20
805.207107
 30
0.0
 11
2924.750006
 21
805.207107
 31
0.0
  0
LINE
  5
882
100
AcDbEntity
  8
寸法
  6
CONTINUOUS
 62
     3
100
AcDbLine
 10
2414.5
 20
797.707107
 30
0.0
 11
2459.5
 21
805.207107
 31
0.0
  0
LINE
  5
883
100
AcDbEntity
  8
寸法
  6
CONTINUOUS
 62
     3
100
AcDbLine
 10
2459.5
 20
805.207107
 30
0.0
 11
2414.5
 21
812.707107
 31
0.0
  0
LINE
  5
884
100
AcDbEntity
  8
寸法
  6
CONTINUOUS
 62
     3
100
AcDbLine
 10
2589.5
 20
812.707107
 30
0.0
 11
2544.5
 21
805.207107
 31
0.0
  0
LINE
  5
885
100
AcDbEntity
  8
寸法
  6
CONTINUOUS
 62
     3
100
AcDbLine
 10
2544.5
 20
805.207107
 30
0.0
 11
2589.5
 21
797.707107
 31
0.0
  0
ENDBLK
  5
886
100
AcDbEntity
  8
0
100
AcDbBlockEnd
  0
BLOCK
  5
889
100
AcDbEntity
  8
0
100
AcDbBlockBegin
  2
*D26
 70
    65
 10
0.0
 20
0.0
 30
0.0
  3
*D26
  1

  0
LINE
  5
88A
100
AcDbEntity
  8
寸法
  6
CONTINUOUS
 62
     3
100
AcDbLine
 10
2129.5
 20
1024.0
 30
0.0
 11
2129.5
 21
597.792893
 31
0.0
  0
LINE
  5
88B
100
AcDbEntity
  8
寸法
  6
CONTINUOUS
 62
     3
100
AcDbLine
 10
2544.5
 20
1032.4
 30
0.0
 11
2544.5
 21
597.792893
 31
0.0
  0
TEXT
  5
88C
100
AcDbEntity
  8
寸法
  6
CONTINUOUS
 62
     2
100
AcDbText
 10
2274.0
 20
618.042893
 30
0.0
 40
60.0
  1
415
 41
0.84
  7
EXCADSTD
 72
     1
 11
2337.0
 21
618.042893
 31
0.0
100
AcDbText
  0
LINE
  5
88D
100
AcDbEntity
  8
寸法
  6
CONTINUOUS
 62
     3
100
AcDbLine
 10
2129.5
 20
612.792893
 30
0.0
 11
2544.5
 21
612.792893
 31
0.0
  0
LINE
  5
88E
100
AcDbEntity
  8
寸法
  6
CONTINUOUS
 62
     3
100
AcDbLine
 10
2174.5
 20
620.292893
 30
0.0
 11
2129.5
 21
612.792893
 31
0.0
  0
LINE
  5
88F
100
AcDbEntity
  8
寸法
  6
CONTINUOUS
 62
     3
100
AcDbLine
 10
2129.5
 20
612.792893
 30
0.0
 11
2174.5
 21
605.292893
 31
0.0
  0
LINE
  5
890
100
AcDbEntity
  8
寸法
  6
CONTINUOUS
 62
     3
100
AcDbLine
 10
2499.5
 20
605.292893
 30
0.0
 11
2544.5
 21
612.792893
 31
0.0
  0
LINE
  5
891
100
AcDbEntity
  8
寸法
  6
CONTINUOUS
 62
     3
100
AcDbLine
 10
2544.5
 20
612.792893
 30
0.0
 11
2499.5
 21
620.292893
 31
0.0
  0
ENDBLK
  5
892
100
AcDbEntity
  8
0
100
AcDbBlockEnd
  0
BLOCK
  5
895
100
AcDbEntity
  8
0
100
AcDbBlockBegin
  2
*D27
 70
    65
 10
0.0
 20
0.0
 30
0.0
  3
*D27
  1

  0
LINE
  5
896
100
AcDbEntity
  8
寸法
  6
CONTINUOUS
 62
     3
100
AcDbLine
 10
557.5
 20
3519.5
 30
0.0
 11
557.5
 21
3314.0
 31
0.0
  0
LINE
  5
897
100
AcDbEntity
  8
寸法
  6
CONTINUOUS
 62
     3
100
AcDbLine
 10
1307.5
 20
3519.5
 30
0.0
 11
1307.5
 21
3314.0
 31
0.0
  0
TEXT
  5
898
100
AcDbEntity
  8
寸法
  6
CONTINUOUS
 62
     2
100
AcDbText
 10
869.5
 20
3334.25
 30
0.0
 40
60.0
  1
750
 41
0.84
  7
EXCADSTD
 72
     1
 11
932.5
 21
3334.25
 31
0.0
100
AcDbText
  0
LINE
  5
899
100
AcDbEntity
  8
寸法
  6
CONTINUOUS
 62
     3
100
AcDbLine
 10
557.5
 20
3329.0
 30
0.0
 11
1307.5
 21
3329.0
 31
0.0
  0
LINE
  5
89A
100
AcDbEntity
  8
寸法
  6
CONTINUOUS
 62
     3
100
AcDbLine
 10
602.5
 20
3336.5
 30
0.0
 11
557.5
 21
3329.0
 31
0.0
  0
LINE
  5
89B
100
AcDbEntity
  8
寸法
  6
CONTINUOUS
 62
     3
100
AcDbLine
 10
557.5
 20
3329.0
 30
0.0
 11
602.5
 21
3321.5
 31
0.0
  0
LINE
  5
89C
100
AcDbEntity
  8
寸法
  6
CONTINUOUS
 62
     3
100
AcDbLine
 10
1262.5
 20
3321.5
 30
0.0
 11
1307.5
 21
3329.0
 31
0.0
  0
LINE
  5
89D
100
AcDbEntity
  8
寸法
  6
CONTINUOUS
 62
     3
100
AcDbLine
 10
1307.5
 20
3329.0
 30
0.0
 11
1262.5
 21
3336.5
 31
0.0
  0
ENDBLK
  5
89E
100
AcDbEntity
  8
0
100
AcDbBlockEnd
  0
BLOCK
  5
8A1
100
AcDbEntity
  8
0
100
AcDbBlockBegin
  2
*D28
 70
    65
 10
0.0
 20
0.0
 30
0.0
  3
*D28
  1

  0
LINE
  5
8A2
100
AcDbEntity
  8
寸法
  6
CONTINUOUS
 62
     3
100
AcDbLine
 10
943.0
 20
3455.0
 30
0.0
 11
1444.0
 21
3455.0
 31
0.0
  0
TEXT
  5
8A3
100
AcDbEntity
  8
寸法
  6
CONTINUOUS
 62
     2
100
AcDbText
 10
1423.75
 20
3667.0
 30
0.0
 40
60.0
  1
550
 50
90.0
 41
0.84
  7
EXCADSTD
 72
     1
 11
1423.75
 21
3730.0
 31
0.0
100
AcDbText
  0
LINE
  5
8A4
100
AcDbEntity
  8
寸法
  6
CONTINUOUS
 62
     3
100
AcDbLine
 10
1429.0
 20
3455.0
 30
0.0
 11
1429.0
 21
4005.0
 31
0.0
  0
LINE
  5
8A5
100
AcDbEntity
  8
寸法
  6
CONTINUOUS
 62
     3
100
AcDbLine
 10
1421.5
 20
3500.0
 30
0.0
 11
1429.0
 21
3455.0
 31
0.0
  0
LINE
  5
8A6
100
AcDbEntity
  8
寸法
  6
CONTINUOUS
 62
     3
100
AcDbLine
 10
1429.0
 20
3455.0
 30
0.0
 11
1436.5
 21
3500.0
 31
0.0
  0
LINE
  5
8A7
100
AcDbEntity
  8
寸法
  6
CONTINUOUS
 62
     3
100
AcDbLine
 10
1436.5
 20
3960.0
 30
0.0
 11
1429.0
 21
4005.0
 31
0.0
  0
LINE
  5
8A8
100
AcDbEntity
  8
寸法
  6
CONTINUOUS
 62
     3
100
AcDbLine
 10
1429.0
 20
4005.0
 30
0.0
 11
1421.5
 21
3960.0
 31
0.0
  0
ENDBLK
  5
8A9
100
AcDbEntity
  8
0
100
AcDbBlockEnd
  0
BLOCK
  5
8AC
100
AcDbEntity
  8
0
100
AcDbBlockBegin
  2
*D29
 70
    65
 10
0.0
 20
0.0
 30
0.0
  3
*D29
  1

  0
LINE
  5
8AD
100
AcDbEntity
  8
寸法
  6
CONTINUOUS
 62
     3
100
AcDbLine
 10
1306.0
 20
1826.0
 30
0.0
 11
1532.5
 21
1826.0
 31
0.0
  0
TEXT
  5
8AE
100
AcDbEntity
  8
寸法
  6
CONTINUOUS
 62
     2
100
AcDbText
 10
1512.25
 20
1365.5
 30
0.0
 40
60.0
  1
795
 50
90.0
 41
0.84
  7
EXCADSTD
 72
     1
 11
1512.25
 21
1428.5
 31
0.0
100
AcDbText
  0
LINE
  5
8AF
100
AcDbEntity
  8
寸法
  6
CONTINUOUS
 62
     3
100
AcDbLine
 10
1517.5
 20
1031.0
 30
0.0
 11
1517.5
 21
1826.0
 31
0.0
  0
LINE
  5
8B0
100
AcDbEntity
  8
寸法
  6
CONTINUOUS
 62
     3
100
AcDbLine
 10
1510.0
 20
1076.0
 30
0.0
 11
1517.5
 21
1031.0
 31
0.0
  0
LINE
  5
8B1
100
AcDbEntity
  8
寸法
  6
CONTINUOUS
 62
     3
100
AcDbLine
 10
1517.5
 20
1031.0
 30
0.0
 11
1525.0
 21
1076.0
 31
0.0
  0
LINE
  5
8B2
100
AcDbEntity
  8
寸法
  6
CONTINUOUS
 62
     3
100
AcDbLine
 10
1525.0
 20
1781.0
 30
0.0
 11
1517.5
 21
1826.0
 31
0.0
  0
LINE
  5
8B3
100
AcDbEntity
  8
寸法
  6
CONTINUOUS
 62
     3
100
AcDbLine
 10
1517.5
 20
1826.0
 30
0.0
 11
1510.0
 21
1781.0
 31
0.0
  0
ENDBLK
  5
8B4
100
AcDbEntity
  8
0
100
AcDbBlockEnd
  0
BLOCK
  5
8B7
100
AcDbEntity
  8
0
100
AcDbBlockBegin
  2
*D30
 70
    65
 10
0.0
 20
0.0
 30
0.0
  3
*D30
  1

  0
LINE
  5
8B8
100
AcDbEntity
  8
寸法
  6
CONTINUOUS
 62
     3
100
AcDbLine
 10
2563.0
 20
1381.0
 30
0.0
 11
2679.5
 21
1381.0
 31
0.0
  0
TEXT
  5
8B9
100
AcDbEntity
  8
寸法
  6
CONTINUOUS
 62
     2
100
AcDbText
 10
2659.25
 20
1143.0
 30
0.0
 40
60.0
  1
350
 50
90.0
 41
0.84
  7
EXCADSTD
 72
     1
 11
2659.25
 21
1206.0
 31
0.0
100
AcDbText
  0
LINE
  5
8BA
100
AcDbEntity
  8
寸法
  6
CONTINUOUS
 62
     3
100
AcDbLine
 10
2664.5
 20
1031.0
 30
0.0
 11
2664.5
 21
1381.0
 31
0.0
  0
LINE
  5
8BB
100
AcDbEntity
  8
寸法
  6
CONTINUOUS
 62
     3
100
AcDbLine
 10
2657.0
 20
1076.0
 30
0.0
 11
2664.5
 21
1031.0
 31
0.0
  0
LINE
  5
8BC
100
AcDbEntity
  8
寸法
  6
CONTINUOUS
 62
     3
100
AcDbLine
 10
2664.5
 20
1031.0
 30
0.0
 11
2672.0
 21
1076.0
 31
0.0
  0
LINE
  5
8BD
100
AcDbEntity
  8
寸法
  6
CONTINUOUS
 62
     3
100
AcDbLine
 10
2672.0
 20
1336.0
 30
0.0
 11
2664.5
 21
1381.0
 31
0.0
  0
LINE
  5
8BE
100
AcDbEntity
  8
寸法
  6
CONTINUOUS
 62
     3
100
AcDbLine
 10
2664.5
 20
1381.0
 30
0.0
 11
2657.0
 21
1336.0
 31
0.0
  0
LINE
  5
8BF
100
AcDbEntity
  8
寸法
  6
CONTINUOUS
 62
     3
100
AcDbLine
 10
2547.2
 20
1031.0
 30
0.0
 11
2679.5
 21
1031.0
 31
0.0
  0
ENDBLK
  5
8C0
100
AcDbEntity
  8
0
100
AcDbBlockEnd
  0
BLOCK
  5
8C3
100
AcDbEntity
  8
0
100
AcDbBlockBegin
  2
*D31
 70
    65
 10
0.0
 20
0.0
 30
0.0
  3
*D31
  1

  0
LINE
  5
8C4
100
AcDbEntity
  8
寸法
  6
CONTINUOUS
 62
     3
100
AcDbLine
 10
2587.5
 20
1541.0
 30
0.0
 11
2769.5
 21
1541.0
 31
0.0
  0
TEXT
  5
8C5
100
AcDbEntity
  8
寸法
  6
CONTINUOUS
 62
     2
100
AcDbText
 10
2749.25
 20
1223.0
 30
0.0
 40
60.0
  1
510
 50
90.0
 41
0.84
  7
EXCADSTD
 72
     1
 11
2749.25
 21
1286.0
 31
0.0
100
AcDbText
  0
LINE
  5
8C6
100
AcDbEntity
  8
寸法
  6
CONTINUOUS
 62
     3
100
AcDbLine
 10
2754.5
 20
1031.0
 30
0.0
 11
2754.5
 21
1541.0
 31
0.0
  0
LINE
  5
8C7
100
AcDbEntity
  8
寸法
  6
CONTINUOUS
 62
     3
100
AcDbLine
 10
2747.0
 20
1076.0
 30
0.0
 11
2754.5
 21
1031.0
 31
0.0
  0
LINE
  5
8C8
100
AcDbEntity
  8
寸法
  6
CONTINUOUS
 62
     3
100
AcDbLine
 10
2754.5
 20
1031.0
 30
0.0
 11
2762.0
 21
1076.0
 31
0.0
  0
LINE
  5
8C9
100
AcDbEntity
  8
寸法
  6
CONTINUOUS
 62
     3
100
AcDbLine
 10
2762.0
 20
1496.0
 30
0.0
 11
2754.5
 21
1541.0
 31
0.0
  0
LINE
  5
8CA
100
AcDbEntity
  8
寸法
  6
CONTINUOUS
 62
     3
100
AcDbLine
 10
2754.5
 20
1541.0
 30
0.0
 11
2747.0
 21
1496.0
 31
0.0
  0
LINE
  5
8CB
100
AcDbEntity
  8
寸法
  6
CONTINUOUS
 62
     3
100
AcDbLine
 10
2555.0
 20
1031.0
 30
0.0
 11
2859.5
 21
1031.0
 31
0.0
  0
ENDBLK
  5
8CC
100
AcDbEntity
  8
0
100
AcDbBlockEnd
  0
BLOCK
  5
8D1
100
AcDbEntity
  8
0
100
AcDbBlockBegin
  2
*D32
 70
    65
 10
0.0
 20
0.0
 30
0.0
  3
*D32
  1

  0
LINE
  5
8D2
100
AcDbEntity
  8
寸法
  6
CONTINUOUS
 62
     3
100
AcDbLine
 10
943.0
 20
1798.0
 30
0.0
 11
1442.5
 21
1798.0
 31
0.0
  0
TEXT
  5
8D3
100
AcDbEntity
  8
寸法
  6
CONTINUOUS
 62
     2
100
AcDbText
 10
1422.25
 20
1351.5
 30
0.0
 40
60.0
  1
767
 50
90.0
 41
0.84
  7
EXCADSTD
 72
     1
 11
1422.25
 21
1414.5
 31
0.0
100
AcDbText
  0
LINE
  5
8D4
100
AcDbEntity
  8
寸法
  6
CONTINUOUS
 62
     3
100
AcDbLine
 10
1427.5
 20
1798.0
 30
0.0
 11
1427.5
 21
1031.0
 31
0.0
  0
LINE
  5
8D5
100
AcDbEntity
  8
寸法
  6
CONTINUOUS
 62
     3
100
AcDbLine
 10
1435.0
 20
1753.0
 30
0.0
 11
1427.5
 21
1798.0
 31
0.0
  0
LINE
  5
8D6
100
AcDbEntity
  8
寸法
  6
CONTINUOUS
 62
     3
100
AcDbLine
 10
1427.5
 20
1798.0
 30
0.0
 11
1420.0
 21
1753.0
 31
0.0
  0
LINE
  5
8D7
100
AcDbEntity
  8
寸法
  6
CONTINUOUS
 62
     3
100
AcDbLine
 10
1420.0
 20
1076.0
 30
0.0
 11
1427.5
 21
1031.0
 31
0.0
  0
LINE
  5
8D8
100
AcDbEntity
  8
寸法
  6
CONTINUOUS
 62
     3
100
AcDbLine
 10
1427.5
 20
1031.0
 30
0.0
 11
1435.0
 21
1076.0
 31
0.0
  0
ENDBLK
  5
8D9
100
AcDbEntity
  8
0
100
AcDbBlockEnd
  0
BLOCK
  5
8E2
100
AcDbEntity
  8
0
100
AcDbBlockBegin
  2
*D33
 70
    65
 10
0.0
 20
0.0
 30
0.0
  3
*D33
  1

  0
LINE
  5
8E3
100
AcDbEntity
  8
寸法
  6
CONTINUOUS
 62
     3
100
AcDbLine
 10
1528.0
 20
2926.0
 30
0.0
 11
1622.5
 21
2926.0
 31
0.0
  0
LINE
  5
8E4
100
AcDbEntity
  8
寸法
  6
CONTINUOUS
 62
     3
100
AcDbLine
 10
1607.5
 20
2926.0
 30
0.0
 11
1607.5
 21
1031.0
 31
0.0
  0
LINE
  5
8E5
100
AcDbEntity
  8
寸法
  6
CONTINUOUS
 62
     3
100
AcDbLine
 10
1615.0
 20
2881.0
 30
0.0
 11
1607.5
 21
2926.0
 31
0.0
  0
LINE
  5
8E6
100
AcDbEntity
  8
寸法
  6
CONTINUOUS
 62
     3
100
AcDbLine
 10
1607.5
 20
2926.0
 30
0.0
 11
1600.0
 21
2881.0
 31
0.0
  0
LINE
  5
8E7
100
AcDbEntity
  8
寸法
  6
CONTINUOUS
 62
     3
100
AcDbLine
 10
1600.0
 20
1076.0
 30
0.0
 11
1607.5
 21
1031.0
 31
0.0
  0
LINE
  5
8E8
100
AcDbEntity
  8
寸法
  6
CONTINUOUS
 62
     3
100
AcDbLine
 10
1607.5
 20
1031.0
 30
0.0
 11
1615.0
 21
1076.0
 31
0.0
  0
TEXT
  5
8E9
100
AcDbEntity
  8
寸法
  6
CONTINUOUS
 62
     2
100
AcDbText
 10
1602.25
 20
1896.6
 30
0.0
 40
60.0
  1
1895
 50
90.0
 41
0.84
  7
EXCADSTD
 72
     1
 11
1602.25
 21
1978.5
 31
0.0
100
AcDbText
  0
ENDBLK
  5
8EA
100
AcDbEntity
  8
0
100
AcDbBlockEnd
  0
BLOCK
  5
8ED
100
AcDbEntity
  8
0
100
AcDbBlockBegin
  2
*D34
 70
    65
 10
0.0
 20
0.0
 30
0.0
  3
*D34
  1

  0
LINE
  5
8EE
100
AcDbEntity
  8
寸法
  6
CONTINUOUS
 62
     3
100
AcDbLine
 10
2602.5
 20
2871.0
 30
0.0
 11
2859.5
 21
2871.0
 31
0.0
  0
LINE
  5
8EF
100
AcDbEntity
  8
寸法
  6
CONTINUOUS
 62
     3
100
AcDbLine
 10
2602.5
 20
2286.0
 30
0.0
 11
2859.5
 21
2286.0
 31
0.0
  0
LINE
  5
8F0
100
AcDbEntity
  8
寸法
  6
CONTINUOUS
 62
     3
100
AcDbLine
 10
2844.5
 20
2871.0
 30
0.0
 11
2844.5
 21
2286.0
 31
0.0
  0
LINE
  5
8F1
100
AcDbEntity
  8
寸法
  6
CONTINUOUS
 62
     3
100
AcDbLine
 10
2852.0
 20
2826.0
 30
0.0
 11
2844.5
 21
2871.0
 31
0.0
  0
LINE
  5
8F2
100
AcDbEntity
  8
寸法
  6
CONTINUOUS
 62
     3
100
AcDbLine
 10
2844.5
 20
2871.0
 30
0.0
 11
2837.0
 21
2826.0
 31
0.0
  0
LINE
  5
8F3
100
AcDbEntity
  8
寸法
  6
CONTINUOUS
 62
     3
100
AcDbLine
 10
2837.0
 20
2331.0
 30
0.0
 11
2844.5
 21
2286.0
 31
0.0
  0
LINE
  5
8F4
100
AcDbEntity
  8
寸法
  6
CONTINUOUS
 62
     3
100
AcDbLine
 10
2844.5
 20
2286.0
 30
0.0
 11
2852.0
 21
2331.0
 31
0.0
  0
TEXT
  5
8F5
100
AcDbEntity
  8
寸法
  6
CONTINUOUS
 62
     2
100
AcDbText
 10
2839.25
 20
2515.5
 30
0.0
 40
60.0
  1
585
 50
90.0
 41
0.84
  7
EXCADSTD
 72
     1
 11
2839.25
 21
2578.5
 31
0.0
100
AcDbText
  0
ENDBLK
  5
8F6
100
AcDbEntity
  8
0
100
AcDbBlockEnd
  0
BLOCK
  5
8F9
100
AcDbEntity
  8
0
100
AcDbBlockBegin
  2
*D35
 70
    65
 10
0.0
 20
0.0
 30
0.0
  3
*D35
  1

  0
LINE
  5
8FA
100
AcDbEntity
  8
寸法
  6
CONTINUOUS
 62
     3
100
AcDbLine
 10
2844.5
 20
2286.0
 30
0.0
 11
2844.5
 21
1031.0
 31
0.0
  0
LINE
  5
8FB
100
AcDbEntity
  8
寸法
  6
CONTINUOUS
 62
     3
100
AcDbLine
 10
2852.0
 20
2241.0
 30
0.0
 11
2844.5
 21
2286.0
 31
0.0
  0
LINE
  5
8FC
100
AcDbEntity
  8
寸法
  6
CONTINUOUS
 62
     3
100
AcDbLine
 10
2844.5
 20
2286.0
 30
0.0
 11
2837.0
 21
2241.0
 31
0.0
  0
LINE
  5
8FD
100
AcDbEntity
  8
寸法
  6
CONTINUOUS
 62
     3
100
AcDbLine
 10
2837.0
 20
1076.0
 30
0.0
 11
2844.5
 21
1031.0
 31
0.0
  0
LINE
  5
8FE
100
AcDbEntity
  8
寸法
  6
CONTINUOUS
 62
     3
100
AcDbLine
 10
2844.5
 20
1031.0
 30
0.0
 11
2852.0
 21
1076.0
 31
0.0
  0
TEXT
  5
8FF
100
AcDbEntity
  8
寸法
  6
CONTINUOUS
 62
     2
100
AcDbText
 10
2839.25
 20
1690.6
 30
0.0
 40
60.0
  1
1255
 50
90.0
 41
0.84
  7
EXCADSTD
 72
     1
 11
2839.25
 21
1772.5
 31
0.0
100
AcDbText
  0
ENDBLK
  5
900
100
AcDbEntity
  8
0
100
AcDbBlockEnd
  0
BLOCK
  5
905
100
AcDbEntity
  8
0
100
AcDbBlockBegin
  2
*D36
 70
    65
 10
0.0
 20
0.0
 30
0.0
  3
*D36
  1

  0
LINE
  5
906
100
AcDbEntity
  8
寸法
  6
CONTINUOUS
 62
     3
100
AcDbLine
 10
997.5
 20
1898.8
 30
0.0
 11
997.5
 21
2019.0
 31
0.0
  0
TEXT
  5
907
100
AcDbEntity
  8
寸法
  6
CONTINUOUS
 62
     2
100
AcDbText
 10
1052.1
 20
2009.25
 30
0.0
 40
60.0
  1
65
 41
0.945
  7
EXCADSTD
 72
     1
 11
1102.5
 21
2009.25
 31
0.0
100
AcDbText
  0
LINE
  5
908
100
AcDbEntity
  8
寸法
  6
CONTINUOUS
 62
     3
100
AcDbLine
 10
887.5
 20
2004.0
 30
0.0
 11
1167.750006
 21
2004.0
 31
0.0
  0
LINE
  5
909
100
AcDbEntity
  8
寸法
  6
CONTINUOUS
 62
     3
100
AcDbLine
 10
1042.5
 20
2011.5
 30
0.0
 11
997.5
 21
2004.0
 31
0.0
  0
LINE
  5
90A
100
AcDbEntity
  8
寸法
  6
CONTINUOUS
 62
     3
100
AcDbLine
 10
997.5
 20
2004.0
 30
0.0
 11
1042.5
 21
1996.5
 31
0.0
  0
ENDBLK
  5
90B
100
AcDbEntity
  8
0
100
AcDbBlockEnd
  0
BLOCK
  5
90F
100
AcDbEntity
  8
0
100
AcDbBlockBegin
  2
*D37
 70
    65
 10
0.0
 20
0.0
 30
0.0
  3
*D37
  1

  0
LINE
  5
910
100
AcDbEntity
  8
寸法
  6
CONTINUOUS
 62
     3
100
AcDbLine
 10
857.5
 20
1913.263506
 30
0.0
 11
857.5
 21
2019.0
 31
0.0
  0
LINE
  5
911
100
AcDbEntity
  8
寸法
  6
CONTINUOUS
 62
     3
100
AcDbLine
 10
932.5
 20
1860.663506
 30
0.0
 11
932.5
 21
2019.0
 31
0.0
  0
TEXT
  5
912
100
AcDbEntity
  8
寸法
  6
CONTINUOUS
 62
     2
100
AcDbText
 10
844.6
 20
2009.25
 30
0.0
 40
60.0
  1
75
 41
0.945
  7
EXCADSTD
 72
     1
 11
895.0
 21
2009.25
 31
0.0
100
AcDbText
  0
LINE
  5
913
100
AcDbEntity
  8
寸法
  6
CONTINUOUS
 62
     3
100
AcDbLine
 10
812.5
 20
2004.0
 30
0.0
 11
977.5
 21
2004.0
 31
0.0
  0
LINE
  5
914
100
AcDbEntity
  8
寸法
  6
CONTINUOUS
 62
     3
100
AcDbLine
 10
812.5
 20
1996.5
 30
0.0
 11
857.5
 21
2004.0
 31
0.0
  0
LINE
  5
915
100
AcDbEntity
  8
寸法
  6
CONTINUOUS
 62
     3
100
AcDbLine
 10
857.5
 20
2004.0
 30
0.0
 11
812.5
 21
2011.5
 31
0.0
  0
CIRCLE
  5
916
100
AcDbEntity
  8
寸法
  6
CONTINUOUS
 62
     3
100
AcDbCircle
 10
932.5
 20
2004.0
 30
0.0
 40
5.25
  0
CIRCLE
  5
917
100
AcDbEntity
  8
寸法
  6
CONTINUOUS
 62
     3
100
AcDbCircle
 10
932.5
 20
2004.0
 30
0.0
 40
2.625
  0
ENDBLK
  5
918
100
AcDbEntity
  8
0
100
AcDbBlockEnd
  0
BLOCK
  5
91B
100
AcDbEntity
  8
0
100
AcDbBlockBegin
  2
*D38
 70
    65
 10
0.0
 20
0.0
 30
0.0
  3
*D38
  1

  0
LINE
  5
91C
100
AcDbEntity
  8
寸法
  6
CONTINUOUS
 62
     3
100
AcDbLine
 10
2454.5
 20
1915.5
 30
0.0
 11
2454.5
 21
2023.500001
 31
0.0
  0
TEXT
  5
91D
100
AcDbEntity
  8
寸法
  6
CONTINUOUS
 62
     2
100
AcDbText
 10
2299.1
 20
2010.75
 30
0.0
 40
60.0
  1
95
 41
0.945
  7
EXCADSTD
 72
     1
 11
2349.5
 21
2010.75
 31
0.0
100
AcDbText
  0
LINE
  5
91E
100
AcDbEntity
  8
寸法
  6
CONTINUOUS
 62
     3
100
AcDbLine
 10
2284.249994
 20
2005.5
 30
0.0
 11
2594.5
 21
2005.5
 31
0.0
  0
LINE
  5
91F
100
AcDbEntity
  8
寸法
  6
CONTINUOUS
 62
     3
100
AcDbLine
 10
2409.5
 20
1998.0
 30
0.0
 11
2454.5
 21
2005.5
 31
0.0
  0
LINE
  5
920
100
AcDbEntity
  8
寸法
  6
CONTINUOUS
 62
     3
100
AcDbLine
 10
2454.5
 20
2005.5
 30
0.0
 11
2409.5
 21
2013.0
 31
0.0
  0
LINE
  5
921
100
AcDbEntity
  8
寸法
  6
CONTINUOUS
 62
     3
100
AcDbLine
 10
2594.5
 20
2013.0
 30
0.0
 11
2549.5
 21
2005.5
 31
0.0
  0
LINE
  5
922
100
AcDbEntity
  8
寸法
  6
CONTINUOUS
 62
     3
100
AcDbLine
 10
2549.5
 20
2005.5
 30
0.0
 11
2594.5
 21
1998.0
 31
0.0
  0
ENDBLK
  5
923
100
AcDbEntity
  8
0
100
AcDbBlockEnd
  0
ENDSEC
  0
SECTION
  2
ENTITIES
  0
LINE
  5
86
100
AcDbEntity
  8
枠・表
  6
CONTINUOUS
 62
     7
100
AcDbLine
 10
270.0
 20
202.5
 30
0.0
 11
3000.0
 21
202.5
 31
0.0
  0
LINE
  5
87
100
AcDbEntity
  8
枠・表
  6
CONTINUOUS
 62
     7
100
AcDbLine
 10
3000.0
 20
202.5
 30
0.0
 11
3000.0
 21
4327.5
 31
0.0
  0
LINE
  5
88
100
AcDbEntity
  8
枠・表
  6
CONTINUOUS
 62
     7
100
AcDbLine
 10
270.0
 20
202.5
 30
0.0
 11
270.0
 21
4327.5
 31
0.0
  0
LINE
  5
89
100
AcDbEntity
  8
枠・表
  6
CONTINUOUS
 62
     7
100
AcDbLine
 10
270.0
 20
4327.5
 30
0.0
 11
3000.0
 21
4327.5
 31
0.0
  0
LINE
  5
8A
100
AcDbEntity
  8
枠・表
  6
CONTINUOUS
 62
     7
100
AcDbLine
 10
270.0
 20
532.5
 30
0.0
 11
3000.0
 21
532.5
 31
0.0
  0
LINE
  5
8B
100
AcDbEntity
  8
枠・表
  6
CONTINUOUS
 62
     6
100
AcDbLine
 10
3000.0
 20
352.5
 30
0.0
 11
1125.0
 21
352.5
 31
0.0
  0
LINE
  5
8C
100
AcDbEntity
  8
枠・表
  6
CONTINUOUS
 62
     6
100
AcDbLine
 10
2790.0
 20
532.5
 30
0.0
 11
2790.0
 21
352.5
 31
0.0
  0
LINE
  5
8D
100
AcDbEntity
  8
枠・表
  6
CONTINUOUS
 62
     6
100
AcDbLine
 10
2715.0
 20
532.5
 30
0.0
 11
2715.0
 21
352.5
 31
0.0
  0
LINE
  5
8E
100
AcDbEntity
  8
枠・表
  6
CONTINUOUS
 62
     6
100
AcDbLine
 10
2160.0
 20
532.5
 30
0.0
 11
2160.0
 21
202.5
 31
0.0
  0
LINE
  5
8F
100
AcDbEntity
  8
枠・表
  6
CONTINUOUS
 62
     6
100
AcDbLine
 10
2085.0
 20
532.5
 30
0.0
 11
2085.0
 21
202.5
 31
0.0
  0
LINE
  5
90
100
AcDbEntity
  8
枠・表
  6
CONTINUOUS
 62
     6
100
AcDbLine
 10
1200.0
 20
532.5
 30
0.0
 11
1200.0
 21
352.5
 31
0.0
  0
LINE
  5
91
100
AcDbEntity
  8
枠・表
  6
CONTINUOUS
 62
     6
100
AcDbLine
 10
1125.0
 20
532.5
 30
0.0
 11
1125.0
 21
202.5
 31
0.0
  0
LINE
  5
92
100
AcDbEntity
  8
枠・表
  6
CONTINUOUS
 62
     6
100
AcDbLine
 10
930.0
 20
532.5
 30
0.0
 11
930.0
 21
202.5
 31
0.0
  0
LINE
  5
93
100
AcDbEntity
  8
枠・表
  6
CONTINUOUS
 62
     6
100
AcDbLine
 10
735.0
 20
532.5
 30
0.0
 11
735.0
 21
202.5
 31
0.0
  0
LINE
  5
94
100
AcDbEntity
  8
枠・表
  6
CONTINUOUS
 62
     6
100
AcDbLine
 10
502.5
 20
532.5
 30
0.0
 11
502.5
 21
202.5
 31
0.0
  0
LINE
  5
95
100
AcDbEntity
  8
枠・表
  6
CONTINUOUS
 62
     6
100
AcDbLine
 10
270.0
 20
457.5
 30
0.0
 11
1125.0
 21
457.5
 31
0.0
  0
LINE
  5
96
100
AcDbEntity
  8
枠・表
  6
CONTINUOUS
 62
     6
100
AcDbLine
 10
2838.980713
 20
387.004395
 30
0.0
 11
2954.990845
 21
505.049744
 31
0.0
  0
TEXT
  5
97
100
AcDbEntity
  8
枠・表
  6
CONTINUOUS
 62
     2
100
AcDbText
 10
2835.805664
 20
454.084167
 30
0.0
 40
45.0
  1
１
 41
0.826
  7
EXCADSTD
 72
     5
 11
2871.205665
 21
454.084167
 31
0.0
100
AcDbText
  0
TEXT
  5
98
100
AcDbEntity
  8
枠・表
  6
CONTINUOUS
 62
     2
100
AcDbText
 10
2896.918945
 20
387.52327
 30
0.0
 40
45.0
  1
１５
 41
0.791
  7
EXCADSTD
 72
     5
 11
2974.600797
 21
387.52327
 31
0.0
100
AcDbText
  0
TEXT
  5
99
100
AcDbEntity
  8
枠・表
  6
CONTINUOUS
 62
     2
100
AcDbText
 10
303.75
 20
463.125
 30
0.0
 40
63.75
  1
製図
 41
1.087059
  7
EXCADSTD
 72
     5
 11
454.989
 21
463.125
 31
0.0
100
AcDbText
  0
TEXT
  5
9A
100
AcDbEntity
  8
枠・表
  6
CONTINUOUS
 62
     2
100
AcDbText
 10
536.25
 20
463.125
 30
0.0
 40
63.75
  1
写図
 41
1.087059
  7
EXCADSTD
 72
     5
 11
687.489
 21
463.125
 31
0.0
100
AcDbText
  0
TEXT
  5
9B
100
AcDbEntity
  8
枠・表
  6
CONTINUOUS
 62
     2
100
AcDbText
 10
761.25
 20
463.125
 30
0.0
 40
63.75
  1
検図
 41
0.938824
  7
EXCADSTD
 72
     5
 11
891.8655
 21
463.125
 31
0.0
100
AcDbText
  0
TEXT
  5
9C
100
AcDbEntity
  8
枠・表
  6
CONTINUOUS
 62
     2
100
AcDbText
 10
956.25
 20
463.125
 30
0.0
 40
63.75
  1
承認
 41
0.938824
  7
EXCADSTD
 72
     5
 11
1086.8655
 21
463.125
 31
0.0
100
AcDbText
  0
TEXT
  5
9D
100
AcDbEntity
  8
枠・表
  6
CONTINUOUS
 62
     2
100
AcDbText
 10
1133.625
 20
448.125
 30
0.0
 40
63.75
  1
品
 41
0.84
  7
EXCADSTD
 72
     5
 11
1184.625
 21
448.125
 31
0.0
100
AcDbText
  0
TEXT
  5
9E
100
AcDbEntity
  8
枠・表
  6
CONTINUOUS
 62
     2
100
AcDbText
 10
1133.625
 20
373.125
 30
0.0
 40
63.75
  1
名
 41
0.84
  7
EXCADSTD
 72
     5
 11
1184.625
 21
373.125
 31
0.0
100
AcDbText
  0
TEXT
  5
9F
100
AcDbEntity
  8
枠・表
  6
CONTINUOUS
 62
     2
100
AcDbText
 10
2093.625
 20
448.125
 30
0.0
 40
63.75
  1
品
 41
0.84
  7
EXCADSTD
 72
     5
 11
2144.625
 21
448.125
 31
0.0
100
AcDbText
  0
TEXT
  5
A0
100
AcDbEntity
  8
枠・表
  6
CONTINUOUS
 62
     2
100
AcDbText
 10
2093.625
 20
373.125
 30
0.0
 40
63.75
  1
番
 41
0.84
  7
EXCADSTD
 72
     5
 11
2144.625
 21
373.125
 31
0.0
100
AcDbText
  0
TEXT
  5
A1
100
AcDbEntity
  8
枠・表
  6
CONTINUOUS
 62
     2
100
AcDbText
 10
2725.125
 20
448.125
 30
0.0
 40
63.75
  1
尺
 41
0.84
  7
EXCADSTD
 72
     5
 11
2776.125
 21
448.125
 31
0.0
100
AcDbText
  0
TEXT
  5
A2
100
AcDbEntity
  8
枠・表
  6
CONTINUOUS
 62
     2
100
AcDbText
 10
2725.125
 20
373.125
 30
0.0
 40
63.75
  1
度
 41
0.84
  7
EXCADSTD
 72
     5
 11
2776.125
 21
373.125
 31
0.0
100
AcDbText
  0
TEXT
  5
A3
100
AcDbEntity
  8
枠・表
  6
CONTINUOUS
 62
     2
100
AcDbText
 10
2093.625
 20
278.625
 30
0.0
 40
63.75
  1
図
 41
0.84
  7
EXCADSTD
 72
     5
 11
2144.625
 21
278.625
 31
0.0
100
AcDbText
  0
TEXT
  5
A4
100
AcDbEntity
  8
枠・表
  6
CONTINUOUS
 62
     2
100
AcDbText
 10
2093.625
 20
214.125
 30
0.0
 40
63.75
  1
番
 41
0.84
  7
EXCADSTD
 72
     5
 11
2144.625
 21
214.125
 31
0.0
100
AcDbText
  0
TEXT
  5
A5
100
AcDbEntity
  8
枠・表
  6
CONTINUOUS
 62
     2
100
AcDbText
 10
1215.0
 20
442.5
 30
0.0
 40
75.0
  1
750㎜幅
 41
0.72072
  7
EXCADSTD
 72
     5
 11
1503.75
 21
442.5
 31
0.0
100
AcDbText
  0
TEXT
  5
A6
100
AcDbEntity
  8
枠・表
  6
CONTINUOUS
 62
     2
100
AcDbText
 10
1215.0
 20
367.5
 30
0.0
 40
75.0
  1
　洗面化粧ユニット
 41
0.924
  7
EXCADSTD
 72
     5
 11
1957.5
 21
367.5
 31
0.0
100
AcDbText
  0
LINE
  5
A7
100
AcDbEntity
  8
枠・表
  6
EXLTYPE2
 62
     6
100
AcDbLine
 10
270.0
 20
277.5
 30
0.0
 11
735.0
 21
277.5
 31
0.0
  0
CIRCLE
  5
A8
100
AcDbEntity
  8
枠・表
  6
CONTINUOUS
 62
     6
100
AcDbCircle
 10
345.0
 20
240.0
 30
0.0
 40
1.5
  0
CIRCLE
  5
A9
100
AcDbEntity
  8
枠・表
  6
CONTINUOUS
 62
     6
100
AcDbCircle
 10
420.0
 20
240.0
 30
0.0
 40
1.5
  0
CIRCLE
  5
AA
100
AcDbEntity
  8
枠・表
  6
CONTINUOUS
 62
     6
100
AcDbCircle
 10
577.5
 20
240.0
 30
0.0
 40
1.5
  0
CIRCLE
  5
AB
100
AcDbEntity
  8
枠・表
  6
CONTINUOUS
 62
     6
100
AcDbCircle
 10
652.5
 20
240.0
 30
0.0
 40
1.5
  0
LINE
  5
AC
100
AcDbEntity
  8
枠・表
  6
EXLTYPE2
 62
     6
100
AcDbLine
 10
0.0
 20
2265.0
 30
0.0
 11
270.0
 21
2265.0
 31
0.0
  0
LINE
  5
AD
100
AcDbEntity
  8
枠・表
  6
CONTINUOUS
 62
     6
100
AcDbLine
 10
1875.0
 20
4282.5
 30
0.0
 11
2925.0
 21
4282.5
 31
0.0
  0
LINE
  5
AE
100
AcDbEntity
  8
枠・表
  6
CONTINUOUS
 62
     6
100
AcDbLine
 10
1875.0
 20
4200.0
 30
0.0
 11
2925.0
 21
4200.0
 31
0.0
  0
LINE
  5
AF
100
AcDbEntity
  8
枠・表
  6
CONTINUOUS
 62
     6
100
AcDbLine
 10
1875.0
 20
4117.5
 30
0.0
 11
2925.0
 21
4117.5
 31
0.0
  0
LINE
  5
B0
100
AcDbEntity
  8
枠・表
  6
CONTINUOUS
 62
     6
100
AcDbLine
 10
1875.0
 20
4035.0
 30
0.0
 11
2925.0
 21
4035.0
 31
0.0
  0
LINE
  5
B1
100
AcDbEntity
  8
枠・表
  6
CONTINUOUS
 62
     6
100
AcDbLine
 10
1875.0
 20
3952.5
 30
0.0
 11
2925.0
 21
3952.5
 31
0.0
  0
TEXT
  5
B2
100
AcDbEntity
  8
枠・表
  6
CONTINUOUS
 62
     2
100
AcDbText
 10
1995.0
 20
4211.25
 30
0.0
 40
60.0
  1
品番
 41
1.47
  7
EXCADSTD
 72
     5
 11
2187.486
 21
4211.25
 31
0.0
100
AcDbText
  0
TEXT
  5
B3
100
AcDbEntity
  8
枠・表
  6
CONTINUOUS
 62
     2
100
AcDbText
 10
2445.0
 20
4211.25
 30
0.0
 40
60.0
  1
品名
 41
1.47
  7
EXCADSTD
 72
     5
 11
2637.486
 21
4211.25
 31
0.0
100
AcDbText
  0
TEXT
  5
B4
100
AcDbEntity
  8
枠・表
  6
CONTINUOUS
 62
     2
100
AcDbText
 10
2788.5
 20
4211.25
 30
0.0
 40
60.0
  1
個数
 41
0.861
  7
EXCADSTD
 72
     5
 11
2901.2418
 21
4211.25
 31
0.0
100
AcDbText
  0
TEXT
  5
B5
100
AcDbEntity
  8
枠・表
  6
CONTINUOUS
 62
     2
100
AcDbText
 10
2340.0
 20
4128.75
 30
0.0
 40
60.0
  1
洗面化粧台
 41
0.8106
  7
EXCADSTD
 72
     5
 11
2629.499999
 21
4128.75
 31
0.0
100
AcDbText
  0
TEXT
  5
B6
100
AcDbEntity
  8
枠・表
  6
CONTINUOUS
 62
     2
100
AcDbText
 10
2816.25
 20
4128.75
 30
0.0
 40
60.0
  1
１
 41
0.945
  7
EXCADSTD
 72
     5
 11
2870.25
 21
4128.75
 31
0.0
100
AcDbText
  0
TEXT
  5
B7
100
AcDbEntity
  8
枠・表
  6
CONTINUOUS
 62
     2
100
AcDbText
 10
2340.0
 20
4046.25
 30
0.0
 40
60.0
  1
化粧鏡台
 41
0.819
  7
EXCADSTD
 72
     5
 11
2573.999999
 21
4046.25
 31
0.0
100
AcDbText
  0
TEXT
  5
B8
100
AcDbEntity
  8
枠・表
  6
CONTINUOUS
 62
     2
100
AcDbText
 10
2816.25
 20
4046.25
 30
0.0
 40
60.0
  1
１
 41
0.945
  7
EXCADSTD
 72
     5
 11
2870.25
 21
4046.25
 31
0.0
100
AcDbText
  0
LINE
  5
B9
100
AcDbEntity
  8
枠・表
  6
CONTINUOUS
 62
     6
100
AcDbLine
 10
1875.0
 20
3870.0
 30
0.0
 11
2925.0
 21
3870.0
 31
0.0
  0
LINE
  5
BA
100
AcDbEntity
  8
枠・表
  6
CONTINUOUS
 62
     6
100
AcDbLine
 10
1875.0
 20
3870.0
 30
0.0
 11
1875.0
 21
4282.5
 31
0.0
  0
LINE
  5
BB
100
AcDbEntity
  8
枠・表
  6
CONTINUOUS
 62
     6
100
AcDbLine
 10
2325.0
 20
3870.0
 30
0.0
 11
2325.0
 21
4282.5
 31
0.0
  0
LINE
  5
BC
100
AcDbEntity
  8
枠・表
  6
CONTINUOUS
 62
     6
100
AcDbLine
 10
2775.0
 20
3870.0
 30
0.0
 11
2775.0
 21
4282.5
 31
0.0
  0
LINE
  5
BD
100
AcDbEntity
  8
枠・表
  6
CONTINUOUS
 62
     6
100
AcDbLine
 10
2925.0
 20
3870.0
 30
0.0
 11
2925.0
 21
4282.5
 31
0.0
  0
TEXT
  5
BE
100
AcDbEntity
  8
枠・表
  6
CONTINUOUS
 62
     2
100
AcDbText
 10
2816.25
 20
3963.75
 30
0.0
 40
60.0
  1
２
 41
0.945
  7
EXCADSTD
 72
     5
 11
2870.25
 21
3963.75
 31
0.0
100
AcDbText
  0
TEXT
  5
BF
100
AcDbEntity
  8
枠・表
  6
CONTINUOUS
 62
     2
100
AcDbText
 10
2816.25
 20
3881.25
 30
0.0
 40
60.0
  1
２
 41
0.945
  7
EXCADSTD
 72
     5
 11
2870.25
 21
3881.25
 31
0.0
100
AcDbText
  0
TEXT
  5
C0
100
AcDbEntity
  8
枠・表
  6
CONTINUOUS
 62
     2
100
AcDbText
 10
2340.0
 20
3963.75
 30
0.0
 40
60.0
  1
アングル形止水栓（共用形）
 41
0.474923
  7
EXCADSTD
 72
     5
 11
2781.000023
 21
3963.75
 31
0.0
100
AcDbText
  0
TEXT
  5
C1
100
AcDbEntity
  8
枠・表
  6
CONTINUOUS
 62
     2
100
AcDbText
 10
2340.0
 20
3881.25
 30
0.0
 40
60.0
  1
ストレート形止水栓（共用形）
 41
0.435
  7
EXCADSTD
 72
     5
 11
2775.00005
 21
3881.25
 31
0.0
100
AcDbText
  0
TEXT
  5
C2
100
AcDbEntity
  8
枠・表
  6
CONTINUOUS
 62
     2
100
AcDbText
 10
1890.0
 20
3881.25
 30
0.0
 40
60.0
  1
ＮＬ２１１-３３０ＷＭＹ
 41
0.518222
  7
EXCADSTD
 72
     5
 11
2327.24999
 21
3881.25
 31
0.0
100
AcDbText
  0
TEXT
  5
C3
100
AcDbEntity
  8
枠・表
  6
CONTINUOUS
 62
     2
100
AcDbText
 10
1890.0
 20
3963.75
 30
0.0
 40
60.0
  1
ＮＬ２２１-７５ＷＭＹ
 41
0.517583
  7
EXCADSTD
 72
     5
 11
2289.749991
 21
3963.75
 31
0.0
100
AcDbText
  0
TEXT
  5
C4
100
AcDbEntity
  8
枠・表
  6
CONTINUOUS
 62
     6
100
AcDbText
 10
311.25
 20
330.0
 30
0.0
 40
75.0
  1
竹内
 41
0.8736
  7
EXCADSTD
 72
     5
 11
454.2396
 21
330.0
 31
0.0
100
AcDbText
  0
TEXT
  5
C5
100
AcDbEntity
  8
枠・表
  6
CONTINUOUS
 62
     6
100
AcDbText
 10
758.25
 20
330.0
 30
0.0
 40
75.0
  1
間瀬
 41
0.8568
  7
EXCADSTD
 72
     5
 11
898.4898
 21
330.0
 31
0.0
100
AcDbText
  0
TEXT
  5
C6
100
AcDbEntity
  8
枠・表
  6
CONTINUOUS
 62
     6
100
AcDbText
 10
953.25
 20
330.0
 30
0.0
 40
75.0
  1
古林
 41
0.8568
  7
EXCADSTD
 72
     5
 11
1093.4898
 21
330.0
 31
0.0
100
AcDbText
  0
TEXT
  5
C7
100
AcDbEntity
  8
枠・表
  6
CONTINUOUS
 62
     7
100
AcDbText
 10
2178.000003
 20
227.25
 30
0.0
 40
105.0
  1
ＬＵ３１６１８０
 41
0.804
  7
EXCADSTD
 72
     5
 11
2981.999997
 21
227.25
 31
0.0
100
AcDbText
  0
TEXT
  5
C8
100
AcDbEntity
  8
枠・表
  6
CONTINUOUS
 62
     2
100
AcDbText
 10
2175.0
 20
442.5
 30
0.0
 40
75.0
  1
ＬＵ７５２ＨＡＪ（Ｙ）Ｒ
 41
0.4508
  7
EXCADSTD
 72
     5
 11
2657.999983
 21
442.5
 31
0.0
100
AcDbText
  0
TEXT
  5
C9
100
AcDbEntity
  8
枠・表
  6
CONTINUOUS
 62
     2
100
AcDbText
 10
2175.0
 20
367.5
 30
0.0
 40
75.0
  1
ＬＵＭ７５３ＭＫＨ
 41
0.455467
  7
EXCADSTD
 72
     5
 11
2540.999987
 21
367.5
 31
0.0
100
AcDbText
  0
TEXT
  5
CA
100
AcDbEntity
  8
枠・表
  6
CONTINUOUS
 62
     6
100
AcDbText
 10
273.066174
 20
220.42511
 30
0.0
 40
37.5
  1
２０
 41
0.75768
  7
EXCADSTD
 72
     5
 11
335.074163
 21
220.42511
 31
0.0
100
AcDbText
  0
TEXT
  5
CB
100
AcDbEntity
  8
枠・表
  6
CONTINUOUS
 62
     6
100
AcDbText
 10
366.816174
 20
220.42511
 30
0.0
 40
37.5
  1
４
 41
0.89208
  7
EXCADSTD
 72
     5
 11
398.676174
 21
220.42511
 31
0.0
100
AcDbText
  0
TEXT
  5
CC
100
AcDbEntity
  8
枠・表
  6
CONTINUOUS
 62
     6
100
AcDbText
 10
444.178674
 20
220.42511
 30
0.0
 40
37.5
  1
４
 41
0.89208
  7
EXCADSTD
 72
     5
 11
476.038674
 21
220.42511
 31
0.0
100
AcDbText
  0
TEXT
  5
CD
100
AcDbEntity
  8
枠・表
  6
CONTINUOUS
 62
     2
100
AcDbText
 10
1890.0
 20
4128.75
 30
0.0
 40
60.0
  1
ＬＵ７５２ＨＡＪ（Ｙ）Ｒ
 41
0.497
  7
EXCADSTD
 72
     5
 11
2315.999981
 21
4128.75
 31
0.0
100
AcDbText
  0
TEXT
  5
CE
100
AcDbEntity
  8
枠・表
  6
CONTINUOUS
 62
     2
100
AcDbText
 10
1890.0
 20
4046.25
 30
0.0
 40
60.0
  1
ＬＵＭ７５３ＭＫＨ
 41
0.522667
  7
EXCADSTD
 72
     5
 11
2226.000005
 21
4046.25
 31
0.0
100
AcDbText
  0
TEXT
  5
CF
100
AcDbEntity
  8
枠・表
  6
CONTINUOUS
 62
     2
100
AcDbText
 10
1905.0
 20
3783.0
 30
0.0
 40
57.0
  1
※止水栓は別途
 41
0.843158
  7
EXCADSTD
 72
     5
 11
2305.499999
 21
3783.0
 31
0.0
100
AcDbText
  0
TEXT
  5
D0
100
AcDbEntity
  8
枠・表
  6
CONTINUOUS
 62
     2
100
AcDbText
 10
1905.0
 20
3726.0
 30
0.0
 40
57.0
  1
※洗面化粧台
 41
0.847368
  7
EXCADSTD
 72
     5
 11
2249.999999
 21
3726.0
 31
0.0
100
AcDbText
  0
TEXT
  5
D1
100
AcDbEntity
  8
枠・表
  6
CONTINUOUS
 62
     2
100
AcDbText
 10
1905.0
 20
3669.0
 30
0.0
 40
57.0
  1
　品番にＹの付く場合は、寒冷地仕様
 41
0.828297
  7
EXCADSTD
 72
     5
 11
2860.499997
 21
3669.0
 31
0.0
100
AcDbText
  0
TEXT
  5
D2
100
AcDbEntity
  8
枠・表
  6
CONTINUOUS
 62
     2
100
AcDbText
 10
1905.0
 20
3612.0
 30
0.0
 40
57.0
  1
※化粧鏡台
 41
0.853263
  7
EXCADSTD
 72
     5
 11
2194.499999
 21
3612.0
 31
0.0
100
AcDbText
  0
TEXT
  5
D3
100
AcDbEntity
  8
枠・表
  6
CONTINUOUS
 62
     2
100
AcDbText
 10
1905.0
 20
3555.0
 30
0.0
 40
57.0
  1
　電源：１００Ｖ，５０/６０Ｈｚ
 41
0.80736
  7
EXCADSTD
 72
     5
 11
2771.249997
 21
3555.0
 31
0.0
100
AcDbText
  0
TEXT
  5
D4
100
AcDbEntity
  8
枠・表
  6
CONTINUOUS
 62
     2
100
AcDbText
 10
1905.0
 20
3498.0
 30
0.0
 40
57.0
  1
　コンセント容量：１２００Ｗ
 41
0.830526
  7
EXCADSTD
 72
     5
 11
2693.999998
 21
3498.0
 31
0.0
100
AcDbText
  0
TEXT
  5
D5
100
AcDbEntity
  8
枠・表
  6
CONTINUOUS
 62
     2
100
AcDbText
 10
1905.0
 20
3441.0
 30
0.0
 40
57.0
  1
　電源コードの取出しは、左右及び上側
 41
0.827719
  7
EXCADSTD
 72
     5
 11
2915.999997
 21
3441.0
 31
0.0
100
AcDbText
  0
TEXT
  5
D6
100
AcDbEntity
  8
枠・表
  6
CONTINUOUS
 62
     2
100
AcDbText
 10
1905.0
 20
3384.0
 30
0.0
 40
57.0
  1
  くもり止めヒーター付
 41
0.773538
  7
EXCADSTD
 72
     5
 11
2515.499998
 21
3384.0
 31
0.0
100
AcDbText
  0
POLYLINE
  5
D7
100
AcDbEntity
  8
化粧台
  6
CONTINUOUS
 62
     3
100
AcDb2dPolyline
 66
     1
 10
0.0
 20
0.0
 30
0.0
 70
   128
  0
VERTEX
  5
D8
100
AcDbEntity
  8
化粧台
  6
CONTINUOUS
 62
     3
100
AcDbVertex
100
AcDb2dVertex
 10
1464.5
 20
4005.0
 30
0.0
  0
VERTEX
  5
D9
100
AcDbEntity
  8
化粧台
  6
CONTINUOUS
 62
     3
100
AcDbVertex
100
AcDb2dVertex
 10
1487.5
 20
3955.5
 30
0.0
  0
SEQEND
  5
DA
100
AcDbEntity
  8
化粧台
  6
CONTINUOUS
 62
     3
  0
LINE
  5
DB
100
AcDbEntity
  8
化粧台
  6
CONTINUOUS
 62
     3
100
AcDbLine
 10
1490.263749
 20
3967.350575
 30
0.0
 11
1464.5
 21
4005.0
 31
0.0
  0
LINE
  5
DC
100
AcDbEntity
  8
化粧台
  6
CONTINUOUS
 62
     3
100
AcDbLine
 10
1464.5
 20
4005.0
 30
0.0
 11
1476.66049
 21
3961.029868
 31
0.0
  0
LINE
  5
DD
100
AcDbEntity
  8
化粧台
  6
CONTINUOUS
 62
     2
100
AcDbLine
 10
2544.5
 20
1743.0
 30
0.0
 11
2544.5
 21
1034.5
 31
0.0
  0
LINE
  5
DE
100
AcDbEntity
  8
化粧台
  6
CONTINUOUS
 62
     2
100
AcDbLine
 10
2129.5
 20
1034.5
 30
0.0
 11
2544.5
 21
1034.5
 31
0.0
  0
LINE
  5
DF
100
AcDbEntity
  8
化粧台
  6
CONTINUOUS
 62
     2
100
AcDbLine
 10
2193.5
 20
1034.5
 30
0.0
 11
2193.5
 21
1031.0
 31
0.0
  0
LINE
  5
E0
100
AcDbEntity
  8
化粧台
  6
CONTINUOUS
 62
     2
100
AcDbLine
 10
2180.5
 20
1034.5
 30
0.0
 11
2180.5
 21
1031.0
 31
0.0
  0
LINE
  5
E1
100
AcDbEntity
  8
化粧台
  6
CONTINUOUS
 62
     2
100
AcDbLine
 10
2180.5
 20
1031.0
 30
0.0
 11
2193.5
 21
1031.0
 31
0.0
  0
LINE
  5
E2
100
AcDbEntity
  8
化粧台
  6
CONTINUOUS
 62
     2
100
AcDbLine
 10
2493.5
 20
1034.5
 30
0.0
 11
2493.5
 21
1031.0
 31
0.0
  0
LINE
  5
E3
100
AcDbEntity
  8
化粧台
  6
CONTINUOUS
 62
     2
100
AcDbLine
 10
2480.5
 20
1034.5
 30
0.0
 11
2480.5
 21
1031.0
 31
0.0
  0
LINE
  5
E4
100
AcDbEntity
  8
化粧台
  6
CONTINUOUS
 62
     2
100
AcDbLine
 10
2480.5
 20
1031.0
 30
0.0
 11
2493.5
 21
1031.0
 31
0.0
  0
LINE
  5
E5
100
AcDbEntity
  8
化粧台
  6
CONTINUOUS
 62
     2
100
AcDbLine
 10
2526.177126
 20
1825.993561
 30
0.0
 11
2080.355199
 21
1809.120846
 31
0.0
  0
ARC
  5
E6
100
AcDbEntity
  8
化粧台
  6
CONTINUOUS
 62
     2
100
AcDbCircle
 10
1997.770961
 20
2097.820543
 30
0.0
 40
300.0
100
AcDbArc
 50
271.243793
 51
285.522736
  0
LINE
  5
E7
100
AcDbEntity
  8
化粧台
  6
CONTINUOUS
 62
     2
100
AcDbLine
 10
2544.5
 20
1826.0
 30
0.0
 11
2544.5
 21
1631.0
 31
0.0
  0
ARC
  5
E8
100
AcDbEntity
  8
化粧台
  6
CONTINUOUS
 62
     2
100
AcDbCircle
 10
2110.5
 20
1639.848954
 30
0.0
 40
6.0
100
AcDbArc
 50
270.0
 51
0.0
  0
ARC
  5
E9
100
AcDbEntity
  8
化粧台
  6
CONTINUOUS
 62
     2
100
AcDbCircle
 10
2096.695705
 20
1639.848954
 30
0.0
 40
6.0
100
AcDbArc
 50
186.731084
 51
270.0
  0
ARC
  5
EA
100
AcDbEntity
  8
化粧台
  6
CONTINUOUS
 62
     2
100
AcDbCircle
 10
2041.656829
 20
1629.518313
 30
0.0
 40
50.0
100
AcDbArc
 50
10.630568
 51
55.608469
  0
ARC
  5
EB
100
AcDbEntity
  8
化粧台
  6
CONTINUOUS
 62
     2
100
AcDbCircle
 10
2171.571186
 20
1819.313624
 30
0.0
 40
180.0
100
AcDbArc
 50
190.650858
 51
235.608469
  0
ARC
  5
EC
100
AcDbEntity
  8
化粧台
  6
CONTINUOUS
 62
     2
100
AcDbCircle
 10
2080.733392
 20
1799.128
 30
0.0
 40
10.0
100
AcDbArc
 50
92.167399
 51
105.522736
  0
LINE
  5
ED
100
AcDbEntity
  8
化粧台
  6
CONTINUOUS
 62
     2
100
AcDbLine
 10
2110.5
 20
1633.848954
 30
0.0
 11
2096.695705
 21
1633.848954
 31
0.0
  0
LINE
  5
EE
100
AcDbEntity
  8
化粧台
  6
CONTINUOUS
 62
     6
100
AcDbLine
 10
2544.5
 20
1543.0
 30
0.0
 11
2577.0
 21
1541.0
 31
0.0
  0
LINE
  5
EF
100
AcDbEntity
  8
化粧台
  6
CONTINUOUS
 62
     6
100
AcDbLine
 10
2577.0
 20
1541.0
 30
0.0
 11
2544.5
 21
1539.0
 31
0.0
  0
LINE
  5
F0
100
AcDbEntity
  8
化粧台
  6
CONTINUOUS
 62
     6
100
AcDbLine
 10
2512.0
 20
1541.0
 30
0.0
 11
2592.0
 21
1541.0
 31
0.0
  0
LINE
  5
F1
100
AcDbEntity
  8
化粧台
  6
EXLTYPE2
 62
     6
100
AcDbLine
 10
2147.5
 20
1121.0
 30
0.0
 11
2147.5
 21
1035.0
 31
0.0
  0
LINE
  5
F2
100
AcDbEntity
  8
化粧台
  6
EXLTYPE2
 62
     6
100
AcDbLine
 10
2162.5
 20
1121.0
 30
0.0
 11
2129.5
 21
1121.0
 31
0.0
  0
LINE
  5
F3
100
AcDbEntity
  8
化粧台
  6
EXLTYPE2
 62
     6
100
AcDbLine
 10
2239.5
 20
1134.5
 30
0.0
 11
2162.5
 21
1134.5
 31
0.0
  0
LINE
  5
F4
100
AcDbEntity
  8
化粧台
  6
EXLTYPE2
 62
     6
100
AcDbLine
 10
2162.5
 20
1134.5
 30
0.0
 11
2162.5
 21
1121.0
 31
0.0
  0
LINE
  5
F5
100
AcDbEntity
  8
化粧台
  6
EXLTYPE2
 62
     6
100
AcDbLine
 10
2526.5
 20
1138.5
 30
0.0
 11
2129.5
 21
1138.5
 31
0.0
  0
LINE
  5
F6
100
AcDbEntity
  8
化粧台
  6
EXLTYPE2
 62
     6
100
AcDbLine
 10
2274.5
 20
1134.5
 30
0.0
 11
2274.5
 21
1121.0
 31
0.0
  0
LINE
  5
F7
100
AcDbEntity
  8
化粧台
  6
EXLTYPE2
 62
     6
100
AcDbLine
 10
2274.5
 20
1121.0
 30
0.0
 11
2239.5
 21
1121.0
 31
0.0
  0
LINE
  5
F8
100
AcDbEntity
  8
化粧台
  6
EXLTYPE2
 62
     6
100
AcDbLine
 10
2239.5
 20
1134.5
 30
0.0
 11
2239.5
 21
1121.0
 31
0.0
  0
LINE
  5
F9
100
AcDbEntity
  8
化粧台
  6
EXLTYPE2
 62
     6
100
AcDbLine
 10
2494.5
 20
1134.5
 30
0.0
 11
2494.5
 21
1121.0
 31
0.0
  0
LINE
  5
FA
100
AcDbEntity
  8
化粧台
  6
EXLTYPE2
 62
     6
100
AcDbLine
 10
2529.5
 20
1121.0
 30
0.0
 11
2494.5
 21
1121.0
 31
0.0
  0
LINE
  5
FB
100
AcDbEntity
  8
化粧台
  6
EXLTYPE2
 62
     6
100
AcDbLine
 10
2494.5
 20
1134.5
 30
0.0
 11
2274.5
 21
1134.5
 31
0.0
  0
LINE
  5
FC
100
AcDbEntity
  8
化粧台
  6
EXLTYPE2
 62
     6
100
AcDbLine
 10
2526.5
 20
1571.0
 30
0.0
 11
2526.5
 21
1121.0
 31
0.0
  0
LINE
  5
FD
100
AcDbEntity
  8
化粧台
  6
EXLTYPE2
 62
     6
100
AcDbLine
 10
2529.5
 20
1531.0
 30
0.0
 11
2529.5
 21
1121.0
 31
0.0
  0
LINE
  5
FE
100
AcDbEntity
  8
化粧台
  6
EXLTYPE2
 62
     6
100
AcDbLine
 10
2526.5
 20
1571.0
 30
0.0
 11
2544.5
 21
1571.0
 31
0.0
  0
LINE
  5
FF
100
AcDbEntity
  8
化粧台
  6
EXLTYPE2
 62
     6
100
AcDbLine
 10
2529.5
 20
1531.0
 30
0.0
 11
2544.5
 21
1531.0
 31
0.0
  0
LINE
  5
100
100
AcDbEntity
  8
化粧台
  6
EXLTYPE2
 62
     6
100
AcDbLine
 10
2147.5
 20
1642.0
 30
0.0
 11
2147.5
 21
1592.0
 31
0.0
  0
LINE
  5
101
100
AcDbEntity
  8
化粧台
  6
EXLTYPE2
 62
     6
100
AcDbLine
 10
2130.0
 20
1592.0
 30
0.0
 11
2147.5
 21
1592.0
 31
0.0
  0
LINE
  5
102
100
AcDbEntity
  8
化粧台
  6
EXLTYPE2
 62
     6
100
AcDbLine
 10
2130.0
 20
1642.0
 30
0.0
 11
2147.5
 21
1642.0
 31
0.0
  0
ARC
  5
103
100
AcDbEntity
  8
化粧台
  6
CONTINUOUS
 62
     2
100
AcDbCircle
 10
2004.5
 20
1787.893584
 30
0.0
 40
10.0
100
AcDbArc
 50
91.243793
 51
190.650858
  0
LINE
  5
104
100
AcDbEntity
  8
化粧台
  6
CONTINUOUS
 62
     2
100
AcDbLine
 10
2116.497612
 20
1639.6797
 30
0.0
 11
2119.089613
 21
1731.528318
 31
0.0
  0
ARC
  5
105
100
AcDbEntity
  8
化粧台
  6
CONTINUOUS
 62
     2
100
AcDbCircle
 10
2110.5
 20
1639.848954
 30
0.0
 40
6.0
100
AcDbArc
 50
270.0
 51
0.0
  0
LINE
  5
106
100
AcDbEntity
  8
化粧台
  6
CONTINUOUS
 62
     2
100
AcDbLine
 10
2070.811257
 20
1797.882511
 30
0.0
 11
2090.742424
 21
1639.101661
 31
0.0
  0
ARC
  5
107
100
AcDbEntity
  8
化粧台
  6
CONTINUOUS
 62
     2
100
AcDbCircle
 10
2080.733392
 20
1799.128
 30
0.0
 40
10.0
100
AcDbArc
 50
92.167399
 51
188.218096
  0
LINE
  5
108
100
AcDbEntity
  8
化粧台
  6
CONTINUOUS
 62
     2
100
AcDbLine
 10
2110.5
 20
1633.848954
 30
0.0
 11
2096.695705
 21
1633.848954
 31
0.0
  0
ARC
  5
109
100
AcDbEntity
  8
化粧台
  6
CONTINUOUS
 62
     2
100
AcDbCircle
 10
2128.078287
 20
1731.0
 30
0.0
 40
9.0
100
AcDbArc
 50
90.0
 51
178.383521
  0
LINE
  5
10A
100
AcDbEntity
  8
化粧台
  6
CONTINUOUS
 62
     2
100
AcDbLine
 10
2544.5
 20
1740.0
 30
0.0
 11
2128.078287
 21
1740.0
 31
0.0
  0
LINE
  5
10B
100
AcDbEntity
  8
化粧台
  6
CONTINUOUS
 62
     2
100
AcDbLine
 10
2129.5
 20
1740.0
 30
0.0
 11
2129.5
 21
1034.5
 31
0.0
  0
ARC
  5
10C
100
AcDbEntity
  8
化粧台
  6
CONTINUOUS
 62
     2
100
AcDbCircle
 10
2125.968083
 20
1656.224044
 30
0.0
 40
9.0
100
AcDbArc
 50
66.893886
 51
178.383521
  0
LINE
  5
10D
100
AcDbEntity
  8
化粧台
  6
CONTINUOUS
 62
     2
100
AcDbLine
 10
2125.968083
 20
1665.224044
 30
0.0
 11
2129.5
 21
1665.224044
 31
0.0
  0
ARC
  5
10E
100
AcDbEntity
  8
化粧台
  6
EXLTYPE2
 62
     6
100
AcDbCircle
 10
2150.160113
 20
1635.224044
 30
0.0
 40
30.0
100
AcDbArc
 50
73.537061
 51
90.0
  0
ARC
  5
10F
100
AcDbEntity
  8
化粧台
  6
EXLTYPE2
 62
     6
100
AcDbCircle
 10
2125.968083
 20
1656.224044
 30
0.0
 40
9.0
100
AcDbArc
 50
61.131666
 51
66.893886
  0
LINE
  5
110
100
AcDbEntity
  8
化粧台
  6
EXLTYPE2
 62
     6
100
AcDbLine
 10
2129.5
 20
1665.224044
 30
0.0
 11
2150.160113
 21
1665.224044
 31
0.0
  0
ARC
  5
111
100
AcDbEntity
  8
化粧台
  6
EXLTYPE2
 62
     6
100
AcDbCircle
 10
2617.939716
 20
2548.594433
 30
0.0
 40
1010.0
100
AcDbArc
 50
241.131666
 51
249.439599
  0
LINE
  5
112
100
AcDbEntity
  8
化粧台
  6
EXLTYPE2
 62
     6
100
AcDbLine
 10
2295.072411
 20
1622.309734
 30
0.0
 11
2158.927589
 21
1663.91431
 31
0.0
  0
ARC
  5
113
100
AcDbEntity
  8
化粧台
  6
EXLTYPE2
 62
     6
100
AcDbCircle
 10
2360.171038
 20
1562.006619
 30
0.0
 40
5.0
100
AcDbArc
 50
105.664033
 51
109.475664
  0
LINE
  5
114
100
AcDbEntity
  8
化粧台
  6
EXLTYPE2
 62
     6
100
AcDbLine
 10
2351.003001
 20
1561.0
 30
0.0
 11
2278.397084
 21
1561.0
 31
0.0
  0
LINE
  5
115
100
AcDbEntity
  8
化粧台
  6
EXLTYPE2
 62
     6
100
AcDbLine
 10
2273.43808
 20
1565.361031
 30
0.0
 11
2269.63921
 21
1594.84384
 31
0.0
  0
ARC
  5
116
100
AcDbEntity
  8
化粧台
  6
EXLTYPE2
 62
     6
100
AcDbCircle
 10
2351.003001
 20
1566.0
 30
0.0
 40
5.0
100
AcDbArc
 50
270.0
 51
336.46319
  0
ARC
  5
117
100
AcDbEntity
  8
化粧台
  6
EXLTYPE2
 62
     6
100
AcDbCircle
 10
2331.831491
 20
1642.14319
 30
0.0
 40
80.0
100
AcDbArc
 50
289.475664
 51
347.078912
  0
ARC
  5
118
100
AcDbEntity
  8
化粧台
  6
EXLTYPE2
 62
     6
100
AcDbCircle
 10
2360.171038
 20
1562.006619
 30
0.0
 40
5.0
100
AcDbArc
 50
109.475664
 51
156.46319
  0
ARC
  5
119
100
AcDbEntity
  8
化粧台
  6
EXLTYPE2
 62
     6
100
AcDbCircle
 10
2278.397084
 20
1566.0
 30
0.0
 40
5.0
100
AcDbArc
 50
187.342126
 51
270.0
  0
ARC
  5
11A
100
AcDbEntity
  8
化粧台
  6
EXLTYPE2
 62
     6
100
AcDbCircle
 10
2259.721203
 20
1593.565902
 30
0.0
 40
10.0
100
AcDbArc
 50
7.342126
 51
69.439599
  0
ARC
  5
11B
100
AcDbEntity
  8
化粧台
  6
EXLTYPE2
 62
     6
100
AcDbCircle
 10
2303.839887
 20
1651.0
 30
0.0
 40
30.0
100
AcDbArc
 50
253.537061
 51
270.0
  0
LINE
  5
11C
100
AcDbEntity
  8
化粧台
  6
EXLTYPE2
 62
     6
100
AcDbLine
 10
2534.5
 20
1621.0
 30
0.0
 11
2303.839887
 21
1621.0
 31
0.0
  0
ARC
  5
11D
100
AcDbEntity
  8
化粧台
  6
EXLTYPE2
 62
     6
100
AcDbCircle
 10
2534.5
 20
1631.0
 30
0.0
 40
10.0
100
AcDbArc
 50
270.0
 51
0.0
  0
LINE
  5
11E
100
AcDbEntity
  8
化粧台
  6
EXLTYPE2
 62
     6
100
AcDbLine
 10
2296.0
 20
1476.207107
 30
0.0
 11
2296.0
 21
1441.207107
 31
0.0
  0
LINE
  5
11F
100
AcDbEntity
  8
化粧台
  6
EXLTYPE2
 62
     6
100
AcDbLine
 10
2333.0
 20
1476.207107
 30
0.0
 11
2333.0
 21
1441.207107
 31
0.0
  0
LINE
  5
120
100
AcDbEntity
  8
化粧台
  6
EXLTYPE2
 62
     6
100
AcDbLine
 10
2298.65
 20
1438.557107
 30
0.0
 11
2298.65
 21
1400.800361
 31
0.0
  0
LINE
  5
121
100
AcDbEntity
  8
化粧台
  6
EXLTYPE2
 62
     6
100
AcDbLine
 10
2330.35
 20
1438.557107
 30
0.0
 11
2330.35
 21
1398.207107
 31
0.0
  0
LINE
  5
122
100
AcDbEntity
  8
化粧台
  6
EXLTYPE2
 62
     6
100
AcDbLine
 10
2330.35
 20
1403.207107
 30
0.0
 11
2345.678125
 21
1403.207107
 31
0.0
  0
LINE
  5
123
100
AcDbEntity
  8
化粧台
  6
EXLTYPE2
 62
     6
100
AcDbLine
 10
2310.678125
 20
1373.232429
 30
0.0
 11
2310.678125
 21
1368.707107
 31
0.0
  0
LINE
  5
124
100
AcDbEntity
  8
化粧台
  6
EXLTYPE2
 62
     6
100
AcDbLine
 10
2345.678125
 20
1403.207107
 30
0.0
 11
2345.678125
 21
1368.707107
 31
0.0
  0
LINE
  5
125
100
AcDbEntity
  8
化粧台
  6
EXLTYPE2
 62
     6
100
AcDbLine
 10
2333.0
 20
1441.207107
 30
0.0
 11
2330.35
 21
1438.557107
 31
0.0
  0
LINE
  5
126
100
AcDbEntity
  8
化粧台
  6
EXLTYPE2
 62
     6
100
AcDbLine
 10
2296.0
 20
1441.207107
 30
0.0
 11
2298.65
 21
1438.557107
 31
0.0
  0
LINE
  5
127
100
AcDbEntity
  8
化粧台
  6
EXLTYPE2
 62
     6
100
AcDbLine
 10
2291.1
 20
1476.207107
 30
0.0
 11
2337.9
 21
1476.207107
 31
0.0
  0
LINE
  5
128
100
AcDbEntity
  8
化粧台
  6
EXLTYPE2
 62
     6
100
AcDbLine
 10
2293.1
 20
1494.207107
 30
0.0
 11
2335.9
 21
1494.207107
 31
0.0
  0
LINE
  5
129
100
AcDbEntity
  8
化粧台
  6
EXLTYPE2
 62
     6
100
AcDbLine
 10
2291.1
 20
1492.207107
 30
0.0
 11
2291.1
 21
1476.207107
 31
0.0
  0
LINE
  5
12A
100
AcDbEntity
  8
化粧台
  6
EXLTYPE2
 62
     6
100
AcDbLine
 10
2337.9
 20
1492.207107
 30
0.0
 11
2337.9
 21
1476.207107
 31
0.0
  0
ARC
  5
12B
100
AcDbEntity
  8
化粧台
  6
EXLTYPE2
 62
     6
100
AcDbCircle
 10
2293.1
 20
1492.207107
 30
0.0
 40
2.0
100
AcDbArc
 50
90.0
 51
180.0
  0
ARC
  5
12C
100
AcDbEntity
  8
化粧台
  6
EXLTYPE2
 62
     6
100
AcDbCircle
 10
2335.9
 20
1492.207107
 30
0.0
 40
2.0
100
AcDbArc
 50
0.0
 51
90.0
  0
LINE
  5
12D
100
AcDbEntity
  8
化粧台
  6
EXLTYPE2
 62
     6
100
AcDbLine
 10
2305.178125
 20
1368.707107
 30
0.0
 11
2351.178125
 21
1368.707107
 31
0.0
  0
LINE
  5
12E
100
AcDbEntity
  8
化粧台
  6
EXLTYPE2
 62
     6
100
AcDbLine
 10
2306.678125
 20
1352.207107
 30
0.0
 11
2349.678125
 21
1352.207107
 31
0.0
  0
LINE
  5
12F
100
AcDbEntity
  8
化粧台
  6
EXLTYPE2
 62
     6
100
AcDbLine
 10
2351.178125
 20
1353.707107
 30
0.0
 11
2351.178125
 21
1368.707107
 31
0.0
  0
LINE
  5
130
100
AcDbEntity
  8
化粧台
  6
EXLTYPE2
 62
     6
100
AcDbLine
 10
2305.178125
 20
1353.707107
 30
0.0
 11
2305.178125
 21
1368.707107
 31
0.0
  0
ARC
  5
131
100
AcDbEntity
  8
化粧台
  6
EXLTYPE2
 62
     6
100
AcDbCircle
 10
2306.678125
 20
1353.707107
 30
0.0
 40
1.5
100
AcDbArc
 50
180.0
 51
270.0
  0
ARC
  5
132
100
AcDbEntity
  8
化粧台
  6
EXLTYPE2
 62
     6
100
AcDbCircle
 10
2349.678125
 20
1353.707107
 30
0.0
 40
1.5
100
AcDbArc
 50
270.0
 51
0.0
  0
LINE
  5
133
100
AcDbEntity
  8
化粧台
  6
EXLTYPE2
 62
     6
100
AcDbLine
 10
2298.65
 20
1438.557107
 30
0.0
 11
2330.35
 21
1438.557107
 31
0.0
  0
ARC
  5
134
100
AcDbEntity
  8
化粧台
  6
EXLTYPE2
 62
     6
100
AcDbCircle
 10
2338.65
 20
1400.800361
 30
0.0
 40
40.0
100
AcDbArc
 50
180.0
 51
216.143789
  0
ARC
  5
135
100
AcDbEntity
  8
化粧台
  6
EXLTYPE2
 62
     6
100
AcDbCircle
 10
2318.461516
 20
1386.055019
 30
0.0
 40
15.0
100
AcDbArc
 50
216.143789
 51
310.373975
  0
LINE
  5
136
100
AcDbEntity
  8
化粧台
  6
EXLTYPE2
 62
     6
100
AcDbLine
 10
2297.370011
 20
1492.207107
 30
0.0
 11
2297.370011
 21
1476.207107
 31
0.0
  0
LINE
  5
137
100
AcDbEntity
  8
化粧台
  6
EXLTYPE2
 62
     6
100
AcDbLine
 10
2308.229989
 20
1492.207107
 30
0.0
 11
2308.229989
 21
1476.207107
 31
0.0
  0
LINE
  5
138
100
AcDbEntity
  8
化粧台
  6
EXLTYPE2
 62
     6
100
AcDbLine
 10
2320.770011
 20
1492.207107
 30
0.0
 11
2320.770011
 21
1476.207107
 31
0.0
  0
LINE
  5
139
100
AcDbEntity
  8
化粧台
  6
EXLTYPE2
 62
     6
100
AcDbLine
 10
2331.629989
 20
1492.207107
 30
0.0
 11
2331.629989
 21
1476.207107
 31
0.0
  0
LINE
  5
13A
100
AcDbEntity
  8
化粧台
  6
EXLTYPE2
 62
     6
100
AcDbLine
 10
2335.586239
 20
1444.207107
 30
0.0
 11
2335.586239
 21
1428.207107
 31
0.0
  0
LINE
  5
13B
100
AcDbEntity
  8
化粧台
  6
EXLTYPE2
 62
     6
100
AcDbLine
 10
2348.126261
 20
1444.207107
 30
0.0
 11
2348.126261
 21
1428.207107
 31
0.0
  0
LINE
  5
13C
100
AcDbEntity
  8
化粧台
  6
EXLTYPE2
 62
     6
100
AcDbLine
 10
2307.324466
 20
1352.207107
 30
0.0
 11
2307.324466
 21
1368.707107
 31
0.0
  0
LINE
  5
13D
100
AcDbEntity
  8
化粧台
  6
EXLTYPE2
 62
     6
100
AcDbLine
 10
2349.031784
 20
1352.207107
 30
0.0
 11
2349.031784
 21
1368.707107
 31
0.0
  0
LINE
  5
13E
100
AcDbEntity
  8
化粧台
  6
EXLTYPE2
 62
     6
100
AcDbLine
 10
2319.894586
 20
1353.707107
 30
0.0
 11
2319.894586
 21
1368.707107
 31
0.0
  0
LINE
  5
13F
100
AcDbEntity
  8
化粧台
  6
EXLTYPE2
 62
     6
100
AcDbLine
 10
2336.461664
 20
1353.707107
 30
0.0
 11
2336.461664
 21
1368.707107
 31
0.0
  0
LINE
  5
140
100
AcDbEntity
  8
化粧台
  6
EXLTYPE2
 62
     6
100
AcDbLine
 10
2315.428125
 20
1368.707107
 30
0.0
 11
2315.428125
 21
1353.707107
 31
0.0
  0
LINE
  5
141
100
AcDbEntity
  8
化粧台
  6
EXLTYPE2
 62
     6
100
AcDbLine
 10
2340.928125
 20
1368.707107
 30
0.0
 11
2340.928125
 21
1353.707107
 31
0.0
  0
ARC
  5
142
100
AcDbEntity
  8
化粧台
  6
EXLTYPE2
 62
     6
100
AcDbCircle
 10
2316.928125
 20
1353.707107
 30
0.0
 40
1.5
100
AcDbArc
 50
180.0
 51
270.0
  0
ARC
  5
143
100
AcDbEntity
  8
化粧台
  6
EXLTYPE2
 62
     6
100
AcDbCircle
 10
2318.394586
 20
1353.707107
 30
0.0
 40
1.5
100
AcDbArc
 50
270.0
 51
0.0
  0
ARC
  5
144
100
AcDbEntity
  8
化粧台
  6
EXLTYPE2
 62
     6
100
AcDbCircle
 10
2337.961664
 20
1353.707107
 30
0.0
 40
1.5
100
AcDbArc
 50
180.0
 51
270.0
  0
ARC
  5
145
100
AcDbEntity
  8
化粧台
  6
EXLTYPE2
 62
     6
100
AcDbCircle
 10
2339.428125
 20
1353.707107
 30
0.0
 40
1.5
100
AcDbArc
 50
270.0
 51
0.0
  0
LINE
  5
146
100
AcDbEntity
  8
化粧台
  6
EXLTYPE2
 62
     6
100
AcDbLine
 10
2290.6
 20
1520.207107
 30
0.0
 11
2338.4
 21
1520.207107
 31
0.0
  0
LINE
  5
147
100
AcDbEntity
  8
化粧台
  6
EXLTYPE2
 62
     6
100
AcDbLine
 10
2280.5
 20
1553.707107
 30
0.0
 11
2348.5
 21
1553.707107
 31
0.0
  0
LINE
  5
148
100
AcDbEntity
  8
化粧台
  6
EXLTYPE2
 62
     6
100
AcDbLine
 10
2280.5
 20
1556.707107
 30
0.0
 11
2280.5
 21
1553.707107
 31
0.0
  0
LINE
  5
149
100
AcDbEntity
  8
化粧台
  6
EXLTYPE2
 62
     6
100
AcDbLine
 10
2348.5
 20
1556.707107
 30
0.0
 11
2348.5
 21
1553.707107
 31
0.0
  0
LINE
  5
14A
100
AcDbEntity
  8
化粧台
  6
EXLTYPE2
 62
     6
100
AcDbLine
 10
2282.0
 20
1550.600165
 30
0.0
 11
2282.0
 21
1553.707107
 31
0.0
  0
LINE
  5
14B
100
AcDbEntity
  8
化粧台
  6
EXLTYPE2
 62
     6
100
AcDbLine
 10
2347.0
 20
1550.600165
 30
0.0
 11
2347.0
 21
1553.707107
 31
0.0
  0
LINE
  5
14C
100
AcDbEntity
  8
化粧台
  6
EXLTYPE2
 62
     6
100
AcDbLine
 10
2280.5
 20
1554.207107
 30
0.0
 11
2348.5
 21
1554.207107
 31
0.0
  0
LINE
  5
14D
100
AcDbEntity
  8
化粧台
  6
EXLTYPE2
 62
     6
100
AcDbLine
 10
2280.5
 20
1556.707107
 30
0.0
 11
2348.5
 21
1556.707107
 31
0.0
  0
LINE
  5
14E
100
AcDbEntity
  8
化粧台
  6
EXLTYPE2
 62
     6
100
AcDbLine
 10
2280.5
 20
1556.707107
 30
0.0
 11
2285.600967
 21
1561.0
 31
0.0
  0
LINE
  5
14F
100
AcDbEntity
  8
化粧台
  6
EXLTYPE2
 62
     6
100
AcDbLine
 10
2343.399033
 20
1561.0
 30
0.0
 11
2348.5
 21
1556.707107
 31
0.0
  0
LINE
  5
150
100
AcDbEntity
  8
化粧台
  6
EXLTYPE2
 62
     6
100
AcDbLine
 10
2290.6
 20
1520.207107
 30
0.0
 11
2290.6
 21
1532.100165
 31
0.0
  0
LINE
  5
151
100
AcDbEntity
  8
化粧台
  6
EXLTYPE2
 62
     6
100
AcDbLine
 10
2338.4
 20
1520.207107
 30
0.0
 11
2338.4
 21
1532.100165
 31
0.0
  0
LINE
  5
152
100
AcDbEntity
  8
化粧台
  6
EXLTYPE2
 62
     6
100
AcDbLine
 10
2282.0
 20
1550.600165
 30
0.0
 11
2347.0
 21
1550.600165
 31
0.0
  0
LINE
  5
153
100
AcDbEntity
  8
化粧台
  6
EXLTYPE2
 62
     6
100
AcDbLine
 10
2340.5
 20
1532.100165
 30
0.0
 11
2288.5
 21
1532.100165
 31
0.0
  0
LINE
  5
154
100
AcDbEntity
  8
化粧台
  6
EXLTYPE2
 62
     6
100
AcDbLine
 10
2288.5
 20
1532.100165
 30
0.0
 11
2288.5
 21
1550.600165
 31
0.0
  0
LINE
  5
155
100
AcDbEntity
  8
化粧台
  6
EXLTYPE2
 62
     6
100
AcDbLine
 10
2340.5
 20
1532.100165
 30
0.0
 11
2340.5
 21
1550.600165
 31
0.0
  0
LINE
  5
156
100
AcDbEntity
  8
化粧台
  6
EXLTYPE2
 62
     6
100
AcDbLine
 10
2292.5
 20
1533.600165
 30
0.0
 11
2292.5
 21
1550.600165
 31
0.0
  0
LINE
  5
157
100
AcDbEntity
  8
化粧台
  6
EXLTYPE2
 62
     6
100
AcDbLine
 10
2310.5
 20
1533.600165
 30
0.0
 11
2310.5
 21
1550.600165
 31
0.0
  0
LINE
  5
158
100
AcDbEntity
  8
化粧台
  6
EXLTYPE2
 62
     6
100
AcDbLine
 10
2318.5
 20
1533.600165
 30
0.0
 11
2318.5
 21
1550.600165
 31
0.0
  0
LINE
  5
159
100
AcDbEntity
  8
化粧台
  6
EXLTYPE2
 62
     6
100
AcDbLine
 10
2336.5
 20
1533.600165
 30
0.0
 11
2336.5
 21
1550.600165
 31
0.0
  0
LINE
  5
15A
100
AcDbEntity
  8
化粧台
  6
EXLTYPE2
 62
     6
100
AcDbLine
 10
2298.65
 20
1520.207107
 30
0.0
 11
2298.65
 21
1494.207107
 31
0.0
  0
LINE
  5
15B
100
AcDbEntity
  8
化粧台
  6
EXLTYPE2
 62
     6
100
AcDbLine
 10
2330.35
 20
1520.207107
 30
0.0
 11
2330.35
 21
1494.207107
 31
0.0
  0
LINE
  5
15C
100
AcDbEntity
  8
化粧台
  6
EXLTYPE2
 62
     6
100
AcDbLine
 10
2333.0
 20
1446.207107
 30
0.0
 11
2363.25625
 21
1446.207107
 31
0.0
  0
LINE
  5
15D
100
AcDbEntity
  8
化粧台
  6
EXLTYPE2
 62
     6
100
AcDbLine
 10
2330.35
 20
1428.207107
 30
0.0
 11
2365.25625
 21
1428.207107
 31
0.0
  0
LINE
  5
15E
100
AcDbEntity
  8
化粧台
  6
EXLTYPE2
 62
     6
100
AcDbLine
 10
2360.35625
 20
1428.207107
 30
0.0
 11
2360.35625
 21
1398.207107
 31
0.0
  0
LINE
  5
15F
100
AcDbEntity
  8
化粧台
  6
EXLTYPE2
 62
     6
100
AcDbLine
 10
2346.25625
 20
1398.207107
 30
0.0
 11
2360.35625
 21
1398.207107
 31
0.0
  0
ARC
  5
160
100
AcDbEntity
  8
化粧台
  6
EXLTYPE2
 62
     6
100
AcDbCircle
 10
2316.095911
 20
1399.130936
 30
0.0
 40
40.0
100
AcDbArc
 50
317.693553
 51
358.676594
  0
LINE
  5
161
100
AcDbEntity
  8
化粧台
  6
EXLTYPE2
 62
     6
100
AcDbLine
 10
2365.25625
 20
1444.207107
 30
0.0
 11
2365.25625
 21
1428.207107
 31
0.0
  0
ARC
  5
162
100
AcDbEntity
  8
化粧台
  6
EXLTYPE2
 62
     6
100
AcDbCircle
 10
2363.25625
 20
1444.207107
 30
0.0
 40
2.0
100
AcDbArc
 50
0.0
 51
90.0
  0
LINE
  5
163
100
AcDbEntity
  8
化粧台
  6
EXLTYPE2
 62
     6
100
AcDbLine
 10
2357.70625
 20
1448.035232
 30
0.0
 11
2357.70625
 21
1446.207107
 31
0.0
  0
LINE
  5
164
100
AcDbEntity
  8
化粧台
  6
EXLTYPE2
 62
     6
100
AcDbLine
 10
2358.986239
 20
1444.207107
 30
0.0
 11
2358.986239
 21
1428.207107
 31
0.0
  0
ARC
  5
165
100
AcDbEntity
  8
化粧台
  6
EXLTYPE2
 62
     6
100
AcDbCircle
 10
2373.178125
 20
1448.035232
 30
0.0
 40
15.471875
100
AcDbArc
 50
0.0
 51
180.0
  0
ARC
  5
166
100
AcDbEntity
  8
化粧台
  6
EXLTYPE2
 62
     6
100
AcDbCircle
 10
2373.178125
 20
1448.035232
 30
0.0
 40
47.171875
100
AcDbArc
 50
0.0
 51
138.405648
  0
LINE
  5
167
100
AcDbEntity
  8
化粧台
  6
EXLTYPE2
 62
     6
100
AcDbLine
 10
2388.65
 20
1448.035232
 30
0.0
 11
2388.65
 21
1425.207107
 31
0.0
  0
LINE
  5
168
100
AcDbEntity
  8
化粧台
  6
EXLTYPE2
 62
     6
100
AcDbLine
 10
2420.35
 20
1425.207107
 30
0.0
 11
2420.35
 21
1448.035232
 31
0.0
  0
LINE
  5
169
100
AcDbEntity
  8
化粧台
  6
CONTINUOUS
 62
     6
100
AcDbLine
 10
2388.65
 20
1425.207107
 30
0.0
 11
2404.5
 21
1425.207107
 31
0.0
  0
LINE
  5
16A
100
AcDbEntity
  8
化粧台
  6
CONTINUOUS
 62
     6
100
AcDbLine
 10
2404.5
 20
1420.207107
 30
0.0
 11
2418.5
 21
1420.207107
 31
0.0
  0
LINE
  5
16B
100
AcDbEntity
  8
化粧台
  6
CONTINUOUS
 62
     6
100
AcDbLine
 10
2390.5
 20
1415.207107
 30
0.0
 11
2404.5
 21
1415.207107
 31
0.0
  0
LINE
  5
16C
100
AcDbEntity
  8
化粧台
  6
CONTINUOUS
 62
     6
100
AcDbLine
 10
2404.5
 20
1410.207107
 30
0.0
 11
2418.5
 21
1410.207107
 31
0.0
  0
LINE
  5
16D
100
AcDbEntity
  8
化粧台
  6
CONTINUOUS
 62
     6
100
AcDbLine
 10
2390.5
 20
1405.207107
 30
0.0
 11
2404.5
 21
1405.207107
 31
0.0
  0
LINE
  5
16E
100
AcDbEntity
  8
化粧台
  6
CONTINUOUS
 62
     6
100
AcDbLine
 10
2404.5
 20
1400.207107
 30
0.0
 11
2418.5
 21
1400.207107
 31
0.0
  0
LINE
  5
16F
100
AcDbEntity
  8
化粧台
  6
CONTINUOUS
 62
     6
100
AcDbLine
 10
2390.5
 20
1395.207107
 30
0.0
 11
2404.5
 21
1395.207107
 31
0.0
  0
LINE
  5
170
100
AcDbEntity
  8
化粧台
  6
CONTINUOUS
 62
     6
100
AcDbLine
 10
2404.5
 20
1390.207107
 30
0.0
 11
2418.5
 21
1390.207107
 31
0.0
  0
LINE
  5
171
100
AcDbEntity
  8
化粧台
  6
CONTINUOUS
 62
     6
100
AcDbLine
 10
2390.5
 20
1385.207107
 30
0.0
 11
2404.5
 21
1385.207107
 31
0.0
  0
LINE
  5
172
100
AcDbEntity
  8
化粧台
  6
CONTINUOUS
 62
     6
100
AcDbLine
 10
2404.5
 20
1380.207107
 30
0.0
 11
2418.5
 21
1380.207107
 31
0.0
  0
LINE
  5
173
100
AcDbEntity
  8
化粧台
  6
CONTINUOUS
 62
     6
100
AcDbLine
 10
2390.5
 20
1375.207107
 30
0.0
 11
2404.5
 21
1375.207107
 31
0.0
  0
LINE
  5
174
100
AcDbEntity
  8
化粧台
  6
CONTINUOUS
 62
     6
100
AcDbLine
 10
2404.5
 20
1370.207107
 30
0.0
 11
2418.5
 21
1370.207107
 31
0.0
  0
LINE
  5
175
100
AcDbEntity
  8
化粧台
  6
CONTINUOUS
 62
     6
100
AcDbLine
 10
2390.5
 20
1365.207107
 30
0.0
 11
2404.5
 21
1365.207107
 31
0.0
  0
LINE
  5
176
100
AcDbEntity
  8
化粧台
  6
CONTINUOUS
 62
     6
100
AcDbLine
 10
2404.5
 20
1360.207107
 30
0.0
 11
2418.5
 21
1360.207107
 31
0.0
  0
LINE
  5
177
100
AcDbEntity
  8
化粧台
  6
CONTINUOUS
 62
     6
100
AcDbLine
 10
2390.5
 20
1355.207107
 30
0.0
 11
2404.5
 21
1355.207107
 31
0.0
  0
LINE
  5
178
100
AcDbEntity
  8
化粧台
  6
CONTINUOUS
 62
     6
100
AcDbLine
 10
2404.5
 20
1350.207107
 30
0.0
 11
2418.5
 21
1350.207107
 31
0.0
  0
LINE
  5
179
100
AcDbEntity
  8
化粧台
  6
CONTINUOUS
 62
     6
100
AcDbLine
 10
2390.5
 20
1345.207107
 30
0.0
 11
2404.5
 21
1345.207107
 31
0.0
  0
LINE
  5
17A
100
AcDbEntity
  8
化粧台
  6
CONTINUOUS
 62
     6
100
AcDbLine
 10
2404.5
 20
1340.207107
 30
0.0
 11
2418.5
 21
1340.207107
 31
0.0
  0
LINE
  5
17B
100
AcDbEntity
  8
化粧台
  6
CONTINUOUS
 62
     6
100
AcDbLine
 10
2390.5
 20
1335.207107
 30
0.0
 11
2404.5
 21
1335.207107
 31
0.0
  0
LINE
  5
17C
100
AcDbEntity
  8
化粧台
  6
CONTINUOUS
 62
     6
100
AcDbLine
 10
2404.5
 20
1330.207107
 30
0.0
 11
2418.5
 21
1330.207107
 31
0.0
  0
LINE
  5
17D
100
AcDbEntity
  8
化粧台
  6
CONTINUOUS
 62
     6
100
AcDbLine
 10
2390.5
 20
1325.207107
 30
0.0
 11
2404.5
 21
1325.207107
 31
0.0
  0
LINE
  5
17E
100
AcDbEntity
  8
化粧台
  6
CONTINUOUS
 62
     6
100
AcDbLine
 10
2404.5
 20
1320.207107
 30
0.0
 11
2418.5
 21
1320.207107
 31
0.0
  0
LINE
  5
17F
100
AcDbEntity
  8
化粧台
  6
CONTINUOUS
 62
     6
100
AcDbLine
 10
2390.5
 20
1315.207107
 30
0.0
 11
2404.5
 21
1315.207107
 31
0.0
  0
LINE
  5
180
100
AcDbEntity
  8
化粧台
  6
CONTINUOUS
 62
     6
100
AcDbLine
 10
2404.5
 20
1310.207107
 30
0.0
 11
2418.5
 21
1310.207107
 31
0.0
  0
LINE
  5
181
100
AcDbEntity
  8
化粧台
  6
CONTINUOUS
 62
     6
100
AcDbLine
 10
2390.5
 20
1305.207107
 30
0.0
 11
2404.5
 21
1305.207107
 31
0.0
  0
LINE
  5
182
100
AcDbEntity
  8
化粧台
  6
CONTINUOUS
 62
     6
100
AcDbLine
 10
2404.5
 20
1300.207107
 30
0.0
 11
2418.5
 21
1300.207107
 31
0.0
  0
LINE
  5
183
100
AcDbEntity
  8
化粧台
  6
CONTINUOUS
 62
     6
100
AcDbLine
 10
2390.5
 20
1295.207107
 30
0.0
 11
2404.5
 21
1295.207107
 31
0.0
  0
LINE
  5
184
100
AcDbEntity
  8
化粧台
  6
CONTINUOUS
 62
     6
100
AcDbLine
 10
2404.5
 20
1290.207107
 30
0.0
 11
2418.5
 21
1290.207107
 31
0.0
  0
LINE
  5
185
100
AcDbEntity
  8
化粧台
  6
CONTINUOUS
 62
     6
100
AcDbLine
 10
2390.5
 20
1285.207107
 30
0.0
 11
2404.5
 21
1285.207107
 31
0.0
  0
LINE
  5
186
100
AcDbEntity
  8
化粧台
  6
CONTINUOUS
 62
     6
100
AcDbLine
 10
2404.5
 20
1280.207107
 30
0.0
 11
2418.5
 21
1280.207107
 31
0.0
  0
LINE
  5
187
100
AcDbEntity
  8
化粧台
  6
CONTINUOUS
 62
     6
100
AcDbLine
 10
2390.5
 20
1275.207107
 30
0.0
 11
2404.5
 21
1275.207107
 31
0.0
  0
LINE
  5
188
100
AcDbEntity
  8
化粧台
  6
CONTINUOUS
 62
     6
100
AcDbLine
 10
2404.5
 20
1270.207107
 30
0.0
 11
2418.5
 21
1270.207107
 31
0.0
  0
LINE
  5
189
100
AcDbEntity
  8
化粧台
  6
CONTINUOUS
 62
     6
100
AcDbLine
 10
2390.5
 20
1265.207107
 30
0.0
 11
2404.5
 21
1265.207107
 31
0.0
  0
LINE
  5
18A
100
AcDbEntity
  8
化粧台
  6
CONTINUOUS
 62
     6
100
AcDbLine
 10
2404.5
 20
1260.207107
 30
0.0
 11
2418.5
 21
1260.207107
 31
0.0
  0
LINE
  5
18B
100
AcDbEntity
  8
化粧台
  6
CONTINUOUS
 62
     6
100
AcDbLine
 10
2390.5
 20
1255.207107
 30
0.0
 11
2404.5
 21
1255.207107
 31
0.0
  0
LINE
  5
18C
100
AcDbEntity
  8
化粧台
  6
CONTINUOUS
 62
     6
100
AcDbLine
 10
2404.5
 20
1250.207107
 30
0.0
 11
2418.5
 21
1250.207107
 31
0.0
  0
LINE
  5
18D
100
AcDbEntity
  8
化粧台
  6
CONTINUOUS
 62
     6
100
AcDbLine
 10
2390.5
 20
1245.207107
 30
0.0
 11
2404.5
 21
1245.207107
 31
0.0
  0
LINE
  5
18E
100
AcDbEntity
  8
化粧台
  6
CONTINUOUS
 62
     6
100
AcDbLine
 10
2404.5
 20
1240.207107
 30
0.0
 11
2418.5
 21
1240.207107
 31
0.0
  0
LINE
  5
18F
100
AcDbEntity
  8
化粧台
  6
CONTINUOUS
 62
     6
100
AcDbLine
 10
2390.5
 20
1235.207107
 30
0.0
 11
2404.5
 21
1235.207107
 31
0.0
  0
LINE
  5
190
100
AcDbEntity
  8
化粧台
  6
CONTINUOUS
 62
     6
100
AcDbLine
 10
2404.5
 20
1230.207107
 30
0.0
 11
2418.5
 21
1230.207107
 31
0.0
  0
LINE
  5
191
100
AcDbEntity
  8
化粧台
  6
CONTINUOUS
 62
     6
100
AcDbLine
 10
2390.5
 20
1225.207107
 30
0.0
 11
2404.5
 21
1225.207107
 31
0.0
  0
LINE
  5
192
100
AcDbEntity
  8
化粧台
  6
CONTINUOUS
 62
     6
100
AcDbLine
 10
2404.5
 20
1220.207107
 30
0.0
 11
2418.5
 21
1220.207107
 31
0.0
  0
LINE
  5
193
100
AcDbEntity
  8
化粧台
  6
CONTINUOUS
 62
     6
100
AcDbLine
 10
2390.5
 20
1215.207107
 30
0.0
 11
2404.5
 21
1215.207107
 31
0.0
  0
LINE
  5
194
100
AcDbEntity
  8
化粧台
  6
CONTINUOUS
 62
     6
100
AcDbLine
 10
2404.5
 20
1210.207107
 30
0.0
 11
2418.5
 21
1210.207107
 31
0.0
  0
LINE
  5
195
100
AcDbEntity
  8
化粧台
  6
CONTINUOUS
 62
     6
100
AcDbLine
 10
2390.5
 20
1205.207107
 30
0.0
 11
2404.5
 21
1205.207107
 31
0.0
  0
LINE
  5
196
100
AcDbEntity
  8
化粧台
  6
CONTINUOUS
 62
     6
100
AcDbLine
 10
2404.5
 20
1200.207107
 30
0.0
 11
2418.5
 21
1200.207107
 31
0.0
  0
LINE
  5
197
100
AcDbEntity
  8
化粧台
  6
CONTINUOUS
 62
     6
100
AcDbLine
 10
2390.5
 20
1195.207107
 30
0.0
 11
2404.5
 21
1195.207107
 31
0.0
  0
LINE
  5
198
100
AcDbEntity
  8
化粧台
  6
CONTINUOUS
 62
     6
100
AcDbLine
 10
2404.5
 20
1190.207107
 30
0.0
 11
2418.5
 21
1190.207107
 31
0.0
  0
LINE
  5
199
100
AcDbEntity
  8
化粧台
  6
CONTINUOUS
 62
     6
100
AcDbLine
 10
2390.5
 20
1185.207107
 30
0.0
 11
2404.5
 21
1185.207107
 31
0.0
  0
LINE
  5
19A
100
AcDbEntity
  8
化粧台
  6
CONTINUOUS
 62
     6
100
AcDbLine
 10
2404.5
 20
1180.207107
 30
0.0
 11
2418.5
 21
1180.207107
 31
0.0
  0
LINE
  5
19B
100
AcDbEntity
  8
化粧台
  6
CONTINUOUS
 62
     6
100
AcDbLine
 10
2390.5
 20
1175.207107
 30
0.0
 11
2404.5
 21
1175.207107
 31
0.0
  0
LINE
  5
19C
100
AcDbEntity
  8
化粧台
  6
CONTINUOUS
 62
     6
100
AcDbLine
 10
2404.5
 20
1170.207107
 30
0.0
 11
2418.5
 21
1170.207107
 31
0.0
  0
LINE
  5
19D
100
AcDbEntity
  8
化粧台
  6
CONTINUOUS
 62
     6
100
AcDbLine
 10
2390.5
 20
1165.207107
 30
0.0
 11
2404.5
 21
1165.207107
 31
0.0
  0
LINE
  5
19E
100
AcDbEntity
  8
化粧台
  6
CONTINUOUS
 62
     6
100
AcDbLine
 10
2404.5
 20
1160.207107
 30
0.0
 11
2418.5
 21
1160.207107
 31
0.0
  0
LINE
  5
19F
100
AcDbEntity
  8
化粧台
  6
CONTINUOUS
 62
     6
100
AcDbLine
 10
2390.5
 20
1155.207107
 30
0.0
 11
2404.5
 21
1155.207107
 31
0.0
  0
LINE
  5
1A0
100
AcDbEntity
  8
化粧台
  6
CONTINUOUS
 62
     6
100
AcDbLine
 10
2404.5
 20
1150.207107
 30
0.0
 11
2418.5
 21
1150.207107
 31
0.0
  0
LINE
  5
1A1
100
AcDbEntity
  8
化粧台
  6
CONTINUOUS
 62
     6
100
AcDbLine
 10
2390.5
 20
1145.207107
 30
0.0
 11
2404.5
 21
1145.207107
 31
0.0
  0
LINE
  5
1A2
100
AcDbEntity
  8
化粧台
  6
CONTINUOUS
 62
     6
100
AcDbLine
 10
2404.5
 20
1140.207107
 30
0.0
 11
2418.5
 21
1140.207107
 31
0.0
  0
LINE
  5
1A3
100
AcDbEntity
  8
化粧台
  6
CONTINUOUS
 62
     6
100
AcDbLine
 10
2390.5
 20
1135.207107
 30
0.0
 11
2404.5
 21
1135.207107
 31
0.0
  0
LINE
  5
1A4
100
AcDbEntity
  8
化粧台
  6
CONTINUOUS
 62
     6
100
AcDbLine
 10
2404.5
 20
1130.207107
 30
0.0
 11
2418.5
 21
1130.207107
 31
0.0
  0
POLYLINE
  5
1A5
100
AcDbEntity
  8
化粧台
  6
EXLTYPE2
 62
     6
100
AcDb2dPolyline
 66
     1
 10
0.0
 20
0.0
 30
0.0
 70
   128
  0
VERTEX
  5
1A6
100
AcDbEntity
  8
化粧台
  6
EXLTYPE2
 62
     6
100
AcDbVertex
100
AcDb2dVertex
 10
2419.610051
 20
1031.0
 30
0.0
  0
VERTEX
  5
1A7
100
AcDbEntity
  8
化粧台
  6
EXLTYPE2
 62
     6
100
AcDbVertex
100
AcDb2dVertex
 10
2422.0
 20
1032.707107
 30
0.0
  0
VERTEX
  5
1A8
100
AcDbEntity
  8
化粧台
  6
EXLTYPE2
 62
     6
100
AcDbVertex
100
AcDb2dVertex
 10
2418.5
 20
1035.207107
 30
0.0
  0
VERTEX
  5
1A9
100
AcDbEntity
  8
化粧台
  6
EXLTYPE2
 62
     6
100
AcDbVertex
100
AcDb2dVertex
 10
2422.0
 20
1037.707107
 30
0.0
  0
VERTEX
  5
1AA
100
AcDbEntity
  8
化粧台
  6
EXLTYPE2
 62
     6
100
AcDbVertex
100
AcDb2dVertex
 10
2418.5
 20
1040.207107
 30
0.0
  0
VERTEX
  5
1AB
100
AcDbEntity
  8
化粧台
  6
EXLTYPE2
 62
     6
100
AcDbVertex
100
AcDb2dVertex
 10
2422.0
 20
1042.707107
 30
0.0
  0
VERTEX
  5
1AC
100
AcDbEntity
  8
化粧台
  6
EXLTYPE2
 62
     6
100
AcDbVertex
100
AcDb2dVertex
 10
2418.5
 20
1045.207107
 30
0.0
  0
VERTEX
  5
1AD
100
AcDbEntity
  8
化粧台
  6
EXLTYPE2
 62
     6
100
AcDbVertex
100
AcDb2dVertex
 10
2422.0
 20
1047.707107
 30
0.0
  0
VERTEX
  5
1AE
100
AcDbEntity
  8
化粧台
  6
EXLTYPE2
 62
     6
100
AcDbVertex
100
AcDb2dVertex
 10
2418.5
 20
1050.207107
 30
0.0
  0
VERTEX
  5
1AF
100
AcDbEntity
  8
化粧台
  6
EXLTYPE2
 62
     6
100
AcDbVertex
100
AcDb2dVertex
 10
2422.0
 20
1052.707107
 30
0.0
  0
VERTEX
  5
1B0
100
AcDbEntity
  8
化粧台
  6
EXLTYPE2
 62
     6
100
AcDbVertex
100
AcDb2dVertex
 10
2418.5
 20
1055.207107
 30
0.0
  0
VERTEX
  5
1B1
100
AcDbEntity
  8
化粧台
  6
EXLTYPE2
 62
     6
100
AcDbVertex
100
AcDb2dVertex
 10
2422.0
 20
1057.707107
 30
0.0
  0
VERTEX
  5
1B2
100
AcDbEntity
  8
化粧台
  6
EXLTYPE2
 62
     6
100
AcDbVertex
100
AcDb2dVertex
 10
2418.5
 20
1060.207107
 30
0.0
  0
VERTEX
  5
1B3
100
AcDbEntity
  8
化粧台
  6
EXLTYPE2
 62
     6
100
AcDbVertex
100
AcDb2dVertex
 10
2422.0
 20
1062.707107
 30
0.0
  0
VERTEX
  5
1B4
100
AcDbEntity
  8
化粧台
  6
EXLTYPE2
 62
     6
100
AcDbVertex
100
AcDb2dVertex
 10
2418.5
 20
1065.207107
 30
0.0
  0
VERTEX
  5
1B5
100
AcDbEntity
  8
化粧台
  6
EXLTYPE2
 62
     6
100
AcDbVertex
100
AcDb2dVertex
 10
2422.0
 20
1067.707107
 30
0.0
  0
VERTEX
  5
1B6
100
AcDbEntity
  8
化粧台
  6
EXLTYPE2
 62
     6
100
AcDbVertex
100
AcDb2dVertex
 10
2418.5
 20
1070.207107
 30
0.0
  0
VERTEX
  5
1B7
100
AcDbEntity
  8
化粧台
  6
EXLTYPE2
 62
     6
100
AcDbVertex
100
AcDb2dVertex
 10
2422.0
 20
1072.707107
 30
0.0
  0
VERTEX
  5
1B8
100
AcDbEntity
  8
化粧台
  6
EXLTYPE2
 62
     6
100
AcDbVertex
100
AcDb2dVertex
 10
2418.5
 20
1075.207107
 30
0.0
  0
VERTEX
  5
1B9
100
AcDbEntity
  8
化粧台
  6
EXLTYPE2
 62
     6
100
AcDbVertex
100
AcDb2dVertex
 10
2422.0
 20
1077.707107
 30
0.0
  0
VERTEX
  5
1BA
100
AcDbEntity
  8
化粧台
  6
EXLTYPE2
 62
     6
100
AcDbVertex
100
AcDb2dVertex
 10
2418.5
 20
1080.207107
 30
0.0
  0
VERTEX
  5
1BB
100
AcDbEntity
  8
化粧台
  6
EXLTYPE2
 62
     6
100
AcDbVertex
100
AcDb2dVertex
 10
2422.0
 20
1082.707107
 30
0.0
  0
VERTEX
  5
1BC
100
AcDbEntity
  8
化粧台
  6
EXLTYPE2
 62
     6
100
AcDbVertex
100
AcDb2dVertex
 10
2418.5
 20
1085.207107
 30
0.0
  0
VERTEX
  5
1BD
100
AcDbEntity
  8
化粧台
  6
EXLTYPE2
 62
     6
100
AcDbVertex
100
AcDb2dVertex
 10
2422.0
 20
1087.707107
 30
0.0
  0
VERTEX
  5
1BE
100
AcDbEntity
  8
化粧台
  6
EXLTYPE2
 62
     6
100
AcDbVertex
100
AcDb2dVertex
 10
2418.5
 20
1090.207107
 30
0.0
  0
VERTEX
  5
1BF
100
AcDbEntity
  8
化粧台
  6
EXLTYPE2
 62
     6
100
AcDbVertex
100
AcDb2dVertex
 10
2422.0
 20
1092.707107
 30
0.0
  0
VERTEX
  5
1C0
100
AcDbEntity
  8
化粧台
  6
EXLTYPE2
 62
     6
100
AcDbVertex
100
AcDb2dVertex
 10
2418.5
 20
1095.207107
 30
0.0
  0
VERTEX
  5
1C1
100
AcDbEntity
  8
化粧台
  6
EXLTYPE2
 62
     6
100
AcDbVertex
100
AcDb2dVertex
 10
2422.0
 20
1097.707107
 30
0.0
  0
VERTEX
  5
1C2
100
AcDbEntity
  8
化粧台
  6
EXLTYPE2
 62
     6
100
AcDbVertex
100
AcDb2dVertex
 10
2418.5
 20
1100.207107
 30
0.0
  0
VERTEX
  5
1C3
100
AcDbEntity
  8
化粧台
  6
EXLTYPE2
 62
     6
100
AcDbVertex
100
AcDb2dVertex
 10
2422.0
 20
1102.707107
 30
0.0
  0
VERTEX
  5
1C4
100
AcDbEntity
  8
化粧台
  6
EXLTYPE2
 62
     6
100
AcDbVertex
100
AcDb2dVertex
 10
2418.5
 20
1105.207107
 30
0.0
  0
VERTEX
  5
1C5
100
AcDbEntity
  8
化粧台
  6
EXLTYPE2
 62
     6
100
AcDbVertex
100
AcDb2dVertex
 10
2422.0
 20
1107.707107
 30
0.0
  0
VERTEX
  5
1C6
100
AcDbEntity
  8
化粧台
  6
EXLTYPE2
 62
     6
100
AcDbVertex
100
AcDb2dVertex
 10
2418.5
 20
1110.207107
 30
0.0
  0
VERTEX
  5
1C7
100
AcDbEntity
  8
化粧台
  6
EXLTYPE2
 62
     6
100
AcDbVertex
100
AcDb2dVertex
 10
2422.0
 20
1112.707107
 30
0.0
  0
VERTEX
  5
1C8
100
AcDbEntity
  8
化粧台
  6
EXLTYPE2
 62
     6
100
AcDbVertex
100
AcDb2dVertex
 10
2418.5
 20
1115.207107
 30
0.0
  0
VERTEX
  5
1C9
100
AcDbEntity
  8
化粧台
  6
EXLTYPE2
 62
     6
100
AcDbVertex
100
AcDb2dVertex
 10
2422.0
 20
1117.707107
 30
0.0
  0
VERTEX
  5
1CA
100
AcDbEntity
  8
化粧台
  6
EXLTYPE2
 62
     6
100
AcDbVertex
100
AcDb2dVertex
 10
2418.5
 20
1120.207107
 30
0.0
  0
VERTEX
  5
1CB
100
AcDbEntity
  8
化粧台
  6
EXLTYPE2
 62
     6
100
AcDbVertex
100
AcDb2dVertex
 10
2422.0
 20
1122.707107
 30
0.0
  0
VERTEX
  5
1CC
100
AcDbEntity
  8
化粧台
  6
EXLTYPE2
 62
     6
100
AcDbVertex
100
AcDb2dVertex
 10
2418.5
 20
1125.207107
 30
0.0
  0
VERTEX
  5
1CD
100
AcDbEntity
  8
化粧台
  6
EXLTYPE2
 62
     6
100
AcDbVertex
100
AcDb2dVertex
 10
2422.0
 20
1127.707107
 30
0.0
  0
VERTEX
  5
1CE
100
AcDbEntity
  8
化粧台
  6
EXLTYPE2
 62
     6
100
AcDbVertex
100
AcDb2dVertex
 10
2418.5
 20
1130.207107
 30
0.0
  0
VERTEX
  5
1CF
100
AcDbEntity
  8
化粧台
  6
EXLTYPE2
 62
     6
100
AcDbVertex
100
AcDb2dVertex
 10
2422.0
 20
1132.707107
 30
0.0
  0
VERTEX
  5
1D0
100
AcDbEntity
  8
化粧台
  6
EXLTYPE2
 62
     6
100
AcDbVertex
100
AcDb2dVertex
 10
2418.5
 20
1135.207107
 30
0.0
  0
VERTEX
  5
1D1
100
AcDbEntity
  8
化粧台
  6
EXLTYPE2
 62
     6
100
AcDbVertex
100
AcDb2dVertex
 10
2422.0
 20
1137.707107
 30
0.0
  0
VERTEX
  5
1D2
100
AcDbEntity
  8
化粧台
  6
EXLTYPE2
 62
     6
100
AcDbVertex
100
AcDb2dVertex
 10
2418.5
 20
1140.207107
 30
0.0
  0
VERTEX
  5
1D3
100
AcDbEntity
  8
化粧台
  6
EXLTYPE2
 62
     6
100
AcDbVertex
100
AcDb2dVertex
 10
2422.0
 20
1142.707107
 30
0.0
  0
VERTEX
  5
1D4
100
AcDbEntity
  8
化粧台
  6
EXLTYPE2
 62
     6
100
AcDbVertex
100
AcDb2dVertex
 10
2418.5
 20
1145.207107
 30
0.0
  0
VERTEX
  5
1D5
100
AcDbEntity
  8
化粧台
  6
EXLTYPE2
 62
     6
100
AcDbVertex
100
AcDb2dVertex
 10
2422.0
 20
1147.707107
 30
0.0
  0
VERTEX
  5
1D6
100
AcDbEntity
  8
化粧台
  6
EXLTYPE2
 62
     6
100
AcDbVertex
100
AcDb2dVertex
 10
2418.5
 20
1150.207107
 30
0.0
  0
VERTEX
  5
1D7
100
AcDbEntity
  8
化粧台
  6
EXLTYPE2
 62
     6
100
AcDbVertex
100
AcDb2dVertex
 10
2422.0
 20
1152.707107
 30
0.0
  0
VERTEX
  5
1D8
100
AcDbEntity
  8
化粧台
  6
EXLTYPE2
 62
     6
100
AcDbVertex
100
AcDb2dVertex
 10
2418.5
 20
1155.207107
 30
0.0
  0
VERTEX
  5
1D9
100
AcDbEntity
  8
化粧台
  6
EXLTYPE2
 62
     6
100
AcDbVertex
100
AcDb2dVertex
 10
2422.0
 20
1157.707107
 30
0.0
  0
VERTEX
  5
1DA
100
AcDbEntity
  8
化粧台
  6
EXLTYPE2
 62
     6
100
AcDbVertex
100
AcDb2dVertex
 10
2418.5
 20
1160.207107
 30
0.0
  0
VERTEX
  5
1DB
100
AcDbEntity
  8
化粧台
  6
EXLTYPE2
 62
     6
100
AcDbVertex
100
AcDb2dVertex
 10
2422.0
 20
1162.707107
 30
0.0
  0
VERTEX
  5
1DC
100
AcDbEntity
  8
化粧台
  6
EXLTYPE2
 62
     6
100
AcDbVertex
100
AcDb2dVertex
 10
2418.5
 20
1165.207107
 30
0.0
  0
VERTEX
  5
1DD
100
AcDbEntity
  8
化粧台
  6
EXLTYPE2
 62
     6
100
AcDbVertex
100
AcDb2dVertex
 10
2422.0
 20
1167.707107
 30
0.0
  0
VERTEX
  5
1DE
100
AcDbEntity
  8
化粧台
  6
EXLTYPE2
 62
     6
100
AcDbVertex
100
AcDb2dVertex
 10
2418.5
 20
1170.207107
 30
0.0
  0
VERTEX
  5
1DF
100
AcDbEntity
  8
化粧台
  6
EXLTYPE2
 62
     6
100
AcDbVertex
100
AcDb2dVertex
 10
2422.0
 20
1172.707107
 30
0.0
  0
VERTEX
  5
1E0
100
AcDbEntity
  8
化粧台
  6
EXLTYPE2
 62
     6
100
AcDbVertex
100
AcDb2dVertex
 10
2418.5
 20
1175.207107
 30
0.0
  0
VERTEX
  5
1E1
100
AcDbEntity
  8
化粧台
  6
EXLTYPE2
 62
     6
100
AcDbVertex
100
AcDb2dVertex
 10
2422.0
 20
1177.707107
 30
0.0
  0
VERTEX
  5
1E2
100
AcDbEntity
  8
化粧台
  6
EXLTYPE2
 62
     6
100
AcDbVertex
100
AcDb2dVertex
 10
2418.5
 20
1180.207107
 30
0.0
  0
VERTEX
  5
1E3
100
AcDbEntity
  8
化粧台
  6
EXLTYPE2
 62
     6
100
AcDbVertex
100
AcDb2dVertex
 10
2422.0
 20
1182.707107
 30
0.0
  0
VERTEX
  5
1E4
100
AcDbEntity
  8
化粧台
  6
EXLTYPE2
 62
     6
100
AcDbVertex
100
AcDb2dVertex
 10
2418.5
 20
1185.207107
 30
0.0
  0
VERTEX
  5
1E5
100
AcDbEntity
  8
化粧台
  6
EXLTYPE2
 62
     6
100
AcDbVertex
100
AcDb2dVertex
 10
2422.0
 20
1187.707107
 30
0.0
  0
VERTEX
  5
1E6
100
AcDbEntity
  8
化粧台
  6
EXLTYPE2
 62
     6
100
AcDbVertex
100
AcDb2dVertex
 10
2418.5
 20
1190.207107
 30
0.0
  0
VERTEX
  5
1E7
100
AcDbEntity
  8
化粧台
  6
EXLTYPE2
 62
     6
100
AcDbVertex
100
AcDb2dVertex
 10
2422.0
 20
1192.707107
 30
0.0
  0
VERTEX
  5
1E8
100
AcDbEntity
  8
化粧台
  6
EXLTYPE2
 62
     6
100
AcDbVertex
100
AcDb2dVertex
 10
2418.5
 20
1195.207107
 30
0.0
  0
VERTEX
  5
1E9
100
AcDbEntity
  8
化粧台
  6
EXLTYPE2
 62
     6
100
AcDbVertex
100
AcDb2dVertex
 10
2422.0
 20
1197.707107
 30
0.0
  0
VERTEX
  5
1EA
100
AcDbEntity
  8
化粧台
  6
EXLTYPE2
 62
     6
100
AcDbVertex
100
AcDb2dVertex
 10
2418.5
 20
1200.207107
 30
0.0
  0
VERTEX
  5
1EB
100
AcDbEntity
  8
化粧台
  6
EXLTYPE2
 62
     6
100
AcDbVertex
100
AcDb2dVertex
 10
2422.0
 20
1202.707107
 30
0.0
  0
VERTEX
  5
1EC
100
AcDbEntity
  8
化粧台
  6
EXLTYPE2
 62
     6
100
AcDbVertex
100
AcDb2dVertex
 10
2418.5
 20
1205.207107
 30
0.0
  0
VERTEX
  5
1ED
100
AcDbEntity
  8
化粧台
  6
EXLTYPE2
 62
     6
100
AcDbVertex
100
AcDb2dVertex
 10
2422.0
 20
1207.707107
 30
0.0
  0
VERTEX
  5
1EE
100
AcDbEntity
  8
化粧台
  6
EXLTYPE2
 62
     6
100
AcDbVertex
100
AcDb2dVertex
 10
2418.5
 20
1210.207107
 30
0.0
  0
VERTEX
  5
1EF
100
AcDbEntity
  8
化粧台
  6
EXLTYPE2
 62
     6
100
AcDbVertex
100
AcDb2dVertex
 10
2422.0
 20
1212.707107
 30
0.0
  0
VERTEX
  5
1F0
100
AcDbEntity
  8
化粧台
  6
EXLTYPE2
 62
     6
100
AcDbVertex
100
AcDb2dVertex
 10
2418.5
 20
1215.207107
 30
0.0
  0
VERTEX
  5
1F1
100
AcDbEntity
  8
化粧台
  6
EXLTYPE2
 62
     6
100
AcDbVertex
100
AcDb2dVertex
 10
2422.0
 20
1217.707107
 30
0.0
  0
VERTEX
  5
1F2
100
AcDbEntity
  8
化粧台
  6
EXLTYPE2
 62
     6
100
AcDbVertex
100
AcDb2dVertex
 10
2418.5
 20
1220.207107
 30
0.0
  0
VERTEX
  5
1F3
100
AcDbEntity
  8
化粧台
  6
EXLTYPE2
 62
     6
100
AcDbVertex
100
AcDb2dVertex
 10
2422.0
 20
1222.707107
 30
0.0
  0
VERTEX
  5
1F4
100
AcDbEntity
  8
化粧台
  6
EXLTYPE2
 62
     6
100
AcDbVertex
100
AcDb2dVertex
 10
2418.5
 20
1225.207107
 30
0.0
  0
VERTEX
  5
1F5
100
AcDbEntity
  8
化粧台
  6
EXLTYPE2
 62
     6
100
AcDbVertex
100
AcDb2dVertex
 10
2422.0
 20
1227.707107
 30
0.0
  0
VERTEX
  5
1F6
100
AcDbEntity
  8
化粧台
  6
EXLTYPE2
 62
     6
100
AcDbVertex
100
AcDb2dVertex
 10
2418.5
 20
1230.207107
 30
0.0
  0
VERTEX
  5
1F7
100
AcDbEntity
  8
化粧台
  6
EXLTYPE2
 62
     6
100
AcDbVertex
100
AcDb2dVertex
 10
2422.0
 20
1232.707107
 30
0.0
  0
VERTEX
  5
1F8
100
AcDbEntity
  8
化粧台
  6
EXLTYPE2
 62
     6
100
AcDbVertex
100
AcDb2dVertex
 10
2418.5
 20
1235.207107
 30
0.0
  0
VERTEX
  5
1F9
100
AcDbEntity
  8
化粧台
  6
EXLTYPE2
 62
     6
100
AcDbVertex
100
AcDb2dVertex
 10
2422.0
 20
1237.707107
 30
0.0
  0
VERTEX
  5
1FA
100
AcDbEntity
  8
化粧台
  6
EXLTYPE2
 62
     6
100
AcDbVertex
100
AcDb2dVertex
 10
2418.5
 20
1240.207107
 30
0.0
  0
VERTEX
  5
1FB
100
AcDbEntity
  8
化粧台
  6
EXLTYPE2
 62
     6
100
AcDbVertex
100
AcDb2dVertex
 10
2422.0
 20
1242.707107
 30
0.0
  0
VERTEX
  5
1FC
100
AcDbEntity
  8
化粧台
  6
EXLTYPE2
 62
     6
100
AcDbVertex
100
AcDb2dVertex
 10
2418.5
 20
1245.207107
 30
0.0
  0
VERTEX
  5
1FD
100
AcDbEntity
  8
化粧台
  6
EXLTYPE2
 62
     6
100
AcDbVertex
100
AcDb2dVertex
 10
2422.0
 20
1247.707107
 30
0.0
  0
VERTEX
  5
1FE
100
AcDbEntity
  8
化粧台
  6
EXLTYPE2
 62
     6
100
AcDbVertex
100
AcDb2dVertex
 10
2418.5
 20
1250.207107
 30
0.0
  0
VERTEX
  5
1FF
100
AcDbEntity
  8
化粧台
  6
EXLTYPE2
 62
     6
100
AcDbVertex
100
AcDb2dVertex
 10
2422.0
 20
1252.707107
 30
0.0
  0
VERTEX
  5
200
100
AcDbEntity
  8
化粧台
  6
EXLTYPE2
 62
     6
100
AcDbVertex
100
AcDb2dVertex
 10
2418.5
 20
1255.207107
 30
0.0
  0
VERTEX
  5
201
100
AcDbEntity
  8
化粧台
  6
EXLTYPE2
 62
     6
100
AcDbVertex
100
AcDb2dVertex
 10
2422.0
 20
1257.707107
 30
0.0
  0
VERTEX
  5
202
100
AcDbEntity
  8
化粧台
  6
EXLTYPE2
 62
     6
100
AcDbVertex
100
AcDb2dVertex
 10
2418.5
 20
1260.207107
 30
0.0
  0
VERTEX
  5
203
100
AcDbEntity
  8
化粧台
  6
EXLTYPE2
 62
     6
100
AcDbVertex
100
AcDb2dVertex
 10
2422.0
 20
1262.707107
 30
0.0
  0
VERTEX
  5
204
100
AcDbEntity
  8
化粧台
  6
EXLTYPE2
 62
     6
100
AcDbVertex
100
AcDb2dVertex
 10
2418.5
 20
1265.207107
 30
0.0
  0
VERTEX
  5
205
100
AcDbEntity
  8
化粧台
  6
EXLTYPE2
 62
     6
100
AcDbVertex
100
AcDb2dVertex
 10
2422.0
 20
1267.707107
 30
0.0
  0
VERTEX
  5
206
100
AcDbEntity
  8
化粧台
  6
EXLTYPE2
 62
     6
100
AcDbVertex
100
AcDb2dVertex
 10
2418.5
 20
1270.207107
 30
0.0
  0
VERTEX
  5
207
100
AcDbEntity
  8
化粧台
  6
EXLTYPE2
 62
     6
100
AcDbVertex
100
AcDb2dVertex
 10
2422.0
 20
1272.707107
 30
0.0
  0
VERTEX
  5
208
100
AcDbEntity
  8
化粧台
  6
EXLTYPE2
 62
     6
100
AcDbVertex
100
AcDb2dVertex
 10
2418.5
 20
1275.207107
 30
0.0
  0
VERTEX
  5
209
100
AcDbEntity
  8
化粧台
  6
EXLTYPE2
 62
     6
100
AcDbVertex
100
AcDb2dVertex
 10
2422.0
 20
1277.707107
 30
0.0
  0
VERTEX
  5
20A
100
AcDbEntity
  8
化粧台
  6
EXLTYPE2
 62
     6
100
AcDbVertex
100
AcDb2dVertex
 10
2418.5
 20
1280.207107
 30
0.0
  0
VERTEX
  5
20B
100
AcDbEntity
  8
化粧台
  6
EXLTYPE2
 62
     6
100
AcDbVertex
100
AcDb2dVertex
 10
2422.0
 20
1282.707107
 30
0.0
  0
VERTEX
  5
20C
100
AcDbEntity
  8
化粧台
  6
EXLTYPE2
 62
     6
100
AcDbVertex
100
AcDb2dVertex
 10
2418.5
 20
1285.207107
 30
0.0
  0
VERTEX
  5
20D
100
AcDbEntity
  8
化粧台
  6
EXLTYPE2
 62
     6
100
AcDbVertex
100
AcDb2dVertex
 10
2422.0
 20
1287.707107
 30
0.0
  0
VERTEX
  5
20E
100
AcDbEntity
  8
化粧台
  6
EXLTYPE2
 62
     6
100
AcDbVertex
100
AcDb2dVertex
 10
2418.5
 20
1290.207107
 30
0.0
  0
VERTEX
  5
20F
100
AcDbEntity
  8
化粧台
  6
EXLTYPE2
 62
     6
100
AcDbVertex
100
AcDb2dVertex
 10
2422.0
 20
1292.707107
 30
0.0
  0
VERTEX
  5
210
100
AcDbEntity
  8
化粧台
  6
EXLTYPE2
 62
     6
100
AcDbVertex
100
AcDb2dVertex
 10
2418.5
 20
1295.207107
 30
0.0
  0
VERTEX
  5
211
100
AcDbEntity
  8
化粧台
  6
EXLTYPE2
 62
     6
100
AcDbVertex
100
AcDb2dVertex
 10
2422.0
 20
1297.707107
 30
0.0
  0
VERTEX
  5
212
100
AcDbEntity
  8
化粧台
  6
EXLTYPE2
 62
     6
100
AcDbVertex
100
AcDb2dVertex
 10
2418.5
 20
1300.207107
 30
0.0
  0
VERTEX
  5
213
100
AcDbEntity
  8
化粧台
  6
EXLTYPE2
 62
     6
100
AcDbVertex
100
AcDb2dVertex
 10
2422.0
 20
1302.707107
 30
0.0
  0
VERTEX
  5
214
100
AcDbEntity
  8
化粧台
  6
EXLTYPE2
 62
     6
100
AcDbVertex
100
AcDb2dVertex
 10
2418.5
 20
1305.207107
 30
0.0
  0
VERTEX
  5
215
100
AcDbEntity
  8
化粧台
  6
EXLTYPE2
 62
     6
100
AcDbVertex
100
AcDb2dVertex
 10
2422.0
 20
1307.707107
 30
0.0
  0
VERTEX
  5
216
100
AcDbEntity
  8
化粧台
  6
EXLTYPE2
 62
     6
100
AcDbVertex
100
AcDb2dVertex
 10
2418.5
 20
1310.207107
 30
0.0
  0
VERTEX
  5
217
100
AcDbEntity
  8
化粧台
  6
EXLTYPE2
 62
     6
100
AcDbVertex
100
AcDb2dVertex
 10
2422.0
 20
1312.707107
 30
0.0
  0
VERTEX
  5
218
100
AcDbEntity
  8
化粧台
  6
EXLTYPE2
 62
     6
100
AcDbVertex
100
AcDb2dVertex
 10
2418.5
 20
1315.207107
 30
0.0
  0
VERTEX
  5
219
100
AcDbEntity
  8
化粧台
  6
EXLTYPE2
 62
     6
100
AcDbVertex
100
AcDb2dVertex
 10
2422.0
 20
1317.707107
 30
0.0
  0
VERTEX
  5
21A
100
AcDbEntity
  8
化粧台
  6
EXLTYPE2
 62
     6
100
AcDbVertex
100
AcDb2dVertex
 10
2418.5
 20
1320.207107
 30
0.0
  0
VERTEX
  5
21B
100
AcDbEntity
  8
化粧台
  6
EXLTYPE2
 62
     6
100
AcDbVertex
100
AcDb2dVertex
 10
2422.0
 20
1322.707107
 30
0.0
  0
VERTEX
  5
21C
100
AcDbEntity
  8
化粧台
  6
EXLTYPE2
 62
     6
100
AcDbVertex
100
AcDb2dVertex
 10
2418.5
 20
1325.207107
 30
0.0
  0
VERTEX
  5
21D
100
AcDbEntity
  8
化粧台
  6
EXLTYPE2
 62
     6
100
AcDbVertex
100
AcDb2dVertex
 10
2422.0
 20
1327.707107
 30
0.0
  0
VERTEX
  5
21E
100
AcDbEntity
  8
化粧台
  6
EXLTYPE2
 62
     6
100
AcDbVertex
100
AcDb2dVertex
 10
2418.5
 20
1330.207107
 30
0.0
  0
VERTEX
  5
21F
100
AcDbEntity
  8
化粧台
  6
EXLTYPE2
 62
     6
100
AcDbVertex
100
AcDb2dVertex
 10
2422.0
 20
1332.707107
 30
0.0
  0
VERTEX
  5
220
100
AcDbEntity
  8
化粧台
  6
EXLTYPE2
 62
     6
100
AcDbVertex
100
AcDb2dVertex
 10
2418.5
 20
1335.207107
 30
0.0
  0
VERTEX
  5
221
100
AcDbEntity
  8
化粧台
  6
EXLTYPE2
 62
     6
100
AcDbVertex
100
AcDb2dVertex
 10
2422.0
 20
1337.707107
 30
0.0
  0
VERTEX
  5
222
100
AcDbEntity
  8
化粧台
  6
EXLTYPE2
 62
     6
100
AcDbVertex
100
AcDb2dVertex
 10
2418.5
 20
1340.207107
 30
0.0
  0
VERTEX
  5
223
100
AcDbEntity
  8
化粧台
  6
EXLTYPE2
 62
     6
100
AcDbVertex
100
AcDb2dVertex
 10
2422.0
 20
1342.707107
 30
0.0
  0
VERTEX
  5
224
100
AcDbEntity
  8
化粧台
  6
EXLTYPE2
 62
     6
100
AcDbVertex
100
AcDb2dVertex
 10
2418.5
 20
1345.207107
 30
0.0
  0
VERTEX
  5
225
100
AcDbEntity
  8
化粧台
  6
EXLTYPE2
 62
     6
100
AcDbVertex
100
AcDb2dVertex
 10
2422.0
 20
1347.707107
 30
0.0
  0
VERTEX
  5
226
100
AcDbEntity
  8
化粧台
  6
EXLTYPE2
 62
     6
100
AcDbVertex
100
AcDb2dVertex
 10
2418.5
 20
1350.207107
 30
0.0
  0
VERTEX
  5
227
100
AcDbEntity
  8
化粧台
  6
EXLTYPE2
 62
     6
100
AcDbVertex
100
AcDb2dVertex
 10
2422.0
 20
1352.707107
 30
0.0
  0
VERTEX
  5
228
100
AcDbEntity
  8
化粧台
  6
EXLTYPE2
 62
     6
100
AcDbVertex
100
AcDb2dVertex
 10
2418.5
 20
1355.207107
 30
0.0
  0
VERTEX
  5
229
100
AcDbEntity
  8
化粧台
  6
EXLTYPE2
 62
     6
100
AcDbVertex
100
AcDb2dVertex
 10
2422.0
 20
1357.707107
 30
0.0
  0
VERTEX
  5
22A
100
AcDbEntity
  8
化粧台
  6
EXLTYPE2
 62
     6
100
AcDbVertex
100
AcDb2dVertex
 10
2418.5
 20
1360.207107
 30
0.0
  0
VERTEX
  5
22B
100
AcDbEntity
  8
化粧台
  6
EXLTYPE2
 62
     6
100
AcDbVertex
100
AcDb2dVertex
 10
2422.0
 20
1362.707107
 30
0.0
  0
VERTEX
  5
22C
100
AcDbEntity
  8
化粧台
  6
EXLTYPE2
 62
     6
100
AcDbVertex
100
AcDb2dVertex
 10
2418.5
 20
1365.207107
 30
0.0
  0
VERTEX
  5
22D
100
AcDbEntity
  8
化粧台
  6
EXLTYPE2
 62
     6
100
AcDbVertex
100
AcDb2dVertex
 10
2422.0
 20
1367.707107
 30
0.0
  0
VERTEX
  5
22E
100
AcDbEntity
  8
化粧台
  6
EXLTYPE2
 62
     6
100
AcDbVertex
100
AcDb2dVertex
 10
2418.5
 20
1370.207107
 30
0.0
  0
VERTEX
  5
22F
100
AcDbEntity
  8
化粧台
  6
EXLTYPE2
 62
     6
100
AcDbVertex
100
AcDb2dVertex
 10
2422.0
 20
1372.707107
 30
0.0
  0
VERTEX
  5
230
100
AcDbEntity
  8
化粧台
  6
EXLTYPE2
 62
     6
100
AcDbVertex
100
AcDb2dVertex
 10
2418.5
 20
1375.207107
 30
0.0
  0
VERTEX
  5
231
100
AcDbEntity
  8
化粧台
  6
EXLTYPE2
 62
     6
100
AcDbVertex
100
AcDb2dVertex
 10
2422.0
 20
1377.707107
 30
0.0
  0
VERTEX
  5
232
100
AcDbEntity
  8
化粧台
  6
EXLTYPE2
 62
     6
100
AcDbVertex
100
AcDb2dVertex
 10
2418.5
 20
1380.207107
 30
0.0
  0
VERTEX
  5
233
100
AcDbEntity
  8
化粧台
  6
EXLTYPE2
 62
     6
100
AcDbVertex
100
AcDb2dVertex
 10
2422.0
 20
1382.707107
 30
0.0
  0
VERTEX
  5
234
100
AcDbEntity
  8
化粧台
  6
EXLTYPE2
 62
     6
100
AcDbVertex
100
AcDb2dVertex
 10
2418.5
 20
1385.207107
 30
0.0
  0
VERTEX
  5
235
100
AcDbEntity
  8
化粧台
  6
EXLTYPE2
 62
     6
100
AcDbVertex
100
AcDb2dVertex
 10
2422.0
 20
1387.707107
 30
0.0
  0
VERTEX
  5
236
100
AcDbEntity
  8
化粧台
  6
EXLTYPE2
 62
     6
100
AcDbVertex
100
AcDb2dVertex
 10
2418.5
 20
1390.207107
 30
0.0
  0
VERTEX
  5
237
100
AcDbEntity
  8
化粧台
  6
EXLTYPE2
 62
     6
100
AcDbVertex
100
AcDb2dVertex
 10
2422.0
 20
1392.707107
 30
0.0
  0
VERTEX
  5
238
100
AcDbEntity
  8
化粧台
  6
EXLTYPE2
 62
     6
100
AcDbVertex
100
AcDb2dVertex
 10
2418.5
 20
1395.207107
 30
0.0
  0
VERTEX
  5
239
100
AcDbEntity
  8
化粧台
  6
EXLTYPE2
 62
     6
100
AcDbVertex
100
AcDb2dVertex
 10
2422.0
 20
1397.707107
 30
0.0
  0
VERTEX
  5
23A
100
AcDbEntity
  8
化粧台
  6
EXLTYPE2
 62
     6
100
AcDbVertex
100
AcDb2dVertex
 10
2418.5
 20
1400.207107
 30
0.0
  0
VERTEX
  5
23B
100
AcDbEntity
  8
化粧台
  6
EXLTYPE2
 62
     6
100
AcDbVertex
100
AcDb2dVertex
 10
2422.0
 20
1402.707107
 30
0.0
  0
VERTEX
  5
23C
100
AcDbEntity
  8
化粧台
  6
EXLTYPE2
 62
     6
100
AcDbVertex
100
AcDb2dVertex
 10
2418.5
 20
1405.207107
 30
0.0
  0
VERTEX
  5
23D
100
AcDbEntity
  8
化粧台
  6
EXLTYPE2
 62
     6
100
AcDbVertex
100
AcDb2dVertex
 10
2422.0
 20
1407.707107
 30
0.0
  0
VERTEX
  5
23E
100
AcDbEntity
  8
化粧台
  6
EXLTYPE2
 62
     6
100
AcDbVertex
100
AcDb2dVertex
 10
2418.5
 20
1410.207107
 30
0.0
  0
VERTEX
  5
23F
100
AcDbEntity
  8
化粧台
  6
EXLTYPE2
 62
     6
100
AcDbVertex
100
AcDb2dVertex
 10
2422.0
 20
1412.707107
 30
0.0
  0
VERTEX
  5
240
100
AcDbEntity
  8
化粧台
  6
EXLTYPE2
 62
     6
100
AcDbVertex
100
AcDb2dVertex
 10
2418.5
 20
1415.207107
 30
0.0
  0
VERTEX
  5
241
100
AcDbEntity
  8
化粧台
  6
EXLTYPE2
 62
     6
100
AcDbVertex
100
AcDb2dVertex
 10
2422.0
 20
1417.707107
 30
0.0
  0
VERTEX
  5
242
100
AcDbEntity
  8
化粧台
  6
EXLTYPE2
 62
     6
100
AcDbVertex
100
AcDb2dVertex
 10
2418.5
 20
1420.207107
 30
0.0
  0
VERTEX
  5
243
100
AcDbEntity
  8
化粧台
  6
EXLTYPE2
 62
     6
100
AcDbVertex
100
AcDb2dVertex
 10
2422.0
 20
1422.707107
 30
0.0
  0
VERTEX
  5
244
100
AcDbEntity
  8
化粧台
  6
EXLTYPE2
 62
     6
100
AcDbVertex
100
AcDb2dVertex
 10
2420.35
 20
1425.207107
 30
0.0
  0
SEQEND
  5
245
100
AcDbEntity
  8
化粧台
  6
EXLTYPE2
 62
     6
  0
POLYLINE
  5
246
100
AcDbEntity
  8
化粧台
  6
EXLTYPE2
 62
     6
100
AcDb2dPolyline
 66
     1
 10
0.0
 20
0.0
 30
0.0
 70
   128
  0
VERTEX
  5
247
100
AcDbEntity
  8
化粧台
  6
EXLTYPE2
 62
     6
100
AcDbVertex
100
AcDb2dVertex
 10
2389.389949
 20
1031.0
 30
0.0
  0
VERTEX
  5
248
100
AcDbEntity
  8
化粧台
  6
EXLTYPE2
 62
     6
100
AcDbVertex
100
AcDb2dVertex
 10
2387.0
 20
1032.707107
 30
0.0
  0
VERTEX
  5
249
100
AcDbEntity
  8
化粧台
  6
EXLTYPE2
 62
     6
100
AcDbVertex
100
AcDb2dVertex
 10
2390.5
 20
1035.207107
 30
0.0
  0
VERTEX
  5
24A
100
AcDbEntity
  8
化粧台
  6
EXLTYPE2
 62
     6
100
AcDbVertex
100
AcDb2dVertex
 10
2387.0
 20
1037.707107
 30
0.0
  0
VERTEX
  5
24B
100
AcDbEntity
  8
化粧台
  6
EXLTYPE2
 62
     6
100
AcDbVertex
100
AcDb2dVertex
 10
2390.5
 20
1040.207107
 30
0.0
  0
VERTEX
  5
24C
100
AcDbEntity
  8
化粧台
  6
EXLTYPE2
 62
     6
100
AcDbVertex
100
AcDb2dVertex
 10
2387.0
 20
1042.707107
 30
0.0
  0
VERTEX
  5
24D
100
AcDbEntity
  8
化粧台
  6
EXLTYPE2
 62
     6
100
AcDbVertex
100
AcDb2dVertex
 10
2390.5
 20
1045.207107
 30
0.0
  0
VERTEX
  5
24E
100
AcDbEntity
  8
化粧台
  6
EXLTYPE2
 62
     6
100
AcDbVertex
100
AcDb2dVertex
 10
2387.0
 20
1047.707107
 30
0.0
  0
VERTEX
  5
24F
100
AcDbEntity
  8
化粧台
  6
EXLTYPE2
 62
     6
100
AcDbVertex
100
AcDb2dVertex
 10
2390.5
 20
1050.207107
 30
0.0
  0
VERTEX
  5
250
100
AcDbEntity
  8
化粧台
  6
EXLTYPE2
 62
     6
100
AcDbVertex
100
AcDb2dVertex
 10
2387.0
 20
1052.707107
 30
0.0
  0
VERTEX
  5
251
100
AcDbEntity
  8
化粧台
  6
EXLTYPE2
 62
     6
100
AcDbVertex
100
AcDb2dVertex
 10
2390.5
 20
1055.207107
 30
0.0
  0
VERTEX
  5
252
100
AcDbEntity
  8
化粧台
  6
EXLTYPE2
 62
     6
100
AcDbVertex
100
AcDb2dVertex
 10
2387.0
 20
1057.707107
 30
0.0
  0
VERTEX
  5
253
100
AcDbEntity
  8
化粧台
  6
EXLTYPE2
 62
     6
100
AcDbVertex
100
AcDb2dVertex
 10
2390.5
 20
1060.207107
 30
0.0
  0
VERTEX
  5
254
100
AcDbEntity
  8
化粧台
  6
EXLTYPE2
 62
     6
100
AcDbVertex
100
AcDb2dVertex
 10
2387.0
 20
1062.707107
 30
0.0
  0
VERTEX
  5
255
100
AcDbEntity
  8
化粧台
  6
EXLTYPE2
 62
     6
100
AcDbVertex
100
AcDb2dVertex
 10
2390.5
 20
1065.207107
 30
0.0
  0
VERTEX
  5
256
100
AcDbEntity
  8
化粧台
  6
EXLTYPE2
 62
     6
100
AcDbVertex
100
AcDb2dVertex
 10
2387.0
 20
1067.707107
 30
0.0
  0
VERTEX
  5
257
100
AcDbEntity
  8
化粧台
  6
EXLTYPE2
 62
     6
100
AcDbVertex
100
AcDb2dVertex
 10
2390.5
 20
1070.207107
 30
0.0
  0
VERTEX
  5
258
100
AcDbEntity
  8
化粧台
  6
EXLTYPE2
 62
     6
100
AcDbVertex
100
AcDb2dVertex
 10
2387.0
 20
1072.707107
 30
0.0
  0
VERTEX
  5
259
100
AcDbEntity
  8
化粧台
  6
EXLTYPE2
 62
     6
100
AcDbVertex
100
AcDb2dVertex
 10
2390.5
 20
1075.207107
 30
0.0
  0
VERTEX
  5
25A
100
AcDbEntity
  8
化粧台
  6
EXLTYPE2
 62
     6
100
AcDbVertex
100
AcDb2dVertex
 10
2387.0
 20
1077.707107
 30
0.0
  0
VERTEX
  5
25B
100
AcDbEntity
  8
化粧台
  6
EXLTYPE2
 62
     6
100
AcDbVertex
100
AcDb2dVertex
 10
2390.5
 20
1080.207107
 30
0.0
  0
VERTEX
  5
25C
100
AcDbEntity
  8
化粧台
  6
EXLTYPE2
 62
     6
100
AcDbVertex
100
AcDb2dVertex
 10
2387.0
 20
1082.707107
 30
0.0
  0
VERTEX
  5
25D
100
AcDbEntity
  8
化粧台
  6
EXLTYPE2
 62
     6
100
AcDbVertex
100
AcDb2dVertex
 10
2390.5
 20
1085.207107
 30
0.0
  0
VERTEX
  5
25E
100
AcDbEntity
  8
化粧台
  6
EXLTYPE2
 62
     6
100
AcDbVertex
100
AcDb2dVertex
 10
2387.0
 20
1087.707107
 30
0.0
  0
VERTEX
  5
25F
100
AcDbEntity
  8
化粧台
  6
EXLTYPE2
 62
     6
100
AcDbVertex
100
AcDb2dVertex
 10
2390.5
 20
1090.207107
 30
0.0
  0
VERTEX
  5
260
100
AcDbEntity
  8
化粧台
  6
EXLTYPE2
 62
     6
100
AcDbVertex
100
AcDb2dVertex
 10
2387.0
 20
1092.707107
 30
0.0
  0
VERTEX
  5
261
100
AcDbEntity
  8
化粧台
  6
EXLTYPE2
 62
     6
100
AcDbVertex
100
AcDb2dVertex
 10
2390.5
 20
1095.207107
 30
0.0
  0
VERTEX
  5
262
100
AcDbEntity
  8
化粧台
  6
EXLTYPE2
 62
     6
100
AcDbVertex
100
AcDb2dVertex
 10
2387.0
 20
1097.707107
 30
0.0
  0
VERTEX
  5
263
100
AcDbEntity
  8
化粧台
  6
EXLTYPE2
 62
     6
100
AcDbVertex
100
AcDb2dVertex
 10
2390.5
 20
1100.207107
 30
0.0
  0
VERTEX
  5
264
100
AcDbEntity
  8
化粧台
  6
EXLTYPE2
 62
     6
100
AcDbVertex
100
AcDb2dVertex
 10
2387.0
 20
1102.707107
 30
0.0
  0
VERTEX
  5
265
100
AcDbEntity
  8
化粧台
  6
EXLTYPE2
 62
     6
100
AcDbVertex
100
AcDb2dVertex
 10
2390.5
 20
1105.207107
 30
0.0
  0
VERTEX
  5
266
100
AcDbEntity
  8
化粧台
  6
EXLTYPE2
 62
     6
100
AcDbVertex
100
AcDb2dVertex
 10
2387.0
 20
1107.707107
 30
0.0
  0
VERTEX
  5
267
100
AcDbEntity
  8
化粧台
  6
EXLTYPE2
 62
     6
100
AcDbVertex
100
AcDb2dVertex
 10
2390.5
 20
1110.207107
 30
0.0
  0
VERTEX
  5
268
100
AcDbEntity
  8
化粧台
  6
EXLTYPE2
 62
     6
100
AcDbVertex
100
AcDb2dVertex
 10
2387.0
 20
1112.707107
 30
0.0
  0
VERTEX
  5
269
100
AcDbEntity
  8
化粧台
  6
EXLTYPE2
 62
     6
100
AcDbVertex
100
AcDb2dVertex
 10
2390.5
 20
1115.207107
 30
0.0
  0
VERTEX
  5
26A
100
AcDbEntity
  8
化粧台
  6
EXLTYPE2
 62
     6
100
AcDbVertex
100
AcDb2dVertex
 10
2387.0
 20
1117.707107
 30
0.0
  0
VERTEX
  5
26B
100
AcDbEntity
  8
化粧台
  6
EXLTYPE2
 62
     6
100
AcDbVertex
100
AcDb2dVertex
 10
2390.5
 20
1120.207107
 30
0.0
  0
VERTEX
  5
26C
100
AcDbEntity
  8
化粧台
  6
EXLTYPE2
 62
     6
100
AcDbVertex
100
AcDb2dVertex
 10
2387.0
 20
1122.707107
 30
0.0
  0
VERTEX
  5
26D
100
AcDbEntity
  8
化粧台
  6
EXLTYPE2
 62
     6
100
AcDbVertex
100
AcDb2dVertex
 10
2390.5
 20
1125.207107
 30
0.0
  0
VERTEX
  5
26E
100
AcDbEntity
  8
化粧台
  6
EXLTYPE2
 62
     6
100
AcDbVertex
100
AcDb2dVertex
 10
2387.0
 20
1127.707107
 30
0.0
  0
VERTEX
  5
26F
100
AcDbEntity
  8
化粧台
  6
EXLTYPE2
 62
     6
100
AcDbVertex
100
AcDb2dVertex
 10
2390.5
 20
1130.207107
 30
0.0
  0
VERTEX
  5
270
100
AcDbEntity
  8
化粧台
  6
EXLTYPE2
 62
     6
100
AcDbVertex
100
AcDb2dVertex
 10
2387.0
 20
1132.707107
 30
0.0
  0
VERTEX
  5
271
100
AcDbEntity
  8
化粧台
  6
EXLTYPE2
 62
     6
100
AcDbVertex
100
AcDb2dVertex
 10
2390.5
 20
1135.207107
 30
0.0
  0
VERTEX
  5
272
100
AcDbEntity
  8
化粧台
  6
EXLTYPE2
 62
     6
100
AcDbVertex
100
AcDb2dVertex
 10
2387.0
 20
1137.707107
 30
0.0
  0
VERTEX
  5
273
100
AcDbEntity
  8
化粧台
  6
EXLTYPE2
 62
     6
100
AcDbVertex
100
AcDb2dVertex
 10
2390.5
 20
1140.207107
 30
0.0
  0
VERTEX
  5
274
100
AcDbEntity
  8
化粧台
  6
EXLTYPE2
 62
     6
100
AcDbVertex
100
AcDb2dVertex
 10
2387.0
 20
1142.707107
 30
0.0
  0
VERTEX
  5
275
100
AcDbEntity
  8
化粧台
  6
EXLTYPE2
 62
     6
100
AcDbVertex
100
AcDb2dVertex
 10
2390.5
 20
1145.207107
 30
0.0
  0
VERTEX
  5
276
100
AcDbEntity
  8
化粧台
  6
EXLTYPE2
 62
     6
100
AcDbVertex
100
AcDb2dVertex
 10
2387.0
 20
1147.707107
 30
0.0
  0
VERTEX
  5
277
100
AcDbEntity
  8
化粧台
  6
EXLTYPE2
 62
     6
100
AcDbVertex
100
AcDb2dVertex
 10
2390.5
 20
1150.207107
 30
0.0
  0
VERTEX
  5
278
100
AcDbEntity
  8
化粧台
  6
EXLTYPE2
 62
     6
100
AcDbVertex
100
AcDb2dVertex
 10
2387.0
 20
1152.707107
 30
0.0
  0
VERTEX
  5
279
100
AcDbEntity
  8
化粧台
  6
EXLTYPE2
 62
     6
100
AcDbVertex
100
AcDb2dVertex
 10
2390.5
 20
1155.207107
 30
0.0
  0
VERTEX
  5
27A
100
AcDbEntity
  8
化粧台
  6
EXLTYPE2
 62
     6
100
AcDbVertex
100
AcDb2dVertex
 10
2387.0
 20
1157.707107
 30
0.0
  0
VERTEX
  5
27B
100
AcDbEntity
  8
化粧台
  6
EXLTYPE2
 62
     6
100
AcDbVertex
100
AcDb2dVertex
 10
2390.5
 20
1160.207107
 30
0.0
  0
VERTEX
  5
27C
100
AcDbEntity
  8
化粧台
  6
EXLTYPE2
 62
     6
100
AcDbVertex
100
AcDb2dVertex
 10
2387.0
 20
1162.707107
 30
0.0
  0
VERTEX
  5
27D
100
AcDbEntity
  8
化粧台
  6
EXLTYPE2
 62
     6
100
AcDbVertex
100
AcDb2dVertex
 10
2390.5
 20
1165.207107
 30
0.0
  0
VERTEX
  5
27E
100
AcDbEntity
  8
化粧台
  6
EXLTYPE2
 62
     6
100
AcDbVertex
100
AcDb2dVertex
 10
2387.0
 20
1167.707107
 30
0.0
  0
VERTEX
  5
27F
100
AcDbEntity
  8
化粧台
  6
EXLTYPE2
 62
     6
100
AcDbVertex
100
AcDb2dVertex
 10
2390.5
 20
1170.207107
 30
0.0
  0
VERTEX
  5
280
100
AcDbEntity
  8
化粧台
  6
EXLTYPE2
 62
     6
100
AcDbVertex
100
AcDb2dVertex
 10
2387.0
 20
1172.707107
 30
0.0
  0
VERTEX
  5
281
100
AcDbEntity
  8
化粧台
  6
EXLTYPE2
 62
     6
100
AcDbVertex
100
AcDb2dVertex
 10
2390.5
 20
1175.207107
 30
0.0
  0
VERTEX
  5
282
100
AcDbEntity
  8
化粧台
  6
EXLTYPE2
 62
     6
100
AcDbVertex
100
AcDb2dVertex
 10
2387.0
 20
1177.707107
 30
0.0
  0
VERTEX
  5
283
100
AcDbEntity
  8
化粧台
  6
EXLTYPE2
 62
     6
100
AcDbVertex
100
AcDb2dVertex
 10
2390.5
 20
1180.207107
 30
0.0
  0
VERTEX
  5
284
100
AcDbEntity
  8
化粧台
  6
EXLTYPE2
 62
     6
100
AcDbVertex
100
AcDb2dVertex
 10
2387.0
 20
1182.707107
 30
0.0
  0
VERTEX
  5
285
100
AcDbEntity
  8
化粧台
  6
EXLTYPE2
 62
     6
100
AcDbVertex
100
AcDb2dVertex
 10
2390.5
 20
1185.207107
 30
0.0
  0
VERTEX
  5
286
100
AcDbEntity
  8
化粧台
  6
EXLTYPE2
 62
     6
100
AcDbVertex
100
AcDb2dVertex
 10
2387.0
 20
1187.707107
 30
0.0
  0
VERTEX
  5
287
100
AcDbEntity
  8
化粧台
  6
EXLTYPE2
 62
     6
100
AcDbVertex
100
AcDb2dVertex
 10
2390.5
 20
1190.207107
 30
0.0
  0
VERTEX
  5
288
100
AcDbEntity
  8
化粧台
  6
EXLTYPE2
 62
     6
100
AcDbVertex
100
AcDb2dVertex
 10
2387.0
 20
1192.707107
 30
0.0
  0
VERTEX
  5
289
100
AcDbEntity
  8
化粧台
  6
EXLTYPE2
 62
     6
100
AcDbVertex
100
AcDb2dVertex
 10
2390.5
 20
1195.207107
 30
0.0
  0
VERTEX
  5
28A
100
AcDbEntity
  8
化粧台
  6
EXLTYPE2
 62
     6
100
AcDbVertex
100
AcDb2dVertex
 10
2387.0
 20
1197.707107
 30
0.0
  0
VERTEX
  5
28B
100
AcDbEntity
  8
化粧台
  6
EXLTYPE2
 62
     6
100
AcDbVertex
100
AcDb2dVertex
 10
2390.5
 20
1200.207107
 30
0.0
  0
VERTEX
  5
28C
100
AcDbEntity
  8
化粧台
  6
EXLTYPE2
 62
     6
100
AcDbVertex
100
AcDb2dVertex
 10
2387.0
 20
1202.707107
 30
0.0
  0
VERTEX
  5
28D
100
AcDbEntity
  8
化粧台
  6
EXLTYPE2
 62
     6
100
AcDbVertex
100
AcDb2dVertex
 10
2390.5
 20
1205.207107
 30
0.0
  0
VERTEX
  5
28E
100
AcDbEntity
  8
化粧台
  6
EXLTYPE2
 62
     6
100
AcDbVertex
100
AcDb2dVertex
 10
2387.0
 20
1207.707107
 30
0.0
  0
VERTEX
  5
28F
100
AcDbEntity
  8
化粧台
  6
EXLTYPE2
 62
     6
100
AcDbVertex
100
AcDb2dVertex
 10
2390.5
 20
1210.207107
 30
0.0
  0
VERTEX
  5
290
100
AcDbEntity
  8
化粧台
  6
EXLTYPE2
 62
     6
100
AcDbVertex
100
AcDb2dVertex
 10
2387.0
 20
1212.707107
 30
0.0
  0
VERTEX
  5
291
100
AcDbEntity
  8
化粧台
  6
EXLTYPE2
 62
     6
100
AcDbVertex
100
AcDb2dVertex
 10
2390.5
 20
1215.207107
 30
0.0
  0
VERTEX
  5
292
100
AcDbEntity
  8
化粧台
  6
EXLTYPE2
 62
     6
100
AcDbVertex
100
AcDb2dVertex
 10
2387.0
 20
1217.707107
 30
0.0
  0
VERTEX
  5
293
100
AcDbEntity
  8
化粧台
  6
EXLTYPE2
 62
     6
100
AcDbVertex
100
AcDb2dVertex
 10
2390.5
 20
1220.207107
 30
0.0
  0
VERTEX
  5
294
100
AcDbEntity
  8
化粧台
  6
EXLTYPE2
 62
     6
100
AcDbVertex
100
AcDb2dVertex
 10
2387.0
 20
1222.707107
 30
0.0
  0
VERTEX
  5
295
100
AcDbEntity
  8
化粧台
  6
EXLTYPE2
 62
     6
100
AcDbVertex
100
AcDb2dVertex
 10
2390.5
 20
1225.207107
 30
0.0
  0
VERTEX
  5
296
100
AcDbEntity
  8
化粧台
  6
EXLTYPE2
 62
     6
100
AcDbVertex
100
AcDb2dVertex
 10
2387.0
 20
1227.707107
 30
0.0
  0
VERTEX
  5
297
100
AcDbEntity
  8
化粧台
  6
EXLTYPE2
 62
     6
100
AcDbVertex
100
AcDb2dVertex
 10
2390.5
 20
1230.207107
 30
0.0
  0
VERTEX
  5
298
100
AcDbEntity
  8
化粧台
  6
EXLTYPE2
 62
     6
100
AcDbVertex
100
AcDb2dVertex
 10
2387.0
 20
1232.707107
 30
0.0
  0
VERTEX
  5
299
100
AcDbEntity
  8
化粧台
  6
EXLTYPE2
 62
     6
100
AcDbVertex
100
AcDb2dVertex
 10
2390.5
 20
1235.207107
 30
0.0
  0
VERTEX
  5
29A
100
AcDbEntity
  8
化粧台
  6
EXLTYPE2
 62
     6
100
AcDbVertex
100
AcDb2dVertex
 10
2387.0
 20
1237.707107
 30
0.0
  0
VERTEX
  5
29B
100
AcDbEntity
  8
化粧台
  6
EXLTYPE2
 62
     6
100
AcDbVertex
100
AcDb2dVertex
 10
2390.5
 20
1240.207107
 30
0.0
  0
VERTEX
  5
29C
100
AcDbEntity
  8
化粧台
  6
EXLTYPE2
 62
     6
100
AcDbVertex
100
AcDb2dVertex
 10
2387.0
 20
1242.707107
 30
0.0
  0
VERTEX
  5
29D
100
AcDbEntity
  8
化粧台
  6
EXLTYPE2
 62
     6
100
AcDbVertex
100
AcDb2dVertex
 10
2390.5
 20
1245.207107
 30
0.0
  0
VERTEX
  5
29E
100
AcDbEntity
  8
化粧台
  6
EXLTYPE2
 62
     6
100
AcDbVertex
100
AcDb2dVertex
 10
2387.0
 20
1247.707107
 30
0.0
  0
VERTEX
  5
29F
100
AcDbEntity
  8
化粧台
  6
EXLTYPE2
 62
     6
100
AcDbVertex
100
AcDb2dVertex
 10
2390.5
 20
1250.207107
 30
0.0
  0
VERTEX
  5
2A0
100
AcDbEntity
  8
化粧台
  6
EXLTYPE2
 62
     6
100
AcDbVertex
100
AcDb2dVertex
 10
2387.0
 20
1252.707107
 30
0.0
  0
VERTEX
  5
2A1
100
AcDbEntity
  8
化粧台
  6
EXLTYPE2
 62
     6
100
AcDbVertex
100
AcDb2dVertex
 10
2390.5
 20
1255.207107
 30
0.0
  0
VERTEX
  5
2A2
100
AcDbEntity
  8
化粧台
  6
EXLTYPE2
 62
     6
100
AcDbVertex
100
AcDb2dVertex
 10
2387.0
 20
1257.707107
 30
0.0
  0
VERTEX
  5
2A3
100
AcDbEntity
  8
化粧台
  6
EXLTYPE2
 62
     6
100
AcDbVertex
100
AcDb2dVertex
 10
2390.5
 20
1260.207107
 30
0.0
  0
VERTEX
  5
2A4
100
AcDbEntity
  8
化粧台
  6
EXLTYPE2
 62
     6
100
AcDbVertex
100
AcDb2dVertex
 10
2387.0
 20
1262.707107
 30
0.0
  0
VERTEX
  5
2A5
100
AcDbEntity
  8
化粧台
  6
EXLTYPE2
 62
     6
100
AcDbVertex
100
AcDb2dVertex
 10
2390.5
 20
1265.207107
 30
0.0
  0
VERTEX
  5
2A6
100
AcDbEntity
  8
化粧台
  6
EXLTYPE2
 62
     6
100
AcDbVertex
100
AcDb2dVertex
 10
2387.0
 20
1267.707107
 30
0.0
  0
VERTEX
  5
2A7
100
AcDbEntity
  8
化粧台
  6
EXLTYPE2
 62
     6
100
AcDbVertex
100
AcDb2dVertex
 10
2390.5
 20
1270.207107
 30
0.0
  0
VERTEX
  5
2A8
100
AcDbEntity
  8
化粧台
  6
EXLTYPE2
 62
     6
100
AcDbVertex
100
AcDb2dVertex
 10
2387.0
 20
1272.707107
 30
0.0
  0
VERTEX
  5
2A9
100
AcDbEntity
  8
化粧台
  6
EXLTYPE2
 62
     6
100
AcDbVertex
100
AcDb2dVertex
 10
2390.5
 20
1275.207107
 30
0.0
  0
VERTEX
  5
2AA
100
AcDbEntity
  8
化粧台
  6
EXLTYPE2
 62
     6
100
AcDbVertex
100
AcDb2dVertex
 10
2387.0
 20
1277.707107
 30
0.0
  0
VERTEX
  5
2AB
100
AcDbEntity
  8
化粧台
  6
EXLTYPE2
 62
     6
100
AcDbVertex
100
AcDb2dVertex
 10
2390.5
 20
1280.207107
 30
0.0
  0
VERTEX
  5
2AC
100
AcDbEntity
  8
化粧台
  6
EXLTYPE2
 62
     6
100
AcDbVertex
100
AcDb2dVertex
 10
2387.0
 20
1282.707107
 30
0.0
  0
VERTEX
  5
2AD
100
AcDbEntity
  8
化粧台
  6
EXLTYPE2
 62
     6
100
AcDbVertex
100
AcDb2dVertex
 10
2390.5
 20
1285.207107
 30
0.0
  0
VERTEX
  5
2AE
100
AcDbEntity
  8
化粧台
  6
EXLTYPE2
 62
     6
100
AcDbVertex
100
AcDb2dVertex
 10
2387.0
 20
1287.707107
 30
0.0
  0
VERTEX
  5
2AF
100
AcDbEntity
  8
化粧台
  6
EXLTYPE2
 62
     6
100
AcDbVertex
100
AcDb2dVertex
 10
2390.5
 20
1290.207107
 30
0.0
  0
VERTEX
  5
2B0
100
AcDbEntity
  8
化粧台
  6
EXLTYPE2
 62
     6
100
AcDbVertex
100
AcDb2dVertex
 10
2387.0
 20
1292.707107
 30
0.0
  0
VERTEX
  5
2B1
100
AcDbEntity
  8
化粧台
  6
EXLTYPE2
 62
     6
100
AcDbVertex
100
AcDb2dVertex
 10
2390.5
 20
1295.207107
 30
0.0
  0
VERTEX
  5
2B2
100
AcDbEntity
  8
化粧台
  6
EXLTYPE2
 62
     6
100
AcDbVertex
100
AcDb2dVertex
 10
2387.0
 20
1297.707107
 30
0.0
  0
VERTEX
  5
2B3
100
AcDbEntity
  8
化粧台
  6
EXLTYPE2
 62
     6
100
AcDbVertex
100
AcDb2dVertex
 10
2390.5
 20
1300.207107
 30
0.0
  0
VERTEX
  5
2B4
100
AcDbEntity
  8
化粧台
  6
EXLTYPE2
 62
     6
100
AcDbVertex
100
AcDb2dVertex
 10
2387.0
 20
1302.707107
 30
0.0
  0
VERTEX
  5
2B5
100
AcDbEntity
  8
化粧台
  6
EXLTYPE2
 62
     6
100
AcDbVertex
100
AcDb2dVertex
 10
2390.5
 20
1305.207107
 30
0.0
  0
VERTEX
  5
2B6
100
AcDbEntity
  8
化粧台
  6
EXLTYPE2
 62
     6
100
AcDbVertex
100
AcDb2dVertex
 10
2387.0
 20
1307.707107
 30
0.0
  0
VERTEX
  5
2B7
100
AcDbEntity
  8
化粧台
  6
EXLTYPE2
 62
     6
100
AcDbVertex
100
AcDb2dVertex
 10
2390.5
 20
1310.207107
 30
0.0
  0
VERTEX
  5
2B8
100
AcDbEntity
  8
化粧台
  6
EXLTYPE2
 62
     6
100
AcDbVertex
100
AcDb2dVertex
 10
2387.0
 20
1312.707107
 30
0.0
  0
VERTEX
  5
2B9
100
AcDbEntity
  8
化粧台
  6
EXLTYPE2
 62
     6
100
AcDbVertex
100
AcDb2dVertex
 10
2390.5
 20
1315.207107
 30
0.0
  0
VERTEX
  5
2BA
100
AcDbEntity
  8
化粧台
  6
EXLTYPE2
 62
     6
100
AcDbVertex
100
AcDb2dVertex
 10
2387.0
 20
1317.707107
 30
0.0
  0
VERTEX
  5
2BB
100
AcDbEntity
  8
化粧台
  6
EXLTYPE2
 62
     6
100
AcDbVertex
100
AcDb2dVertex
 10
2390.5
 20
1320.207107
 30
0.0
  0
VERTEX
  5
2BC
100
AcDbEntity
  8
化粧台
  6
EXLTYPE2
 62
     6
100
AcDbVertex
100
AcDb2dVertex
 10
2387.0
 20
1322.707107
 30
0.0
  0
VERTEX
  5
2BD
100
AcDbEntity
  8
化粧台
  6
EXLTYPE2
 62
     6
100
AcDbVertex
100
AcDb2dVertex
 10
2390.5
 20
1325.207107
 30
0.0
  0
VERTEX
  5
2BE
100
AcDbEntity
  8
化粧台
  6
EXLTYPE2
 62
     6
100
AcDbVertex
100
AcDb2dVertex
 10
2387.0
 20
1327.707107
 30
0.0
  0
VERTEX
  5
2BF
100
AcDbEntity
  8
化粧台
  6
EXLTYPE2
 62
     6
100
AcDbVertex
100
AcDb2dVertex
 10
2390.5
 20
1330.207107
 30
0.0
  0
VERTEX
  5
2C0
100
AcDbEntity
  8
化粧台
  6
EXLTYPE2
 62
     6
100
AcDbVertex
100
AcDb2dVertex
 10
2387.0
 20
1332.707107
 30
0.0
  0
VERTEX
  5
2C1
100
AcDbEntity
  8
化粧台
  6
EXLTYPE2
 62
     6
100
AcDbVertex
100
AcDb2dVertex
 10
2390.5
 20
1335.207107
 30
0.0
  0
VERTEX
  5
2C2
100
AcDbEntity
  8
化粧台
  6
EXLTYPE2
 62
     6
100
AcDbVertex
100
AcDb2dVertex
 10
2387.0
 20
1337.707107
 30
0.0
  0
VERTEX
  5
2C3
100
AcDbEntity
  8
化粧台
  6
EXLTYPE2
 62
     6
100
AcDbVertex
100
AcDb2dVertex
 10
2390.5
 20
1340.207107
 30
0.0
  0
VERTEX
  5
2C4
100
AcDbEntity
  8
化粧台
  6
EXLTYPE2
 62
     6
100
AcDbVertex
100
AcDb2dVertex
 10
2387.0
 20
1342.707107
 30
0.0
  0
VERTEX
  5
2C5
100
AcDbEntity
  8
化粧台
  6
EXLTYPE2
 62
     6
100
AcDbVertex
100
AcDb2dVertex
 10
2390.5
 20
1345.207107
 30
0.0
  0
VERTEX
  5
2C6
100
AcDbEntity
  8
化粧台
  6
EXLTYPE2
 62
     6
100
AcDbVertex
100
AcDb2dVertex
 10
2387.0
 20
1347.707107
 30
0.0
  0
VERTEX
  5
2C7
100
AcDbEntity
  8
化粧台
  6
EXLTYPE2
 62
     6
100
AcDbVertex
100
AcDb2dVertex
 10
2390.5
 20
1350.207107
 30
0.0
  0
VERTEX
  5
2C8
100
AcDbEntity
  8
化粧台
  6
EXLTYPE2
 62
     6
100
AcDbVertex
100
AcDb2dVertex
 10
2387.0
 20
1352.707107
 30
0.0
  0
VERTEX
  5
2C9
100
AcDbEntity
  8
化粧台
  6
EXLTYPE2
 62
     6
100
AcDbVertex
100
AcDb2dVertex
 10
2390.5
 20
1355.207107
 30
0.0
  0
VERTEX
  5
2CA
100
AcDbEntity
  8
化粧台
  6
EXLTYPE2
 62
     6
100
AcDbVertex
100
AcDb2dVertex
 10
2387.0
 20
1357.707107
 30
0.0
  0
VERTEX
  5
2CB
100
AcDbEntity
  8
化粧台
  6
EXLTYPE2
 62
     6
100
AcDbVertex
100
AcDb2dVertex
 10
2390.5
 20
1360.207107
 30
0.0
  0
VERTEX
  5
2CC
100
AcDbEntity
  8
化粧台
  6
EXLTYPE2
 62
     6
100
AcDbVertex
100
AcDb2dVertex
 10
2387.0
 20
1362.707107
 30
0.0
  0
VERTEX
  5
2CD
100
AcDbEntity
  8
化粧台
  6
EXLTYPE2
 62
     6
100
AcDbVertex
100
AcDb2dVertex
 10
2390.5
 20
1365.207107
 30
0.0
  0
VERTEX
  5
2CE
100
AcDbEntity
  8
化粧台
  6
EXLTYPE2
 62
     6
100
AcDbVertex
100
AcDb2dVertex
 10
2387.0
 20
1367.707107
 30
0.0
  0
VERTEX
  5
2CF
100
AcDbEntity
  8
化粧台
  6
EXLTYPE2
 62
     6
100
AcDbVertex
100
AcDb2dVertex
 10
2390.5
 20
1370.207107
 30
0.0
  0
VERTEX
  5
2D0
100
AcDbEntity
  8
化粧台
  6
EXLTYPE2
 62
     6
100
AcDbVertex
100
AcDb2dVertex
 10
2387.0
 20
1372.707107
 30
0.0
  0
VERTEX
  5
2D1
100
AcDbEntity
  8
化粧台
  6
EXLTYPE2
 62
     6
100
AcDbVertex
100
AcDb2dVertex
 10
2390.5
 20
1375.207107
 30
0.0
  0
VERTEX
  5
2D2
100
AcDbEntity
  8
化粧台
  6
EXLTYPE2
 62
     6
100
AcDbVertex
100
AcDb2dVertex
 10
2387.0
 20
1377.707107
 30
0.0
  0
VERTEX
  5
2D3
100
AcDbEntity
  8
化粧台
  6
EXLTYPE2
 62
     6
100
AcDbVertex
100
AcDb2dVertex
 10
2390.5
 20
1380.207107
 30
0.0
  0
VERTEX
  5
2D4
100
AcDbEntity
  8
化粧台
  6
EXLTYPE2
 62
     6
100
AcDbVertex
100
AcDb2dVertex
 10
2387.0
 20
1382.707107
 30
0.0
  0
VERTEX
  5
2D5
100
AcDbEntity
  8
化粧台
  6
EXLTYPE2
 62
     6
100
AcDbVertex
100
AcDb2dVertex
 10
2390.5
 20
1385.207107
 30
0.0
  0
VERTEX
  5
2D6
100
AcDbEntity
  8
化粧台
  6
EXLTYPE2
 62
     6
100
AcDbVertex
100
AcDb2dVertex
 10
2387.0
 20
1387.707107
 30
0.0
  0
VERTEX
  5
2D7
100
AcDbEntity
  8
化粧台
  6
EXLTYPE2
 62
     6
100
AcDbVertex
100
AcDb2dVertex
 10
2390.5
 20
1390.207107
 30
0.0
  0
VERTEX
  5
2D8
100
AcDbEntity
  8
化粧台
  6
EXLTYPE2
 62
     6
100
AcDbVertex
100
AcDb2dVertex
 10
2387.0
 20
1392.707107
 30
0.0
  0
VERTEX
  5
2D9
100
AcDbEntity
  8
化粧台
  6
EXLTYPE2
 62
     6
100
AcDbVertex
100
AcDb2dVertex
 10
2390.5
 20
1395.207107
 30
0.0
  0
VERTEX
  5
2DA
100
AcDbEntity
  8
化粧台
  6
EXLTYPE2
 62
     6
100
AcDbVertex
100
AcDb2dVertex
 10
2387.0
 20
1397.707107
 30
0.0
  0
VERTEX
  5
2DB
100
AcDbEntity
  8
化粧台
  6
EXLTYPE2
 62
     6
100
AcDbVertex
100
AcDb2dVertex
 10
2390.5
 20
1400.207107
 30
0.0
  0
VERTEX
  5
2DC
100
AcDbEntity
  8
化粧台
  6
EXLTYPE2
 62
     6
100
AcDbVertex
100
AcDb2dVertex
 10
2387.0
 20
1402.707107
 30
0.0
  0
VERTEX
  5
2DD
100
AcDbEntity
  8
化粧台
  6
EXLTYPE2
 62
     6
100
AcDbVertex
100
AcDb2dVertex
 10
2390.5
 20
1405.207107
 30
0.0
  0
VERTEX
  5
2DE
100
AcDbEntity
  8
化粧台
  6
EXLTYPE2
 62
     6
100
AcDbVertex
100
AcDb2dVertex
 10
2387.0
 20
1407.707107
 30
0.0
  0
VERTEX
  5
2DF
100
AcDbEntity
  8
化粧台
  6
EXLTYPE2
 62
     6
100
AcDbVertex
100
AcDb2dVertex
 10
2390.5
 20
1410.207107
 30
0.0
  0
VERTEX
  5
2E0
100
AcDbEntity
  8
化粧台
  6
EXLTYPE2
 62
     6
100
AcDbVertex
100
AcDb2dVertex
 10
2387.0
 20
1412.707107
 30
0.0
  0
VERTEX
  5
2E1
100
AcDbEntity
  8
化粧台
  6
EXLTYPE2
 62
     6
100
AcDbVertex
100
AcDb2dVertex
 10
2390.5
 20
1415.207107
 30
0.0
  0
VERTEX
  5
2E2
100
AcDbEntity
  8
化粧台
  6
EXLTYPE2
 62
     6
100
AcDbVertex
100
AcDb2dVertex
 10
2387.0
 20
1417.707107
 30
0.0
  0
VERTEX
  5
2E3
100
AcDbEntity
  8
化粧台
  6
EXLTYPE2
 62
     6
100
AcDbVertex
100
AcDb2dVertex
 10
2390.5
 20
1420.207107
 30
0.0
  0
VERTEX
  5
2E4
100
AcDbEntity
  8
化粧台
  6
EXLTYPE2
 62
     6
100
AcDbVertex
100
AcDb2dVertex
 10
2387.0
 20
1422.707107
 30
0.0
  0
VERTEX
  5
2E5
100
AcDbEntity
  8
化粧台
  6
EXLTYPE2
 62
     6
100
AcDbVertex
100
AcDb2dVertex
 10
2388.65
 20
1425.207107
 30
0.0
  0
SEQEND
  5
2E6
100
AcDbEntity
  8
化粧台
  6
EXLTYPE2
 62
     6
  0
LINE
  5
2E7
100
AcDbEntity
  8
化粧台
  6
CONTINUOUS
 62
     6
100
AcDbLine
 10
2390.5
 20
1025.207107
 30
0.0
 11
2418.5
 21
1025.207107
 31
0.0
  0
LINE
  5
2E8
100
AcDbEntity
  8
化粧台
  6
CONTINUOUS
 62
     6
100
AcDbLine
 10
2390.5
 20
1020.207107
 30
0.0
 11
2418.5
 21
1020.207107
 31
0.0
  0
LINE
  5
2E9
100
AcDbEntity
  8
化粧台
  6
CONTINUOUS
 62
     6
100
AcDbLine
 10
2390.5
 20
1015.207107
 30
0.0
 11
2418.5
 21
1015.207107
 31
0.0
  0
LINE
  5
2EA
100
AcDbEntity
  8
化粧台
  6
CONTINUOUS
 62
     6
100
AcDbLine
 10
2390.5
 20
1125.207107
 30
0.0
 11
2404.5
 21
1125.207107
 31
0.0
  0
LINE
  5
2EB
100
AcDbEntity
  8
化粧台
  6
CONTINUOUS
 62
     6
100
AcDbLine
 10
2404.5
 20
1120.207107
 30
0.0
 11
2418.5
 21
1120.207107
 31
0.0
  0
LINE
  5
2EC
100
AcDbEntity
  8
化粧台
  6
CONTINUOUS
 62
     6
100
AcDbLine
 10
2390.5
 20
1115.207107
 30
0.0
 11
2404.5
 21
1115.207107
 31
0.0
  0
LINE
  5
2ED
100
AcDbEntity
  8
化粧台
  6
CONTINUOUS
 62
     6
100
AcDbLine
 10
2404.5
 20
1110.207107
 30
0.0
 11
2418.5
 21
1110.207107
 31
0.0
  0
LINE
  5
2EE
100
AcDbEntity
  8
化粧台
  6
CONTINUOUS
 62
     6
100
AcDbLine
 10
2390.5
 20
1105.207107
 30
0.0
 11
2404.5
 21
1105.207107
 31
0.0
  0
LINE
  5
2EF
100
AcDbEntity
  8
化粧台
  6
CONTINUOUS
 62
     6
100
AcDbLine
 10
2404.5
 20
1100.207107
 30
0.0
 11
2418.5
 21
1100.207107
 31
0.0
  0
LINE
  5
2F0
100
AcDbEntity
  8
化粧台
  6
CONTINUOUS
 62
     6
100
AcDbLine
 10
2390.5
 20
1095.207107
 30
0.0
 11
2404.5
 21
1095.207107
 31
0.0
  0
LINE
  5
2F1
100
AcDbEntity
  8
化粧台
  6
CONTINUOUS
 62
     6
100
AcDbLine
 10
2404.5
 20
1090.207107
 30
0.0
 11
2418.5
 21
1090.207107
 31
0.0
  0
LINE
  5
2F2
100
AcDbEntity
  8
化粧台
  6
CONTINUOUS
 62
     6
100
AcDbLine
 10
2390.5
 20
1085.207107
 30
0.0
 11
2404.5
 21
1085.207107
 31
0.0
  0
LINE
  5
2F3
100
AcDbEntity
  8
化粧台
  6
CONTINUOUS
 62
     6
100
AcDbLine
 10
2404.5
 20
1080.207107
 30
0.0
 11
2418.5
 21
1080.207107
 31
0.0
  0
LINE
  5
2F4
100
AcDbEntity
  8
化粧台
  6
CONTINUOUS
 62
     6
100
AcDbLine
 10
2390.5
 20
1075.207107
 30
0.0
 11
2404.5
 21
1075.207107
 31
0.0
  0
LINE
  5
2F5
100
AcDbEntity
  8
化粧台
  6
CONTINUOUS
 62
     6
100
AcDbLine
 10
2404.5
 20
1070.207107
 30
0.0
 11
2418.5
 21
1070.207107
 31
0.0
  0
LINE
  5
2F6
100
AcDbEntity
  8
化粧台
  6
CONTINUOUS
 62
     6
100
AcDbLine
 10
2390.5
 20
1065.207107
 30
0.0
 11
2404.5
 21
1065.207107
 31
0.0
  0
LINE
  5
2F7
100
AcDbEntity
  8
化粧台
  6
CONTINUOUS
 62
     6
100
AcDbLine
 10
2404.5
 20
1060.207107
 30
0.0
 11
2418.5
 21
1060.207107
 31
0.0
  0
LINE
  5
2F8
100
AcDbEntity
  8
化粧台
  6
CONTINUOUS
 62
     6
100
AcDbLine
 10
2390.5
 20
1055.207107
 30
0.0
 11
2404.5
 21
1055.207107
 31
0.0
  0
LINE
  5
2F9
100
AcDbEntity
  8
化粧台
  6
CONTINUOUS
 62
     6
100
AcDbLine
 10
2404.5
 20
1050.207107
 30
0.0
 11
2418.5
 21
1050.207107
 31
0.0
  0
LINE
  5
2FA
100
AcDbEntity
  8
化粧台
  6
CONTINUOUS
 62
     6
100
AcDbLine
 10
2390.5
 20
1045.207107
 30
0.0
 11
2404.5
 21
1045.207107
 31
0.0
  0
LINE
  5
2FB
100
AcDbEntity
  8
化粧台
  6
CONTINUOUS
 62
     6
100
AcDbLine
 10
2404.5
 20
1040.207107
 30
0.0
 11
2418.5
 21
1040.207107
 31
0.0
  0
LINE
  5
2FC
100
AcDbEntity
  8
化粧台
  6
CONTINUOUS
 62
     6
100
AcDbLine
 10
2390.5
 20
1035.207107
 30
0.0
 11
2404.5
 21
1035.207107
 31
0.0
  0
LINE
  5
2FD
100
AcDbEntity
  8
化粧台
  6
CONTINUOUS
 62
     6
100
AcDbLine
 10
2404.5
 20
1030.207107
 30
0.0
 11
2418.5
 21
1030.207107
 31
0.0
  0
LINE
  5
2FE
100
AcDbEntity
  8
化粧台
  6
CONTINUOUS
 62
     6
100
AcDbLine
 10
2388.65
 20
895.207107
 30
0.0
 11
2420.35
 21
895.207107
 31
0.0
  0
LINE
  5
2FF
100
AcDbEntity
  8
化粧台
  6
CONTINUOUS
 62
     6
100
AcDbLine
 10
2388.65
 20
995.207107
 30
0.0
 11
2388.65
 21
895.207107
 31
0.0
  0
LINE
  5
300
100
AcDbEntity
  8
化粧台
  6
CONTINUOUS
 62
     6
100
AcDbLine
 10
2420.35
 20
895.207107
 30
0.0
 11
2420.35
 21
995.207107
 31
0.0
  0
LINE
  5
301
100
AcDbEntity
  8
化粧台
  6
CONTINUOUS
 62
     6
100
AcDbLine
 10
2388.65
 20
995.207107
 30
0.0
 11
2420.35
 21
995.207107
 31
0.0
  0
LINE
  5
302
100
AcDbEntity
  8
化粧台
  6
CONTINUOUS
 62
     6
100
AcDbLine
 10
2390.5
 20
1010.207107
 30
0.0
 11
2418.5
 21
1010.207107
 31
0.0
  0
LINE
  5
303
100
AcDbEntity
  8
化粧台
  6
CONTINUOUS
 62
     6
100
AcDbLine
 10
2390.5
 20
1005.207107
 30
0.0
 11
2418.5
 21
1005.207107
 31
0.0
  0
LINE
  5
304
100
AcDbEntity
  8
化粧台
  6
CONTINUOUS
 62
     6
100
AcDbLine
 10
2390.5
 20
1000.207107
 30
0.0
 11
2418.5
 21
1000.207107
 31
0.0
  0
LINE
  5
305
100
AcDbEntity
  8
化粧台
  6
CONTINUOUS
 62
     6
100
AcDbLine
 10
2431.5
 20
1060.3
 30
0.0
 11
2431.5
 21
1056.5
 31
0.0
  0
LINE
  5
306
100
AcDbEntity
  8
化粧台
  6
CONTINUOUS
 62
     6
100
AcDbLine
 10
2377.5
 20
1063.5
 30
0.0
 11
2377.5
 21
1059.9
 31
0.0
  0
LINE
  5
307
100
AcDbEntity
  8
化粧台
  6
CONTINUOUS
 62
     6
100
AcDbLine
 10
2437.5
 20
1042.5
 30
0.0
 11
2437.5
 21
1036.0
 31
0.0
  0
LINE
  5
308
100
AcDbEntity
  8
化粧台
  6
CONTINUOUS
 62
     6
100
AcDbLine
 10
2371.5
 20
1051.5
 30
0.0
 11
2371.5
 21
1043.9
 31
0.0
  0
LINE
  5
309
100
AcDbEntity
  8
化粧台
  6
EXLTYPE2
 62
     6
100
AcDbLine
 10
2371.5
 20
1036.0
 30
0.0
 11
2437.5
 21
1036.0
 31
0.0
  0
LINE
  5
30A
100
AcDbEntity
  8
化粧台
  6
EXLTYPE2
 62
     6
100
AcDbLine
 10
2374.0
 20
1054.0
 30
0.0
 11
2435.0
 21
1054.0
 31
0.0
  0
LINE
  5
30B
100
AcDbEntity
  8
化粧台
  6
EXLTYPE2
 62
     6
100
AcDbLine
 10
2380.0
 20
1066.0
 30
0.0
 11
2429.0
 21
1066.0
 31
0.0
  0
ARC
  5
30C
100
AcDbEntity
  8
化粧台
  6
CONTINUOUS
 62
     6
100
AcDbCircle
 10
2434.0
 20
1056.5
 30
0.0
 40
2.5
100
AcDbArc
 50
180.0
 51
270.0
  0
ARC
  5
30D
100
AcDbEntity
  8
化粧台
  6
CONTINUOUS
 62
     6
100
AcDbCircle
 10
2375.0
 20
1056.5
 30
0.0
 40
2.5
100
AcDbArc
 50
270.0
 51
0.0
  0
ARC
  5
30E
100
AcDbEntity
  8
化粧台
  6
CONTINUOUS
 62
     6
100
AcDbCircle
 10
2435.0
 20
1051.5
 30
0.0
 40
2.5
100
AcDbArc
 50
0.0
 51
90.0
  0
ARC
  5
30F
100
AcDbEntity
  8
化粧台
  6
CONTINUOUS
 62
     6
100
AcDbCircle
 10
2429.0
 20
1063.5
 30
0.0
 40
2.5
100
AcDbArc
 50
0.0
 51
90.0
  0
ARC
  5
310
100
AcDbEntity
  8
化粧台
  6
CONTINUOUS
 62
     6
100
AcDbCircle
 10
2380.0
 20
1063.5
 30
0.0
 40
2.5
100
AcDbArc
 50
90.0
 51
180.0
  0
ARC
  5
311
100
AcDbEntity
  8
化粧台
  6
CONTINUOUS
 62
     6
100
AcDbCircle
 10
2374.0
 20
1051.5
 30
0.0
 40
2.5
100
AcDbArc
 50
90.0
 51
180.0
  0
POLYLINE
  5
312
100
AcDbEntity
  8
化粧台
  6
CONTINUOUS
 62
     6
100
AcDb2dPolyline
 66
     1
 10
0.0
 20
0.0
 30
0.0
 70
   128
  0
VERTEX
  5
313
100
AcDbEntity
  8
化粧台
  6
CONTINUOUS
 62
     6
100
AcDbVertex
100
AcDb2dVertex
 10
2388.65
 20
995.207107
 30
0.0
  0
VERTEX
  5
314
100
AcDbEntity
  8
化粧台
  6
CONTINUOUS
 62
     6
100
AcDbVertex
100
AcDb2dVertex
 10
2387.0
 20
997.707107
 30
0.0
  0
VERTEX
  5
315
100
AcDbEntity
  8
化粧台
  6
CONTINUOUS
 62
     6
100
AcDbVertex
100
AcDb2dVertex
 10
2390.5
 20
1000.207107
 30
0.0
  0
VERTEX
  5
316
100
AcDbEntity
  8
化粧台
  6
CONTINUOUS
 62
     6
100
AcDbVertex
100
AcDb2dVertex
 10
2387.0
 20
1002.707107
 30
0.0
  0
VERTEX
  5
317
100
AcDbEntity
  8
化粧台
  6
CONTINUOUS
 62
     6
100
AcDbVertex
100
AcDb2dVertex
 10
2390.5
 20
1005.207107
 30
0.0
  0
VERTEX
  5
318
100
AcDbEntity
  8
化粧台
  6
CONTINUOUS
 62
     6
100
AcDbVertex
100
AcDb2dVertex
 10
2387.0
 20
1007.707107
 30
0.0
  0
VERTEX
  5
319
100
AcDbEntity
  8
化粧台
  6
CONTINUOUS
 62
     6
100
AcDbVertex
100
AcDb2dVertex
 10
2390.5
 20
1010.207107
 30
0.0
  0
VERTEX
  5
31A
100
AcDbEntity
  8
化粧台
  6
CONTINUOUS
 62
     6
100
AcDbVertex
100
AcDb2dVertex
 10
2387.0
 20
1012.707107
 30
0.0
  0
VERTEX
  5
31B
100
AcDbEntity
  8
化粧台
  6
CONTINUOUS
 62
     6
100
AcDbVertex
100
AcDb2dVertex
 10
2390.5
 20
1015.207107
 30
0.0
  0
VERTEX
  5
31C
100
AcDbEntity
  8
化粧台
  6
CONTINUOUS
 62
     6
100
AcDbVertex
100
AcDb2dVertex
 10
2387.0
 20
1017.707107
 30
0.0
  0
VERTEX
  5
31D
100
AcDbEntity
  8
化粧台
  6
CONTINUOUS
 62
     6
100
AcDbVertex
100
AcDb2dVertex
 10
2390.5
 20
1020.207107
 30
0.0
  0
VERTEX
  5
31E
100
AcDbEntity
  8
化粧台
  6
CONTINUOUS
 62
     6
100
AcDbVertex
100
AcDb2dVertex
 10
2387.0
 20
1022.707107
 30
0.0
  0
VERTEX
  5
31F
100
AcDbEntity
  8
化粧台
  6
CONTINUOUS
 62
     6
100
AcDbVertex
100
AcDb2dVertex
 10
2390.5
 20
1025.207107
 30
0.0
  0
VERTEX
  5
320
100
AcDbEntity
  8
化粧台
  6
CONTINUOUS
 62
     6
100
AcDbVertex
100
AcDb2dVertex
 10
2387.0
 20
1027.707107
 30
0.0
  0
VERTEX
  5
321
100
AcDbEntity
  8
化粧台
  6
CONTINUOUS
 62
     6
100
AcDbVertex
100
AcDb2dVertex
 10
2390.5
 20
1030.207107
 30
0.0
  0
VERTEX
  5
322
100
AcDbEntity
  8
化粧台
  6
CONTINUOUS
 62
     6
100
AcDbVertex
100
AcDb2dVertex
 10
2389.389949
 20
1031.0
 30
0.0
  0
SEQEND
  5
323
100
AcDbEntity
  8
化粧台
  6
CONTINUOUS
 62
     6
  0
POLYLINE
  5
324
100
AcDbEntity
  8
化粧台
  6
CONTINUOUS
 62
     6
100
AcDb2dPolyline
 66
     1
 10
0.0
 20
0.0
 30
0.0
 70
   128
  0
VERTEX
  5
325
100
AcDbEntity
  8
化粧台
  6
CONTINUOUS
 62
     6
100
AcDbVertex
100
AcDb2dVertex
 10
2420.35
 20
995.207107
 30
0.0
  0
VERTEX
  5
326
100
AcDbEntity
  8
化粧台
  6
CONTINUOUS
 62
     6
100
AcDbVertex
100
AcDb2dVertex
 10
2422.0
 20
997.707107
 30
0.0
  0
VERTEX
  5
327
100
AcDbEntity
  8
化粧台
  6
CONTINUOUS
 62
     6
100
AcDbVertex
100
AcDb2dVertex
 10
2418.5
 20
1000.207107
 30
0.0
  0
VERTEX
  5
328
100
AcDbEntity
  8
化粧台
  6
CONTINUOUS
 62
     6
100
AcDbVertex
100
AcDb2dVertex
 10
2422.0
 20
1002.707107
 30
0.0
  0
VERTEX
  5
329
100
AcDbEntity
  8
化粧台
  6
CONTINUOUS
 62
     6
100
AcDbVertex
100
AcDb2dVertex
 10
2418.5
 20
1005.207107
 30
0.0
  0
VERTEX
  5
32A
100
AcDbEntity
  8
化粧台
  6
CONTINUOUS
 62
     6
100
AcDbVertex
100
AcDb2dVertex
 10
2422.0
 20
1007.707107
 30
0.0
  0
VERTEX
  5
32B
100
AcDbEntity
  8
化粧台
  6
CONTINUOUS
 62
     6
100
AcDbVertex
100
AcDb2dVertex
 10
2418.5
 20
1010.207107
 30
0.0
  0
VERTEX
  5
32C
100
AcDbEntity
  8
化粧台
  6
CONTINUOUS
 62
     6
100
AcDbVertex
100
AcDb2dVertex
 10
2422.0
 20
1012.707107
 30
0.0
  0
VERTEX
  5
32D
100
AcDbEntity
  8
化粧台
  6
CONTINUOUS
 62
     6
100
AcDbVertex
100
AcDb2dVertex
 10
2418.5
 20
1015.207107
 30
0.0
  0
VERTEX
  5
32E
100
AcDbEntity
  8
化粧台
  6
CONTINUOUS
 62
     6
100
AcDbVertex
100
AcDb2dVertex
 10
2422.0
 20
1017.707107
 30
0.0
  0
VERTEX
  5
32F
100
AcDbEntity
  8
化粧台
  6
CONTINUOUS
 62
     6
100
AcDbVertex
100
AcDb2dVertex
 10
2418.5
 20
1020.207107
 30
0.0
  0
VERTEX
  5
330
100
AcDbEntity
  8
化粧台
  6
CONTINUOUS
 62
     6
100
AcDbVertex
100
AcDb2dVertex
 10
2422.0
 20
1022.707107
 30
0.0
  0
VERTEX
  5
331
100
AcDbEntity
  8
化粧台
  6
CONTINUOUS
 62
     6
100
AcDbVertex
100
AcDb2dVertex
 10
2418.5
 20
1025.207107
 30
0.0
  0
VERTEX
  5
332
100
AcDbEntity
  8
化粧台
  6
CONTINUOUS
 62
     6
100
AcDbVertex
100
AcDb2dVertex
 10
2422.0
 20
1027.707107
 30
0.0
  0
VERTEX
  5
333
100
AcDbEntity
  8
化粧台
  6
CONTINUOUS
 62
     6
100
AcDbVertex
100
AcDb2dVertex
 10
2418.5
 20
1030.207107
 30
0.0
  0
VERTEX
  5
334
100
AcDbEntity
  8
化粧台
  6
CONTINUOUS
 62
     6
100
AcDbVertex
100
AcDb2dVertex
 10
2419.610051
 20
1031.0
 30
0.0
  0
SEQEND
  5
335
100
AcDbEntity
  8
化粧台
  6
CONTINUOUS
 62
     6
  0
LINE
  5
336
100
AcDbEntity
  8
化粧台
  6
EXLTYPE3
 62
     6
100
AcDbLine
 10
2314.5
 20
1588.0
 30
0.0
 11
2314.5
 21
1432.6
 31
0.0
  0
LINE
  5
337
100
AcDbEntity
  8
化粧台
  6
EXLTYPE3
 62
     6
100
AcDbLine
 10
2404.5
 20
1447.207107
 30
0.0
 11
2404.5
 21
881.0
 31
0.0
  0
LINE
  5
338
100
AcDbEntity
  8
化粧台
  6
CONTINUOUS
 62
     6
100
AcDbLine
 10
973.0
 20
3775.0
 30
0.0
 11
892.0
 21
3775.0
 31
0.0
  0
ARC
  5
339
100
AcDbEntity
  8
化粧台
  6
CONTINUOUS
 62
     2
100
AcDbCircle
 10
726.927022
 20
3610.615017
 30
0.0
 40
89.427022
100
AcDbArc
 50
167.489219
 51
244.674213
  0
ARC
  5
33A
100
AcDbEntity
  8
化粧台
  6
CONTINUOUS
 62
     2
100
AcDbCircle
 10
1138.072978
 20
3610.615017
 30
0.0
 40
89.427022
100
AcDbArc
 50
295.325787
 51
12.510781
  0
ARC
  5
33B
100
AcDbEntity
  8
化粧台
  6
CONTINUOUS
 62
     2
100
AcDbCircle
 10
1233.124825
 20
3470.0
 30
0.0
 40
50.0
100
AcDbArc
 50
90.0
 51
114.400951
  0
ARC
  5
33C
100
AcDbEntity
  8
化粧台
  6
CONTINUOUS
 62
     2
100
AcDbCircle
 10
631.875175
 20
3470.0
 30
0.0
 40
50.0
100
AcDbArc
 50
65.599049
 51
90.0
  0
ARC
  5
33D
100
AcDbEntity
  8
化粧台
  6
CONTINUOUS
 62
     2
100
AcDbCircle
 10
932.5
 20
4132.694504
 30
0.0
 40
677.694504
100
AcDbArc
 50
245.599049
 51
294.400951
  0
ARC
  5
33E
100
AcDbEntity
  8
化粧台
  6
CONTINUOUS
 62
     2
100
AcDbCircle
 10
932.5
 20
4045.001903
 30
0.0
 40
570.001903
100
AcDbArc
 50
244.674213
 51
295.325787
  0
ARC
  5
33F
100
AcDbEntity
  8
化粧台
  6
CONTINUOUS
 62
     2
100
AcDbCircle
 10
932.5
 20
3783.5
 30
0.0
 40
8.5
100
AcDbArc
 50
290.328497
 51
249.671503
  0
CIRCLE
  5
340
100
AcDbEntity
  8
化粧台
  6
CONTINUOUS
 62
     2
100
AcDbCircle
 10
932.5
 20
3775.0
 30
0.0
 40
3.0
  0
LINE
  5
341
100
AcDbEntity
  8
化粧台
  6
EXLTYPE3
 62
     6
100
AcDbLine
 10
932.5
 20
4015.0
 30
0.0
 11
932.5
 21
3441.0
 31
0.0
  0
LINE
  5
342
100
AcDbEntity
  8
化粧台
  6
CONTINUOUS
 62
     6
100
AcDbLine
 10
662.5
 20
3990.0
 30
0.0
 11
662.5
 21
4052.5
 31
0.0
  0
LINE
  5
343
100
AcDbEntity
  8
化粧台
  6
CONTINUOUS
 62
     6
100
AcDbLine
 10
664.5
 20
4005.0
 30
0.0
 11
662.5
 21
4037.5
 31
0.0
  0
LINE
  5
344
100
AcDbEntity
  8
化粧台
  6
CONTINUOUS
 62
     6
100
AcDbLine
 10
662.5
 20
4037.5
 30
0.0
 11
660.5
 21
4005.0
 31
0.0
  0
LINE
  5
345
100
AcDbEntity
  8
化粧台
  6
CONTINUOUS
 62
     6
100
AcDbLine
 10
1202.5
 20
3990.0
 30
0.0
 11
1202.5
 21
4052.5
 31
0.0
  0
LINE
  5
346
100
AcDbEntity
  8
化粧台
  6
CONTINUOUS
 62
     6
100
AcDbLine
 10
1200.5
 20
4005.0
 30
0.0
 11
1202.5
 21
4037.5
 31
0.0
  0
LINE
  5
347
100
AcDbEntity
  8
化粧台
  6
CONTINUOUS
 62
     6
100
AcDbLine
 10
1202.5
 20
4037.5
 30
0.0
 11
1204.5
 21
4005.0
 31
0.0
  0
ARC
  5
348
100
AcDbEntity
  8
化粧台
  6
EXLTYPE2
 62
     6
100
AcDbCircle
 10
932.5
 20
3565.0
 30
0.0
 40
300.0
100
AcDbArc
 50
82.541017
 51
99.594068
  0
ARC
  5
349
100
AcDbEntity
  8
化粧台
  6
EXLTYPE2
 62
     6
100
AcDbCircle
 10
566.5
 20
3989.0
 30
0.0
 40
9.0
100
AcDbArc
 50
202.389656
 51
270.0
  0
ARC
  5
34A
100
AcDbEntity
  8
化粧台
  6
CONTINUOUS
 62
     2
100
AcDbCircle
 10
566.5
 20
3989.0
 30
0.0
 40
9.0
100
AcDbArc
 50
180.0
 51
202.389656
  0
LINE
  5
34B
100
AcDbEntity
  8
化粧台
  6
EXLTYPE2
 62
     6
100
AcDbLine
 10
566.5
 20
3980.0
 30
0.0
 11
1295.5
 21
3980.0
 31
0.0
  0
ARC
  5
34C
100
AcDbEntity
  8
化粧台
  6
CONTINUOUS
 62
     2
100
AcDbCircle
 10
567.5
 20
3530.0
 30
0.0
 40
10.0
100
AcDbArc
 50
180.0
 51
270.0
  0
LINE
  5
34D
100
AcDbEntity
  8
化粧台
  6
CONTINUOUS
 62
     2
100
AcDbLine
 10
557.5
 20
4005.0
 30
0.0
 11
557.5
 21
3530.0
 31
0.0
  0
LINE
  5
34E
100
AcDbEntity
  8
化粧台
  6
CONTINUOUS
 62
     2
100
AcDbLine
 10
567.5
 20
3520.0
 30
0.0
 11
631.875175
 21
3520.0
 31
0.0
  0
ARC
  5
34F
100
AcDbEntity
  8
化粧台
  6
EXLTYPE2
 62
     6
100
AcDbCircle
 10
1298.5
 20
3989.0
 30
0.0
 40
9.0
100
AcDbArc
 50
270.0
 51
337.610344
  0
ARC
  5
350
100
AcDbEntity
  8
化粧台
  6
CONTINUOUS
 62
     2
100
AcDbCircle
 10
1298.5
 20
3989.0
 30
0.0
 40
9.0
100
AcDbArc
 50
337.610344
 51
0.0
  0
LINE
  5
351
100
AcDbEntity
  8
化粧台
  6
CONTINUOUS
 62
     2
100
AcDbLine
 10
1307.5
 20
4005.0
 30
0.0
 11
1307.5
 21
3530.0
 31
0.0
  0
ARC
  5
352
100
AcDbEntity
  8
化粧台
  6
CONTINUOUS
 62
     2
100
AcDbCircle
 10
1297.5
 20
3530.0
 30
0.0
 40
10.0
100
AcDbArc
 50
270.0
 51
0.0
  0
LINE
  5
353
100
AcDbEntity
  8
化粧台
  6
CONTINUOUS
 62
     2
100
AcDbLine
 10
1233.124825
 20
3520.0
 30
0.0
 11
1297.5
 21
3520.0
 31
0.0
  0
LINE
  5
354
100
AcDbEntity
  8
化粧台
  6
EXLTYPE4
 62
     6
100
AcDbLine
 10
1307.5
 20
4005.0
 30
0.0
 11
1640.0
 21
4005.0
 31
0.0
  0
TEXT
  5
355
100
AcDbEntity
  8
化粧台
  6
CONTINUOUS
 62
     2
100
AcDbText
 10
1506.500001
 20
3945.0
 30
0.0
 40
60.0
  1
W.L.
 41
0.4125
  7
EXCADSTD
 72
     5
 11
1597.2434
 21
3945.0
 31
0.0
100
AcDbText
  0
LINE
  5
356
100
AcDbEntity
  8
化粧台
  6
EXLTYPE4
 62
     6
100
AcDbLine
 10
557.5
 20
4005.0
 30
0.0
 11
384.0
 21
4005.0
 31
0.0
  0
LINE
  5
357
100
AcDbEntity
  8
化粧台
  6
EXLTYPE3
 62
     6
100
AcDbLine
 10
932.5
 20
1652.0
 30
0.0
 11
932.5
 21
1295.0
 31
0.0
  0
LINE
  5
358
100
AcDbEntity
  8
化粧台
  6
CONTINUOUS
 62
     2
100
AcDbLine
 10
1276.0
 20
1121.0
 30
0.0
 11
589.0
 21
1121.0
 31
0.0
  0
ARC
  5
359
100
AcDbEntity
  8
化粧台
  6
CONTINUOUS
 62
     2
100
AcDbCircle
 10
569.5
 20
1817.0
 30
0.0
 40
9.0
100
AcDbArc
 50
90.0
 51
181.617102
  0
ARC
  5
35A
100
AcDbEntity
  8
化粧台
  6
CONTINUOUS
 62
     2
100
AcDbCircle
 10
571.5
 20
1639.849
 30
0.0
 40
6.0
100
AcDbArc
 50
181.617102
 51
270.0
  0
LINE
  5
35B
100
AcDbEntity
  8
化粧台
  6
CONTINUOUS
 62
     2
100
AcDbLine
 10
560.503584
 20
1816.74602
 30
0.0
 11
565.50239
 21
1639.67968
 31
0.0
  0
ARC
  5
35C
100
AcDbEntity
  8
化粧台
  6
CONTINUOUS
 62
     2
100
AcDbCircle
 10
571.004947
 20
1799.128
 30
0.0
 40
10.0
100
AcDbArc
 50
90.0
 51
181.617102
  0
ARC
  5
35D
100
AcDbEntity
  8
化粧台
  6
CONTINUOUS
 62
     2
100
AcDbCircle
 10
1295.5
 20
1817.0
 30
0.0
 40
9.0
100
AcDbArc
 50
358.382898
 51
90.0
  0
ARC
  5
35E
100
AcDbEntity
  8
化粧台
  6
CONTINUOUS
 62
     2
100
AcDbCircle
 10
1293.5
 20
1639.849
 30
0.0
 40
6.0
100
AcDbArc
 50
270.0
 51
358.382898
  0
LINE
  5
35F
100
AcDbEntity
  8
化粧台
  6
CONTINUOUS
 62
     2
100
AcDbLine
 10
1304.496416
 20
1816.74602
 30
0.0
 11
1299.49761
 21
1639.67968
 31
0.0
  0
ARC
  5
360
100
AcDbEntity
  8
化粧台
  6
CONTINUOUS
 62
     2
100
AcDbCircle
 10
1293.995053
 20
1799.128
 30
0.0
 40
10.0
100
AcDbArc
 50
358.382898
 51
90.0
  0
ARC
  5
361
100
AcDbEntity
  8
化粧台
  6
CONTINUOUS
 62
     2
100
AcDbCircle
 10
932.5
 20
3123.265667
 30
0.0
 40
1465.416667
100
AcDbArc
 50
265.695175
 51
274.304825
  0
LINE
  5
362
100
AcDbEntity
  8
化粧台
  6
CONTINUOUS
 62
     2
100
AcDbLine
 10
571.5
 20
1633.849
 30
0.0
 11
1293.5
 21
1633.849
 31
0.0
  0
LINE
  5
363
100
AcDbEntity
  8
化粧台
  6
CONTINUOUS
 62
     2
100
AcDbLine
 10
571.004947
 20
1809.128
 30
0.0
 11
644.471261
 21
1809.128
 31
0.0
  0
ARC
  5
364
100
AcDbEntity
  8
化粧台
  6
CONTINUOUS
 62
     2
100
AcDbCircle
 10
837.514401
 20
1861.418974
 30
0.0
 40
200.0
100
AcDbArc
 50
195.156406
 51
265.695175
  0
ARC
  5
365
100
AcDbEntity
  8
化粧台
  6
CONTINUOUS
 62
     2
100
AcDbCircle
 10
1027.485599
 20
1861.418974
 30
0.0
 40
200.0
100
AcDbArc
 50
274.304825
 51
344.843594
  0
LINE
  5
366
100
AcDbEntity
  8
化粧台
  6
CONTINUOUS
 62
     2
100
AcDbLine
 10
1293.995053
 20
1809.128
 30
0.0
 11
1220.528739
 21
1809.128
 31
0.0
  0
LINE
  5
367
100
AcDbEntity
  8
化粧台
  6
CONTINUOUS
 62
     2
100
AcDbLine
 10
1119.0399
 20
1802.663506
 30
0.0
 11
745.9601
 21
1802.663506
 31
0.0
  0
ARC
  5
368
100
AcDbEntity
  8
化粧台
  6
CONTINUOUS
 62
     2
100
AcDbCircle
 10
932.5
 20
5531.123067
 30
0.0
 40
3733.123067
100
AcDbArc
 50
265.574952
 51
274.425048
  0
LINE
  5
369
100
AcDbEntity
  8
化粧台
  6
CONTINUOUS
 62
     2
100
AcDbLine
 10
589.0
 20
1633.849
 30
0.0
 11
589.0
 21
1618.0
 31
0.0
  0
LINE
  5
36A
100
AcDbEntity
  8
化粧台
  6
CONTINUOUS
 62
     2
100
AcDbLine
 10
1276.0
 20
1633.849
 30
0.0
 11
1276.0
 21
1618.0
 31
0.0
  0
ARC
  5
36B
100
AcDbEntity
  8
化粧台
  6
EXLTYPE2
 62
     6
100
AcDbCircle
 10
817.724364
 20
1711.987035
 30
0.0
 40
100.0
100
AcDbArc
 50
231.387133
 51
257.03425
  0
ARC
  5
36C
100
AcDbEntity
  8
化粧台
  6
EXLTYPE2
 62
     6
100
AcDbCircle
 10
1021.89975
 20
2598.786004
 30
0.0
 40
1010.0
100
AcDbArc
 50
257.03425
 51
261.745346
  0
ARC
  5
36D
100
AcDbEntity
  8
化粧台
  6
EXLTYPE2
 62
     6
100
AcDbCircle
 10
875.455288
 20
1589.353481
 30
0.0
 40
10.0
100
AcDbArc
 50
12.528808
 51
81.745346
  0
LINE
  5
36E
100
AcDbEntity
  8
化粧台
  6
EXLTYPE2
 62
     6
100
AcDbLine
 10
885.217159
 20
1591.522785
 30
0.0
 11
891.129923
 21
1564.915348
 31
0.0
  0
ARC
  5
36F
100
AcDbEntity
  8
化粧台
  6
EXLTYPE2
 62
     6
100
AcDbCircle
 10
896.010858
 20
1566.0
 30
0.0
 40
5.0
100
AcDbArc
 50
192.528808
 51
270.0
  0
LINE
  5
370
100
AcDbEntity
  8
化粧台
  6
EXLTYPE2
 62
     6
100
AcDbLine
 10
896.010858
 20
1561.0
 30
0.0
 11
968.989142
 21
1561.0
 31
0.0
  0
ARC
  5
371
100
AcDbEntity
  8
化粧台
  6
EXLTYPE2
 62
     6
100
AcDbCircle
 10
968.989142
 20
1566.0
 30
0.0
 40
5.0
100
AcDbArc
 50
270.0
 51
347.471192
  0
LINE
  5
372
100
AcDbEntity
  8
化粧台
  6
EXLTYPE2
 62
     6
100
AcDbLine
 10
979.782841
 20
1591.522785
 30
0.0
 11
973.870077
 21
1564.915348
 31
0.0
  0
ARC
  5
373
100
AcDbEntity
  8
化粧台
  6
EXLTYPE2
 62
     6
100
AcDbCircle
 10
989.544712
 20
1589.353481
 30
0.0
 40
10.0
100
AcDbArc
 50
98.254654
 51
167.471192
  0
ARC
  5
374
100
AcDbEntity
  8
化粧台
  6
EXLTYPE2
 62
     6
100
AcDbCircle
 10
843.10025
 20
2598.786004
 30
0.0
 40
1010.0
100
AcDbArc
 50
278.254654
 51
282.96575
  0
LINE
  5
375
100
AcDbEntity
  8
化粧台
  6
CONTINUOUS
 62
     6
100
AcDbLine
 10
675.0
 20
1541.0
 30
0.0
 11
650.0
 21
1541.0
 31
0.0
  0
LINE
  5
376
100
AcDbEntity
  8
化粧台
  6
CONTINUOUS
 62
     6
100
AcDbLine
 10
662.5
 20
1553.5
 30
0.0
 11
662.5
 21
1528.5
 31
0.0
  0
CIRCLE
  5
377
100
AcDbEntity
  8
化粧台
  6
EXLTYPE2
 62
     6
100
AcDbCircle
 10
662.5
 20
1541.0
 30
0.0
 40
7.5
  0
LINE
  5
378
100
AcDbEntity
  8
化粧台
  6
CONTINUOUS
 62
     6
100
AcDbLine
 10
1190.0
 20
1541.0
 30
0.0
 11
1215.0
 21
1541.0
 31
0.0
  0
LINE
  5
379
100
AcDbEntity
  8
化粧台
  6
CONTINUOUS
 62
     6
100
AcDbLine
 10
1202.5
 20
1553.5
 30
0.0
 11
1202.5
 21
1528.5
 31
0.0
  0
CIRCLE
  5
37A
100
AcDbEntity
  8
化粧台
  6
EXLTYPE2
 62
     6
100
AcDbCircle
 10
1202.5
 20
1541.0
 30
0.0
 40
7.5
  0
LINE
  5
37B
100
AcDbEntity
  8
化粧台
  6
CONTINUOUS
 62
     2
100
AcDbLine
 10
1287.5
 20
1126.0
 30
0.0
 11
933.5
 21
1126.0
 31
0.0
  0
LINE
  5
37C
100
AcDbEntity
  8
化粧台
  6
CONTINUOUS
 62
     6
100
AcDbLine
 10
918.5
 20
1025.207107
 30
0.0
 11
946.5
 21
1025.207107
 31
0.0
  0
LINE
  5
37D
100
AcDbEntity
  8
化粧台
  6
CONTINUOUS
 62
     6
100
AcDbLine
 10
918.5
 20
1020.207107
 30
0.0
 11
946.5
 21
1020.207107
 31
0.0
  0
LINE
  5
37E
100
AcDbEntity
  8
化粧台
  6
CONTINUOUS
 62
     6
100
AcDbLine
 10
918.5
 20
1015.207107
 30
0.0
 11
946.5
 21
1015.207107
 31
0.0
  0
LINE
  5
37F
100
AcDbEntity
  8
化粧台
  6
CONTINUOUS
 62
     6
100
AcDbLine
 10
932.5
 20
1205.207107
 30
0.0
 11
946.5
 21
1205.207107
 31
0.0
  0
LINE
  5
380
100
AcDbEntity
  8
化粧台
  6
CONTINUOUS
 62
     6
100
AcDbLine
 10
918.5
 20
1200.207107
 30
0.0
 11
932.5
 21
1200.207107
 31
0.0
  0
LINE
  5
381
100
AcDbEntity
  8
化粧台
  6
CONTINUOUS
 62
     6
100
AcDbLine
 10
932.5
 20
1195.207107
 30
0.0
 11
946.5
 21
1195.207107
 31
0.0
  0
LINE
  5
382
100
AcDbEntity
  8
化粧台
  6
CONTINUOUS
 62
     6
100
AcDbLine
 10
918.5
 20
1190.207107
 30
0.0
 11
932.5
 21
1190.207107
 31
0.0
  0
LINE
  5
383
100
AcDbEntity
  8
化粧台
  6
CONTINUOUS
 62
     6
100
AcDbLine
 10
932.5
 20
1185.207107
 30
0.0
 11
946.5
 21
1185.207107
 31
0.0
  0
LINE
  5
384
100
AcDbEntity
  8
化粧台
  6
CONTINUOUS
 62
     6
100
AcDbLine
 10
918.5
 20
1180.207107
 30
0.0
 11
932.5
 21
1180.207107
 31
0.0
  0
LINE
  5
385
100
AcDbEntity
  8
化粧台
  6
CONTINUOUS
 62
     6
100
AcDbLine
 10
932.5
 20
1175.207107
 30
0.0
 11
946.5
 21
1175.207107
 31
0.0
  0
LINE
  5
386
100
AcDbEntity
  8
化粧台
  6
CONTINUOUS
 62
     6
100
AcDbLine
 10
918.5
 20
1170.207107
 30
0.0
 11
932.5
 21
1170.207107
 31
0.0
  0
LINE
  5
387
100
AcDbEntity
  8
化粧台
  6
CONTINUOUS
 62
     6
100
AcDbLine
 10
932.5
 20
1165.207107
 30
0.0
 11
946.5
 21
1165.207107
 31
0.0
  0
LINE
  5
388
100
AcDbEntity
  8
化粧台
  6
CONTINUOUS
 62
     6
100
AcDbLine
 10
918.5
 20
1160.207107
 30
0.0
 11
932.5
 21
1160.207107
 31
0.0
  0
LINE
  5
389
100
AcDbEntity
  8
化粧台
  6
CONTINUOUS
 62
     6
100
AcDbLine
 10
932.5
 20
1155.207107
 30
0.0
 11
946.5
 21
1155.207107
 31
0.0
  0
LINE
  5
38A
100
AcDbEntity
  8
化粧台
  6
CONTINUOUS
 62
     6
100
AcDbLine
 10
918.5
 20
1150.207107
 30
0.0
 11
932.5
 21
1150.207107
 31
0.0
  0
LINE
  5
38B
100
AcDbEntity
  8
化粧台
  6
CONTINUOUS
 62
     6
100
AcDbLine
 10
932.5
 20
1145.207107
 30
0.0
 11
946.5
 21
1145.207107
 31
0.0
  0
LINE
  5
38C
100
AcDbEntity
  8
化粧台
  6
CONTINUOUS
 62
     6
100
AcDbLine
 10
918.5
 20
1140.207107
 30
0.0
 11
932.5
 21
1140.207107
 31
0.0
  0
LINE
  5
38D
100
AcDbEntity
  8
化粧台
  6
CONTINUOUS
 62
     6
100
AcDbLine
 10
932.5
 20
1135.207107
 30
0.0
 11
946.5
 21
1135.207107
 31
0.0
  0
LINE
  5
38E
100
AcDbEntity
  8
化粧台
  6
CONTINUOUS
 62
     6
100
AcDbLine
 10
918.5
 20
1130.207107
 30
0.0
 11
932.5
 21
1130.207107
 31
0.0
  0
LINE
  5
38F
100
AcDbEntity
  8
化粧台
  6
CONTINUOUS
 62
     6
100
AcDbLine
 10
932.5
 20
1125.207107
 30
0.0
 11
946.5
 21
1125.207107
 31
0.0
  0
LINE
  5
390
100
AcDbEntity
  8
化粧台
  6
CONTINUOUS
 62
     6
100
AcDbLine
 10
918.5
 20
1120.207107
 30
0.0
 11
932.5
 21
1120.207107
 31
0.0
  0
LINE
  5
391
100
AcDbEntity
  8
化粧台
  6
CONTINUOUS
 62
     6
100
AcDbLine
 10
932.5
 20
1115.207107
 30
0.0
 11
946.5
 21
1115.207107
 31
0.0
  0
LINE
  5
392
100
AcDbEntity
  8
化粧台
  6
CONTINUOUS
 62
     6
100
AcDbLine
 10
918.5
 20
1110.207107
 30
0.0
 11
932.5
 21
1110.207107
 31
0.0
  0
LINE
  5
393
100
AcDbEntity
  8
化粧台
  6
CONTINUOUS
 62
     6
100
AcDbLine
 10
932.5
 20
1105.207107
 30
0.0
 11
946.5
 21
1105.207107
 31
0.0
  0
LINE
  5
394
100
AcDbEntity
  8
化粧台
  6
CONTINUOUS
 62
     6
100
AcDbLine
 10
918.5
 20
1100.207107
 30
0.0
 11
932.5
 21
1100.207107
 31
0.0
  0
LINE
  5
395
100
AcDbEntity
  8
化粧台
  6
CONTINUOUS
 62
     6
100
AcDbLine
 10
932.5
 20
1095.207107
 30
0.0
 11
946.5
 21
1095.207107
 31
0.0
  0
LINE
  5
396
100
AcDbEntity
  8
化粧台
  6
CONTINUOUS
 62
     6
100
AcDbLine
 10
918.5
 20
1090.207107
 30
0.0
 11
932.5
 21
1090.207107
 31
0.0
  0
LINE
  5
397
100
AcDbEntity
  8
化粧台
  6
CONTINUOUS
 62
     6
100
AcDbLine
 10
932.5
 20
1085.207107
 30
0.0
 11
946.5
 21
1085.207107
 31
0.0
  0
LINE
  5
398
100
AcDbEntity
  8
化粧台
  6
CONTINUOUS
 62
     6
100
AcDbLine
 10
918.5
 20
1080.207107
 30
0.0
 11
932.5
 21
1080.207107
 31
0.0
  0
LINE
  5
399
100
AcDbEntity
  8
化粧台
  6
CONTINUOUS
 62
     6
100
AcDbLine
 10
932.5
 20
1075.207107
 30
0.0
 11
946.5
 21
1075.207107
 31
0.0
  0
LINE
  5
39A
100
AcDbEntity
  8
化粧台
  6
CONTINUOUS
 62
     6
100
AcDbLine
 10
918.5
 20
1070.207107
 30
0.0
 11
932.5
 21
1070.207107
 31
0.0
  0
LINE
  5
39B
100
AcDbEntity
  8
化粧台
  6
CONTINUOUS
 62
     6
100
AcDbLine
 10
932.5
 20
1065.207107
 30
0.0
 11
946.5
 21
1065.207107
 31
0.0
  0
LINE
  5
39C
100
AcDbEntity
  8
化粧台
  6
CONTINUOUS
 62
     6
100
AcDbLine
 10
918.5
 20
1060.207107
 30
0.0
 11
932.5
 21
1060.207107
 31
0.0
  0
LINE
  5
39D
100
AcDbEntity
  8
化粧台
  6
CONTINUOUS
 62
     6
100
AcDbLine
 10
932.5
 20
1055.207107
 30
0.0
 11
946.5
 21
1055.207107
 31
0.0
  0
LINE
  5
39E
100
AcDbEntity
  8
化粧台
  6
CONTINUOUS
 62
     6
100
AcDbLine
 10
918.5
 20
1050.207107
 30
0.0
 11
932.5
 21
1050.207107
 31
0.0
  0
LINE
  5
39F
100
AcDbEntity
  8
化粧台
  6
CONTINUOUS
 62
     6
100
AcDbLine
 10
932.5
 20
1045.207107
 30
0.0
 11
946.5
 21
1045.207107
 31
0.0
  0
LINE
  5
3A0
100
AcDbEntity
  8
化粧台
  6
CONTINUOUS
 62
     6
100
AcDbLine
 10
918.5
 20
1040.207107
 30
0.0
 11
932.5
 21
1040.207107
 31
0.0
  0
LINE
  5
3A1
100
AcDbEntity
  8
化粧台
  6
CONTINUOUS
 62
     6
100
AcDbLine
 10
932.5
 20
1035.207107
 30
0.0
 11
946.5
 21
1035.207107
 31
0.0
  0
LINE
  5
3A2
100
AcDbEntity
  8
化粧台
  6
CONTINUOUS
 62
     6
100
AcDbLine
 10
918.5
 20
1030.207107
 30
0.0
 11
932.5
 21
1030.207107
 31
0.0
  0
LINE
  5
3A3
100
AcDbEntity
  8
化粧台
  6
CONTINUOUS
 62
     6
100
AcDbLine
 10
916.65
 20
895.207107
 30
0.0
 11
948.35
 21
895.207107
 31
0.0
  0
LINE
  5
3A4
100
AcDbEntity
  8
化粧台
  6
CONTINUOUS
 62
     6
100
AcDbLine
 10
916.65
 20
995.207107
 30
0.0
 11
916.65
 21
895.207107
 31
0.0
  0
LINE
  5
3A5
100
AcDbEntity
  8
化粧台
  6
CONTINUOUS
 62
     6
100
AcDbLine
 10
948.35
 20
895.207107
 30
0.0
 11
948.35
 21
995.207107
 31
0.0
  0
LINE
  5
3A6
100
AcDbEntity
  8
化粧台
  6
CONTINUOUS
 62
     6
100
AcDbLine
 10
916.65
 20
995.207107
 30
0.0
 11
948.35
 21
995.207107
 31
0.0
  0
LINE
  5
3A7
100
AcDbEntity
  8
化粧台
  6
CONTINUOUS
 62
     6
100
AcDbLine
 10
918.5
 20
1010.207107
 30
0.0
 11
946.5
 21
1010.207107
 31
0.0
  0
LINE
  5
3A8
100
AcDbEntity
  8
化粧台
  6
CONTINUOUS
 62
     6
100
AcDbLine
 10
918.5
 20
1005.207107
 30
0.0
 11
946.5
 21
1005.207107
 31
0.0
  0
LINE
  5
3A9
100
AcDbEntity
  8
化粧台
  6
CONTINUOUS
 62
     6
100
AcDbLine
 10
918.5
 20
1000.207107
 30
0.0
 11
946.5
 21
1000.207107
 31
0.0
  0
LINE
  5
3AA
100
AcDbEntity
  8
化粧台
  6
CONTINUOUS
 62
     6
100
AcDbLine
 10
959.5
 20
1060.3
 30
0.0
 11
959.5
 21
1056.5
 31
0.0
  0
LINE
  5
3AB
100
AcDbEntity
  8
化粧台
  6
CONTINUOUS
 62
     6
100
AcDbLine
 10
905.5
 20
1063.5
 30
0.0
 11
905.5
 21
1059.9
 31
0.0
  0
LINE
  5
3AC
100
AcDbEntity
  8
化粧台
  6
CONTINUOUS
 62
     6
100
AcDbLine
 10
965.5
 20
1042.5
 30
0.0
 11
965.5
 21
1036.0
 31
0.0
  0
LINE
  5
3AD
100
AcDbEntity
  8
化粧台
  6
CONTINUOUS
 62
     6
100
AcDbLine
 10
899.5
 20
1051.5
 30
0.0
 11
899.5
 21
1043.9
 31
0.0
  0
LINE
  5
3AE
100
AcDbEntity
  8
化粧台
  6
EXLTYPE2
 62
     6
100
AcDbLine
 10
899.5
 20
1036.0
 30
0.0
 11
965.5
 21
1036.0
 31
0.0
  0
LINE
  5
3AF
100
AcDbEntity
  8
化粧台
  6
EXLTYPE2
 62
     6
100
AcDbLine
 10
902.0
 20
1054.0
 30
0.0
 11
963.0
 21
1054.0
 31
0.0
  0
LINE
  5
3B0
100
AcDbEntity
  8
化粧台
  6
EXLTYPE2
 62
     6
100
AcDbLine
 10
908.0
 20
1066.0
 30
0.0
 11
957.0
 21
1066.0
 31
0.0
  0
ARC
  5
3B1
100
AcDbEntity
  8
化粧台
  6
CONTINUOUS
 62
     6
100
AcDbCircle
 10
962.0
 20
1056.5
 30
0.0
 40
2.5
100
AcDbArc
 50
180.0
 51
270.0
  0
ARC
  5
3B2
100
AcDbEntity
  8
化粧台
  6
CONTINUOUS
 62
     6
100
AcDbCircle
 10
903.0
 20
1056.5
 30
0.0
 40
2.5
100
AcDbArc
 50
270.0
 51
0.0
  0
ARC
  5
3B3
100
AcDbEntity
  8
化粧台
  6
CONTINUOUS
 62
     6
100
AcDbCircle
 10
963.0
 20
1051.5
 30
0.0
 40
2.5
100
AcDbArc
 50
0.0
 51
90.0
  0
ARC
  5
3B4
100
AcDbEntity
  8
化粧台
  6
CONTINUOUS
 62
     6
100
AcDbCircle
 10
957.0
 20
1063.5
 30
0.0
 40
2.5
100
AcDbArc
 50
0.0
 51
90.0
  0
ARC
  5
3B5
100
AcDbEntity
  8
化粧台
  6
CONTINUOUS
 62
     6
100
AcDbCircle
 10
908.0
 20
1063.5
 30
0.0
 40
2.5
100
AcDbArc
 50
90.0
 51
180.0
  0
ARC
  5
3B6
100
AcDbEntity
  8
化粧台
  6
CONTINUOUS
 62
     6
100
AcDbCircle
 10
902.0
 20
1051.5
 30
0.0
 40
2.5
100
AcDbArc
 50
90.0
 51
180.0
  0
POLYLINE
  5
3B7
100
AcDbEntity
  8
化粧台
  6
CONTINUOUS
 62
     6
100
AcDb2dPolyline
 66
     1
 10
0.0
 20
0.0
 30
0.0
 70
   128
  0
VERTEX
  5
3B8
100
AcDbEntity
  8
化粧台
  6
CONTINUOUS
 62
     6
100
AcDbVertex
100
AcDb2dVertex
 10
916.65
 20
995.207107
 30
0.0
  0
VERTEX
  5
3B9
100
AcDbEntity
  8
化粧台
  6
CONTINUOUS
 62
     6
100
AcDbVertex
100
AcDb2dVertex
 10
915.0
 20
997.707107
 30
0.0
  0
VERTEX
  5
3BA
100
AcDbEntity
  8
化粧台
  6
CONTINUOUS
 62
     6
100
AcDbVertex
100
AcDb2dVertex
 10
918.5
 20
1000.207107
 30
0.0
  0
VERTEX
  5
3BB
100
AcDbEntity
  8
化粧台
  6
CONTINUOUS
 62
     6
100
AcDbVertex
100
AcDb2dVertex
 10
915.0
 20
1002.707107
 30
0.0
  0
VERTEX
  5
3BC
100
AcDbEntity
  8
化粧台
  6
CONTINUOUS
 62
     6
100
AcDbVertex
100
AcDb2dVertex
 10
918.5
 20
1005.207107
 30
0.0
  0
VERTEX
  5
3BD
100
AcDbEntity
  8
化粧台
  6
CONTINUOUS
 62
     6
100
AcDbVertex
100
AcDb2dVertex
 10
915.0
 20
1007.707107
 30
0.0
  0
VERTEX
  5
3BE
100
AcDbEntity
  8
化粧台
  6
CONTINUOUS
 62
     6
100
AcDbVertex
100
AcDb2dVertex
 10
918.5
 20
1010.207107
 30
0.0
  0
VERTEX
  5
3BF
100
AcDbEntity
  8
化粧台
  6
CONTINUOUS
 62
     6
100
AcDbVertex
100
AcDb2dVertex
 10
915.0
 20
1012.707107
 30
0.0
  0
VERTEX
  5
3C0
100
AcDbEntity
  8
化粧台
  6
CONTINUOUS
 62
     6
100
AcDbVertex
100
AcDb2dVertex
 10
918.5
 20
1015.207107
 30
0.0
  0
VERTEX
  5
3C1
100
AcDbEntity
  8
化粧台
  6
CONTINUOUS
 62
     6
100
AcDbVertex
100
AcDb2dVertex
 10
915.0
 20
1017.707107
 30
0.0
  0
VERTEX
  5
3C2
100
AcDbEntity
  8
化粧台
  6
CONTINUOUS
 62
     6
100
AcDbVertex
100
AcDb2dVertex
 10
918.5
 20
1020.207107
 30
0.0
  0
VERTEX
  5
3C3
100
AcDbEntity
  8
化粧台
  6
CONTINUOUS
 62
     6
100
AcDbVertex
100
AcDb2dVertex
 10
915.0
 20
1022.707107
 30
0.0
  0
VERTEX
  5
3C4
100
AcDbEntity
  8
化粧台
  6
CONTINUOUS
 62
     6
100
AcDbVertex
100
AcDb2dVertex
 10
918.5
 20
1025.207107
 30
0.0
  0
VERTEX
  5
3C5
100
AcDbEntity
  8
化粧台
  6
CONTINUOUS
 62
     6
100
AcDbVertex
100
AcDb2dVertex
 10
915.0
 20
1027.707107
 30
0.0
  0
VERTEX
  5
3C6
100
AcDbEntity
  8
化粧台
  6
CONTINUOUS
 62
     6
100
AcDbVertex
100
AcDb2dVertex
 10
918.5
 20
1030.207107
 30
0.0
  0
VERTEX
  5
3C7
100
AcDbEntity
  8
化粧台
  6
CONTINUOUS
 62
     6
100
AcDbVertex
100
AcDb2dVertex
 10
917.389949
 20
1031.0
 30
0.0
  0
SEQEND
  5
3C8
100
AcDbEntity
  8
化粧台
  6
CONTINUOUS
 62
     6
  0
POLYLINE
  5
3C9
100
AcDbEntity
  8
化粧台
  6
CONTINUOUS
 62
     6
100
AcDb2dPolyline
 66
     1
 10
0.0
 20
0.0
 30
0.0
 70
   128
  0
VERTEX
  5
3CA
100
AcDbEntity
  8
化粧台
  6
CONTINUOUS
 62
     6
100
AcDbVertex
100
AcDb2dVertex
 10
948.35
 20
995.207107
 30
0.0
  0
VERTEX
  5
3CB
100
AcDbEntity
  8
化粧台
  6
CONTINUOUS
 62
     6
100
AcDbVertex
100
AcDb2dVertex
 10
950.0
 20
997.707107
 30
0.0
  0
VERTEX
  5
3CC
100
AcDbEntity
  8
化粧台
  6
CONTINUOUS
 62
     6
100
AcDbVertex
100
AcDb2dVertex
 10
946.5
 20
1000.207107
 30
0.0
  0
VERTEX
  5
3CD
100
AcDbEntity
  8
化粧台
  6
CONTINUOUS
 62
     6
100
AcDbVertex
100
AcDb2dVertex
 10
950.0
 20
1002.707107
 30
0.0
  0
VERTEX
  5
3CE
100
AcDbEntity
  8
化粧台
  6
CONTINUOUS
 62
     6
100
AcDbVertex
100
AcDb2dVertex
 10
946.5
 20
1005.207107
 30
0.0
  0
VERTEX
  5
3CF
100
AcDbEntity
  8
化粧台
  6
CONTINUOUS
 62
     6
100
AcDbVertex
100
AcDb2dVertex
 10
950.0
 20
1007.707107
 30
0.0
  0
VERTEX
  5
3D0
100
AcDbEntity
  8
化粧台
  6
CONTINUOUS
 62
     6
100
AcDbVertex
100
AcDb2dVertex
 10
946.5
 20
1010.207107
 30
0.0
  0
VERTEX
  5
3D1
100
AcDbEntity
  8
化粧台
  6
CONTINUOUS
 62
     6
100
AcDbVertex
100
AcDb2dVertex
 10
950.0
 20
1012.707107
 30
0.0
  0
VERTEX
  5
3D2
100
AcDbEntity
  8
化粧台
  6
CONTINUOUS
 62
     6
100
AcDbVertex
100
AcDb2dVertex
 10
946.5
 20
1015.207107
 30
0.0
  0
VERTEX
  5
3D3
100
AcDbEntity
  8
化粧台
  6
CONTINUOUS
 62
     6
100
AcDbVertex
100
AcDb2dVertex
 10
950.0
 20
1017.707107
 30
0.0
  0
VERTEX
  5
3D4
100
AcDbEntity
  8
化粧台
  6
CONTINUOUS
 62
     6
100
AcDbVertex
100
AcDb2dVertex
 10
946.5
 20
1020.207107
 30
0.0
  0
VERTEX
  5
3D5
100
AcDbEntity
  8
化粧台
  6
CONTINUOUS
 62
     6
100
AcDbVertex
100
AcDb2dVertex
 10
950.0
 20
1022.707107
 30
0.0
  0
VERTEX
  5
3D6
100
AcDbEntity
  8
化粧台
  6
CONTINUOUS
 62
     6
100
AcDbVertex
100
AcDb2dVertex
 10
946.5
 20
1025.207107
 30
0.0
  0
VERTEX
  5
3D7
100
AcDbEntity
  8
化粧台
  6
CONTINUOUS
 62
     6
100
AcDbVertex
100
AcDb2dVertex
 10
950.0
 20
1027.707107
 30
0.0
  0
VERTEX
  5
3D8
100
AcDbEntity
  8
化粧台
  6
CONTINUOUS
 62
     6
100
AcDbVertex
100
AcDb2dVertex
 10
946.5
 20
1030.207107
 30
0.0
  0
VERTEX
  5
3D9
100
AcDbEntity
  8
化粧台
  6
CONTINUOUS
 62
     6
100
AcDbVertex
100
AcDb2dVertex
 10
947.610051
 20
1031.0
 30
0.0
  0
SEQEND
  5
3DA
100
AcDbEntity
  8
化粧台
  6
CONTINUOUS
 62
     6
  0
LINE
  5
3DB
100
AcDbEntity
  8
化粧台
  6
EXLTYPE2
 62
     6
100
AcDbLine
 10
665.844754
 20
1138.5
 30
0.0
 11
912.155246
 21
1138.5
 31
0.0
  0
LINE
  5
3DC
100
AcDbEntity
  8
化粧台
  6
EXLTYPE2
 62
     6
100
AcDbLine
 10
914.0
 20
1173.7
 30
0.0
 11
912.155246
 21
1138.5
 31
0.0
  0
LINE
  5
3DD
100
AcDbEntity
  8
化粧台
  6
EXLTYPE2
 62
     6
100
AcDbLine
 10
664.0
 20
1173.7
 30
0.0
 11
914.0
 21
1173.7
 31
0.0
  0
LINE
  5
3DE
100
AcDbEntity
  8
化粧台
  6
EXLTYPE2
 62
     6
100
AcDbLine
 10
664.0
 20
1173.7
 30
0.0
 11
665.844754
 21
1138.5
 31
0.0
  0
LINE
  5
3DF
100
AcDbEntity
  8
化粧台
  6
CONTINUOUS
 62
     6
100
AcDbLine
 10
918.5
 20
1340.207107
 30
0.0
 11
932.5
 21
1340.207107
 31
0.0
  0
LINE
  5
3E0
100
AcDbEntity
  8
化粧台
  6
CONTINUOUS
 62
     6
100
AcDbLine
 10
932.5
 20
1335.207107
 30
0.0
 11
946.5
 21
1335.207107
 31
0.0
  0
LINE
  5
3E1
100
AcDbEntity
  8
化粧台
  6
CONTINUOUS
 62
     6
100
AcDbLine
 10
918.5
 20
1330.207107
 30
0.0
 11
932.5
 21
1330.207107
 31
0.0
  0
LINE
  5
3E2
100
AcDbEntity
  8
化粧台
  6
CONTINUOUS
 62
     6
100
AcDbLine
 10
932.5
 20
1325.207107
 30
0.0
 11
946.5
 21
1325.207107
 31
0.0
  0
LINE
  5
3E3
100
AcDbEntity
  8
化粧台
  6
CONTINUOUS
 62
     6
100
AcDbLine
 10
918.5
 20
1320.207107
 30
0.0
 11
932.5
 21
1320.207107
 31
0.0
  0
LINE
  5
3E4
100
AcDbEntity
  8
化粧台
  6
CONTINUOUS
 62
     6
100
AcDbLine
 10
932.5
 20
1315.207107
 30
0.0
 11
946.5
 21
1315.207107
 31
0.0
  0
LINE
  5
3E5
100
AcDbEntity
  8
化粧台
  6
CONTINUOUS
 62
     6
100
AcDbLine
 10
918.5
 20
1310.207107
 30
0.0
 11
932.5
 21
1310.207107
 31
0.0
  0
LINE
  5
3E6
100
AcDbEntity
  8
化粧台
  6
CONTINUOUS
 62
     6
100
AcDbLine
 10
932.5
 20
1305.207107
 30
0.0
 11
946.5
 21
1305.207107
 31
0.0
  0
LINE
  5
3E7
100
AcDbEntity
  8
化粧台
  6
CONTINUOUS
 62
     6
100
AcDbLine
 10
918.5
 20
1300.207107
 30
0.0
 11
932.5
 21
1300.207107
 31
0.0
  0
LINE
  5
3E8
100
AcDbEntity
  8
化粧台
  6
CONTINUOUS
 62
     6
100
AcDbLine
 10
932.5
 20
1295.207107
 30
0.0
 11
946.5
 21
1295.207107
 31
0.0
  0
LINE
  5
3E9
100
AcDbEntity
  8
化粧台
  6
CONTINUOUS
 62
     6
100
AcDbLine
 10
918.5
 20
1290.207107
 30
0.0
 11
932.5
 21
1290.207107
 31
0.0
  0
LINE
  5
3EA
100
AcDbEntity
  8
化粧台
  6
CONTINUOUS
 62
     6
100
AcDbLine
 10
932.5
 20
1285.207107
 30
0.0
 11
946.5
 21
1285.207107
 31
0.0
  0
LINE
  5
3EB
100
AcDbEntity
  8
化粧台
  6
CONTINUOUS
 62
     6
100
AcDbLine
 10
918.5
 20
1280.207107
 30
0.0
 11
932.5
 21
1280.207107
 31
0.0
  0
LINE
  5
3EC
100
AcDbEntity
  8
化粧台
  6
CONTINUOUS
 62
     6
100
AcDbLine
 10
932.5
 20
1275.207107
 30
0.0
 11
946.5
 21
1275.207107
 31
0.0
  0
LINE
  5
3ED
100
AcDbEntity
  8
化粧台
  6
CONTINUOUS
 62
     6
100
AcDbLine
 10
918.5
 20
1270.207107
 30
0.0
 11
932.5
 21
1270.207107
 31
0.0
  0
LINE
  5
3EE
100
AcDbEntity
  8
化粧台
  6
CONTINUOUS
 62
     6
100
AcDbLine
 10
932.5
 20
1265.207107
 30
0.0
 11
946.5
 21
1265.207107
 31
0.0
  0
LINE
  5
3EF
100
AcDbEntity
  8
化粧台
  6
CONTINUOUS
 62
     6
100
AcDbLine
 10
918.5
 20
1260.207107
 30
0.0
 11
932.5
 21
1260.207107
 31
0.0
  0
LINE
  5
3F0
100
AcDbEntity
  8
化粧台
  6
CONTINUOUS
 62
     6
100
AcDbLine
 10
932.5
 20
1255.207107
 30
0.0
 11
946.5
 21
1255.207107
 31
0.0
  0
LINE
  5
3F1
100
AcDbEntity
  8
化粧台
  6
CONTINUOUS
 62
     6
100
AcDbLine
 10
918.5
 20
1250.207107
 30
0.0
 11
932.5
 21
1250.207107
 31
0.0
  0
LINE
  5
3F2
100
AcDbEntity
  8
化粧台
  6
CONTINUOUS
 62
     6
100
AcDbLine
 10
932.5
 20
1245.207107
 30
0.0
 11
946.5
 21
1245.207107
 31
0.0
  0
LINE
  5
3F3
100
AcDbEntity
  8
化粧台
  6
CONTINUOUS
 62
     6
100
AcDbLine
 10
918.5
 20
1240.207107
 30
0.0
 11
932.5
 21
1240.207107
 31
0.0
  0
LINE
  5
3F4
100
AcDbEntity
  8
化粧台
  6
CONTINUOUS
 62
     6
100
AcDbLine
 10
932.5
 20
1235.207107
 30
0.0
 11
946.5
 21
1235.207107
 31
0.0
  0
LINE
  5
3F5
100
AcDbEntity
  8
化粧台
  6
CONTINUOUS
 62
     6
100
AcDbLine
 10
918.5
 20
1230.207107
 30
0.0
 11
932.5
 21
1230.207107
 31
0.0
  0
LINE
  5
3F6
100
AcDbEntity
  8
化粧台
  6
CONTINUOUS
 62
     6
100
AcDbLine
 10
932.5
 20
1225.207107
 30
0.0
 11
946.5
 21
1225.207107
 31
0.0
  0
LINE
  5
3F7
100
AcDbEntity
  8
化粧台
  6
CONTINUOUS
 62
     6
100
AcDbLine
 10
918.5
 20
1220.207107
 30
0.0
 11
932.5
 21
1220.207107
 31
0.0
  0
LINE
  5
3F8
100
AcDbEntity
  8
化粧台
  6
CONTINUOUS
 62
     6
100
AcDbLine
 10
932.5
 20
1215.207107
 30
0.0
 11
946.5
 21
1215.207107
 31
0.0
  0
LINE
  5
3F9
100
AcDbEntity
  8
化粧台
  6
CONTINUOUS
 62
     6
100
AcDbLine
 10
918.5
 20
1210.207107
 30
0.0
 11
932.5
 21
1210.207107
 31
0.0
  0
LINE
  5
3FA
100
AcDbEntity
  8
化粧台
  6
CONTINUOUS
 62
     6
100
AcDbLine
 10
939.309939
 20
1385.207107
 30
0.0
 11
946.5
 21
1385.207107
 31
0.0
  0
LINE
  5
3FB
100
AcDbEntity
  8
化粧台
  6
CONTINUOUS
 62
     6
100
AcDbLine
 10
928.478873
 20
1375.207107
 30
0.0
 11
946.5
 21
1375.207107
 31
0.0
  0
LINE
  5
3FC
100
AcDbEntity
  8
化粧台
  6
CONTINUOUS
 62
     6
100
AcDbLine
 10
931.978873
 20
1365.207107
 30
0.0
 11
946.5
 21
1365.207107
 31
0.0
  0
LINE
  5
3FD
100
AcDbEntity
  8
化粧台
  6
CONTINUOUS
 62
     6
100
AcDbLine
 10
931.978873
 20
1355.207107
 30
0.0
 11
946.5
 21
1355.207107
 31
0.0
  0
LINE
  5
3FE
100
AcDbEntity
  8
化粧台
  6
EXLTYPE2
 62
     6
100
AcDbLine
 10
914.0
 20
1476.207107
 30
0.0
 11
914.0
 21
1441.207107
 31
0.0
  0
LINE
  5
3FF
100
AcDbEntity
  8
化粧台
  6
EXLTYPE2
 62
     6
100
AcDbLine
 10
951.0
 20
1476.207107
 30
0.0
 11
951.0
 21
1441.207107
 31
0.0
  0
LINE
  5
400
100
AcDbEntity
  8
化粧台
  6
EXLTYPE2
 62
     6
100
AcDbLine
 10
951.0
 20
1441.207107
 30
0.0
 11
948.35
 21
1438.557107
 31
0.0
  0
LINE
  5
401
100
AcDbEntity
  8
化粧台
  6
EXLTYPE2
 62
     6
100
AcDbLine
 10
909.1
 20
1476.207107
 30
0.0
 11
955.9
 21
1476.207107
 31
0.0
  0
LINE
  5
402
100
AcDbEntity
  8
化粧台
  6
EXLTYPE2
 62
     6
100
AcDbLine
 10
911.1
 20
1494.207107
 30
0.0
 11
953.9
 21
1494.207107
 31
0.0
  0
LINE
  5
403
100
AcDbEntity
  8
化粧台
  6
EXLTYPE2
 62
     6
100
AcDbLine
 10
909.1
 20
1492.207107
 30
0.0
 11
909.1
 21
1476.207107
 31
0.0
  0
LINE
  5
404
100
AcDbEntity
  8
化粧台
  6
EXLTYPE2
 62
     6
100
AcDbLine
 10
955.9
 20
1492.207107
 30
0.0
 11
955.9
 21
1476.207107
 31
0.0
  0
ARC
  5
405
100
AcDbEntity
  8
化粧台
  6
EXLTYPE2
 62
     6
100
AcDbCircle
 10
911.1
 20
1492.207107
 30
0.0
 40
2.0
100
AcDbArc
 50
90.0
 51
180.0
  0
ARC
  5
406
100
AcDbEntity
  8
化粧台
  6
EXLTYPE2
 62
     6
100
AcDbCircle
 10
953.9
 20
1492.207107
 30
0.0
 40
2.0
100
AcDbArc
 50
0.0
 51
90.0
  0
LINE
  5
407
100
AcDbEntity
  8
化粧台
  6
EXLTYPE2
 62
     6
100
AcDbLine
 10
916.65
 20
1438.557107
 30
0.0
 11
948.35
 21
1438.557107
 31
0.0
  0
LINE
  5
408
100
AcDbEntity
  8
化粧台
  6
EXLTYPE2
 62
     6
100
AcDbLine
 10
873.607747
 20
1457.83598
 30
0.0
 11
873.607747
 21
1446.207107
 31
0.0
  0
LINE
  5
409
100
AcDbEntity
  8
化粧台
  6
EXLTYPE2
 62
     6
100
AcDbLine
 10
905.307747
 20
1457.83598
 30
0.0
 11
905.307747
 21
1446.207107
 31
0.0
  0
ARC
  5
40A
100
AcDbEntity
  8
化粧台
  6
EXLTYPE2
 62
     6
100
AcDbCircle
 10
910.978873
 20
1457.83598
 30
0.0
 40
37.371127
100
AcDbArc
 50
81.271554
 51
180.0
  0
ARC
  5
40B
100
AcDbEntity
  8
化粧台
  6
EXLTYPE2
 62
     6
100
AcDbCircle
 10
910.978873
 20
1457.83598
 30
0.0
 40
5.671127
100
AcDbArc
 50
57.810532
 51
180.0
  0
LINE
  5
40C
100
AcDbEntity
  8
化粧台
  6
EXLTYPE2
 62
     6
100
AcDbLine
 10
915.370011
 20
1492.207107
 30
0.0
 11
915.370011
 21
1476.207107
 31
0.0
  0
LINE
  5
40D
100
AcDbEntity
  8
化粧台
  6
EXLTYPE2
 62
     6
100
AcDbLine
 10
926.229989
 20
1492.207107
 30
0.0
 11
926.229989
 21
1476.207107
 31
0.0
  0
LINE
  5
40E
100
AcDbEntity
  8
化粧台
  6
EXLTYPE2
 62
     6
100
AcDbLine
 10
938.770011
 20
1492.207107
 30
0.0
 11
938.770011
 21
1476.207107
 31
0.0
  0
LINE
  5
40F
100
AcDbEntity
  8
化粧台
  6
EXLTYPE2
 62
     6
100
AcDbLine
 10
949.629989
 20
1492.207107
 30
0.0
 11
949.629989
 21
1476.207107
 31
0.0
  0
LINE
  5
410
100
AcDbEntity
  8
化粧台
  6
EXLTYPE2
 62
     6
100
AcDbLine
 10
908.6
 20
1520.207107
 30
0.0
 11
956.4
 21
1520.207107
 31
0.0
  0
LINE
  5
411
100
AcDbEntity
  8
化粧台
  6
EXLTYPE2
 62
     6
100
AcDbLine
 10
898.5
 20
1553.707107
 30
0.0
 11
966.5
 21
1553.707107
 31
0.0
  0
LINE
  5
412
100
AcDbEntity
  8
化粧台
  6
EXLTYPE2
 62
     6
100
AcDbLine
 10
898.5
 20
1556.707107
 30
0.0
 11
898.5
 21
1553.707107
 31
0.0
  0
LINE
  5
413
100
AcDbEntity
  8
化粧台
  6
EXLTYPE2
 62
     6
100
AcDbLine
 10
966.5
 20
1556.707107
 30
0.0
 11
966.5
 21
1553.707107
 31
0.0
  0
LINE
  5
414
100
AcDbEntity
  8
化粧台
  6
EXLTYPE2
 62
     6
100
AcDbLine
 10
904.5
 20
1533.600165
 30
0.0
 11
904.5
 21
1550.600165
 31
0.0
  0
LINE
  5
415
100
AcDbEntity
  8
化粧台
  6
EXLTYPE2
 62
     6
100
AcDbLine
 10
906.0
 20
1532.100165
 30
0.0
 11
904.5
 21
1533.600165
 31
0.0
  0
LINE
  5
416
100
AcDbEntity
  8
化粧台
  6
EXLTYPE2
 62
     6
100
AcDbLine
 10
960.5
 20
1533.600165
 30
0.0
 11
960.5
 21
1550.600165
 31
0.0
  0
LINE
  5
417
100
AcDbEntity
  8
化粧台
  6
EXLTYPE2
 62
     6
100
AcDbLine
 10
959.0
 20
1532.100165
 30
0.0
 11
906.0
 21
1532.100165
 31
0.0
  0
LINE
  5
418
100
AcDbEntity
  8
化粧台
  6
EXLTYPE2
 62
     6
100
AcDbLine
 10
960.5
 20
1533.600165
 30
0.0
 11
959.0
 21
1532.100165
 31
0.0
  0
LINE
  5
419
100
AcDbEntity
  8
化粧台
  6
EXLTYPE2
 62
     6
100
AcDbLine
 10
900.0
 20
1550.600165
 30
0.0
 11
965.0
 21
1550.600165
 31
0.0
  0
LINE
  5
41A
100
AcDbEntity
  8
化粧台
  6
EXLTYPE2
 62
     6
100
AcDbLine
 10
900.0
 20
1550.600165
 30
0.0
 11
900.0
 21
1553.707107
 31
0.0
  0
LINE
  5
41B
100
AcDbEntity
  8
化粧台
  6
EXLTYPE2
 62
     6
100
AcDbLine
 10
965.0
 20
1550.600165
 30
0.0
 11
965.0
 21
1553.707107
 31
0.0
  0
LINE
  5
41C
100
AcDbEntity
  8
化粧台
  6
EXLTYPE2
 62
     6
100
AcDbLine
 10
915.179492
 20
1533.600165
 30
0.0
 11
915.179492
 21
1550.600165
 31
0.0
  0
LINE
  5
41D
100
AcDbEntity
  8
化粧台
  6
EXLTYPE2
 62
     6
100
AcDbLine
 10
922.107695
 20
1533.600165
 30
0.0
 11
922.107695
 21
1550.600165
 31
0.0
  0
LINE
  5
41E
100
AcDbEntity
  8
化粧台
  6
EXLTYPE2
 62
     6
100
AcDbLine
 10
942.892305
 20
1533.600165
 30
0.0
 11
942.892305
 21
1550.600165
 31
0.0
  0
LINE
  5
41F
100
AcDbEntity
  8
化粧台
  6
EXLTYPE2
 62
     6
100
AcDbLine
 10
949.820508
 20
1533.600165
 30
0.0
 11
949.820508
 21
1550.600165
 31
0.0
  0
LINE
  5
420
100
AcDbEntity
  8
化粧台
  6
EXLTYPE2
 62
     6
100
AcDbLine
 10
898.5
 20
1554.207107
 30
0.0
 11
966.5
 21
1554.207107
 31
0.0
  0
LINE
  5
421
100
AcDbEntity
  8
化粧台
  6
EXLTYPE2
 62
     6
100
AcDbLine
 10
898.5
 20
1556.707107
 30
0.0
 11
966.5
 21
1556.707107
 31
0.0
  0
LINE
  5
422
100
AcDbEntity
  8
化粧台
  6
EXLTYPE2
 62
     6
100
AcDbLine
 10
898.5
 20
1556.707107
 30
0.0
 11
903.600967
 21
1561.0
 31
0.0
  0
LINE
  5
423
100
AcDbEntity
  8
化粧台
  6
EXLTYPE2
 62
     6
100
AcDbLine
 10
961.399033
 20
1561.0
 30
0.0
 11
966.5
 21
1556.707107
 31
0.0
  0
LINE
  5
424
100
AcDbEntity
  8
化粧台
  6
EXLTYPE2
 62
     6
100
AcDbLine
 10
908.6
 20
1520.207107
 30
0.0
 11
908.6
 21
1532.100165
 31
0.0
  0
LINE
  5
425
100
AcDbEntity
  8
化粧台
  6
EXLTYPE2
 62
     6
100
AcDbLine
 10
956.4
 20
1520.207107
 30
0.0
 11
956.4
 21
1532.100165
 31
0.0
  0
LINE
  5
426
100
AcDbEntity
  8
化粧台
  6
EXLTYPE2
 62
     6
100
AcDbLine
 10
916.65
 20
1520.207107
 30
0.0
 11
916.65
 21
1494.207107
 31
0.0
  0
LINE
  5
427
100
AcDbEntity
  8
化粧台
  6
EXLTYPE2
 62
     6
100
AcDbLine
 10
948.35
 20
1520.207107
 30
0.0
 11
948.35
 21
1494.207107
 31
0.0
  0
LINE
  5
428
100
AcDbEntity
  8
化粧台
  6
EXLTYPE2
 62
     6
100
AcDbLine
 10
893.478873
 20
1403.207107
 30
0.0
 11
893.478873
 21
1368.707107
 31
0.0
  0
LINE
  5
429
100
AcDbEntity
  8
化粧台
  6
EXLTYPE2
 62
     6
100
AcDbLine
 10
928.478873
 20
1376.557768
 30
0.0
 11
928.478873
 21
1368.707107
 31
0.0
  0
LINE
  5
42A
100
AcDbEntity
  8
化粧台
  6
EXLTYPE2
 62
     6
100
AcDbLine
 10
889.978873
 20
1368.707107
 30
0.0
 11
931.978873
 21
1368.707107
 31
0.0
  0
LINE
  5
42B
100
AcDbEntity
  8
化粧台
  6
EXLTYPE2
 62
     6
100
AcDbLine
 10
891.478873
 20
1352.207107
 30
0.0
 11
930.478873
 21
1352.207107
 31
0.0
  0
LINE
  5
42C
100
AcDbEntity
  8
化粧台
  6
EXLTYPE2
 62
     6
100
AcDbLine
 10
889.978873
 20
1353.707107
 30
0.0
 11
889.978873
 21
1368.707107
 31
0.0
  0
LINE
  5
42D
100
AcDbEntity
  8
化粧台
  6
EXLTYPE2
 62
     6
100
AcDbLine
 10
931.978873
 20
1353.707107
 30
0.0
 11
931.978873
 21
1368.707107
 31
0.0
  0
ARC
  5
42E
100
AcDbEntity
  8
化粧台
  6
EXLTYPE2
 62
     6
100
AcDbCircle
 10
930.478873
 20
1353.707107
 30
0.0
 40
1.5
100
AcDbArc
 50
270.0
 51
0.0
  0
ARC
  5
42F
100
AcDbEntity
  8
化粧台
  6
EXLTYPE2
 62
     6
100
AcDbCircle
 10
891.478873
 20
1353.707107
 30
0.0
 40
1.5
100
AcDbArc
 50
180.0
 51
270.0
  0
ARC
  5
430
100
AcDbEntity
  8
化粧台
  6
EXLTYPE2
 62
     6
100
AcDbCircle
 10
910.978873
 20
1388.057107
 30
0.0
 40
15.85
100
AcDbArc
 50
99.640243
 51
270.0
  0
ARC
  5
431
100
AcDbEntity
  8
化粧台
  6
EXLTYPE2
 62
     6
100
AcDbCircle
 10
910.978873
 20
1409.578234
 30
0.0
 40
37.371127
100
AcDbArc
 50
197.714595
 51
242.077557
  0
LINE
  5
432
100
AcDbEntity
  8
化粧台
  6
EXLTYPE2
 62
     6
100
AcDbLine
 10
931.232394
 20
1368.707107
 30
0.0
 11
931.232394
 21
1353.707107
 31
0.0
  0
LINE
  5
433
100
AcDbEntity
  8
化粧台
  6
EXLTYPE2
 62
     6
100
AcDbLine
 10
890.725352
 20
1353.707107
 30
0.0
 11
890.725352
 21
1368.707107
 31
0.0
  0
LINE
  5
434
100
AcDbEntity
  8
化粧台
  6
EXLTYPE2
 62
     6
100
AcDbLine
 10
894.156505
 20
1353.707107
 30
0.0
 11
894.156505
 21
1368.707107
 31
0.0
  0
LINE
  5
435
100
AcDbEntity
  8
化粧台
  6
EXLTYPE2
 62
     6
100
AcDbLine
 10
908.504015
 20
1353.707107
 30
0.0
 11
908.504015
 21
1368.707107
 31
0.0
  0
LINE
  5
436
100
AcDbEntity
  8
化粧台
  6
EXLTYPE2
 62
     6
100
AcDbLine
 10
913.453732
 20
1353.707107
 30
0.0
 11
913.453732
 21
1368.707107
 31
0.0
  0
LINE
  5
437
100
AcDbEntity
  8
化粧台
  6
EXLTYPE2
 62
     6
100
AcDbLine
 10
927.801242
 20
1353.707107
 30
0.0
 11
927.801242
 21
1368.707107
 31
0.0
  0
ARC
  5
438
100
AcDbEntity
  8
化粧台
  6
EXLTYPE2
 62
     6
100
AcDbCircle
 10
892.225352
 20
1353.707107
 30
0.0
 40
1.5
100
AcDbArc
 50
180.0
 51
270.0
  0
ARC
  5
439
100
AcDbEntity
  8
化粧台
  6
EXLTYPE2
 62
     6
100
AcDbCircle
 10
892.656505
 20
1353.707107
 30
0.0
 40
1.5
100
AcDbArc
 50
270.0
 51
0.0
  0
ARC
  5
43A
100
AcDbEntity
  8
化粧台
  6
EXLTYPE2
 62
     6
100
AcDbCircle
 10
910.004015
 20
1353.707107
 30
0.0
 40
1.5
100
AcDbArc
 50
180.0
 51
270.0
  0
ARC
  5
43B
100
AcDbEntity
  8
化粧台
  6
EXLTYPE2
 62
     6
100
AcDbCircle
 10
911.953732
 20
1353.707107
 30
0.0
 40
1.5
100
AcDbArc
 50
270.0
 51
0.0
  0
ARC
  5
43C
100
AcDbEntity
  8
化粧台
  6
EXLTYPE2
 62
     6
100
AcDbCircle
 10
929.301242
 20
1353.707107
 30
0.0
 40
1.5
100
AcDbArc
 50
180.0
 51
270.0
  0
ARC
  5
43D
100
AcDbEntity
  8
化粧台
  6
EXLTYPE2
 62
     6
100
AcDbCircle
 10
929.732394
 20
1353.707107
 30
0.0
 40
1.5
100
AcDbArc
 50
270.0
 51
0.0
  0
LINE
  5
43E
100
AcDbEntity
  8
化粧台
  6
EXLTYPE2
 62
     6
100
AcDbLine
 10
916.65
 20
1438.557107
 30
0.0
 11
916.65
 21
1413.54207
 31
0.0
  0
LINE
  5
43F
100
AcDbEntity
  8
化粧台
  6
EXLTYPE2
 62
     6
100
AcDbLine
 10
870.957747
 20
1428.207107
 30
0.0
 11
870.957747
 21
1398.207107
 31
0.0
  0
LINE
  5
440
100
AcDbEntity
  8
化粧台
  6
EXLTYPE2
 62
     6
100
AcDbLine
 10
907.957747
 20
1428.207107
 30
0.0
 11
907.957747
 21
1403.207107
 31
0.0
  0
LINE
  5
441
100
AcDbEntity
  8
化粧台
  6
EXLTYPE2
 62
     6
100
AcDbLine
 10
914.0
 20
1441.207107
 30
0.0
 11
916.65
 21
1438.557107
 31
0.0
  0
LINE
  5
442
100
AcDbEntity
  8
化粧台
  6
EXLTYPE2
 62
     6
100
AcDbLine
 10
866.057747
 20
1428.207107
 30
0.0
 11
912.857747
 21
1428.207107
 31
0.0
  0
LINE
  5
443
100
AcDbEntity
  8
化粧台
  6
EXLTYPE2
 62
     6
100
AcDbLine
 10
868.057747
 20
1446.207107
 30
0.0
 11
910.857747
 21
1446.207107
 31
0.0
  0
LINE
  5
444
100
AcDbEntity
  8
化粧台
  6
EXLTYPE2
 62
     6
100
AcDbLine
 10
866.057747
 20
1444.207107
 30
0.0
 11
866.057747
 21
1428.207107
 31
0.0
  0
LINE
  5
445
100
AcDbEntity
  8
化粧台
  6
EXLTYPE2
 62
     6
100
AcDbLine
 10
912.857747
 20
1444.207107
 30
0.0
 11
912.857747
 21
1428.207107
 31
0.0
  0
ARC
  5
446
100
AcDbEntity
  8
化粧台
  6
EXLTYPE2
 62
     6
100
AcDbCircle
 10
868.057747
 20
1444.207107
 30
0.0
 40
2.0
100
AcDbArc
 50
90.0
 51
180.0
  0
ARC
  5
447
100
AcDbEntity
  8
化粧台
  6
EXLTYPE2
 62
     6
100
AcDbCircle
 10
910.857747
 20
1444.207107
 30
0.0
 40
2.0
100
AcDbArc
 50
0.0
 51
90.0
  0
LINE
  5
448
100
AcDbEntity
  8
化粧台
  6
EXLTYPE2
 62
     6
100
AcDbLine
 10
872.327758
 20
1444.207107
 30
0.0
 11
872.327758
 21
1428.207107
 31
0.0
  0
LINE
  5
449
100
AcDbEntity
  8
化粧台
  6
EXLTYPE2
 62
     6
100
AcDbLine
 10
883.187735
 20
1444.207107
 30
0.0
 11
883.187735
 21
1428.207107
 31
0.0
  0
LINE
  5
44A
100
AcDbEntity
  8
化粧台
  6
EXLTYPE2
 62
     6
100
AcDbLine
 10
895.727758
 20
1444.207107
 30
0.0
 11
895.727758
 21
1428.207107
 31
0.0
  0
LINE
  5
44B
100
AcDbEntity
  8
化粧台
  6
EXLTYPE2
 62
     6
100
AcDbLine
 10
906.587735
 20
1444.207107
 30
0.0
 11
906.587735
 21
1428.207107
 31
0.0
  0
LINE
  5
44C
100
AcDbEntity
  8
化粧台
  6
EXLTYPE2
 62
     6
100
AcDbLine
 10
893.478873
 20
1403.207107
 30
0.0
 11
906.320547
 21
1403.207107
 31
0.0
  0
LINE
  5
44D
100
AcDbEntity
  8
化粧台
  6
EXLTYPE2
 62
     6
100
AcDbLine
 10
870.957747
 20
1398.207107
 30
0.0
 11
893.478873
 21
1398.207107
 31
0.0
  0
ARC
  5
44E
100
AcDbEntity
  8
化粧台
  6
EXLTYPE2
 62
     6
100
AcDbCircle
 10
906.65
 20
1413.54207
 30
0.0
 40
10.0
100
AcDbArc
 50
279.640243
 51
0.0
  0
ARC
  5
44F
100
AcDbEntity
  8
化粧台
  6
EXLTYPE2
 62
     6
100
AcDbCircle
 10
910.978873
 20
1409.578234
 30
0.0
 40
37.371127
100
AcDbArc
 50
270.0
 51
0.0
  0
LINE
  5
450
100
AcDbEntity
  8
化粧台
  6
EXLTYPE2
 62
     6
100
AcDbLine
 10
948.35
 20
1438.557107
 30
0.0
 11
948.35
 21
1409.578234
 31
0.0
  0
LINE
  5
451
100
AcDbEntity
  8
化粧台
  6
CONTINUOUS
 62
     6
100
AcDbLine
 10
918.5
 20
1350.207107
 30
0.0
 11
932.5
 21
1350.207107
 31
0.0
  0
LINE
  5
452
100
AcDbEntity
  8
化粧台
  6
CONTINUOUS
 62
     6
100
AcDbLine
 10
932.5
 20
1345.207107
 30
0.0
 11
946.5
 21
1345.207107
 31
0.0
  0
POLYLINE
  5
453
100
AcDbEntity
  8
化粧台
  6
EXLTYPE2
 62
     6
100
AcDb2dPolyline
 66
     1
 10
0.0
 20
0.0
 30
0.0
 70
   128
  0
VERTEX
  5
454
100
AcDbEntity
  8
化粧台
  6
EXLTYPE2
 62
     6
100
AcDbVertex
100
AcDb2dVertex
 10
947.610051
 20
1031.0
 30
0.0
  0
VERTEX
  5
455
100
AcDbEntity
  8
化粧台
  6
EXLTYPE2
 62
     6
100
AcDbVertex
100
AcDb2dVertex
 10
950.0
 20
1032.707107
 30
0.0
  0
VERTEX
  5
456
100
AcDbEntity
  8
化粧台
  6
EXLTYPE2
 62
     6
100
AcDbVertex
100
AcDb2dVertex
 10
946.5
 20
1035.207107
 30
0.0
  0
VERTEX
  5
457
100
AcDbEntity
  8
化粧台
  6
EXLTYPE2
 62
     6
100
AcDbVertex
100
AcDb2dVertex
 10
950.0
 20
1037.707107
 30
0.0
  0
VERTEX
  5
458
100
AcDbEntity
  8
化粧台
  6
EXLTYPE2
 62
     6
100
AcDbVertex
100
AcDb2dVertex
 10
946.5
 20
1040.207107
 30
0.0
  0
VERTEX
  5
459
100
AcDbEntity
  8
化粧台
  6
EXLTYPE2
 62
     6
100
AcDbVertex
100
AcDb2dVertex
 10
950.0
 20
1042.707107
 30
0.0
  0
VERTEX
  5
45A
100
AcDbEntity
  8
化粧台
  6
EXLTYPE2
 62
     6
100
AcDbVertex
100
AcDb2dVertex
 10
946.5
 20
1045.207107
 30
0.0
  0
VERTEX
  5
45B
100
AcDbEntity
  8
化粧台
  6
EXLTYPE2
 62
     6
100
AcDbVertex
100
AcDb2dVertex
 10
950.0
 20
1047.707107
 30
0.0
  0
VERTEX
  5
45C
100
AcDbEntity
  8
化粧台
  6
EXLTYPE2
 62
     6
100
AcDbVertex
100
AcDb2dVertex
 10
946.5
 20
1050.207107
 30
0.0
  0
VERTEX
  5
45D
100
AcDbEntity
  8
化粧台
  6
EXLTYPE2
 62
     6
100
AcDbVertex
100
AcDb2dVertex
 10
950.0
 20
1052.707107
 30
0.0
  0
VERTEX
  5
45E
100
AcDbEntity
  8
化粧台
  6
EXLTYPE2
 62
     6
100
AcDbVertex
100
AcDb2dVertex
 10
946.5
 20
1055.207107
 30
0.0
  0
VERTEX
  5
45F
100
AcDbEntity
  8
化粧台
  6
EXLTYPE2
 62
     6
100
AcDbVertex
100
AcDb2dVertex
 10
950.0
 20
1057.707107
 30
0.0
  0
VERTEX
  5
460
100
AcDbEntity
  8
化粧台
  6
EXLTYPE2
 62
     6
100
AcDbVertex
100
AcDb2dVertex
 10
946.5
 20
1060.207107
 30
0.0
  0
VERTEX
  5
461
100
AcDbEntity
  8
化粧台
  6
EXLTYPE2
 62
     6
100
AcDbVertex
100
AcDb2dVertex
 10
950.0
 20
1062.707107
 30
0.0
  0
VERTEX
  5
462
100
AcDbEntity
  8
化粧台
  6
EXLTYPE2
 62
     6
100
AcDbVertex
100
AcDb2dVertex
 10
946.5
 20
1065.207107
 30
0.0
  0
VERTEX
  5
463
100
AcDbEntity
  8
化粧台
  6
EXLTYPE2
 62
     6
100
AcDbVertex
100
AcDb2dVertex
 10
950.0
 20
1067.707107
 30
0.0
  0
VERTEX
  5
464
100
AcDbEntity
  8
化粧台
  6
EXLTYPE2
 62
     6
100
AcDbVertex
100
AcDb2dVertex
 10
946.5
 20
1070.207107
 30
0.0
  0
VERTEX
  5
465
100
AcDbEntity
  8
化粧台
  6
EXLTYPE2
 62
     6
100
AcDbVertex
100
AcDb2dVertex
 10
950.0
 20
1072.707107
 30
0.0
  0
VERTEX
  5
466
100
AcDbEntity
  8
化粧台
  6
EXLTYPE2
 62
     6
100
AcDbVertex
100
AcDb2dVertex
 10
946.5
 20
1075.207107
 30
0.0
  0
VERTEX
  5
467
100
AcDbEntity
  8
化粧台
  6
EXLTYPE2
 62
     6
100
AcDbVertex
100
AcDb2dVertex
 10
950.0
 20
1077.707107
 30
0.0
  0
VERTEX
  5
468
100
AcDbEntity
  8
化粧台
  6
EXLTYPE2
 62
     6
100
AcDbVertex
100
AcDb2dVertex
 10
946.5
 20
1080.207107
 30
0.0
  0
VERTEX
  5
469
100
AcDbEntity
  8
化粧台
  6
EXLTYPE2
 62
     6
100
AcDbVertex
100
AcDb2dVertex
 10
950.0
 20
1082.707107
 30
0.0
  0
VERTEX
  5
46A
100
AcDbEntity
  8
化粧台
  6
EXLTYPE2
 62
     6
100
AcDbVertex
100
AcDb2dVertex
 10
946.5
 20
1085.207107
 30
0.0
  0
VERTEX
  5
46B
100
AcDbEntity
  8
化粧台
  6
EXLTYPE2
 62
     6
100
AcDbVertex
100
AcDb2dVertex
 10
950.0
 20
1087.707107
 30
0.0
  0
VERTEX
  5
46C
100
AcDbEntity
  8
化粧台
  6
EXLTYPE2
 62
     6
100
AcDbVertex
100
AcDb2dVertex
 10
946.5
 20
1090.207107
 30
0.0
  0
VERTEX
  5
46D
100
AcDbEntity
  8
化粧台
  6
EXLTYPE2
 62
     6
100
AcDbVertex
100
AcDb2dVertex
 10
950.0
 20
1092.707107
 30
0.0
  0
VERTEX
  5
46E
100
AcDbEntity
  8
化粧台
  6
EXLTYPE2
 62
     6
100
AcDbVertex
100
AcDb2dVertex
 10
946.5
 20
1095.207107
 30
0.0
  0
VERTEX
  5
46F
100
AcDbEntity
  8
化粧台
  6
EXLTYPE2
 62
     6
100
AcDbVertex
100
AcDb2dVertex
 10
950.0
 20
1097.707107
 30
0.0
  0
VERTEX
  5
470
100
AcDbEntity
  8
化粧台
  6
EXLTYPE2
 62
     6
100
AcDbVertex
100
AcDb2dVertex
 10
946.5
 20
1100.207107
 30
0.0
  0
VERTEX
  5
471
100
AcDbEntity
  8
化粧台
  6
EXLTYPE2
 62
     6
100
AcDbVertex
100
AcDb2dVertex
 10
950.0
 20
1102.707107
 30
0.0
  0
VERTEX
  5
472
100
AcDbEntity
  8
化粧台
  6
EXLTYPE2
 62
     6
100
AcDbVertex
100
AcDb2dVertex
 10
946.5
 20
1105.207107
 30
0.0
  0
VERTEX
  5
473
100
AcDbEntity
  8
化粧台
  6
EXLTYPE2
 62
     6
100
AcDbVertex
100
AcDb2dVertex
 10
950.0
 20
1107.707107
 30
0.0
  0
VERTEX
  5
474
100
AcDbEntity
  8
化粧台
  6
EXLTYPE2
 62
     6
100
AcDbVertex
100
AcDb2dVertex
 10
946.5
 20
1110.207107
 30
0.0
  0
VERTEX
  5
475
100
AcDbEntity
  8
化粧台
  6
EXLTYPE2
 62
     6
100
AcDbVertex
100
AcDb2dVertex
 10
950.0
 20
1112.707107
 30
0.0
  0
VERTEX
  5
476
100
AcDbEntity
  8
化粧台
  6
EXLTYPE2
 62
     6
100
AcDbVertex
100
AcDb2dVertex
 10
946.5
 20
1115.207107
 30
0.0
  0
VERTEX
  5
477
100
AcDbEntity
  8
化粧台
  6
EXLTYPE2
 62
     6
100
AcDbVertex
100
AcDb2dVertex
 10
950.0
 20
1117.707107
 30
0.0
  0
VERTEX
  5
478
100
AcDbEntity
  8
化粧台
  6
EXLTYPE2
 62
     6
100
AcDbVertex
100
AcDb2dVertex
 10
946.5
 20
1120.207107
 30
0.0
  0
VERTEX
  5
479
100
AcDbEntity
  8
化粧台
  6
EXLTYPE2
 62
     6
100
AcDbVertex
100
AcDb2dVertex
 10
950.0
 20
1122.707107
 30
0.0
  0
VERTEX
  5
47A
100
AcDbEntity
  8
化粧台
  6
EXLTYPE2
 62
     6
100
AcDbVertex
100
AcDb2dVertex
 10
946.5
 20
1125.207107
 30
0.0
  0
VERTEX
  5
47B
100
AcDbEntity
  8
化粧台
  6
EXLTYPE2
 62
     6
100
AcDbVertex
100
AcDb2dVertex
 10
950.0
 20
1127.707107
 30
0.0
  0
VERTEX
  5
47C
100
AcDbEntity
  8
化粧台
  6
EXLTYPE2
 62
     6
100
AcDbVertex
100
AcDb2dVertex
 10
946.5
 20
1130.207107
 30
0.0
  0
VERTEX
  5
47D
100
AcDbEntity
  8
化粧台
  6
EXLTYPE2
 62
     6
100
AcDbVertex
100
AcDb2dVertex
 10
950.0
 20
1132.707107
 30
0.0
  0
VERTEX
  5
47E
100
AcDbEntity
  8
化粧台
  6
EXLTYPE2
 62
     6
100
AcDbVertex
100
AcDb2dVertex
 10
946.5
 20
1135.207107
 30
0.0
  0
VERTEX
  5
47F
100
AcDbEntity
  8
化粧台
  6
EXLTYPE2
 62
     6
100
AcDbVertex
100
AcDb2dVertex
 10
950.0
 20
1137.707107
 30
0.0
  0
VERTEX
  5
480
100
AcDbEntity
  8
化粧台
  6
EXLTYPE2
 62
     6
100
AcDbVertex
100
AcDb2dVertex
 10
946.5
 20
1140.207107
 30
0.0
  0
VERTEX
  5
481
100
AcDbEntity
  8
化粧台
  6
EXLTYPE2
 62
     6
100
AcDbVertex
100
AcDb2dVertex
 10
950.0
 20
1142.707107
 30
0.0
  0
VERTEX
  5
482
100
AcDbEntity
  8
化粧台
  6
EXLTYPE2
 62
     6
100
AcDbVertex
100
AcDb2dVertex
 10
946.5
 20
1145.207107
 30
0.0
  0
VERTEX
  5
483
100
AcDbEntity
  8
化粧台
  6
EXLTYPE2
 62
     6
100
AcDbVertex
100
AcDb2dVertex
 10
950.0
 20
1147.707107
 30
0.0
  0
VERTEX
  5
484
100
AcDbEntity
  8
化粧台
  6
EXLTYPE2
 62
     6
100
AcDbVertex
100
AcDb2dVertex
 10
946.5
 20
1150.207107
 30
0.0
  0
VERTEX
  5
485
100
AcDbEntity
  8
化粧台
  6
EXLTYPE2
 62
     6
100
AcDbVertex
100
AcDb2dVertex
 10
950.0
 20
1152.707107
 30
0.0
  0
VERTEX
  5
486
100
AcDbEntity
  8
化粧台
  6
EXLTYPE2
 62
     6
100
AcDbVertex
100
AcDb2dVertex
 10
946.5
 20
1155.207107
 30
0.0
  0
VERTEX
  5
487
100
AcDbEntity
  8
化粧台
  6
EXLTYPE2
 62
     6
100
AcDbVertex
100
AcDb2dVertex
 10
950.0
 20
1157.707107
 30
0.0
  0
VERTEX
  5
488
100
AcDbEntity
  8
化粧台
  6
EXLTYPE2
 62
     6
100
AcDbVertex
100
AcDb2dVertex
 10
946.5
 20
1160.207107
 30
0.0
  0
VERTEX
  5
489
100
AcDbEntity
  8
化粧台
  6
EXLTYPE2
 62
     6
100
AcDbVertex
100
AcDb2dVertex
 10
950.0
 20
1162.707107
 30
0.0
  0
VERTEX
  5
48A
100
AcDbEntity
  8
化粧台
  6
EXLTYPE2
 62
     6
100
AcDbVertex
100
AcDb2dVertex
 10
946.5
 20
1165.207107
 30
0.0
  0
VERTEX
  5
48B
100
AcDbEntity
  8
化粧台
  6
EXLTYPE2
 62
     6
100
AcDbVertex
100
AcDb2dVertex
 10
950.0
 20
1167.707107
 30
0.0
  0
VERTEX
  5
48C
100
AcDbEntity
  8
化粧台
  6
EXLTYPE2
 62
     6
100
AcDbVertex
100
AcDb2dVertex
 10
946.5
 20
1170.207107
 30
0.0
  0
VERTEX
  5
48D
100
AcDbEntity
  8
化粧台
  6
EXLTYPE2
 62
     6
100
AcDbVertex
100
AcDb2dVertex
 10
950.0
 20
1172.707107
 30
0.0
  0
VERTEX
  5
48E
100
AcDbEntity
  8
化粧台
  6
EXLTYPE2
 62
     6
100
AcDbVertex
100
AcDb2dVertex
 10
946.5
 20
1175.207107
 30
0.0
  0
VERTEX
  5
48F
100
AcDbEntity
  8
化粧台
  6
EXLTYPE2
 62
     6
100
AcDbVertex
100
AcDb2dVertex
 10
950.0
 20
1177.707107
 30
0.0
  0
VERTEX
  5
490
100
AcDbEntity
  8
化粧台
  6
EXLTYPE2
 62
     6
100
AcDbVertex
100
AcDb2dVertex
 10
946.5
 20
1180.207107
 30
0.0
  0
VERTEX
  5
491
100
AcDbEntity
  8
化粧台
  6
EXLTYPE2
 62
     6
100
AcDbVertex
100
AcDb2dVertex
 10
950.0
 20
1182.707107
 30
0.0
  0
VERTEX
  5
492
100
AcDbEntity
  8
化粧台
  6
EXLTYPE2
 62
     6
100
AcDbVertex
100
AcDb2dVertex
 10
946.5
 20
1185.207107
 30
0.0
  0
VERTEX
  5
493
100
AcDbEntity
  8
化粧台
  6
EXLTYPE2
 62
     6
100
AcDbVertex
100
AcDb2dVertex
 10
950.0
 20
1187.707107
 30
0.0
  0
VERTEX
  5
494
100
AcDbEntity
  8
化粧台
  6
EXLTYPE2
 62
     6
100
AcDbVertex
100
AcDb2dVertex
 10
946.5
 20
1190.207107
 30
0.0
  0
VERTEX
  5
495
100
AcDbEntity
  8
化粧台
  6
EXLTYPE2
 62
     6
100
AcDbVertex
100
AcDb2dVertex
 10
950.0
 20
1192.707107
 30
0.0
  0
VERTEX
  5
496
100
AcDbEntity
  8
化粧台
  6
EXLTYPE2
 62
     6
100
AcDbVertex
100
AcDb2dVertex
 10
946.5
 20
1195.207107
 30
0.0
  0
VERTEX
  5
497
100
AcDbEntity
  8
化粧台
  6
EXLTYPE2
 62
     6
100
AcDbVertex
100
AcDb2dVertex
 10
950.0
 20
1197.707107
 30
0.0
  0
VERTEX
  5
498
100
AcDbEntity
  8
化粧台
  6
EXLTYPE2
 62
     6
100
AcDbVertex
100
AcDb2dVertex
 10
946.5
 20
1200.207107
 30
0.0
  0
VERTEX
  5
499
100
AcDbEntity
  8
化粧台
  6
EXLTYPE2
 62
     6
100
AcDbVertex
100
AcDb2dVertex
 10
950.0
 20
1202.707107
 30
0.0
  0
VERTEX
  5
49A
100
AcDbEntity
  8
化粧台
  6
EXLTYPE2
 62
     6
100
AcDbVertex
100
AcDb2dVertex
 10
946.5
 20
1205.207107
 30
0.0
  0
VERTEX
  5
49B
100
AcDbEntity
  8
化粧台
  6
EXLTYPE2
 62
     6
100
AcDbVertex
100
AcDb2dVertex
 10
950.0
 20
1207.707107
 30
0.0
  0
VERTEX
  5
49C
100
AcDbEntity
  8
化粧台
  6
EXLTYPE2
 62
     6
100
AcDbVertex
100
AcDb2dVertex
 10
946.5
 20
1210.207107
 30
0.0
  0
VERTEX
  5
49D
100
AcDbEntity
  8
化粧台
  6
EXLTYPE2
 62
     6
100
AcDbVertex
100
AcDb2dVertex
 10
950.0
 20
1212.707107
 30
0.0
  0
VERTEX
  5
49E
100
AcDbEntity
  8
化粧台
  6
EXLTYPE2
 62
     6
100
AcDbVertex
100
AcDb2dVertex
 10
946.5
 20
1215.207107
 30
0.0
  0
VERTEX
  5
49F
100
AcDbEntity
  8
化粧台
  6
EXLTYPE2
 62
     6
100
AcDbVertex
100
AcDb2dVertex
 10
950.0
 20
1217.707107
 30
0.0
  0
VERTEX
  5
4A0
100
AcDbEntity
  8
化粧台
  6
EXLTYPE2
 62
     6
100
AcDbVertex
100
AcDb2dVertex
 10
946.5
 20
1220.207107
 30
0.0
  0
VERTEX
  5
4A1
100
AcDbEntity
  8
化粧台
  6
EXLTYPE2
 62
     6
100
AcDbVertex
100
AcDb2dVertex
 10
950.0
 20
1222.707107
 30
0.0
  0
VERTEX
  5
4A2
100
AcDbEntity
  8
化粧台
  6
EXLTYPE2
 62
     6
100
AcDbVertex
100
AcDb2dVertex
 10
946.5
 20
1225.207107
 30
0.0
  0
VERTEX
  5
4A3
100
AcDbEntity
  8
化粧台
  6
EXLTYPE2
 62
     6
100
AcDbVertex
100
AcDb2dVertex
 10
950.0
 20
1227.707107
 30
0.0
  0
VERTEX
  5
4A4
100
AcDbEntity
  8
化粧台
  6
EXLTYPE2
 62
     6
100
AcDbVertex
100
AcDb2dVertex
 10
946.5
 20
1230.207107
 30
0.0
  0
VERTEX
  5
4A5
100
AcDbEntity
  8
化粧台
  6
EXLTYPE2
 62
     6
100
AcDbVertex
100
AcDb2dVertex
 10
950.0
 20
1232.707107
 30
0.0
  0
VERTEX
  5
4A6
100
AcDbEntity
  8
化粧台
  6
EXLTYPE2
 62
     6
100
AcDbVertex
100
AcDb2dVertex
 10
946.5
 20
1235.207107
 30
0.0
  0
VERTEX
  5
4A7
100
AcDbEntity
  8
化粧台
  6
EXLTYPE2
 62
     6
100
AcDbVertex
100
AcDb2dVertex
 10
950.0
 20
1237.707107
 30
0.0
  0
VERTEX
  5
4A8
100
AcDbEntity
  8
化粧台
  6
EXLTYPE2
 62
     6
100
AcDbVertex
100
AcDb2dVertex
 10
946.5
 20
1240.207107
 30
0.0
  0
VERTEX
  5
4A9
100
AcDbEntity
  8
化粧台
  6
EXLTYPE2
 62
     6
100
AcDbVertex
100
AcDb2dVertex
 10
950.0
 20
1242.707107
 30
0.0
  0
VERTEX
  5
4AA
100
AcDbEntity
  8
化粧台
  6
EXLTYPE2
 62
     6
100
AcDbVertex
100
AcDb2dVertex
 10
946.5
 20
1245.207107
 30
0.0
  0
VERTEX
  5
4AB
100
AcDbEntity
  8
化粧台
  6
EXLTYPE2
 62
     6
100
AcDbVertex
100
AcDb2dVertex
 10
950.0
 20
1247.707107
 30
0.0
  0
VERTEX
  5
4AC
100
AcDbEntity
  8
化粧台
  6
EXLTYPE2
 62
     6
100
AcDbVertex
100
AcDb2dVertex
 10
946.5
 20
1250.207107
 30
0.0
  0
VERTEX
  5
4AD
100
AcDbEntity
  8
化粧台
  6
EXLTYPE2
 62
     6
100
AcDbVertex
100
AcDb2dVertex
 10
950.0
 20
1252.707107
 30
0.0
  0
VERTEX
  5
4AE
100
AcDbEntity
  8
化粧台
  6
EXLTYPE2
 62
     6
100
AcDbVertex
100
AcDb2dVertex
 10
946.5
 20
1255.207107
 30
0.0
  0
VERTEX
  5
4AF
100
AcDbEntity
  8
化粧台
  6
EXLTYPE2
 62
     6
100
AcDbVertex
100
AcDb2dVertex
 10
950.0
 20
1257.707107
 30
0.0
  0
VERTEX
  5
4B0
100
AcDbEntity
  8
化粧台
  6
EXLTYPE2
 62
     6
100
AcDbVertex
100
AcDb2dVertex
 10
946.5
 20
1260.207107
 30
0.0
  0
VERTEX
  5
4B1
100
AcDbEntity
  8
化粧台
  6
EXLTYPE2
 62
     6
100
AcDbVertex
100
AcDb2dVertex
 10
950.0
 20
1262.707107
 30
0.0
  0
VERTEX
  5
4B2
100
AcDbEntity
  8
化粧台
  6
EXLTYPE2
 62
     6
100
AcDbVertex
100
AcDb2dVertex
 10
946.5
 20
1265.207107
 30
0.0
  0
VERTEX
  5
4B3
100
AcDbEntity
  8
化粧台
  6
EXLTYPE2
 62
     6
100
AcDbVertex
100
AcDb2dVertex
 10
950.0
 20
1267.707107
 30
0.0
  0
VERTEX
  5
4B4
100
AcDbEntity
  8
化粧台
  6
EXLTYPE2
 62
     6
100
AcDbVertex
100
AcDb2dVertex
 10
946.5
 20
1270.207107
 30
0.0
  0
VERTEX
  5
4B5
100
AcDbEntity
  8
化粧台
  6
EXLTYPE2
 62
     6
100
AcDbVertex
100
AcDb2dVertex
 10
950.0
 20
1272.707107
 30
0.0
  0
VERTEX
  5
4B6
100
AcDbEntity
  8
化粧台
  6
EXLTYPE2
 62
     6
100
AcDbVertex
100
AcDb2dVertex
 10
946.5
 20
1275.207107
 30
0.0
  0
VERTEX
  5
4B7
100
AcDbEntity
  8
化粧台
  6
EXLTYPE2
 62
     6
100
AcDbVertex
100
AcDb2dVertex
 10
950.0
 20
1277.707107
 30
0.0
  0
VERTEX
  5
4B8
100
AcDbEntity
  8
化粧台
  6
EXLTYPE2
 62
     6
100
AcDbVertex
100
AcDb2dVertex
 10
946.5
 20
1280.207107
 30
0.0
  0
VERTEX
  5
4B9
100
AcDbEntity
  8
化粧台
  6
EXLTYPE2
 62
     6
100
AcDbVertex
100
AcDb2dVertex
 10
950.0
 20
1282.707107
 30
0.0
  0
VERTEX
  5
4BA
100
AcDbEntity
  8
化粧台
  6
EXLTYPE2
 62
     6
100
AcDbVertex
100
AcDb2dVertex
 10
946.5
 20
1285.207107
 30
0.0
  0
VERTEX
  5
4BB
100
AcDbEntity
  8
化粧台
  6
EXLTYPE2
 62
     6
100
AcDbVertex
100
AcDb2dVertex
 10
950.0
 20
1287.707107
 30
0.0
  0
VERTEX
  5
4BC
100
AcDbEntity
  8
化粧台
  6
EXLTYPE2
 62
     6
100
AcDbVertex
100
AcDb2dVertex
 10
946.5
 20
1290.207107
 30
0.0
  0
VERTEX
  5
4BD
100
AcDbEntity
  8
化粧台
  6
EXLTYPE2
 62
     6
100
AcDbVertex
100
AcDb2dVertex
 10
950.0
 20
1292.707107
 30
0.0
  0
VERTEX
  5
4BE
100
AcDbEntity
  8
化粧台
  6
EXLTYPE2
 62
     6
100
AcDbVertex
100
AcDb2dVertex
 10
946.5
 20
1295.207107
 30
0.0
  0
VERTEX
  5
4BF
100
AcDbEntity
  8
化粧台
  6
EXLTYPE2
 62
     6
100
AcDbVertex
100
AcDb2dVertex
 10
950.0
 20
1297.707107
 30
0.0
  0
VERTEX
  5
4C0
100
AcDbEntity
  8
化粧台
  6
EXLTYPE2
 62
     6
100
AcDbVertex
100
AcDb2dVertex
 10
946.5
 20
1300.207107
 30
0.0
  0
VERTEX
  5
4C1
100
AcDbEntity
  8
化粧台
  6
EXLTYPE2
 62
     6
100
AcDbVertex
100
AcDb2dVertex
 10
950.0
 20
1302.707107
 30
0.0
  0
VERTEX
  5
4C2
100
AcDbEntity
  8
化粧台
  6
EXLTYPE2
 62
     6
100
AcDbVertex
100
AcDb2dVertex
 10
946.5
 20
1305.207107
 30
0.0
  0
VERTEX
  5
4C3
100
AcDbEntity
  8
化粧台
  6
EXLTYPE2
 62
     6
100
AcDbVertex
100
AcDb2dVertex
 10
950.0
 20
1307.707107
 30
0.0
  0
VERTEX
  5
4C4
100
AcDbEntity
  8
化粧台
  6
EXLTYPE2
 62
     6
100
AcDbVertex
100
AcDb2dVertex
 10
946.5
 20
1310.207107
 30
0.0
  0
VERTEX
  5
4C5
100
AcDbEntity
  8
化粧台
  6
EXLTYPE2
 62
     6
100
AcDbVertex
100
AcDb2dVertex
 10
950.0
 20
1312.707107
 30
0.0
  0
VERTEX
  5
4C6
100
AcDbEntity
  8
化粧台
  6
EXLTYPE2
 62
     6
100
AcDbVertex
100
AcDb2dVertex
 10
946.5
 20
1315.207107
 30
0.0
  0
VERTEX
  5
4C7
100
AcDbEntity
  8
化粧台
  6
EXLTYPE2
 62
     6
100
AcDbVertex
100
AcDb2dVertex
 10
950.0
 20
1317.707107
 30
0.0
  0
VERTEX
  5
4C8
100
AcDbEntity
  8
化粧台
  6
EXLTYPE2
 62
     6
100
AcDbVertex
100
AcDb2dVertex
 10
946.5
 20
1320.207107
 30
0.0
  0
VERTEX
  5
4C9
100
AcDbEntity
  8
化粧台
  6
EXLTYPE2
 62
     6
100
AcDbVertex
100
AcDb2dVertex
 10
950.0
 20
1322.707107
 30
0.0
  0
VERTEX
  5
4CA
100
AcDbEntity
  8
化粧台
  6
EXLTYPE2
 62
     6
100
AcDbVertex
100
AcDb2dVertex
 10
946.5
 20
1325.207107
 30
0.0
  0
VERTEX
  5
4CB
100
AcDbEntity
  8
化粧台
  6
EXLTYPE2
 62
     6
100
AcDbVertex
100
AcDb2dVertex
 10
950.0
 20
1327.707107
 30
0.0
  0
VERTEX
  5
4CC
100
AcDbEntity
  8
化粧台
  6
EXLTYPE2
 62
     6
100
AcDbVertex
100
AcDb2dVertex
 10
946.5
 20
1330.207107
 30
0.0
  0
VERTEX
  5
4CD
100
AcDbEntity
  8
化粧台
  6
EXLTYPE2
 62
     6
100
AcDbVertex
100
AcDb2dVertex
 10
950.0
 20
1332.707107
 30
0.0
  0
VERTEX
  5
4CE
100
AcDbEntity
  8
化粧台
  6
EXLTYPE2
 62
     6
100
AcDbVertex
100
AcDb2dVertex
 10
946.5
 20
1335.207107
 30
0.0
  0
VERTEX
  5
4CF
100
AcDbEntity
  8
化粧台
  6
EXLTYPE2
 62
     6
100
AcDbVertex
100
AcDb2dVertex
 10
950.0
 20
1337.707107
 30
0.0
  0
VERTEX
  5
4D0
100
AcDbEntity
  8
化粧台
  6
EXLTYPE2
 62
     6
100
AcDbVertex
100
AcDb2dVertex
 10
946.5
 20
1340.207107
 30
0.0
  0
VERTEX
  5
4D1
100
AcDbEntity
  8
化粧台
  6
EXLTYPE2
 62
     6
100
AcDbVertex
100
AcDb2dVertex
 10
950.0
 20
1342.707107
 30
0.0
  0
VERTEX
  5
4D2
100
AcDbEntity
  8
化粧台
  6
EXLTYPE2
 62
     6
100
AcDbVertex
100
AcDb2dVertex
 10
946.5
 20
1345.207107
 30
0.0
  0
VERTEX
  5
4D3
100
AcDbEntity
  8
化粧台
  6
EXLTYPE2
 62
     6
100
AcDbVertex
100
AcDb2dVertex
 10
950.0
 20
1347.707107
 30
0.0
  0
VERTEX
  5
4D4
100
AcDbEntity
  8
化粧台
  6
EXLTYPE2
 62
     6
100
AcDbVertex
100
AcDb2dVertex
 10
946.5
 20
1350.207107
 30
0.0
  0
VERTEX
  5
4D5
100
AcDbEntity
  8
化粧台
  6
EXLTYPE2
 62
     6
100
AcDbVertex
100
AcDb2dVertex
 10
950.0
 20
1352.707107
 30
0.0
  0
VERTEX
  5
4D6
100
AcDbEntity
  8
化粧台
  6
EXLTYPE2
 62
     6
100
AcDbVertex
100
AcDb2dVertex
 10
946.5
 20
1355.207107
 30
0.0
  0
VERTEX
  5
4D7
100
AcDbEntity
  8
化粧台
  6
EXLTYPE2
 62
     6
100
AcDbVertex
100
AcDb2dVertex
 10
950.0
 20
1357.707107
 30
0.0
  0
VERTEX
  5
4D8
100
AcDbEntity
  8
化粧台
  6
EXLTYPE2
 62
     6
100
AcDbVertex
100
AcDb2dVertex
 10
946.5
 20
1360.207107
 30
0.0
  0
VERTEX
  5
4D9
100
AcDbEntity
  8
化粧台
  6
EXLTYPE2
 62
     6
100
AcDbVertex
100
AcDb2dVertex
 10
950.0
 20
1362.707107
 30
0.0
  0
VERTEX
  5
4DA
100
AcDbEntity
  8
化粧台
  6
EXLTYPE2
 62
     6
100
AcDbVertex
100
AcDb2dVertex
 10
946.5
 20
1365.207107
 30
0.0
  0
VERTEX
  5
4DB
100
AcDbEntity
  8
化粧台
  6
EXLTYPE2
 62
     6
100
AcDbVertex
100
AcDb2dVertex
 10
950.0
 20
1367.707107
 30
0.0
  0
VERTEX
  5
4DC
100
AcDbEntity
  8
化粧台
  6
EXLTYPE2
 62
     6
100
AcDbVertex
100
AcDb2dVertex
 10
946.5
 20
1370.207107
 30
0.0
  0
VERTEX
  5
4DD
100
AcDbEntity
  8
化粧台
  6
EXLTYPE2
 62
     6
100
AcDbVertex
100
AcDb2dVertex
 10
950.0
 20
1372.707107
 30
0.0
  0
VERTEX
  5
4DE
100
AcDbEntity
  8
化粧台
  6
EXLTYPE2
 62
     6
100
AcDbVertex
100
AcDb2dVertex
 10
946.5
 20
1375.207107
 30
0.0
  0
VERTEX
  5
4DF
100
AcDbEntity
  8
化粧台
  6
EXLTYPE2
 62
     6
100
AcDbVertex
100
AcDb2dVertex
 10
950.0
 20
1377.707107
 30
0.0
  0
VERTEX
  5
4E0
100
AcDbEntity
  8
化粧台
  6
EXLTYPE2
 62
     6
100
AcDbVertex
100
AcDb2dVertex
 10
946.5
 20
1380.207107
 30
0.0
  0
VERTEX
  5
4E1
100
AcDbEntity
  8
化粧台
  6
EXLTYPE2
 62
     6
100
AcDbVertex
100
AcDb2dVertex
 10
950.0
 20
1382.707107
 30
0.0
  0
VERTEX
  5
4E2
100
AcDbEntity
  8
化粧台
  6
EXLTYPE2
 62
     6
100
AcDbVertex
100
AcDb2dVertex
 10
946.5
 20
1385.207107
 30
0.0
  0
VERTEX
  5
4E3
100
AcDbEntity
  8
化粧台
  6
EXLTYPE2
 62
     6
100
AcDbVertex
100
AcDb2dVertex
 10
950.0
 20
1387.707107
 30
0.0
  0
VERTEX
  5
4E4
100
AcDbEntity
  8
化粧台
  6
EXLTYPE2
 62
     6
100
AcDbVertex
100
AcDb2dVertex
 10
946.5
 20
1390.207107
 30
0.0
  0
VERTEX
  5
4E5
100
AcDbEntity
  8
化粧台
  6
EXLTYPE2
 62
     6
100
AcDbVertex
100
AcDb2dVertex
 10
950.0
 20
1392.707107
 30
0.0
  0
VERTEX
  5
4E6
100
AcDbEntity
  8
化粧台
  6
EXLTYPE2
 62
     6
100
AcDbVertex
100
AcDb2dVertex
 10
946.5
 20
1395.207107
 30
0.0
  0
VERTEX
  5
4E7
100
AcDbEntity
  8
化粧台
  6
EXLTYPE2
 62
     6
100
AcDbVertex
100
AcDb2dVertex
 10
950.0
 20
1397.707107
 30
0.0
  0
VERTEX
  5
4E8
100
AcDbEntity
  8
化粧台
  6
EXLTYPE2
 62
     6
100
AcDbVertex
100
AcDb2dVertex
 10
946.5
 20
1400.207107
 30
0.0
  0
VERTEX
  5
4E9
100
AcDbEntity
  8
化粧台
  6
EXLTYPE2
 62
     6
100
AcDbVertex
100
AcDb2dVertex
 10
950.0
 20
1402.707107
 30
0.0
  0
VERTEX
  5
4EA
100
AcDbEntity
  8
化粧台
  6
EXLTYPE2
 62
     6
100
AcDbVertex
100
AcDb2dVertex
 10
946.5
 20
1405.207107
 30
0.0
  0
VERTEX
  5
4EB
100
AcDbEntity
  8
化粧台
  6
EXLTYPE2
 62
     6
100
AcDbVertex
100
AcDb2dVertex
 10
950.0
 20
1407.707107
 30
0.0
  0
VERTEX
  5
4EC
100
AcDbEntity
  8
化粧台
  6
EXLTYPE2
 62
     6
100
AcDbVertex
100
AcDb2dVertex
 10
948.343666
 20
1408.890203
 30
0.0
  0
SEQEND
  5
4ED
100
AcDbEntity
  8
化粧台
  6
EXLTYPE2
 62
     6
  0
POLYLINE
  5
4EE
100
AcDbEntity
  8
化粧台
  6
EXLTYPE2
 62
     6
100
AcDb2dPolyline
 66
     1
 10
0.0
 20
0.0
 30
0.0
 70
   128
  0
VERTEX
  5
4EF
100
AcDbEntity
  8
化粧台
  6
EXLTYPE2
 62
     6
100
AcDbVertex
100
AcDb2dVertex
 10
917.389949
 20
1031.0
 30
0.0
  0
VERTEX
  5
4F0
100
AcDbEntity
  8
化粧台
  6
EXLTYPE2
 62
     6
100
AcDbVertex
100
AcDb2dVertex
 10
915.0
 20
1032.707107
 30
0.0
  0
VERTEX
  5
4F1
100
AcDbEntity
  8
化粧台
  6
EXLTYPE2
 62
     6
100
AcDbVertex
100
AcDb2dVertex
 10
918.5
 20
1035.207107
 30
0.0
  0
VERTEX
  5
4F2
100
AcDbEntity
  8
化粧台
  6
EXLTYPE2
 62
     6
100
AcDbVertex
100
AcDb2dVertex
 10
915.0
 20
1037.707107
 30
0.0
  0
VERTEX
  5
4F3
100
AcDbEntity
  8
化粧台
  6
EXLTYPE2
 62
     6
100
AcDbVertex
100
AcDb2dVertex
 10
918.5
 20
1040.207107
 30
0.0
  0
VERTEX
  5
4F4
100
AcDbEntity
  8
化粧台
  6
EXLTYPE2
 62
     6
100
AcDbVertex
100
AcDb2dVertex
 10
915.0
 20
1042.707107
 30
0.0
  0
VERTEX
  5
4F5
100
AcDbEntity
  8
化粧台
  6
EXLTYPE2
 62
     6
100
AcDbVertex
100
AcDb2dVertex
 10
918.5
 20
1045.207107
 30
0.0
  0
VERTEX
  5
4F6
100
AcDbEntity
  8
化粧台
  6
EXLTYPE2
 62
     6
100
AcDbVertex
100
AcDb2dVertex
 10
915.0
 20
1047.707107
 30
0.0
  0
VERTEX
  5
4F7
100
AcDbEntity
  8
化粧台
  6
EXLTYPE2
 62
     6
100
AcDbVertex
100
AcDb2dVertex
 10
918.5
 20
1050.207107
 30
0.0
  0
VERTEX
  5
4F8
100
AcDbEntity
  8
化粧台
  6
EXLTYPE2
 62
     6
100
AcDbVertex
100
AcDb2dVertex
 10
915.0
 20
1052.707107
 30
0.0
  0
VERTEX
  5
4F9
100
AcDbEntity
  8
化粧台
  6
EXLTYPE2
 62
     6
100
AcDbVertex
100
AcDb2dVertex
 10
918.5
 20
1055.207107
 30
0.0
  0
VERTEX
  5
4FA
100
AcDbEntity
  8
化粧台
  6
EXLTYPE2
 62
     6
100
AcDbVertex
100
AcDb2dVertex
 10
915.0
 20
1057.707107
 30
0.0
  0
VERTEX
  5
4FB
100
AcDbEntity
  8
化粧台
  6
EXLTYPE2
 62
     6
100
AcDbVertex
100
AcDb2dVertex
 10
918.5
 20
1060.207107
 30
0.0
  0
VERTEX
  5
4FC
100
AcDbEntity
  8
化粧台
  6
EXLTYPE2
 62
     6
100
AcDbVertex
100
AcDb2dVertex
 10
915.0
 20
1062.707107
 30
0.0
  0
VERTEX
  5
4FD
100
AcDbEntity
  8
化粧台
  6
EXLTYPE2
 62
     6
100
AcDbVertex
100
AcDb2dVertex
 10
918.5
 20
1065.207107
 30
0.0
  0
VERTEX
  5
4FE
100
AcDbEntity
  8
化粧台
  6
EXLTYPE2
 62
     6
100
AcDbVertex
100
AcDb2dVertex
 10
915.0
 20
1067.707107
 30
0.0
  0
VERTEX
  5
4FF
100
AcDbEntity
  8
化粧台
  6
EXLTYPE2
 62
     6
100
AcDbVertex
100
AcDb2dVertex
 10
918.5
 20
1070.207107
 30
0.0
  0
VERTEX
  5
500
100
AcDbEntity
  8
化粧台
  6
EXLTYPE2
 62
     6
100
AcDbVertex
100
AcDb2dVertex
 10
915.0
 20
1072.707107
 30
0.0
  0
VERTEX
  5
501
100
AcDbEntity
  8
化粧台
  6
EXLTYPE2
 62
     6
100
AcDbVertex
100
AcDb2dVertex
 10
918.5
 20
1075.207107
 30
0.0
  0
VERTEX
  5
502
100
AcDbEntity
  8
化粧台
  6
EXLTYPE2
 62
     6
100
AcDbVertex
100
AcDb2dVertex
 10
915.0
 20
1077.707107
 30
0.0
  0
VERTEX
  5
503
100
AcDbEntity
  8
化粧台
  6
EXLTYPE2
 62
     6
100
AcDbVertex
100
AcDb2dVertex
 10
918.5
 20
1080.207107
 30
0.0
  0
VERTEX
  5
504
100
AcDbEntity
  8
化粧台
  6
EXLTYPE2
 62
     6
100
AcDbVertex
100
AcDb2dVertex
 10
915.0
 20
1082.707107
 30
0.0
  0
VERTEX
  5
505
100
AcDbEntity
  8
化粧台
  6
EXLTYPE2
 62
     6
100
AcDbVertex
100
AcDb2dVertex
 10
918.5
 20
1085.207107
 30
0.0
  0
VERTEX
  5
506
100
AcDbEntity
  8
化粧台
  6
EXLTYPE2
 62
     6
100
AcDbVertex
100
AcDb2dVertex
 10
915.0
 20
1087.707107
 30
0.0
  0
VERTEX
  5
507
100
AcDbEntity
  8
化粧台
  6
EXLTYPE2
 62
     6
100
AcDbVertex
100
AcDb2dVertex
 10
918.5
 20
1090.207107
 30
0.0
  0
VERTEX
  5
508
100
AcDbEntity
  8
化粧台
  6
EXLTYPE2
 62
     6
100
AcDbVertex
100
AcDb2dVertex
 10
915.0
 20
1092.707107
 30
0.0
  0
VERTEX
  5
509
100
AcDbEntity
  8
化粧台
  6
EXLTYPE2
 62
     6
100
AcDbVertex
100
AcDb2dVertex
 10
918.5
 20
1095.207107
 30
0.0
  0
VERTEX
  5
50A
100
AcDbEntity
  8
化粧台
  6
EXLTYPE2
 62
     6
100
AcDbVertex
100
AcDb2dVertex
 10
915.0
 20
1097.707107
 30
0.0
  0
VERTEX
  5
50B
100
AcDbEntity
  8
化粧台
  6
EXLTYPE2
 62
     6
100
AcDbVertex
100
AcDb2dVertex
 10
918.5
 20
1100.207107
 30
0.0
  0
VERTEX
  5
50C
100
AcDbEntity
  8
化粧台
  6
EXLTYPE2
 62
     6
100
AcDbVertex
100
AcDb2dVertex
 10
915.0
 20
1102.707107
 30
0.0
  0
VERTEX
  5
50D
100
AcDbEntity
  8
化粧台
  6
EXLTYPE2
 62
     6
100
AcDbVertex
100
AcDb2dVertex
 10
918.5
 20
1105.207107
 30
0.0
  0
VERTEX
  5
50E
100
AcDbEntity
  8
化粧台
  6
EXLTYPE2
 62
     6
100
AcDbVertex
100
AcDb2dVertex
 10
915.0
 20
1107.707107
 30
0.0
  0
VERTEX
  5
50F
100
AcDbEntity
  8
化粧台
  6
EXLTYPE2
 62
     6
100
AcDbVertex
100
AcDb2dVertex
 10
918.5
 20
1110.207107
 30
0.0
  0
VERTEX
  5
510
100
AcDbEntity
  8
化粧台
  6
EXLTYPE2
 62
     6
100
AcDbVertex
100
AcDb2dVertex
 10
915.0
 20
1112.707107
 30
0.0
  0
VERTEX
  5
511
100
AcDbEntity
  8
化粧台
  6
EXLTYPE2
 62
     6
100
AcDbVertex
100
AcDb2dVertex
 10
918.5
 20
1115.207107
 30
0.0
  0
VERTEX
  5
512
100
AcDbEntity
  8
化粧台
  6
EXLTYPE2
 62
     6
100
AcDbVertex
100
AcDb2dVertex
 10
915.0
 20
1117.707107
 30
0.0
  0
VERTEX
  5
513
100
AcDbEntity
  8
化粧台
  6
EXLTYPE2
 62
     6
100
AcDbVertex
100
AcDb2dVertex
 10
918.5
 20
1120.207107
 30
0.0
  0
VERTEX
  5
514
100
AcDbEntity
  8
化粧台
  6
EXLTYPE2
 62
     6
100
AcDbVertex
100
AcDb2dVertex
 10
915.0
 20
1122.707107
 30
0.0
  0
VERTEX
  5
515
100
AcDbEntity
  8
化粧台
  6
EXLTYPE2
 62
     6
100
AcDbVertex
100
AcDb2dVertex
 10
918.5
 20
1125.207107
 30
0.0
  0
VERTEX
  5
516
100
AcDbEntity
  8
化粧台
  6
EXLTYPE2
 62
     6
100
AcDbVertex
100
AcDb2dVertex
 10
915.0
 20
1127.707107
 30
0.0
  0
VERTEX
  5
517
100
AcDbEntity
  8
化粧台
  6
EXLTYPE2
 62
     6
100
AcDbVertex
100
AcDb2dVertex
 10
918.5
 20
1130.207107
 30
0.0
  0
VERTEX
  5
518
100
AcDbEntity
  8
化粧台
  6
EXLTYPE2
 62
     6
100
AcDbVertex
100
AcDb2dVertex
 10
915.0
 20
1132.707107
 30
0.0
  0
VERTEX
  5
519
100
AcDbEntity
  8
化粧台
  6
EXLTYPE2
 62
     6
100
AcDbVertex
100
AcDb2dVertex
 10
918.5
 20
1135.207107
 30
0.0
  0
VERTEX
  5
51A
100
AcDbEntity
  8
化粧台
  6
EXLTYPE2
 62
     6
100
AcDbVertex
100
AcDb2dVertex
 10
915.0
 20
1137.707107
 30
0.0
  0
VERTEX
  5
51B
100
AcDbEntity
  8
化粧台
  6
EXLTYPE2
 62
     6
100
AcDbVertex
100
AcDb2dVertex
 10
918.5
 20
1140.207107
 30
0.0
  0
VERTEX
  5
51C
100
AcDbEntity
  8
化粧台
  6
EXLTYPE2
 62
     6
100
AcDbVertex
100
AcDb2dVertex
 10
915.0
 20
1142.707107
 30
0.0
  0
VERTEX
  5
51D
100
AcDbEntity
  8
化粧台
  6
EXLTYPE2
 62
     6
100
AcDbVertex
100
AcDb2dVertex
 10
918.5
 20
1145.207107
 30
0.0
  0
VERTEX
  5
51E
100
AcDbEntity
  8
化粧台
  6
EXLTYPE2
 62
     6
100
AcDbVertex
100
AcDb2dVertex
 10
915.0
 20
1147.707107
 30
0.0
  0
VERTEX
  5
51F
100
AcDbEntity
  8
化粧台
  6
EXLTYPE2
 62
     6
100
AcDbVertex
100
AcDb2dVertex
 10
918.5
 20
1150.207107
 30
0.0
  0
VERTEX
  5
520
100
AcDbEntity
  8
化粧台
  6
EXLTYPE2
 62
     6
100
AcDbVertex
100
AcDb2dVertex
 10
915.0
 20
1152.707107
 30
0.0
  0
VERTEX
  5
521
100
AcDbEntity
  8
化粧台
  6
EXLTYPE2
 62
     6
100
AcDbVertex
100
AcDb2dVertex
 10
918.5
 20
1155.207107
 30
0.0
  0
VERTEX
  5
522
100
AcDbEntity
  8
化粧台
  6
EXLTYPE2
 62
     6
100
AcDbVertex
100
AcDb2dVertex
 10
915.0
 20
1157.707107
 30
0.0
  0
VERTEX
  5
523
100
AcDbEntity
  8
化粧台
  6
EXLTYPE2
 62
     6
100
AcDbVertex
100
AcDb2dVertex
 10
918.5
 20
1160.207107
 30
0.0
  0
VERTEX
  5
524
100
AcDbEntity
  8
化粧台
  6
EXLTYPE2
 62
     6
100
AcDbVertex
100
AcDb2dVertex
 10
915.0
 20
1162.707107
 30
0.0
  0
VERTEX
  5
525
100
AcDbEntity
  8
化粧台
  6
EXLTYPE2
 62
     6
100
AcDbVertex
100
AcDb2dVertex
 10
918.5
 20
1165.207107
 30
0.0
  0
VERTEX
  5
526
100
AcDbEntity
  8
化粧台
  6
EXLTYPE2
 62
     6
100
AcDbVertex
100
AcDb2dVertex
 10
915.0
 20
1167.707107
 30
0.0
  0
VERTEX
  5
527
100
AcDbEntity
  8
化粧台
  6
EXLTYPE2
 62
     6
100
AcDbVertex
100
AcDb2dVertex
 10
918.5
 20
1170.207107
 30
0.0
  0
VERTEX
  5
528
100
AcDbEntity
  8
化粧台
  6
EXLTYPE2
 62
     6
100
AcDbVertex
100
AcDb2dVertex
 10
915.0
 20
1172.707107
 30
0.0
  0
VERTEX
  5
529
100
AcDbEntity
  8
化粧台
  6
EXLTYPE2
 62
     6
100
AcDbVertex
100
AcDb2dVertex
 10
918.5
 20
1175.207107
 30
0.0
  0
VERTEX
  5
52A
100
AcDbEntity
  8
化粧台
  6
EXLTYPE2
 62
     6
100
AcDbVertex
100
AcDb2dVertex
 10
915.0
 20
1177.707107
 30
0.0
  0
VERTEX
  5
52B
100
AcDbEntity
  8
化粧台
  6
EXLTYPE2
 62
     6
100
AcDbVertex
100
AcDb2dVertex
 10
918.5
 20
1180.207107
 30
0.0
  0
VERTEX
  5
52C
100
AcDbEntity
  8
化粧台
  6
EXLTYPE2
 62
     6
100
AcDbVertex
100
AcDb2dVertex
 10
915.0
 20
1182.707107
 30
0.0
  0
VERTEX
  5
52D
100
AcDbEntity
  8
化粧台
  6
EXLTYPE2
 62
     6
100
AcDbVertex
100
AcDb2dVertex
 10
918.5
 20
1185.207107
 30
0.0
  0
VERTEX
  5
52E
100
AcDbEntity
  8
化粧台
  6
EXLTYPE2
 62
     6
100
AcDbVertex
100
AcDb2dVertex
 10
915.0
 20
1187.707107
 30
0.0
  0
VERTEX
  5
52F
100
AcDbEntity
  8
化粧台
  6
EXLTYPE2
 62
     6
100
AcDbVertex
100
AcDb2dVertex
 10
918.5
 20
1190.207107
 30
0.0
  0
VERTEX
  5
530
100
AcDbEntity
  8
化粧台
  6
EXLTYPE2
 62
     6
100
AcDbVertex
100
AcDb2dVertex
 10
915.0
 20
1192.707107
 30
0.0
  0
VERTEX
  5
531
100
AcDbEntity
  8
化粧台
  6
EXLTYPE2
 62
     6
100
AcDbVertex
100
AcDb2dVertex
 10
918.5
 20
1195.207107
 30
0.0
  0
VERTEX
  5
532
100
AcDbEntity
  8
化粧台
  6
EXLTYPE2
 62
     6
100
AcDbVertex
100
AcDb2dVertex
 10
915.0
 20
1197.707107
 30
0.0
  0
VERTEX
  5
533
100
AcDbEntity
  8
化粧台
  6
EXLTYPE2
 62
     6
100
AcDbVertex
100
AcDb2dVertex
 10
918.5
 20
1200.207107
 30
0.0
  0
VERTEX
  5
534
100
AcDbEntity
  8
化粧台
  6
EXLTYPE2
 62
     6
100
AcDbVertex
100
AcDb2dVertex
 10
915.0
 20
1202.707107
 30
0.0
  0
VERTEX
  5
535
100
AcDbEntity
  8
化粧台
  6
EXLTYPE2
 62
     6
100
AcDbVertex
100
AcDb2dVertex
 10
918.5
 20
1205.207107
 30
0.0
  0
VERTEX
  5
536
100
AcDbEntity
  8
化粧台
  6
EXLTYPE2
 62
     6
100
AcDbVertex
100
AcDb2dVertex
 10
915.0
 20
1207.707107
 30
0.0
  0
VERTEX
  5
537
100
AcDbEntity
  8
化粧台
  6
EXLTYPE2
 62
     6
100
AcDbVertex
100
AcDb2dVertex
 10
918.5
 20
1210.207107
 30
0.0
  0
VERTEX
  5
538
100
AcDbEntity
  8
化粧台
  6
EXLTYPE2
 62
     6
100
AcDbVertex
100
AcDb2dVertex
 10
915.0
 20
1212.707107
 30
0.0
  0
VERTEX
  5
539
100
AcDbEntity
  8
化粧台
  6
EXLTYPE2
 62
     6
100
AcDbVertex
100
AcDb2dVertex
 10
918.5
 20
1215.207107
 30
0.0
  0
VERTEX
  5
53A
100
AcDbEntity
  8
化粧台
  6
EXLTYPE2
 62
     6
100
AcDbVertex
100
AcDb2dVertex
 10
915.0
 20
1217.707107
 30
0.0
  0
VERTEX
  5
53B
100
AcDbEntity
  8
化粧台
  6
EXLTYPE2
 62
     6
100
AcDbVertex
100
AcDb2dVertex
 10
918.5
 20
1220.207107
 30
0.0
  0
VERTEX
  5
53C
100
AcDbEntity
  8
化粧台
  6
EXLTYPE2
 62
     6
100
AcDbVertex
100
AcDb2dVertex
 10
915.0
 20
1222.707107
 30
0.0
  0
VERTEX
  5
53D
100
AcDbEntity
  8
化粧台
  6
EXLTYPE2
 62
     6
100
AcDbVertex
100
AcDb2dVertex
 10
918.5
 20
1225.207107
 30
0.0
  0
VERTEX
  5
53E
100
AcDbEntity
  8
化粧台
  6
EXLTYPE2
 62
     6
100
AcDbVertex
100
AcDb2dVertex
 10
915.0
 20
1227.707107
 30
0.0
  0
VERTEX
  5
53F
100
AcDbEntity
  8
化粧台
  6
EXLTYPE2
 62
     6
100
AcDbVertex
100
AcDb2dVertex
 10
918.5
 20
1230.207107
 30
0.0
  0
VERTEX
  5
540
100
AcDbEntity
  8
化粧台
  6
EXLTYPE2
 62
     6
100
AcDbVertex
100
AcDb2dVertex
 10
915.0
 20
1232.707107
 30
0.0
  0
VERTEX
  5
541
100
AcDbEntity
  8
化粧台
  6
EXLTYPE2
 62
     6
100
AcDbVertex
100
AcDb2dVertex
 10
918.5
 20
1235.207107
 30
0.0
  0
VERTEX
  5
542
100
AcDbEntity
  8
化粧台
  6
EXLTYPE2
 62
     6
100
AcDbVertex
100
AcDb2dVertex
 10
915.0
 20
1237.707107
 30
0.0
  0
VERTEX
  5
543
100
AcDbEntity
  8
化粧台
  6
EXLTYPE2
 62
     6
100
AcDbVertex
100
AcDb2dVertex
 10
918.5
 20
1240.207107
 30
0.0
  0
VERTEX
  5
544
100
AcDbEntity
  8
化粧台
  6
EXLTYPE2
 62
     6
100
AcDbVertex
100
AcDb2dVertex
 10
915.0
 20
1242.707107
 30
0.0
  0
VERTEX
  5
545
100
AcDbEntity
  8
化粧台
  6
EXLTYPE2
 62
     6
100
AcDbVertex
100
AcDb2dVertex
 10
918.5
 20
1245.207107
 30
0.0
  0
VERTEX
  5
546
100
AcDbEntity
  8
化粧台
  6
EXLTYPE2
 62
     6
100
AcDbVertex
100
AcDb2dVertex
 10
915.0
 20
1247.707107
 30
0.0
  0
VERTEX
  5
547
100
AcDbEntity
  8
化粧台
  6
EXLTYPE2
 62
     6
100
AcDbVertex
100
AcDb2dVertex
 10
918.5
 20
1250.207107
 30
0.0
  0
VERTEX
  5
548
100
AcDbEntity
  8
化粧台
  6
EXLTYPE2
 62
     6
100
AcDbVertex
100
AcDb2dVertex
 10
915.0
 20
1252.707107
 30
0.0
  0
VERTEX
  5
549
100
AcDbEntity
  8
化粧台
  6
EXLTYPE2
 62
     6
100
AcDbVertex
100
AcDb2dVertex
 10
918.5
 20
1255.207107
 30
0.0
  0
VERTEX
  5
54A
100
AcDbEntity
  8
化粧台
  6
EXLTYPE2
 62
     6
100
AcDbVertex
100
AcDb2dVertex
 10
915.0
 20
1257.707107
 30
0.0
  0
VERTEX
  5
54B
100
AcDbEntity
  8
化粧台
  6
EXLTYPE2
 62
     6
100
AcDbVertex
100
AcDb2dVertex
 10
918.5
 20
1260.207107
 30
0.0
  0
VERTEX
  5
54C
100
AcDbEntity
  8
化粧台
  6
EXLTYPE2
 62
     6
100
AcDbVertex
100
AcDb2dVertex
 10
915.0
 20
1262.707107
 30
0.0
  0
VERTEX
  5
54D
100
AcDbEntity
  8
化粧台
  6
EXLTYPE2
 62
     6
100
AcDbVertex
100
AcDb2dVertex
 10
918.5
 20
1265.207107
 30
0.0
  0
VERTEX
  5
54E
100
AcDbEntity
  8
化粧台
  6
EXLTYPE2
 62
     6
100
AcDbVertex
100
AcDb2dVertex
 10
915.0
 20
1267.707107
 30
0.0
  0
VERTEX
  5
54F
100
AcDbEntity
  8
化粧台
  6
EXLTYPE2
 62
     6
100
AcDbVertex
100
AcDb2dVertex
 10
918.5
 20
1270.207107
 30
0.0
  0
VERTEX
  5
550
100
AcDbEntity
  8
化粧台
  6
EXLTYPE2
 62
     6
100
AcDbVertex
100
AcDb2dVertex
 10
915.0
 20
1272.707107
 30
0.0
  0
VERTEX
  5
551
100
AcDbEntity
  8
化粧台
  6
EXLTYPE2
 62
     6
100
AcDbVertex
100
AcDb2dVertex
 10
918.5
 20
1275.207107
 30
0.0
  0
VERTEX
  5
552
100
AcDbEntity
  8
化粧台
  6
EXLTYPE2
 62
     6
100
AcDbVertex
100
AcDb2dVertex
 10
915.0
 20
1277.707107
 30
0.0
  0
VERTEX
  5
553
100
AcDbEntity
  8
化粧台
  6
EXLTYPE2
 62
     6
100
AcDbVertex
100
AcDb2dVertex
 10
918.5
 20
1280.207107
 30
0.0
  0
VERTEX
  5
554
100
AcDbEntity
  8
化粧台
  6
EXLTYPE2
 62
     6
100
AcDbVertex
100
AcDb2dVertex
 10
915.0
 20
1282.707107
 30
0.0
  0
VERTEX
  5
555
100
AcDbEntity
  8
化粧台
  6
EXLTYPE2
 62
     6
100
AcDbVertex
100
AcDb2dVertex
 10
918.5
 20
1285.207107
 30
0.0
  0
VERTEX
  5
556
100
AcDbEntity
  8
化粧台
  6
EXLTYPE2
 62
     6
100
AcDbVertex
100
AcDb2dVertex
 10
915.0
 20
1287.707107
 30
0.0
  0
VERTEX
  5
557
100
AcDbEntity
  8
化粧台
  6
EXLTYPE2
 62
     6
100
AcDbVertex
100
AcDb2dVertex
 10
918.5
 20
1290.207107
 30
0.0
  0
VERTEX
  5
558
100
AcDbEntity
  8
化粧台
  6
EXLTYPE2
 62
     6
100
AcDbVertex
100
AcDb2dVertex
 10
915.0
 20
1292.707107
 30
0.0
  0
VERTEX
  5
559
100
AcDbEntity
  8
化粧台
  6
EXLTYPE2
 62
     6
100
AcDbVertex
100
AcDb2dVertex
 10
918.5
 20
1295.207107
 30
0.0
  0
VERTEX
  5
55A
100
AcDbEntity
  8
化粧台
  6
EXLTYPE2
 62
     6
100
AcDbVertex
100
AcDb2dVertex
 10
915.0
 20
1297.707107
 30
0.0
  0
VERTEX
  5
55B
100
AcDbEntity
  8
化粧台
  6
EXLTYPE2
 62
     6
100
AcDbVertex
100
AcDb2dVertex
 10
918.5
 20
1300.207107
 30
0.0
  0
VERTEX
  5
55C
100
AcDbEntity
  8
化粧台
  6
EXLTYPE2
 62
     6
100
AcDbVertex
100
AcDb2dVertex
 10
915.0
 20
1302.707107
 30
0.0
  0
VERTEX
  5
55D
100
AcDbEntity
  8
化粧台
  6
EXLTYPE2
 62
     6
100
AcDbVertex
100
AcDb2dVertex
 10
918.5
 20
1305.207107
 30
0.0
  0
VERTEX
  5
55E
100
AcDbEntity
  8
化粧台
  6
EXLTYPE2
 62
     6
100
AcDbVertex
100
AcDb2dVertex
 10
915.0
 20
1307.707107
 30
0.0
  0
VERTEX
  5
55F
100
AcDbEntity
  8
化粧台
  6
EXLTYPE2
 62
     6
100
AcDbVertex
100
AcDb2dVertex
 10
918.5
 20
1310.207107
 30
0.0
  0
VERTEX
  5
560
100
AcDbEntity
  8
化粧台
  6
EXLTYPE2
 62
     6
100
AcDbVertex
100
AcDb2dVertex
 10
915.0
 20
1312.707107
 30
0.0
  0
VERTEX
  5
561
100
AcDbEntity
  8
化粧台
  6
EXLTYPE2
 62
     6
100
AcDbVertex
100
AcDb2dVertex
 10
918.5
 20
1315.207107
 30
0.0
  0
VERTEX
  5
562
100
AcDbEntity
  8
化粧台
  6
EXLTYPE2
 62
     6
100
AcDbVertex
100
AcDb2dVertex
 10
915.0
 20
1317.707107
 30
0.0
  0
VERTEX
  5
563
100
AcDbEntity
  8
化粧台
  6
EXLTYPE2
 62
     6
100
AcDbVertex
100
AcDb2dVertex
 10
918.5
 20
1320.207107
 30
0.0
  0
VERTEX
  5
564
100
AcDbEntity
  8
化粧台
  6
EXLTYPE2
 62
     6
100
AcDbVertex
100
AcDb2dVertex
 10
915.0
 20
1322.707107
 30
0.0
  0
VERTEX
  5
565
100
AcDbEntity
  8
化粧台
  6
EXLTYPE2
 62
     6
100
AcDbVertex
100
AcDb2dVertex
 10
918.5
 20
1325.207107
 30
0.0
  0
VERTEX
  5
566
100
AcDbEntity
  8
化粧台
  6
EXLTYPE2
 62
     6
100
AcDbVertex
100
AcDb2dVertex
 10
915.0
 20
1327.707107
 30
0.0
  0
VERTEX
  5
567
100
AcDbEntity
  8
化粧台
  6
EXLTYPE2
 62
     6
100
AcDbVertex
100
AcDb2dVertex
 10
918.5
 20
1330.207107
 30
0.0
  0
VERTEX
  5
568
100
AcDbEntity
  8
化粧台
  6
EXLTYPE2
 62
     6
100
AcDbVertex
100
AcDb2dVertex
 10
915.0
 20
1332.707107
 30
0.0
  0
VERTEX
  5
569
100
AcDbEntity
  8
化粧台
  6
EXLTYPE2
 62
     6
100
AcDbVertex
100
AcDb2dVertex
 10
918.5
 20
1335.207107
 30
0.0
  0
VERTEX
  5
56A
100
AcDbEntity
  8
化粧台
  6
EXLTYPE2
 62
     6
100
AcDbVertex
100
AcDb2dVertex
 10
915.0
 20
1337.707107
 30
0.0
  0
VERTEX
  5
56B
100
AcDbEntity
  8
化粧台
  6
EXLTYPE2
 62
     6
100
AcDbVertex
100
AcDb2dVertex
 10
918.5
 20
1340.207107
 30
0.0
  0
VERTEX
  5
56C
100
AcDbEntity
  8
化粧台
  6
EXLTYPE2
 62
     6
100
AcDbVertex
100
AcDb2dVertex
 10
915.0
 20
1342.707107
 30
0.0
  0
VERTEX
  5
56D
100
AcDbEntity
  8
化粧台
  6
EXLTYPE2
 62
     6
100
AcDbVertex
100
AcDb2dVertex
 10
918.5
 20
1345.207107
 30
0.0
  0
VERTEX
  5
56E
100
AcDbEntity
  8
化粧台
  6
EXLTYPE2
 62
     6
100
AcDbVertex
100
AcDb2dVertex
 10
915.0
 20
1347.707107
 30
0.0
  0
VERTEX
  5
56F
100
AcDbEntity
  8
化粧台
  6
EXLTYPE2
 62
     6
100
AcDbVertex
100
AcDb2dVertex
 10
918.5
 20
1350.207107
 30
0.0
  0
VERTEX
  5
570
100
AcDbEntity
  8
化粧台
  6
EXLTYPE2
 62
     6
100
AcDbVertex
100
AcDb2dVertex
 10
915.7
 20
1352.207107
 30
0.0
  0
SEQEND
  5
571
100
AcDbEntity
  8
化粧台
  6
EXLTYPE2
 62
     6
  0
LINE
  5
572
100
AcDbEntity
  8
化粧台
  6
EXLTYPE3
 62
     6
100
AcDbLine
 10
932.5
 20
1236.0
 30
0.0
 11
932.5
 21
889.0
 31
0.0
  0
LINE
  5
573
100
AcDbEntity
  8
化粧台
  6
CONTINUOUS
 62
     2
100
AcDbLine
 10
1291.0
 20
1034.5
 30
0.0
 11
574.0
 21
1034.5
 31
0.0
  0
LINE
  5
574
100
AcDbEntity
  8
化粧台
  6
CONTINUOUS
 62
     2
100
AcDbLine
 10
1290.0
 20
1034.5
 30
0.0
 11
1290.0
 21
1031.0
 31
0.0
  0
LINE
  5
575
100
AcDbEntity
  8
化粧台
  6
CONTINUOUS
 62
     2
100
AcDbLine
 10
1277.0
 20
1034.5
 30
0.0
 11
1277.0
 21
1031.0
 31
0.0
  0
LINE
  5
576
100
AcDbEntity
  8
化粧台
  6
CONTINUOUS
 62
     2
100
AcDbLine
 10
1277.0
 20
1031.0
 30
0.0
 11
1290.0
 21
1031.0
 31
0.0
  0
LINE
  5
577
100
AcDbEntity
  8
化粧台
  6
CONTINUOUS
 62
     2
100
AcDbLine
 10
1276.0
 20
1126.0
 30
0.0
 11
1276.0
 21
1034.5
 31
0.0
  0
LINE
  5
578
100
AcDbEntity
  8
化粧台
  6
CONTINUOUS
 62
     2
100
AcDbLine
 10
1291.0
 20
1633.849
 30
0.0
 11
1291.0
 21
1034.5
 31
0.0
  0
LINE
  5
579
100
AcDbEntity
  8
化粧台
  6
CONTINUOUS
 62
     2
100
AcDbLine
 10
589.0
 20
1126.0
 30
0.0
 11
589.0
 21
1034.5
 31
0.0
  0
LINE
  5
57A
100
AcDbEntity
  8
化粧台
  6
CONTINUOUS
 62
     2
100
AcDbLine
 10
574.0
 20
1633.849
 30
0.0
 11
574.0
 21
1034.5
 31
0.0
  0
LINE
  5
57B
100
AcDbEntity
  8
化粧台
  6
CONTINUOUS
 62
     2
100
AcDbLine
 10
575.0
 20
1034.5
 30
0.0
 11
575.0
 21
1031.0
 31
0.0
  0
LINE
  5
57C
100
AcDbEntity
  8
化粧台
  6
CONTINUOUS
 62
     2
100
AcDbLine
 10
588.0
 20
1034.5
 30
0.0
 11
588.0
 21
1031.0
 31
0.0
  0
LINE
  5
57D
100
AcDbEntity
  8
化粧台
  6
CONTINUOUS
 62
     2
100
AcDbLine
 10
588.0
 20
1031.0
 30
0.0
 11
575.0
 21
1031.0
 31
0.0
  0
LINE
  5
57E
100
AcDbEntity
  8
化粧台
  6
EXLTYPE3
 62
     6
100
AcDbLine
 10
932.5
 20
1853.163506
 30
0.0
 11
932.5
 21
1551.0
 31
0.0
  0
LINE
  5
57F
100
AcDbEntity
  8
化粧台
  6
EXLTYPE4
 62
     6
100
AcDbLine
 10
1688.0
 20
1031.0
 30
0.0
 11
360.0
 21
1031.0
 31
0.0
  0
LINE
  5
580
100
AcDbEntity
  8
化粧台
  6
CONTINUOUS
 62
     2
100
AcDbLine
 10
557.5
 20
4005.0
 30
0.0
 11
1307.5
 21
4005.0
 31
0.0
  0
LINE
  5
581
100
AcDbEntity
  8
化粧台
  6
CONTINUOUS
 62
     2
100
AcDbLine
 10
1227.5
 20
3842.532222
 30
0.0
 11
1227.5
 21
3610.542237
 31
0.0
  0
LINE
  5
582
100
AcDbEntity
  8
化粧台
  6
EXLTYPE2
 62
     6
100
AcDbLine
 10
1227.5
 20
3965.0
 30
0.0
 11
1227.5
 21
3845.000108
 31
0.0
  0
LINE
  5
583
100
AcDbEntity
  8
化粧台
  6
CONTINUOUS
 62
     2
100
AcDbLine
 10
1287.5
 20
1618.0
 30
0.0
 11
577.5
 21
1618.0
 31
0.0
  0
LINE
  5
584
100
AcDbEntity
  8
化粧台
  6
CONTINUOUS
 62
     2
100
AcDbLine
 10
577.5
 20
1126.0
 30
0.0
 11
931.5
 21
1126.0
 31
0.0
  0
LINE
  5
585
100
AcDbEntity
  8
化粧台
  6
CONTINUOUS
 62
     2
100
AcDbLine
 10
2127.5
 20
1618.0
 30
0.0
 11
2112.5
 21
1618.0
 31
0.0
  0
LINE
  5
586
100
AcDbEntity
  8
化粧台
  6
CONTINUOUS
 62
     2
100
AcDbLine
 10
2127.5
 20
1126.0
 30
0.0
 11
2112.5
 21
1126.0
 31
0.0
  0
LINE
  5
587
100
AcDbEntity
  8
化粧台
  6
CONTINUOUS
 62
     2
100
AcDbLine
 10
2127.5
 20
1450.0
 30
0.0
 11
2112.5
 21
1450.0
 31
0.0
  0
LINE
  5
588
100
AcDbEntity
  8
化粧台
  6
CONTINUOUS
 62
     2
100
AcDbLine
 10
2127.5
 20
1618.0
 30
0.0
 11
2127.5
 21
1450.0
 31
0.0
  0
LINE
  5
589
100
AcDbEntity
  8
化粧台
  6
CONTINUOUS
 62
     2
100
AcDbLine
 10
2112.5
 20
1618.0
 30
0.0
 11
2112.5
 21
1450.0
 31
0.0
  0
LINE
  5
58A
100
AcDbEntity
  8
化粧台
  6
CONTINUOUS
 62
     2
100
AcDbLine
 10
2127.5
 20
1444.0
 30
0.0
 11
2112.5
 21
1444.0
 31
0.0
  0
LINE
  5
58B
100
AcDbEntity
  8
化粧台
  6
CONTINUOUS
 62
     2
100
AcDbLine
 10
2127.5
 20
1444.0
 30
0.0
 11
2127.5
 21
1126.0
 31
0.0
  0
LINE
  5
58C
100
AcDbEntity
  8
化粧台
  6
CONTINUOUS
 62
     2
100
AcDbLine
 10
2112.5
 20
1444.0
 30
0.0
 11
2112.5
 21
1126.0
 31
0.0
  0
LINE
  5
58D
100
AcDbEntity
  8
化粧台
  6
CONTINUOUS
 62
     2
100
AcDbLine
 10
577.5
 20
1444.0
 30
0.0
 11
577.5
 21
1126.0
 31
0.0
  0
LINE
  5
58E
100
AcDbEntity
  8
化粧台
  6
CONTINUOUS
 62
     2
100
AcDbLine
 10
577.5
 20
1444.0
 30
0.0
 11
931.5
 21
1444.0
 31
0.0
  0
LINE
  5
58F
100
AcDbEntity
  8
化粧台
  6
CONTINUOUS
 62
     2
100
AcDbLine
 10
577.5
 20
1450.0
 30
0.0
 11
1287.5
 21
1450.0
 31
0.0
  0
LINE
  5
590
100
AcDbEntity
  8
化粧台
  6
CONTINUOUS
 62
     2
100
AcDbLine
 10
577.5
 20
1618.0
 30
0.0
 11
577.5
 21
1450.0
 31
0.0
  0
LINE
  5
591
100
AcDbEntity
  8
化粧台
  6
CONTINUOUS
 62
     2
100
AcDbLine
 10
1287.5
 20
1618.0
 30
0.0
 11
1287.5
 21
1450.0
 31
0.0
  0
LINE
  5
592
100
AcDbEntity
  8
化粧台
  6
CONTINUOUS
 62
     2
100
AcDbLine
 10
1287.5
 20
1444.0
 30
0.0
 11
1287.5
 21
1126.0
 31
0.0
  0
LINE
  5
593
100
AcDbEntity
  8
化粧台
  6
CONTINUOUS
 62
     2
100
AcDbLine
 10
933.5
 20
1444.0
 30
0.0
 11
1287.5
 21
1444.0
 31
0.0
  0
LINE
  5
594
100
AcDbEntity
  8
化粧台
  6
CONTINUOUS
 62
     2
100
AcDbLine
 10
637.5
 20
3819.128072
 30
0.0
 11
637.5
 21
3610.615017
 31
0.0
  0
LINE
  5
595
100
AcDbEntity
  8
化粧台
  6
EXLTYPE2
 62
     6
100
AcDbLine
 10
637.5
 20
3965.0
 30
0.0
 11
637.5
 21
3819.128072
 31
0.0
  0
ARC
  5
596
100
AcDbEntity
  8
化粧台
  6
CONTINUOUS
 62
     2
100
AcDbCircle
 10
932.5
 20
3565.0
 30
0.0
 40
300.0
100
AcDbArc
 50
126.599132
 51
167.489219
  0
ARC
  5
597
100
AcDbEntity
  8
化粧台
  6
EXLTYPE2
 62
     6
100
AcDbCircle
 10
932.5
 20
3565.0
 30
0.0
 40
300.0
100
AcDbArc
 50
105.46601
 51
126.599132
  0
ARC
  5
598
100
AcDbEntity
  8
化粧台
  6
CONTINUOUS
 62
     2
100
AcDbCircle
 10
932.5
 20
3565.0
 30
0.0
 40
300.0
100
AcDbArc
 50
12.510781
 51
53.400868
  0
ARC
  5
599
100
AcDbEntity
  8
化粧台
  6
EXLTYPE2
 62
     6
100
AcDbCircle
 10
932.5
 20
3565.0
 30
0.0
 40
300.0
100
AcDbArc
 50
53.400868
 51
72.696463
  0
ARC
  5
59A
100
AcDbEntity
  8
化粧台
  6
CONTINUOUS
 62
     2
100
AcDbCircle
 10
932.5
 20
3775.0
 30
0.0
 40
32.0
100
AcDbArc
 50
140.839123
 51
39.160877
  0
ARC
  5
59B
100
AcDbEntity
  8
化粧台
  6
CONTINUOUS
 62
     2
100
AcDbCircle
 10
932.5
 20
3775.0
 30
0.0
 40
21.0
100
AcDbArc
 50
107.630089
 51
72.369911
  0
ARC
  5
59C
100
AcDbEntity
  8
化粧台
  6
EXLTYPE2
 62
     6
100
AcDbCircle
 10
932.5
 20
3775.0
 30
0.0
 40
21.0
100
AcDbArc
 50
72.369911
 51
107.630089
  0
ARC
  5
59D
100
AcDbEntity
  8
化粧台
  6
EXLTYPE2
 62
     6
100
AcDbCircle
 10
932.5
 20
3775.0
 30
0.0
 40
32.0
100
AcDbArc
 50
39.160877
 51
140.839123
  0
TEXT
  5
59E
100
AcDbEntity
  8
化粧台
  6
CONTINUOUS
 62
     2
100
AcDbText
 10
1373.0
 20
4093.25
 30
0.0
 40
60.0
  1
コード長さ：１ｍ
 41
0.693
  7
EXCADSTD
 72
     5
 11
1768.999999
 21
4093.25
 31
0.0
100
AcDbText
  0
LEADER
  5
59F
100
AcDbEntity
  8
化粧台
  6
CONTINUOUS
 62
     3
100
AcDbLeader
  3
STANDARD
 73
     3
 74
     1
 75
     0
 40
0.0
 76
     3
 10
1328.464426
 20
3996.459931
 30
0.0
 10
1365.5
 20
4088.0
 30
0.0
 10
1765.5
 20
4088.0
 30
0.0
 77
     3
1001
ACAD
1000
DSTYLE
1002
{
1070
    41
1040
45.0
1070
     5
1000
_EX_NORM
1070
     6
1000
_EX_NORM
1070
     7
1000
_EX_NORM
1070
   341
1005
2A
1002
}
  0
LINE
  5
5A0
100
AcDbEntity
  8
化粧台
  6
CONTINUOUS
 62
     6
100
AcDbLine
 10
831.0
 20
1802.663506
 30
0.0
 11
840.089055
 21
1932.507149
 31
0.0
  0
ARC
  5
5A1
100
AcDbEntity
  8
化粧台
  6
CONTINUOUS
 62
     6
100
AcDbCircle
 10
846.928753
 20
1971.510452
 30
0.0
 40
5.928753
100
AcDbArc
 50
106.693736
 51
278.103771
  0
LINE
  5
5A2
100
AcDbEntity
  8
化粧台
  6
CONTINUOUS
 62
     6
100
AcDbLine
 10
851.105938
 20
1978.952791
 30
0.0
 11
845.225684
 21
1977.189331
 31
0.0
  0
ARC
  5
5A3
100
AcDbEntity
  8
化粧台
  6
CONTINUOUS
 62
     6
100
AcDbCircle
 10
852.80754
 20
1973.278805
 30
0.0
 40
5.923645
100
AcDbArc
 50
83.379913
 51
263.379913
  0
LINE
  5
5A4
100
AcDbEntity
  8
化粧台
  6
CONTINUOUS
 62
     6
100
AcDbLine
 10
853.49045
 20
1979.162953
 30
0.0
 11
869.06397
 21
1977.355502
 31
0.0
  0
ARC
  5
5A5
100
AcDbEntity
  8
化粧台
  6
CONTINUOUS
 62
     6
100
AcDbCircle
 10
868.071247
 20
1971.510452
 30
0.0
 40
5.928753
100
AcDbArc
 50
261.896229
 51
80.36087
  0
ELLIPSE
  5
5A6
100
AcDbEntity
  8
化粧台
  6
CONTINUOUS
 62
     6
100
AcDbEllipse
 10
857.5
 20
1976.860057
 30
0.0
 11
25.000000000000021
 21
0.0
 31
0.0
210
0.0
220
0.0
230
1.0
 40
0.258819
 41
0.0324770040074154
 42
3.1091156495823729
  0
LINE
  5
5A7
100
AcDbEntity
  8
化粧台
  6
CONTINUOUS
 62
     6
100
AcDbLine
 10
829.514765
 20
1953.183265
 30
0.0
 11
832.513183
 21
1977.070162
 31
0.0
  0
ELLIPSE
  5
5A8
100
AcDbEntity
  8
化粧台
  6
CONTINUOUS
 62
     6
100
AcDbEllipse
 10
857.5
 20
1952.947948
 30
0.0
 11
28.000000000000021
 21
0.0
 31
0.0
210
0.0
220
0.0
230
1.0
 40
0.258819
 41
6.251656649495879
 42
3.1731213112735417
  0
LINE
  5
5A9
100
AcDbEntity
  8
化粧台
  6
CONTINUOUS
 62
     6
100
AcDbLine
 10
829.513916
 20
1952.7195
 30
0.0
 11
830.836627
 21
1941.864949
 31
0.0
  0
ARC
  5
5AA
100
AcDbEntity
  8
化粧台
  6
CONTINUOUS
 62
     6
100
AcDbCircle
 10
840.763197
 20
1943.074578
 30
0.0
 40
10.0
100
AcDbArc
 50
186.947681
 51
235.665892
  0
LINE
  5
5AB
100
AcDbEntity
  8
化粧台
  6
CONTINUOUS
 62
     6
100
AcDbLine
 10
874.910945
 20
1932.507149
 30
0.0
 11
884.0
 21
1802.663506
 31
0.0
  0
LINE
  5
5AC
100
AcDbEntity
  8
化粧台
  6
CONTINUOUS
 62
     6
100
AcDbLine
 10
867.235492
 20
1965.640901
 30
0.0
 11
852.12463
 21
1967.394656
 31
0.0
  0
ARC
  5
5AD
100
AcDbEntity
  8
化粧台
  6
CONTINUOUS
 62
     6
100
AcDbCircle
 10
857.5
 20
1897.268033
 30
0.0
 40
69.0625
100
AcDbArc
 50
81.896229
 51
98.103771
  0
LINE
  5
5AE
100
AcDbEntity
  8
化粧台
  6
CONTINUOUS
 62
     6
100
AcDbLine
 10
882.486817
 20
1977.070162
 30
0.0
 11
885.485235
 21
1953.183265
 31
0.0
  0
ARC
  5
5AF
100
AcDbEntity
  8
化粧台
  6
CONTINUOUS
 62
     6
100
AcDbCircle
 10
874.236803
 20
1943.074578
 30
0.0
 40
10.0
100
AcDbArc
 50
304.334108
 51
353.052319
  0
LINE
  5
5B0
100
AcDbEntity
  8
化粧台
  6
CONTINUOUS
 62
     6
100
AcDbLine
 10
885.486084
 20
1952.7195
 30
0.0
 11
884.163373
 21
1941.864949
 31
0.0
  0
ELLIPSE
  5
5B1
100
AcDbEntity
  8
化粧台
  6
CONTINUOUS
 62
     6
100
AcDbEllipse
 10
857.5
 20
1936.527209
 30
0.0
 11
23.33225127611901
 21
0.0
 31
0.0
210
0.0
220
0.0
230
1.0
 40
0.258819
 41
5.0038110140578498
 42
4.4209669467115411
  0
ELLIPSE
  5
5B2
100
AcDbEntity
  8
化粧台
  6
CONTINUOUS
 62
     6
100
AcDbEllipse
 10
857.5
 20
1936.527209
 30
0.0
 11
14.000000000000011
 21
0.0
 31
0.0
210
0.0
220
0.0
230
1.0
 40
0.258819
 41
0.2796079104233318
 42
2.8619847431664596
  0
ARC
  5
5B3
100
AcDbEntity
  8
化粧台
  6
CONTINUOUS
 62
     6
100
AcDbCircle
 10
874.760714
 20
1931.490569
 30
0.0
 40
6.0
100
AcDbArc
 50
122.918967
 51
154.422199
  0
ARC
  5
5B4
100
AcDbEntity
  8
化粧台
  6
CONTINUOUS
 62
     6
100
AcDbCircle
 10
865.220866
 20
1936.056755
 30
0.0
 40
4.57633
100
AcDbArc
 50
292.306435
 51
334.422199
  0
ARC
  5
5B5
100
AcDbEntity
  8
化粧台
  6
CONTINUOUS
 62
     6
100
AcDbCircle
 10
849.779134
 20
1936.056755
 30
0.0
 40
4.57633
100
AcDbArc
 50
205.577801
 51
247.693565
  0
ARC
  5
5B6
100
AcDbEntity
  8
化粧台
  6
CONTINUOUS
 62
     6
100
AcDbCircle
 10
840.239286
 20
1931.490569
 30
0.0
 40
6.0
100
AcDbArc
 50
25.577801
 51
57.081033
  0
ELLIPSE
  5
5B7
100
AcDbEntity
  8
化粧台
  6
CONTINUOUS
 62
     6
100
AcDbEllipse
 10
857.5
 20
1932.663506
 30
0.0
 11
9.9999999999999964
 21
0.0
 31
0.0
210
0.0
220
0.0
230
1.0
 40
0.258819
 41
0.0
 42
6.2831853071796004
  0
LINE
  5
5B8
100
AcDbEntity
  8
化粧台
  6
CONTINUOUS
 62
     6
100
AcDbLine
 10
834.5
 20
1852.663506
 30
0.0
 11
880.5
 21
1852.663506
 31
0.0
  0
LINE
  5
5B9
100
AcDbEntity
  8
化粧台
  6
CONTINUOUS
 62
     6
100
AcDbLine
 10
1009.0
 20
1890.67921
 30
0.0
 11
1009.0
 21
1883.7725
 31
0.0
  0
LINE
  5
5BA
100
AcDbEntity
  8
化粧台
  6
CONTINUOUS
 62
     6
100
AcDbLine
 10
986.0
 20
1890.67921
 30
0.0
 11
986.0
 21
1883.7725
 31
0.0
  0
ELLIPSE
  5
5BB
100
AcDbEntity
  8
化粧台
  6
CONTINUOUS
 62
     6
100
AcDbEllipse
 10
997.5
 20
1887.156469
 30
0.0
 11
11.500000000000059
 21
0.0
 31
0.0
210
0.0
220
0.0
230
1.0
 40
0.851562
 41
3.1415926535897931
 42
0.0
  0
ELLIPSE
  5
5BC
100
AcDbEntity
  8
化粧台
  6
CONTINUOUS
 62
     6
100
AcDbEllipse
 10
997.5
 20
1883.7725
 30
0.0
 11
11.500000000000059
 21
0.0
 31
0.0
210
0.0
220
0.0
230
1.0
 40
0.990295
 41
3.1415926535897931
 42
0.0
  0
ELLIPSE
  5
5BD
100
AcDbEntity
  8
化粧台
  6
CONTINUOUS
 62
     6
100
AcDbEllipse
 10
997.5
 20
1887.156469
 30
0.0
 11
11.500000000000059
 21
0.0
 31
0.0
210
0.0
220
0.0
230
1.0
 40
0.294258
 41
3.1415926535897931
 42
0.0
  0
ELLIPSE
  5
5BE
100
AcDbEntity
  8
化粧台
  6
CONTINUOUS
 62
     6
100
AcDbEllipse
 10
997.5
 20
1890.67921
 30
0.0
 11
11.500000000000059
 21
0.0
 31
0.0
210
0.0
220
0.0
230
1.0
 40
0.294258
 41
0.0
 42
3.1415926535897931
  0
LINE
  5
5BF
100
AcDbEntity
  8
化粧台
  6
CONTINUOUS
 62
     6
100
AcDbLine
 10
978.44346
 20
1900.755107
 30
0.0
 11
978.095419
 21
1890.788499
 31
0.0
  0
ELLIPSE
  5
5C0
100
AcDbEntity
  8
化粧台
  6
CONTINUOUS
 62
     6
100
AcDbEllipse
 10
997.5
 20
1900.663506
 30
0.0
 11
19.059738539139989
 21
0.0
 31
0.0
210
0.0
220
0.0
230
1.0
 40
0.262333
 41
0.0
 42
3.1415926535897931
  0
LINE
  5
5C1
100
AcDbEntity
  8
化粧台
  6
CONTINUOUS
 62
     6
100
AcDbLine
 10
1016.55654
 20
1900.755107
 30
0.0
 11
1016.904581
 21
1890.788499
 31
0.0
  0
ARC
  5
5C2
100
AcDbEntity
  8
化粧台
  6
CONTINUOUS
 62
     6
100
AcDbCircle
 10
944.5
 20
1848.663506
 30
0.0
 40
80.0
100
AcDbArc
 50
0.0
 51
19.722278
  0
ARC
  5
5C3
100
AcDbEntity
  8
化粧台
  6
CONTINUOUS
 62
     6
100
AcDbCircle
 10
1066.874123
 20
1892.533474
 30
0.0
 40
50.0
100
AcDbArc
 50
182.0
 51
199.722278
  0
ARC
  5
5C4
100
AcDbEntity
  8
化粧台
  6
CONTINUOUS
 62
     6
100
AcDbCircle
 10
1050.5
 20
1848.663506
 30
0.0
 40
80.0
100
AcDbArc
 50
160.277722
 51
180.0
  0
ARC
  5
5C5
100
AcDbEntity
  8
化粧台
  6
CONTINUOUS
 62
     6
100
AcDbCircle
 10
928.125877
 20
1892.533474
 30
0.0
 40
50.0
100
AcDbArc
 50
340.277722
 51
358.0
  0
LINE
  5
5C6
100
AcDbEntity
  8
化粧台
  6
CONTINUOUS
 62
     6
100
AcDbLine
 10
1024.5
 20
1848.663506
 30
0.0
 11
1024.5
 21
1802.663506
 31
0.0
  0
LINE
  5
5C7
100
AcDbEntity
  8
化粧台
  6
CONTINUOUS
 62
     6
100
AcDbLine
 10
970.5
 20
1848.663506
 30
0.0
 11
970.5
 21
1802.663506
 31
0.0
  0
LINE
  5
5C8
100
AcDbEntity
  8
化粧台
  6
CONTINUOUS
 62
     6
100
AcDbLine
 10
970.5
 20
1848.663506
 30
0.0
 11
1024.5
 21
1848.663506
 31
0.0
  0
LINE
  5
5C9
100
AcDbEntity
  8
化粧台
  6
CONTINUOUS
 62
     6
100
AcDbLine
 10
937.5
 20
1804.599772
 30
0.0
 11
935.919606
 21
1811.845623
 31
0.0
  0
LINE
  5
5CA
100
AcDbEntity
  8
化粧台
  6
CONTINUOUS
 62
     6
100
AcDbLine
 10
924.5
 20
1804.599772
 30
0.0
 11
940.5
 21
1804.599772
 31
0.0
  0
LINE
  5
5CB
100
AcDbEntity
  8
化粧台
  6
CONTINUOUS
 62
     6
100
AcDbLine
 10
924.5
 20
1804.599772
 30
0.0
 11
924.5
 21
1802.599772
 31
0.0
  0
LINE
  5
5CC
100
AcDbEntity
  8
化粧台
  6
CONTINUOUS
 62
     6
100
AcDbLine
 10
940.5
 20
1804.599772
 30
0.0
 11
940.5
 21
1802.599772
 31
0.0
  0
LINE
  5
5CD
100
AcDbEntity
  8
化粧台
  6
CONTINUOUS
 62
     6
100
AcDbLine
 10
927.5
 20
1804.599772
 30
0.0
 11
929.080394
 21
1811.845623
 31
0.0
  0
ARC
  5
5CE
100
AcDbEntity
  8
化粧台
  6
CONTINUOUS
 62
     6
100
AcDbCircle
 10
932.5
 20
1811.099772
 30
0.0
 40
3.5
100
AcDbArc
 50
12.304098
 51
167.695902
  0
LINE
  5
5CF
100
AcDbEntity
  8
化粧台
  6
EXLTYPE3
 62
     6
100
AcDbLine
 10
997.5
 20
1891.3
 30
0.0
 11
997.5
 21
1785.1
 31
0.0
  0
LINE
  5
5D0
100
AcDbEntity
  8
化粧台
  6
EXLTYPE3
 62
     6
100
AcDbLine
 10
857.5
 20
1905.763506
 30
0.0
 11
857.5
 21
1785.1
 31
0.0
  0
LINE
  5
5D1
100
AcDbEntity
  8
化粧台
  6
CONTINUOUS
 62
     2
100
AcDbLine
 10
557.5
 20
1826.0
 30
0.0
 11
832.633555
 21
1826.0
 31
0.0
  0
LINE
  5
5D2
100
AcDbEntity
  8
化粧台
  6
CONTINUOUS
 62
     2
100
AcDbLine
 10
932.5
 20
1826.0
 30
0.0
 11
970.5
 21
1826.0
 31
0.0
  0
LINE
  5
5D3
100
AcDbEntity
  8
化粧台
  6
CONTINUOUS
 62
     2
100
AcDbLine
 10
1024.5
 20
1826.0
 30
0.0
 11
1307.5
 21
1826.0
 31
0.0
  0
LINE
  5
5D4
100
AcDbEntity
  8
化粧台
  6
CONTINUOUS
 62
     2
100
AcDbLine
 10
882.366445
 20
1826.0
 30
0.0
 11
932.5
 21
1826.0
 31
0.0
  0
LINE
  5
5D5
100
AcDbEntity
  8
化粧台
  6
EXLTYPE3
 62
     6
100
AcDbLine
 10
857.5
 20
3943.0
 30
0.0
 11
857.5
 21
3739.7
 31
0.0
  0
LINE
  5
5D6
100
AcDbEntity
  8
化粧台
  6
EXLTYPE3
 62
     6
100
AcDbLine
 10
997.5
 20
3943.0
 30
0.0
 11
997.5
 21
3881.25
 31
0.0
  0
ARC
  5
5D7
100
AcDbEntity
  8
化粧台
  6
CONTINUOUS
 62
     6
100
AcDbCircle
 10
857.5
 20
3796.646857
 30
0.0
 40
28.844291
100
AcDbArc
 50
236.056474
 51
284.0
  0
LINE
  5
5D8
100
AcDbEntity
  8
化粧台
  6
CONTINUOUS
 62
     6
100
AcDbLine
 10
841.394055
 20
3772.71797
 30
0.0
 11
847.018184
 21
3762.990815
 31
0.0
  0
ARC
  5
5D9
100
AcDbEntity
  8
化粧台
  6
CONTINUOUS
 62
     6
100
AcDbCircle
 10
873.0
 20
3769.753508
 30
0.0
 40
1.0
100
AcDbArc
 50
284.0
 51
104.0
  0
ARC
  5
5DA
100
AcDbEntity
  8
化粧台
  6
CONTINUOUS
 62
     6
100
AcDbCircle
 10
847.883895
 20
3763.49136
 30
0.0
 40
1.0
100
AcDbArc
 50
104.0
 51
284.0
  0
LINE
  5
5DB
100
AcDbEntity
  8
化粧台
  6
CONTINUOUS
 62
     6
100
AcDbLine
 10
873.241922
 20
3768.783212
 30
0.0
 11
848.125817
 21
3762.521064
 31
0.0
  0
LINE
  5
5DC
100
AcDbEntity
  8
化粧台
  6
CONTINUOUS
 62
     6
100
AcDbLine
 10
872.758078
 20
3770.723804
 30
0.0
 11
847.641973
 21
3764.461655
 31
0.0
  0
ELLIPSE
  5
5DD
100
AcDbEntity
  8
化粧台
  6
CONTINUOUS
 62
     6
100
AcDbEllipse
 10
857.5
 20
3785.0
 30
0.0
 11
26.750000000000018
 21
0.0
 31
0.0
210
0.0
220
0.0
230
1.0
 40
0.965926
 41
3.2640584322299713
 42
6.1607195285394081
  0
ELLIPSE
  5
5DE
100
AcDbEntity
  8
化粧台
  6
CONTINUOUS
 62
     6
100
AcDbEllipse
 10
857.5
 20
3790.4352
 30
0.0
 11
28.000000000000018
 21
0.0
 31
0.0
210
0.0
220
0.0
230
1.0
 40
0.965926
 41
2.8387917476743922
 42
4.2574866327779004
  0
ELLIPSE
  5
5DF
100
AcDbEntity
  8
化粧台
  6
CONTINUOUS
 62
     6
100
AcDbEllipse
 10
857.5
 20
3796.646857
 30
0.0
 11
25.000000000000018
 21
0.0
 31
0.0
210
0.0
220
0.0
230
1.0
 40
0.965926
 41
3.0698472745072269
 42
6.2499859535860134
  0
ELLIPSE
  5
5E0
100
AcDbEntity
  8
化粧台
  6
CONTINUOUS
 62
     6
100
AcDbEllipse
 10
857.5
 20
3790.4352
 30
0.0
 11
28.000000000000018
 21
0.0
 31
0.0
210
0.0
220
0.0
230
1.0
 40
0.965926
 41
4.5513764937930521
 42
0.198325899233788
  0
ARC
  5
5E1
100
AcDbEntity
  8
化粧台
  6
EXLTYPE2
 62
     6
100
AcDbCircle
 10
857.5
 20
3721.538078
 30
0.0
 40
118.972961
100
AcDbArc
 50
81.541545
 51
98.458455
  0
ARC
  5
5E2
100
AcDbEntity
  8
化粧台
  6
EXLTYPE2
 62
     6
100
AcDbCircle
 10
857.5
 20
3910.0
 30
0.0
 40
26.5
100
AcDbArc
 50
314.347312
 51
225.652688
  0
ARC
  5
5E3
100
AcDbEntity
  8
化粧台
  6
EXLTYPE2
 62
     6
100
AcDbCircle
 10
1375.0
 20
3859.071128
 30
0.0
 40
500.0
100
AcDbArc
 50
174.379433
 51
180.0
  0
ARC
  5
5E4
100
AcDbEntity
  8
化粧台
  6
EXLTYPE2
 62
     6
100
AcDbCircle
 10
857.5
 20
3910.0
 30
0.0
 40
20.0
100
AcDbArc
 50
354.379433
 51
185.620567
  0
LINE
  5
5E5
100
AcDbEntity
  8
化粧台
  6
EXLTYPE2
 62
     6
100
AcDbLine
 10
875.0
 20
3859.071128
 30
0.0
 11
875.0
 21
3831.673977
 31
0.0
  0
LINE
  5
5E6
100
AcDbEntity
  8
化粧台
  6
EXLTYPE2
 62
     6
100
AcDbLine
 10
840.0
 20
3859.071128
 30
0.0
 11
840.0
 21
3831.673977
 31
0.0
  0
ARC
  5
5E7
100
AcDbEntity
  8
化粧台
  6
EXLTYPE2
 62
     6
100
AcDbCircle
 10
340.0
 20
3859.071128
 30
0.0
 40
500.0
100
AcDbArc
 50
0.0
 51
5.846158
  0
ARC
  5
5E8
100
AcDbEntity
  8
化粧台
  6
EXLTYPE2
 62
     6
100
AcDbCircle
 10
935.0
 20
3831.673977
 30
0.0
 40
60.0
100
AcDbArc
 50
180.0
 51
208.635347
  0
ARC
  5
5E9
100
AcDbEntity
  8
化粧台
  6
EXLTYPE2
 62
     6
100
AcDbCircle
 10
780.0
 20
3831.673977
 30
0.0
 40
60.0
100
AcDbArc
 50
331.364653
 51
0.0
  0
ELLIPSE
  5
5EA
100
AcDbEntity
  8
化粧台
  6
EXLTYPE2
 62
     6
100
AcDbEllipse
 10
857.5
 20
3796.646857
 30
0.0
 11
25.000000000000018
 21
0.0
 31
0.0
210
0.0
220
0.0
230
1.0
 40
0.965926
 41
2.7407037625940163
 42
3.0698472745072269
  0
ELLIPSE
  5
5EB
100
AcDbEntity
  8
化粧台
  6
EXLTYPE2
 62
     6
100
AcDbEllipse
 10
857.5
 20
3790.4352
 30
0.0
 11
28.000000000000018
 21
0.0
 31
0.0
210
0.0
220
0.0
230
1.0
 40
0.965926
 41
2.6579608687873719
 42
2.8387917476743922
  0
ELLIPSE
  5
5EC
100
AcDbEntity
  8
化粧台
  6
EXLTYPE2
 62
     6
100
AcDbEllipse
 10
857.5
 20
3796.646857
 30
0.0
 11
25.000000000000018
 21
0.0
 31
0.0
210
0.0
220
0.0
230
1.0
 40
0.965926
 41
6.2499859535860134
 42
0.4008888909957785
  0
ELLIPSE
  5
5ED
100
AcDbEntity
  8
化粧台
  6
EXLTYPE2
 62
     6
100
AcDbEllipse
 10
857.5
 20
3790.4352
 30
0.0
 11
28.000000000000018
 21
0.0
 31
0.0
210
0.0
220
0.0
230
1.0
 40
0.965926
 41
0.198325899233788
 42
0.4836317848024164
  0
ARC
  5
5EE
100
AcDbEntity
  8
化粧台
  6
EXLTYPE2
 62
     6
100
AcDbCircle
 10
997.5
 20
3898.0
 30
0.0
 40
11.5
100
AcDbArc
 50
0.0
 51
180.0
  0
ARC
  5
5EF
100
AcDbEntity
  8
化粧台
  6
EXLTYPE2
 62
     6
100
AcDbCircle
 10
997.5
 20
3831.0
 30
0.0
 40
11.5
100
AcDbArc
 50
180.0
 51
0.0
  0
ARC
  5
5F0
100
AcDbEntity
  8
化粧台
  6
EXLTYPE2
 62
     6
100
AcDbCircle
 10
997.5
 20
3868.0
 30
0.0
 40
11.5
100
AcDbArc
 50
0.0
 51
180.0
  0
LINE
  5
5F1
100
AcDbEntity
  8
化粧台
  6
EXLTYPE2
 62
     6
100
AcDbLine
 10
986.0
 20
3831.0
 30
0.0
 11
986.0
 21
3898.0
 31
0.0
  0
LINE
  5
5F2
100
AcDbEntity
  8
化粧台
  6
EXLTYPE2
 62
     6
100
AcDbLine
 10
1009.0
 20
3831.0
 30
0.0
 11
1009.0
 21
3898.0
 31
0.0
  0
ARC
  5
5F3
100
AcDbEntity
  8
化粧台
  6
EXLTYPE2
 62
     6
100
AcDbCircle
 10
997.5
 20
3818.5
 30
0.0
 40
19.0
100
AcDbArc
 50
181.252467
 51
358.747533
  0
ARC
  5
5F4
100
AcDbEntity
  8
化粧台
  6
EXLTYPE2
 62
     6
100
AcDbCircle
 10
997.5
 20
3910.0
 30
0.0
 40
21.0
100
AcDbArc
 50
358.747533
 51
181.252467
  0
LINE
  5
5F5
100
AcDbEntity
  8
化粧台
  6
EXLTYPE2
 62
     6
100
AcDbLine
 10
1018.494983
 20
3909.540984
 30
0.0
 11
1016.495461
 21
3818.084699
 31
0.0
  0
LINE
  5
5F6
100
AcDbEntity
  8
化粧台
  6
EXLTYPE2
 62
     6
100
AcDbLine
 10
978.504539
 20
3818.084699
 30
0.0
 11
976.505017
 21
3909.540984
 31
0.0
  0
ARC
  5
5F7
100
AcDbEntity
  8
化粧台
  6
EXLTYPE2
 62
     6
100
AcDbCircle
 10
997.5
 20
3910.0
 30
0.0
 40
27.0
100
AcDbArc
 50
332.222181
 51
207.777819
  0
ARC
  5
5F8
100
AcDbEntity
  8
化粧台
  6
EXLTYPE2
 62
     6
100
AcDbCircle
 10
1047.931404
 20
3883.435484
 30
0.0
 40
30.0
100
AcDbArc
 50
152.222181
 51
178.747533
  0
ARC
  5
5F9
100
AcDbEntity
  8
化粧台
  6
EXLTYPE2
 62
     6
100
AcDbCircle
 10
947.068596
 20
3883.435484
 30
0.0
 40
30.0
100
AcDbArc
 50
1.252467
 51
27.777819
  0
ELLIPSE
  5
5FA
100
AcDbEntity
  8
化粧台
  6
EXLTYPE2
 62
     6
100
AcDbEllipse
 10
997.5
 20
3910.0
 30
0.0
 11
-27.000000000000028
 21
0.0000000000000033
 31
0.0
210
0.0
220
0.0
230
1.0
 40
0.888889
 41
3.1415926535897931
 42
0.0
  0
ARC
  5
5FB
100
AcDbEntity
  8
化粧台
  6
EXLTYPE2
 62
     6
100
AcDbCircle
 10
932.5
 20
3565.0
 30
0.0
 40
300.0
100
AcDbArc
 50
75.226415
 51
79.727304
  0
CIRCLE
  5
5FC
100
AcDbEntity
  8
化粧台
  6
EXLTYPE2
 62
     6
100
AcDbCircle
 10
911.8
 20
3814.7
 30
0.0
 40
3.0
  0
CIRCLE
  5
5FD
100
AcDbEntity
  8
化粧台
  6
EXLTYPE2
 62
     6
100
AcDbCircle
 10
913.7
 20
3822.9
 30
0.0
 40
3.0
  0
CIRCLE
  5
5FE
100
AcDbEntity
  8
化粧台
  6
EXLTYPE2
 62
     6
100
AcDbCircle
 10
912.962442
 20
3807.00834
 30
0.0
 40
3.0
  0
CIRCLE
  5
5FF
100
AcDbEntity
  8
化粧台
  6
EXLTYPE2
 62
     6
100
AcDbCircle
 10
918.2
 20
3800.3
 30
0.0
 40
3.0
  0
CIRCLE
  5
600
100
AcDbEntity
  8
化粧台
  6
EXLTYPE2
 62
     6
100
AcDbCircle
 10
920.15
 20
3896.7
 30
0.0
 40
3.0
  0
CIRCLE
  5
601
100
AcDbEntity
  8
化粧台
  6
EXLTYPE2
 62
     6
100
AcDbCircle
 10
918.2
 20
3889.8
 30
0.0
 40
3.0
  0
CIRCLE
  5
602
100
AcDbEntity
  8
化粧台
  6
EXLTYPE2
 62
     6
100
AcDbCircle
 10
917.3
 20
3878.1
 30
0.0
 40
3.0
  0
CIRCLE
  5
603
100
AcDbEntity
  8
化粧台
  6
EXLTYPE2
 62
     6
100
AcDbCircle
 10
917.15
 20
3868.8
 30
0.0
 40
3.0
  0
CIRCLE
  5
604
100
AcDbEntity
  8
化粧台
  6
EXLTYPE2
 62
     6
100
AcDbCircle
 10
917.6
 20
3858.15
 30
0.0
 40
3.0
  0
CIRCLE
  5
605
100
AcDbEntity
  8
化粧台
  6
EXLTYPE2
 62
     6
100
AcDbCircle
 10
916.1
 20
3849.15
 30
0.0
 40
3.0
  0
CIRCLE
  5
606
100
AcDbEntity
  8
化粧台
  6
EXLTYPE2
 62
     6
100
AcDbCircle
 10
916.4
 20
3840.45
 30
0.0
 40
3.0
  0
CIRCLE
  5
607
100
AcDbEntity
  8
化粧台
  6
EXLTYPE2
 62
     6
100
AcDbCircle
 10
916.4
 20
3834.0
 30
0.0
 40
3.0
  0
CIRCLE
  5
608
100
AcDbEntity
  8
化粧台
  6
EXLTYPE2
 62
     6
100
AcDbCircle
 10
932.5
 20
3920.0
 30
0.0
 40
8.0
  0
CIRCLE
  5
609
100
AcDbEntity
  8
化粧台
  6
EXLTYPE2
 62
     6
100
AcDbCircle
 10
932.5
 20
3920.0
 30
0.0
 40
4.991219
  0
CIRCLE
  5
60A
100
AcDbEntity
  8
化粧台
  6
EXLTYPE2
 62
     6
100
AcDbCircle
 10
923.55
 20
3904.9
 30
0.0
 40
3.0
  0
CIRCLE
  5
60B
100
AcDbEntity
  8
化粧台
  6
EXLTYPE2
 62
     6
100
AcDbCircle
 10
928.15
 20
3912.3
 30
0.0
 40
3.0
  0
CIRCLE
  5
60C
100
AcDbEntity
  8
化粧台
  6
EXLTYPE2
 62
     6
100
AcDbCircle
 10
923.151034
 20
3793.804171
 30
0.0
 40
3.0
  0
LINE
  5
60D
100
AcDbEntity
  8
化粧台
  6
EXLTYPE3
 62
     6
100
AcDbLine
 10
824.1
 20
3910.0
 30
0.0
 11
1032.6
 21
3910.0
 31
0.0
  0
LINE
  5
60E
100
AcDbEntity
  8
化粧台
  6
CONTINUOUS
 62
     6
100
AcDbLine
 10
2481.5
 20
1848.663506
 30
0.0
 11
2481.5
 21
1824.113465
 31
0.0
  0
LINE
  5
60F
100
AcDbEntity
  8
化粧台
  6
CONTINUOUS
 62
     6
100
AcDbLine
 10
2427.5
 20
1848.663506
 30
0.0
 11
2427.5
 21
1822.069765
 31
0.0
  0
LINE
  5
610
100
AcDbEntity
  8
化粧台
  6
CONTINUOUS
 62
     6
100
AcDbLine
 10
2307.998052
 20
1942.56604
 30
0.0
 11
2353.0725
 21
1930.488378
 31
0.0
  0
LINE
  5
611
100
AcDbEntity
  8
化粧台
  6
CONTINUOUS
 62
     6
100
AcDbLine
 10
2356.636165
 20
1932.276437
 30
0.0
 11
2361.981123
 21
1945.701015
 31
0.0
  0
LINE
  5
612
100
AcDbEntity
  8
化粧台
  6
CONTINUOUS
 62
     6
100
AcDbLine
 10
2305.805858
 20
1945.896377
 30
0.0
 11
2307.889277
 21
1960.194881
 31
0.0
  0
LINE
  5
613
100
AcDbEntity
  8
化粧台
  6
CONTINUOUS
 62
     6
100
AcDbLine
 10
2475.116256
 20
1886.716987
 30
0.0
 11
2475.796699
 21
1876.996381
 31
0.0
  0
ARC
  5
614
100
AcDbEntity
  8
化粧台
  6
CONTINUOUS
 62
     6
100
AcDbCircle
 10
2384.06991
 20
1891.124362
 30
0.0
 40
50.0
100
AcDbArc
 50
2.161157
 51
75.0
  0
ARC
  5
615
100
AcDbEntity
  8
化粧台
  6
CONTINUOUS
 62
     6
100
AcDbCircle
 10
2384.5
 20
1896.1855
 30
0.0
 40
70.0
100
AcDbArc
 50
0.0
 51
75.0
  0
LINE
  5
616
100
AcDbEntity
  8
化粧台
  6
CONTINUOUS
 62
     6
100
AcDbLine
 10
2402.617333
 20
1963.800308
 30
0.0
 11
2383.716944
 21
1968.864652
 31
0.0
  0
ARC
  5
617
100
AcDbEntity
  8
化粧台
  6
CONTINUOUS
 62
     6
100
AcDbCircle
 10
2385.335949
 20
1880.432366
 30
0.0
 40
90.0
100
AcDbArc
 50
4.004173
 51
75.0
  0
LINE
  5
618
100
AcDbEntity
  8
化粧台
  6
CONTINUOUS
 62
     6
100
AcDbLine
 10
2385.011039
 20
1973.694282
 30
0.0
 11
2408.629663
 21
1967.36569
 31
0.0
  0
LINE
  5
619
100
AcDbEntity
  8
化粧台
  6
CONTINUOUS
 62
     6
100
AcDbLine
 10
2368.306402
 20
1947.11199
 30
0.0
 11
2397.010862
 21
1939.420653
 31
0.0
  0
ARC
  5
61A
100
AcDbEntity
  8
化粧台
  6
CONTINUOUS
 62
     6
100
AcDbCircle
 10
2251.365295
 20
1486.6997
 30
0.0
 40
500.0
100
AcDbArc
 50
74.650677
 51
80.831147
  0
ARC
  5
61B
100
AcDbEntity
  8
化粧台
  6
CONTINUOUS
 62
     6
100
AcDbCircle
 10
2354.939249
 20
2128.394671
 30
0.0
 40
150.0
100
AcDbArc
 50
256.107499
 51
260.831147
  0
LINE
  5
61C
100
AcDbEntity
  8
化粧台
  6
CONTINUOUS
 62
     6
100
AcDbLine
 10
2312.639148
 20
1977.921643
 30
0.0
 11
2313.492659
 21
1981.10699
 31
0.0
  0
LINE
  5
61D
100
AcDbEntity
  8
化粧台
  6
CONTINUOUS
 62
     6
100
AcDbLine
 10
2307.889277
 20
1960.194881
 30
0.0
 11
2309.53332
 21
1966.330533
 31
0.0
  0
LINE
  5
61E
100
AcDbEntity
  8
化粧台
  6
CONTINUOUS
 62
     6
100
AcDbLine
 10
2306.879219
 20
1967.041697
 30
0.0
 11
2312.903166
 21
1965.427585
 31
0.0
  0
LINE
  5
61F
100
AcDbEntity
  8
化粧台
  6
CONTINUOUS
 62
     6
100
AcDbLine
 10
2309.985048
 20
1978.632807
 30
0.0
 11
2316.008995
 21
1977.018695
 31
0.0
  0
ARC
  5
620
100
AcDbEntity
  8
化粧台
  6
CONTINUOUS
 62
     6
100
AcDbCircle
 10
2321.711418
 20
1969.279078
 30
0.0
 40
15.0
100
AcDbArc
 50
141.421822
 51
188.578178
  0
ARC
  5
621
100
AcDbEntity
  8
化粧台
  6
CONTINUOUS
 62
     6
100
AcDbCircle
 10
2314.456081
 20
1971.22314
 30
0.0
 40
6.0
100
AcDbArc
 50
255.0
 51
75.0
  0
LINE
  5
622
100
AcDbEntity
  8
化粧台
  6
CONTINUOUS
 62
     6
100
AcDbLine
 10
2377.246468
 20
1944.716507
 30
0.0
 11
2385.011039
 21
1973.694282
 31
0.0
  0
ARC
  5
623
100
AcDbEntity
  8
化粧台
  6
CONTINUOUS
 62
     6
100
AcDbCircle
 10
2309.257234
 20
1683.416206
 30
0.0
 40
300.0
100
AcDbArc
 50
75.37375
 51
88.623765
  0
ARC
  5
624
100
AcDbEntity
  8
化粧台
  6
CONTINUOUS
 62
     6
100
AcDbCircle
 10
2316.390437
 20
1980.330533
 30
0.0
 40
3.0
100
AcDbArc
 50
88.623765
 51
165.0
  0
ARC
  5
625
100
AcDbEntity
  8
化粧台
  6
CONTINUOUS
 62
     6
100
AcDbCircle
 10
2366.494668
 20
1940.350509
 30
0.0
 40
7.0
100
AcDbArc
 50
75.0
 51
130.150095
  0
LINE
  5
626
100
AcDbEntity
  8
化粧台
  6
CONTINUOUS
 62
     6
100
AcDbLine
 10
2307.889277
 20
1960.194881
 30
0.0
 11
2361.981123
 21
1945.701015
 31
0.0
  0
ARC
  5
627
100
AcDbEntity
  8
化粧台
  6
CONTINUOUS
 62
     6
100
AcDbCircle
 10
2353.848957
 20
1933.386156
 30
0.0
 40
3.0
100
AcDbArc
 50
255.0
 51
338.290163
  0
ARC
  5
628
100
AcDbEntity
  8
化粧台
  6
CONTINUOUS
 62
     6
100
AcDbCircle
 10
2308.774509
 20
1945.463818
 30
0.0
 40
3.0
100
AcDbArc
 50
171.709837
 51
255.0
  0
LINE
  5
629
100
AcDbEntity
  8
化粧台
  6
CONTINUOUS
 62
     6
100
AcDbLine
 10
2319.840742
 20
1935.251696
 30
0.0
 11
2339.159258
 21
1930.075315
 31
0.0
  0
ARC
  5
62A
100
AcDbEntity
  8
化粧台
  6
CONTINUOUS
 62
     6
100
AcDbCircle
 10
2343.5406
 20
1930.971891
 30
0.0
 40
2.0
100
AcDbArc
 50
75.0
 51
165.0
  0
ARC
  5
62B
100
AcDbEntity
  8
化粧台
  6
CONTINUOUS
 62
     6
100
AcDbCircle
 10
2339.676896
 20
1932.007167
 30
0.0
 40
2.0
100
AcDbArc
 50
255.0
 51
345.0
  0
ARC
  5
62C
100
AcDbEntity
  8
化粧台
  6
CONTINUOUS
 62
     6
100
AcDbCircle
 10
2316.494677
 20
1938.218824
 30
0.0
 40
2.0
100
AcDbArc
 50
345.0
 51
75.0
  0
ARC
  5
62D
100
AcDbEntity
  8
化粧台
  6
CONTINUOUS
 62
     6
100
AcDbCircle
 10
2320.35838
 20
1937.183548
 30
0.0
 40
2.0
100
AcDbArc
 50
165.0
 51
255.0
  0
ARC
  5
62E
100
AcDbEntity
  8
化粧台
  6
CONTINUOUS
 62
     6
100
AcDbCircle
 10
2347.806689
 20
1605.668983
 30
0.0
 40
300.0
100
AcDbArc
 50
64.5973
 51
90.34737
  0
ARC
  5
62F
100
AcDbEntity
  8
化粧台
  6
CONTINUOUS
 62
     6
100
AcDbCircle
 10
2346.0
 20
1903.663506
 30
0.0
 40
2.0
100
AcDbArc
 50
90.34737
 51
222.303779
  0
ARC
  5
630
100
AcDbEntity
  8
化粧台
  6
CONTINUOUS
 62
     6
100
AcDbCircle
 10
2458.575021
 20
1846.932833
 30
0.0
 40
20.0
100
AcDbArc
 50
4.964222
 51
39.922961
  0
LINE
  5
631
100
AcDbEntity
  8
化粧台
  6
CONTINUOUS
 62
     6
100
AcDbLine
 10
2452.487544
 20
1848.663506
 30
0.0
 11
2479.5
 21
1862.663506
 31
0.0
  0
LINE
  5
632
100
AcDbEntity
  8
化粧台
  6
CONTINUOUS
 62
     6
100
AcDbLine
 10
2479.5
 20
1862.663506
 30
0.0
 11
2476.5
 21
1876.663506
 31
0.0
  0
LINE
  5
633
100
AcDbEntity
  8
化粧台
  6
CONTINUOUS
 62
     6
100
AcDbLine
 10
2426.987544
 20
1848.663506
 30
0.0
 11
2481.5
 21
1848.663506
 31
0.0
  0
ARC
  5
634
100
AcDbEntity
  8
化粧台
  6
CONTINUOUS
 62
     6
100
AcDbCircle
 10
2355.431438
 20
1744.308113
 30
0.0
 40
150.0
100
AcDbArc
 50
67.220617
 51
87.517807
  0
ARC
  5
635
100
AcDbEntity
  8
化粧台
  6
CONTINUOUS
 62
     6
100
AcDbCircle
 10
2405.765337
 20
1864.168442
 30
0.0
 40
20.0
100
AcDbArc
 50
4.299759
 51
67.220617
  0
ARC
  5
636
100
AcDbEntity
  8
化粧台
  6
CONTINUOUS
 62
     6
100
AcDbCircle
 10
2363.010494
 20
1919.143916
 30
0.0
 40
25.0
100
AcDbArc
 50
222.303779
 51
267.517807
  0
LINE
  5
637
100
AcDbEntity
  8
化粧台
  6
CONTINUOUS
 62
     6
100
AcDbLine
 10
2426.987544
 20
1848.663506
 30
0.0
 11
2425.709046
 21
1865.667933
 31
0.0
  0
LINE
  5
638
100
AcDbEntity
  8
化粧台
  6
CONTINUOUS
 62
     2
100
AcDbLine
 10
787.5
 20
1578.5
 30
0.0
 11
1077.5
 21
1578.5
 31
0.0
  0
LINE
  5
639
100
AcDbEntity
  8
化粧台
  6
CONTINUOUS
 62
     2
100
AcDbLine
 10
787.5
 20
1567.5
 30
0.0
 11
1077.5
 21
1567.5
 31
0.0
  0
LINE
  5
63A
100
AcDbEntity
  8
化粧台
  6
CONTINUOUS
 62
     2
100
AcDbLine
 10
787.5
 20
1580.5
 30
0.0
 11
787.5
 21
1565.5
 31
0.0
  0
LINE
  5
63B
100
AcDbEntity
  8
化粧台
  6
CONTINUOUS
 62
     2
100
AcDbLine
 10
773.5
 20
1565.5
 30
0.0
 11
787.5
 21
1565.5
 31
0.0
  0
LINE
  5
63C
100
AcDbEntity
  8
化粧台
  6
CONTINUOUS
 62
     2
100
AcDbLine
 10
773.5
 20
1565.5
 30
0.0
 11
773.5
 21
1580.5
 31
0.0
  0
LINE
  5
63D
100
AcDbEntity
  8
化粧台
  6
CONTINUOUS
 62
     2
100
AcDbLine
 10
773.5
 20
1580.5
 30
0.0
 11
787.5
 21
1580.5
 31
0.0
  0
LINE
  5
63E
100
AcDbEntity
  8
化粧台
  6
CONTINUOUS
 62
     6
100
AcDbLine
 10
776.427186
 20
1578.827322
 30
0.0
 11
773.5
 21
1580.5
 31
0.0
  0
LINE
  5
63F
100
AcDbEntity
  8
化粧台
  6
CONTINUOUS
 62
     6
100
AcDbLine
 10
776.427186
 20
1567.172678
 30
0.0
 11
773.5
 21
1565.5
 31
0.0
  0
LINE
  5
640
100
AcDbEntity
  8
化粧台
  6
CONTINUOUS
 62
     6
100
AcDbLine
 10
777.0
 20
1578.827322
 30
0.0
 11
787.5
 21
1578.827322
 31
0.0
  0
ELLIPSE
  5
641
100
AcDbEntity
  8
化粧台
  6
CONTINUOUS
 62
     6
100
AcDbEllipse
 10
776.427186
 20
1573.0
 30
0.0
 11
0.0000000000000041
 21
-5.82732248485999
 31
0.0
210
0.0
220
0.0
230
1.0
 40
0.098298
 41
0.0
 42
3.1415926535897931
  0
LINE
  5
642
100
AcDbEntity
  8
化粧台
  6
CONTINUOUS
 62
     6
100
AcDbLine
 10
777.0
 20
1567.172678
 30
0.0
 11
787.5
 21
1567.172678
 31
0.0
  0
LINE
  5
643
100
AcDbEntity
  8
化粧台
  6
CONTINUOUS
 62
     6
100
AcDbLine
 10
1088.0
 20
1578.827322
 30
0.0
 11
1077.5
 21
1578.827322
 31
0.0
  0
ELLIPSE
  5
644
100
AcDbEntity
  8
化粧台
  6
CONTINUOUS
 62
     6
100
AcDbEllipse
 10
1088.572814
 20
1573.0
 30
0.0
 11
0.0000000000000041
 21
-5.82732248485999
 31
0.0
210
0.0
220
0.0
230
1.0
 40
0.098298
 41
3.1415926535897931
 42
0.0
  0
LINE
  5
645
100
AcDbEntity
  8
化粧台
  6
CONTINUOUS
 62
     6
100
AcDbLine
 10
1088.0
 20
1567.172678
 30
0.0
 11
1077.5
 21
1567.172678
 31
0.0
  0
LINE
  5
646
100
AcDbEntity
  8
化粧台
  6
CONTINUOUS
 62
     2
100
AcDbLine
 10
1091.5
 20
1580.5
 30
0.0
 11
1077.5
 21
1580.5
 31
0.0
  0
LINE
  5
647
100
AcDbEntity
  8
化粧台
  6
CONTINUOUS
 62
     2
100
AcDbLine
 10
1077.5
 20
1580.5
 30
0.0
 11
1077.5
 21
1565.5
 31
0.0
  0
LINE
  5
648
100
AcDbEntity
  8
化粧台
  6
CONTINUOUS
 62
     2
100
AcDbLine
 10
1091.5
 20
1565.5
 30
0.0
 11
1091.5
 21
1580.5
 31
0.0
  0
LINE
  5
649
100
AcDbEntity
  8
化粧台
  6
CONTINUOUS
 62
     2
100
AcDbLine
 10
1091.5
 20
1565.5
 30
0.0
 11
1077.5
 21
1565.5
 31
0.0
  0
LINE
  5
64A
100
AcDbEntity
  8
化粧台
  6
CONTINUOUS
 62
     6
100
AcDbLine
 10
1088.572814
 20
1578.827322
 30
0.0
 11
1091.5
 21
1580.5
 31
0.0
  0
LINE
  5
64B
100
AcDbEntity
  8
化粧台
  6
CONTINUOUS
 62
     6
100
AcDbLine
 10
1088.572814
 20
1567.172678
 30
0.0
 11
1091.5
 21
1565.5
 31
0.0
  0
ARC
  5
64C
100
AcDbEntity
  8
化粧台
  6
CONTINUOUS
 62
     2
100
AcDbCircle
 10
862.0
 20
2498.685483
 30
0.0
 40
1090.685483
100
AcDbArc
 50
266.991972
 51
273.008028
  0
ARC
  5
64D
100
AcDbEntity
  8
化粧台
  6
CONTINUOUS
 62
     2
100
AcDbCircle
 10
862.0
 20
329.314517
 30
0.0
 40
1090.685483
100
AcDbArc
 50
86.991972
 51
93.008028
  0
ARC
  5
64E
100
AcDbEntity
  8
化粧台
  6
CONTINUOUS
 62
     2
100
AcDbCircle
 10
804.870267
 20
1416.5
 30
0.0
 40
2.0
100
AcDbArc
 50
90.0
 51
163.15072
  0
ARC
  5
64F
100
AcDbEntity
  8
化粧台
  6
CONTINUOUS
 62
     2
100
AcDbCircle
 10
813.125
 20
1414.0
 30
0.0
 40
10.625
100
AcDbArc
 50
163.15072
 51
196.84928
  0
ARC
  5
650
100
AcDbEntity
  8
化粧台
  6
CONTINUOUS
 62
     2
100
AcDbCircle
 10
804.870267
 20
1411.5
 30
0.0
 40
2.0
100
AcDbArc
 50
196.84928
 51
270.0
  0
ARC
  5
651
100
AcDbEntity
  8
化粧台
  6
CONTINUOUS
 62
     2
100
AcDbCircle
 10
910.875
 20
1414.0
 30
0.0
 40
10.625
100
AcDbArc
 50
343.15072
 51
16.84928
  0
ARC
  5
652
100
AcDbEntity
  8
化粧台
  6
CONTINUOUS
 62
     2
100
AcDbCircle
 10
919.129733
 20
1416.5
 30
0.0
 40
2.0
100
AcDbArc
 50
16.84928
 51
90.0
  0
ARC
  5
653
100
AcDbEntity
  8
化粧台
  6
CONTINUOUS
 62
     2
100
AcDbCircle
 10
919.129733
 20
1411.5
 30
0.0
 40
2.0
100
AcDbArc
 50
270.0
 51
343.15072
  0
ARC
  5
654
100
AcDbEntity
  8
化粧台
  6
CONTINUOUS
 62
     2
100
AcDbCircle
 10
945.870267
 20
1416.5
 30
0.0
 40
2.0
100
AcDbArc
 50
90.0
 51
163.15072
  0
ARC
  5
655
100
AcDbEntity
  8
化粧台
  6
CONTINUOUS
 62
     2
100
AcDbCircle
 10
945.870267
 20
1411.5
 30
0.0
 40
2.0
100
AcDbArc
 50
196.84928
 51
270.0
  0
ARC
  5
656
100
AcDbEntity
  8
化粧台
  6
CONTINUOUS
 62
     2
100
AcDbCircle
 10
954.125
 20
1414.0
 30
0.0
 40
10.625
100
AcDbArc
 50
163.15072
 51
196.84928
  0
ARC
  5
657
100
AcDbEntity
  8
化粧台
  6
CONTINUOUS
 62
     2
100
AcDbCircle
 10
1003.0
 20
329.314517
 30
0.0
 40
1090.685483
100
AcDbArc
 50
86.991972
 51
93.008028
  0
ARC
  5
658
100
AcDbEntity
  8
化粧台
  6
CONTINUOUS
 62
     2
100
AcDbCircle
 10
1003.0
 20
2498.685483
 30
0.0
 40
1090.685483
100
AcDbArc
 50
266.991972
 51
273.008028
  0
ARC
  5
659
100
AcDbEntity
  8
化粧台
  6
CONTINUOUS
 62
     2
100
AcDbCircle
 10
1060.129733
 20
1411.5
 30
0.0
 40
2.0
100
AcDbArc
 50
270.0
 51
343.15072
  0
ARC
  5
65A
100
AcDbEntity
  8
化粧台
  6
CONTINUOUS
 62
     2
100
AcDbCircle
 10
1060.129733
 20
1416.5
 30
0.0
 40
2.0
100
AcDbArc
 50
16.84928
 51
90.0
  0
ARC
  5
65B
100
AcDbEntity
  8
化粧台
  6
CONTINUOUS
 62
     2
100
AcDbCircle
 10
1051.875
 20
1414.0
 30
0.0
 40
10.625
100
AcDbArc
 50
343.15072
 51
16.84928
  0
LINE
  5
65C
100
AcDbEntity
  8
化粧台
  6
CONTINUOUS
 62
     2
100
AcDbLine
 10
2112.5
 20
1580.5
 30
0.0
 11
2086.573499
 21
1578.483438
 31
0.0
  0
LINE
  5
65D
100
AcDbEntity
  8
化粧台
  6
CONTINUOUS
 62
     2
100
AcDbLine
 10
2112.5
 20
1565.5
 30
0.0
 11
2086.573499
 21
1567.516562
 31
0.0
  0
ARC
  5
65E
100
AcDbEntity
  8
化粧台
  6
CONTINUOUS
 62
     2
100
AcDbCircle
 10
2087.0
 20
1573.0
 30
0.0
 40
5.5
100
AcDbArc
 50
94.447508
 51
265.552492
  0
ARC
  5
65F
100
AcDbEntity
  8
化粧台
  6
CONTINUOUS
 62
     2
100
AcDbCircle
 10
2103.0
 20
1414.0
 30
0.0
 40
18.5
100
AcDbArc
 50
163.39845
 51
196.60155
  0
LINE
  5
660
100
AcDbEntity
  8
化粧台
  6
CONTINUOUS
 62
     2
100
AcDbLine
 10
2112.5
 20
1418.5
 30
0.0
 11
2086.286557
 21
1419.99837
 31
0.0
  0
ARC
  5
661
100
AcDbEntity
  8
化粧台
  6
CONTINUOUS
 62
     2
100
AcDbCircle
 10
2086.22949
 20
1419.0
 30
0.0
 40
1.0
100
AcDbArc
 50
86.728511
 51
163.39845
  0
LINE
  5
662
100
AcDbEntity
  8
化粧台
  6
CONTINUOUS
 62
     2
100
AcDbLine
 10
2112.5
 20
1409.5
 30
0.0
 11
2086.286557
 21
1408.00163
 31
0.0
  0
ARC
  5
663
100
AcDbEntity
  8
化粧台
  6
CONTINUOUS
 62
     2
100
AcDbCircle
 10
2086.22949
 20
1409.0
 30
0.0
 40
1.0
100
AcDbArc
 50
196.60155
 51
273.271489
  0
TEXT
  5
665
100
AcDbEntity
  8
化粧台
  6
CONTINUOUS
 62
     2
100
AcDbText
 10
1155.0
 20
232.5
 30
0.0
 40
67.5
  1
ジャニス工業株式会社
 41
1.0
  7
EXCADTTF1
 72
     5
 11
2055.0
 21
232.5
 31
0.0
100
AcDbText
  0
LINE
  5
666
100
AcDbEntity
  8
鏡台
  6
CONTINUOUS
 62
     6
100
AcDbLine
 10
2426.5
 20
1385.75
 30
0.0
 11
2426.5
 21
1376.25
 31
0.0
  0
ARC
  5
667
100
AcDbEntity
  8
鏡台
  6
CONTINUOUS
 62
     6
100
AcDbCircle
 10
2475.60588
 20
1400.0
 30
0.0
 40
6.5
100
AcDbArc
 50
270.0
 51
318.84583
  0
ARC
  5
668
100
AcDbEntity
  8
鏡台
  6
CONTINUOUS
 62
     6
100
AcDbCircle
 10
2475.60588
 20
1362.0
 30
0.0
 40
6.5
100
AcDbArc
 50
41.15417
 51
90.0
  0
LINE
  5
669
100
AcDbEntity
  8
鏡台
  6
CONTINUOUS
 62
     6
100
AcDbLine
 10
2487.5
 20
1393.25
 30
0.0
 11
2486.072541
 21
1395.722432
 31
0.0
  0
LINE
  5
66A
100
AcDbEntity
  8
鏡台
  6
CONTINUOUS
 62
     6
100
AcDbLine
 10
2487.5
 20
1368.75
 30
0.0
 11
2486.072541
 21
1366.277568
 31
0.0
  0
LINE
  5
66B
100
AcDbEntity
  8
鏡台
  6
CONTINUOUS
 62
     6
100
AcDbLine
 10
2486.072541
 20
1395.722432
 30
0.0
 11
2480.5
 21
1395.722432
 31
0.0
  0
LINE
  5
66C
100
AcDbEntity
  8
鏡台
  6
CONTINUOUS
 62
     6
100
AcDbLine
 10
2486.072541
 20
1366.277568
 30
0.0
 11
2480.5
 21
1366.277568
 31
0.0
  0
ARC
  5
66D
100
AcDbEntity
  8
鏡台
  6
CONTINUOUS
 62
     6
100
AcDbCircle
 10
2445.5
 20
1397.0
 30
0.0
 40
3.5
100
AcDbArc
 50
270.0
 51
0.0
  0
ARC
  5
66E
100
AcDbEntity
  8
鏡台
  6
CONTINUOUS
 62
     6
100
AcDbCircle
 10
2473.5
 20
1397.0
 30
0.0
 40
3.5
100
AcDbArc
 50
180.0
 51
270.0
  0
LINE
  5
66F
100
AcDbEntity
  8
鏡台
  6
CONTINUOUS
 62
     6
100
AcDbLine
 10
2473.5
 20
1393.5
 30
0.0
 11
2475.60588
 21
1393.5
 31
0.0
  0
LINE
  5
670
100
AcDbEntity
  8
鏡台
  6
CONTINUOUS
 62
     6
100
AcDbLine
 10
2432.1
 20
1375.7
 30
0.0
 11
2432.1
 21
1386.3
 31
0.0
  0
ARC
  5
671
100
AcDbEntity
  8
鏡台
  6
CONTINUOUS
 62
     6
100
AcDbCircle
 10
2441.225083
 20
1372.25
 30
0.0
 40
5.5
100
AcDbArc
 50
217.187626
 51
313.341758
  0
ARC
  5
672
100
AcDbEntity
  8
鏡台
  6
CONTINUOUS
 62
     6
100
AcDbCircle
 10
2441.225083
 20
1389.75
 30
0.0
 40
5.5
100
AcDbArc
 50
46.658242
 51
142.812374
  0
LINE
  5
673
100
AcDbEntity
  8
鏡台
  6
CONTINUOUS
 62
     6
100
AcDbLine
 10
2445.0
 20
1393.5
 30
0.0
 11
2445.5
 21
1393.5
 31
0.0
  0
LINE
  5
674
100
AcDbEntity
  8
鏡台
  6
CONTINUOUS
 62
     6
100
AcDbLine
 10
2426.5
 20
1385.75
 30
0.0
 11
2432.1
 21
1385.75
 31
0.0
  0
LINE
  5
675
100
AcDbEntity
  8
鏡台
  6
CONTINUOUS
 62
     6
100
AcDbLine
 10
2426.5
 20
1376.25
 30
0.0
 11
2432.1
 21
1376.25
 31
0.0
  0
LINE
  5
676
100
AcDbEntity
  8
鏡台
  6
CONTINUOUS
 62
     6
100
AcDbLine
 10
2426.5
 20
1385.75
 30
0.0
 11
2426.5
 21
1376.25
 31
0.0
  0
LINE
  5
677
100
AcDbEntity
  8
鏡台
  6
EXLTYPE2
 62
     6
100
AcDbLine
 10
2487.5
 20
1393.25
 30
0.0
 11
2487.5
 21
1368.75
 31
0.0
  0
LINE
  5
678
100
AcDbEntity
  8
鏡台
  6
EXLTYPE2
 62
     6
100
AcDbLine
 10
2445.0
 20
1368.5
 30
0.0
 11
2475.60588
 21
1368.5
 31
0.0
  0
LINE
  5
679
100
AcDbEntity
  8
鏡台
  6
EXLTYPE2
 62
     6
100
AcDbLine
 10
2445.0
 20
1368.25
 30
0.0
 11
2445.0
 21
1393.75
 31
0.0
  0
LINE
  5
67A
100
AcDbEntity
  8
鏡台
  6
EXLTYPE2
 62
     6
100
AcDbLine
 10
2432.1
 20
1386.3
 30
0.0
 11
2436.84345
 21
1393.074349
 31
0.0
  0
LINE
  5
67B
100
AcDbEntity
  8
鏡台
  6
EXLTYPE2
 62
     6
100
AcDbLine
 10
2432.1
 20
1375.7
 30
0.0
 11
2436.84345
 21
1368.925651
 31
0.0
  0
LINE
  5
67C
100
AcDbEntity
  8
鏡台
  6
CONTINUOUS
 62
     6
100
AcDbLine
 10
2449.0
 20
1397.0
 30
0.0
 11
2449.0
 21
1403.0
 31
0.0
  0
LINE
  5
67D
100
AcDbEntity
  8
鏡台
  6
CONTINUOUS
 62
     6
100
AcDbLine
 10
2470.0
 20
1397.0
 30
0.0
 11
2470.0
 21
1403.0
 31
0.0
  0
LINE
  5
67E
100
AcDbEntity
  8
鏡台
  6
EXLTYPE2
 62
     6
100
AcDbLine
 10
2445.584317
 20
1425.95
 30
0.0
 11
2473.415683
 21
1425.95
 31
0.0
  0
LINE
  5
67F
100
AcDbEntity
  8
鏡台
  6
EXLTYPE2
 62
     6
100
AcDbLine
 10
2448.834076
 20
1424.0
 30
0.0
 11
2448.834076
 21
1404.375
 31
0.0
  0
LINE
  5
680
100
AcDbEntity
  8
鏡台
  6
EXLTYPE2
 62
     6
100
AcDbLine
 10
2448.5
 20
1425.5
 30
0.0
 11
2470.5
 21
1425.5
 31
0.0
  0
LINE
  5
681
100
AcDbEntity
  8
鏡台
  6
EXLTYPE2
 62
     6
100
AcDbLine
 10
2472.0
 20
1424.0
 30
0.0
 11
2472.0
 21
1404.5
 31
0.0
  0
LINE
  5
682
100
AcDbEntity
  8
鏡台
  6
EXLTYPE2
 62
     6
100
AcDbLine
 10
2457.665924
 20
1404.375
 30
0.0
 11
2457.665924
 21
1424.0
 31
0.0
  0
LINE
  5
683
100
AcDbEntity
  8
鏡台
  6
EXLTYPE2
 62
     6
100
AcDbLine
 10
2461.334076
 20
1424.0
 30
0.0
 11
2461.334076
 21
1404.375
 31
0.0
  0
LINE
  5
684
100
AcDbEntity
  8
鏡台
  6
EXLTYPE2
 62
     6
100
AcDbLine
 10
2470.165924
 20
1424.0
 30
0.0
 11
2470.165924
 21
1404.375
 31
0.0
  0
LINE
  5
685
100
AcDbEntity
  8
鏡台
  6
EXLTYPE2
 62
     6
100
AcDbLine
 10
2447.0
 20
1404.5
 30
0.0
 11
2447.0
 21
1424.0
 31
0.0
  0
LINE
  5
686
100
AcDbEntity
  8
鏡台
  6
EXLTYPE2
 62
     6
100
AcDbLine
 10
2470.5
 20
1403.0
 30
0.0
 11
2448.5
 21
1403.0
 31
0.0
  0
LINE
  5
687
100
AcDbEntity
  8
鏡台
  6
EXLTYPE2
 62
     6
100
AcDbLine
 10
2447.0
 20
1404.5
 30
0.0
 11
2448.5
 21
1403.0
 31
0.0
  0
LINE
  5
688
100
AcDbEntity
  8
鏡台
  6
EXLTYPE2
 62
     6
100
AcDbLine
 10
2470.5
 20
1403.0
 30
0.0
 11
2472.0
 21
1404.5
 31
0.0
  0
LINE
  5
689
100
AcDbEntity
  8
鏡台
  6
EXLTYPE2
 62
     6
100
AcDbLine
 10
2472.0
 20
1424.0
 30
0.0
 11
2470.5
 21
1425.5
 31
0.0
  0
LINE
  5
68A
100
AcDbEntity
  8
鏡台
  6
EXLTYPE2
 62
     6
100
AcDbLine
 10
2448.5
 20
1425.5
 30
0.0
 11
2447.0
 21
1424.0
 31
0.0
  0
LINE
  5
68B
100
AcDbEntity
  8
鏡台
  6
EXLTYPE2
 62
     6
100
AcDbLine
 10
2445.584317
 20
1449.95
 30
0.0
 11
2445.584317
 21
1425.95
 31
0.0
  0
LINE
  5
68C
100
AcDbEntity
  8
鏡台
  6
EXLTYPE2
 62
     6
100
AcDbLine
 10
2445.584317
 20
1449.95
 30
0.0
 11
2473.415683
 21
1449.95
 31
0.0
  0
LINE
  5
68D
100
AcDbEntity
  8
鏡台
  6
EXLTYPE2
 62
     6
100
AcDbLine
 10
2473.415683
 20
1425.95
 30
0.0
 11
2473.415683
 21
1449.95
 31
0.0
  0
LINE
  5
68E
100
AcDbEntity
  8
鏡台
  6
EXLTYPE2
 62
     6
100
AcDbLine
 10
2436.84345
 20
1393.074349
 30
0.0
 11
2436.84345
 21
1368.925651
 31
0.0
  0
LINE
  5
68F
100
AcDbEntity
  8
鏡台
  6
EXLTYPE2
 62
     6
100
AcDbLine
 10
2487.5
 20
1391.5
 30
0.0
 11
2544.5
 21
1391.5
 31
0.0
  0
LINE
  5
690
100
AcDbEntity
  8
鏡台
  6
EXLTYPE2
 62
     6
100
AcDbLine
 10
2487.5
 20
1370.5
 30
0.0
 11
2544.5
 21
1370.5
 31
0.0
  0
LINE
  5
691
100
AcDbEntity
  8
鏡台
  6
CONTINUOUS
 62
     6
100
AcDbLine
 10
2544.5
 20
1370.5
 30
0.0
 11
2552.5
 21
1370.5
 31
0.0
  0
LINE
  5
692
100
AcDbEntity
  8
鏡台
  6
CONTINUOUS
 62
     6
100
AcDbLine
 10
2552.5
 20
1391.5
 30
0.0
 11
2552.5
 21
1370.5
 31
0.0
  0
LINE
  5
693
100
AcDbEntity
  8
鏡台
  6
CONTINUOUS
 62
     6
100
AcDbLine
 10
2544.5
 20
1391.5
 30
0.0
 11
2552.5
 21
1391.5
 31
0.0
  0
LINE
  5
694
100
AcDbEntity
  8
鏡台
  6
EXLTYPE2
 62
     6
100
AcDbLine
 10
2452.7
 20
1449.95
 30
0.0
 11
2452.7
 21
1621.0
 31
0.0
  0
LINE
  5
695
100
AcDbEntity
  8
鏡台
  6
EXLTYPE2
 62
     6
100
AcDbLine
 10
2466.3
 20
1449.95
 30
0.0
 11
2466.3
 21
1621.0
 31
0.0
  0
LINE
  5
696
100
AcDbEntity
  8
鏡台
  6
EXLTYPE3
 62
     6
100
AcDbLine
 10
2459.5
 20
1246.0
 30
0.0
 11
2459.5
 21
1007.999969
 31
0.0
  0
LINE
  5
697
100
AcDbEntity
  8
鏡台
  6
CONTINUOUS
 62
     6
100
AcDbLine
 10
2469.5
 20
1030.99301
 30
0.0
 11
2469.352295
 21
1024.227081
 31
0.0
  0
LINE
  5
698
100
AcDbEntity
  8
鏡台
  6
CONTINUOUS
 62
     6
100
AcDbLine
 10
2469.352295
 20
1024.227081
 30
0.0
 11
2468.125183
 21
1022.999969
 31
0.0
  0
LINE
  5
699
100
AcDbEntity
  8
鏡台
  6
CONTINUOUS
 62
     6
100
AcDbLine
 10
2468.125183
 20
1022.999969
 30
0.0
 11
2450.874817
 21
1022.999969
 31
0.0
  0
LINE
  5
69A
100
AcDbEntity
  8
鏡台
  6
CONTINUOUS
 62
     6
100
AcDbLine
 10
2450.874817
 20
1022.999969
 30
0.0
 11
2449.647858
 21
1024.227081
 31
0.0
  0
LINE
  5
69B
100
AcDbEntity
  8
鏡台
  6
CONTINUOUS
 62
     6
100
AcDbLine
 10
2449.647858
 20
1024.227081
 30
0.0
 11
2449.5
 21
1031.0
 31
0.0
  0
LINE
  5
69C
100
AcDbEntity
  8
鏡台
  6
EXLTYPE4
 62
     6
100
AcDbLine
 10
2449.5
 20
1031.0
 30
0.0
 11
2449.5
 21
1231.0
 31
0.0
  0
LINE
  5
69D
100
AcDbEntity
  8
鏡台
  6
EXLTYPE4
 62
     6
100
AcDbLine
 10
2469.5
 20
1231.0
 30
0.0
 11
2469.5
 21
1030.99301
 31
0.0
  0
ARC
  5
69E
100
AcDbEntity
  8
鏡台
  6
EXLTYPE2
 62
     6
100
AcDbCircle
 10
1047.275636
 20
1711.987035
 30
0.0
 40
100.0
100
AcDbArc
 50
282.96575
 51
308.612867
  0
LINE
  5
69F
100
AcDbEntity
  8
鏡台
  6
CONTINUOUS
 62
     6
100
AcDbLine
 10
1110.5
 20
1378.663691
 30
0.0
 11
1110.5
 21
1390.336309
 31
0.0
  0
LINE
  5
6A0
100
AcDbEntity
  8
鏡台
  6
CONTINUOUS
 62
     6
100
AcDbLine
 10
1096.054392
 20
1398.676485
 30
0.0
 11
1085.945608
 21
1392.840176
 31
0.0
  0
LINE
  5
6A1
100
AcDbEntity
  8
鏡台
  6
CONTINUOUS
 62
     6
100
AcDbLine
 10
1085.945608
 20
1376.159824
 30
0.0
 11
1096.054392
 21
1370.323515
 31
0.0
  0
ARC
  5
6A2
100
AcDbEntity
  8
鏡台
  6
CONTINUOUS
 62
     6
100
AcDbCircle
 10
1097.5
 20
1384.5
 30
0.0
 40
14.25
100
AcDbArc
 50
264.177545
 51
275.822455
  0
ARC
  5
6A3
100
AcDbEntity
  8
鏡台
  6
CONTINUOUS
 62
     6
100
AcDbCircle
 10
1097.5
 20
1384.5
 30
0.0
 40
14.25
100
AcDbArc
 50
324.177545
 51
335.822455
  0
ARC
  5
6A4
100
AcDbEntity
  8
鏡台
  6
CONTINUOUS
 62
     6
100
AcDbCircle
 10
1097.5
 20
1384.5
 30
0.0
 40
14.25
100
AcDbArc
 50
24.177545
 51
35.822455
  0
ARC
  5
6A5
100
AcDbEntity
  8
鏡台
  6
CONTINUOUS
 62
     6
100
AcDbCircle
 10
1097.5
 20
1384.5
 30
0.0
 40
14.25
100
AcDbArc
 50
84.177545
 51
95.822455
  0
ARC
  5
6A6
100
AcDbEntity
  8
鏡台
  6
CONTINUOUS
 62
     6
100
AcDbCircle
 10
1097.5
 20
1384.5
 30
0.0
 40
14.25
100
AcDbArc
 50
144.177545
 51
155.822455
  0
ARC
  5
6A7
100
AcDbEntity
  8
鏡台
  6
CONTINUOUS
 62
     6
100
AcDbCircle
 10
1097.5
 20
1384.5
 30
0.0
 40
14.25
100
AcDbArc
 50
204.177545
 51
215.822455
  0
CIRCLE
  5
6A8
100
AcDbEntity
  8
鏡台
  6
EXLTYPE2
 62
     6
100
AcDbCircle
 10
1097.5
 20
1384.5
 30
0.0
 40
12.074349
  0
LINE
  5
6A9
100
AcDbEntity
  8
鏡台
  6
CONTINUOUS
 62
     6
100
AcDbLine
 10
1108.0
 20
1399.858333
 30
0.0
 11
1108.0
 21
1393.448929
 31
0.0
  0
CIRCLE
  5
6AA
100
AcDbEntity
  8
鏡台
  6
EXLTYPE2
 62
     6
100
AcDbCircle
 10
1097.5
 20
1384.5
 30
0.0
 40
4.75
  0
LINE
  5
6AB
100
AcDbEntity
  8
鏡台
  6
CONTINUOUS
 62
     6
100
AcDbLine
 10
1087.0
 20
1406.5
 30
0.0
 11
1087.0
 21
1399.358333
 31
0.0
  0
LINE
  5
6AC
100
AcDbEntity
  8
鏡台
  6
EXLTYPE2
 62
     6
100
AcDbLine
 10
1092.5
 20
1427.5
 30
0.0
 11
1092.5
 21
1408.0
 31
0.0
  0
LINE
  5
6AD
100
AcDbEntity
  8
鏡台
  6
EXLTYPE2
 62
     6
100
AcDbLine
 10
1113.5
 20
1450.95
 30
0.0
 11
1113.5
 21
1429.45
 31
0.0
  0
LINE
  5
6AE
100
AcDbEntity
  8
鏡台
  6
EXLTYPE2
 62
     6
100
AcDbLine
 10
1080.7
 20
1450.95
 30
0.0
 11
1080.7
 21
1429.45
 31
0.0
  0
LINE
  5
6AF
100
AcDbEntity
  8
鏡台
  6
EXLTYPE2
 62
     6
100
AcDbLine
 10
1080.7
 20
1429.45
 30
0.0
 11
1083.7
 21
1429.45
 31
0.0
  0
LINE
  5
6B0
100
AcDbEntity
  8
鏡台
  6
EXLTYPE2
 62
     6
100
AcDbLine
 10
1109.0
 20
1429.0
 30
0.0
 11
1110.5
 21
1427.5
 31
0.0
  0
LINE
  5
6B1
100
AcDbEntity
  8
鏡台
  6
EXLTYPE2
 62
     6
100
AcDbLine
 10
1110.5
 20
1427.5
 30
0.0
 11
1110.5
 21
1408.0
 31
0.0
  0
LINE
  5
6B2
100
AcDbEntity
  8
鏡台
  6
EXLTYPE2
 62
     6
100
AcDbLine
 10
1110.5
 20
1408.0
 30
0.0
 11
1109.0
 21
1406.5
 31
0.0
  0
LINE
  5
6B3
100
AcDbEntity
  8
鏡台
  6
EXLTYPE2
 62
     6
100
AcDbLine
 10
1109.0
 20
1406.5
 30
0.0
 11
1086.0
 21
1406.5
 31
0.0
  0
LINE
  5
6B4
100
AcDbEntity
  8
鏡台
  6
EXLTYPE2
 62
     6
100
AcDbLine
 10
1086.0
 20
1406.5
 30
0.0
 11
1084.5
 21
1408.0
 31
0.0
  0
LINE
  5
6B5
100
AcDbEntity
  8
鏡台
  6
EXLTYPE2
 62
     6
100
AcDbLine
 10
1084.5
 20
1427.5
 30
0.0
 11
1084.5
 21
1408.0
 31
0.0
  0
LINE
  5
6B6
100
AcDbEntity
  8
鏡台
  6
EXLTYPE2
 62
     6
100
AcDbLine
 10
1084.5
 20
1427.5
 30
0.0
 11
1086.0
 21
1429.0
 31
0.0
  0
LINE
  5
6B7
100
AcDbEntity
  8
鏡台
  6
EXLTYPE2
 62
     6
100
AcDbLine
 10
1105.392304
 20
1408.0
 30
0.0
 11
1105.392304
 21
1427.5
 31
0.0
  0
LINE
  5
6B8
100
AcDbEntity
  8
鏡台
  6
EXLTYPE2
 62
     6
100
AcDbLine
 10
1102.5
 20
1427.5
 30
0.0
 11
1102.5
 21
1408.0
 31
0.0
  0
LINE
  5
6B9
100
AcDbEntity
  8
鏡台
  6
EXLTYPE2
 62
     6
100
AcDbLine
 10
1089.607695
 20
1408.0
 30
0.0
 11
1089.607695
 21
1427.5
 31
0.0
  0
ARC
  5
6BA
100
AcDbEntity
  8
鏡台
  6
EXLTYPE2
 62
     6
100
AcDbCircle
 10
1083.2
 20
1450.95
 30
0.0
 40
2.5
100
AcDbArc
 50
90.0
 51
180.0
  0
ARC
  5
6BB
100
AcDbEntity
  8
鏡台
  6
EXLTYPE2
 62
     6
100
AcDbCircle
 10
1111.0
 20
1450.95
 30
0.0
 40
2.5
100
AcDbArc
 50
0.0
 51
90.0
  0
LINE
  5
6BC
100
AcDbEntity
  8
鏡台
  6
EXLTYPE2
 62
     6
100
AcDbLine
 10
1111.0
 20
1453.45
 30
0.0
 11
1083.2
 21
1453.45
 31
0.0
  0
LINE
  5
6BD
100
AcDbEntity
  8
鏡台
  6
EXLTYPE2
 62
     6
100
AcDbLine
 10
1113.5
 20
1429.45
 30
0.0
 11
1083.7
 21
1429.45
 31
0.0
  0
LINE
  5
6BE
100
AcDbEntity
  8
鏡台
  6
EXLTYPE2
 62
     6
100
AcDbLine
 10
1109.0
 20
1429.0
 30
0.0
 11
1086.0
 21
1429.0
 31
0.0
  0
LINE
  5
6BF
100
AcDbEntity
  8
鏡台
  6
EXLTYPE2
 62
     6
100
AcDbLine
 10
1090.7
 20
1453.45
 30
0.0
 11
1090.7
 21
1621.907489
 31
0.0
  0
LINE
  5
6C0
100
AcDbEntity
  8
鏡台
  6
EXLTYPE2
 62
     6
100
AcDbLine
 10
1104.3
 20
1453.45
 30
0.0
 11
1104.3
 21
1629.839473
 31
0.0
  0
LINE
  5
6C1
100
AcDbEntity
  8
鏡台
  6
CONTINUOUS
 62
     6
100
AcDbLine
 10
1020.5
 20
1378.663691
 30
0.0
 11
1020.5
 21
1390.336309
 31
0.0
  0
LINE
  5
6C2
100
AcDbEntity
  8
鏡台
  6
CONTINUOUS
 62
     6
100
AcDbLine
 10
1006.054392
 20
1398.676485
 30
0.0
 11
995.945608
 21
1392.840176
 31
0.0
  0
LINE
  5
6C3
100
AcDbEntity
  8
鏡台
  6
CONTINUOUS
 62
     6
100
AcDbLine
 10
995.945608
 20
1376.159824
 30
0.0
 11
1006.054392
 21
1370.323515
 31
0.0
  0
ARC
  5
6C4
100
AcDbEntity
  8
鏡台
  6
CONTINUOUS
 62
     6
100
AcDbCircle
 10
1007.5
 20
1384.5
 30
0.0
 40
14.25
100
AcDbArc
 50
264.177545
 51
275.822455
  0
ARC
  5
6C5
100
AcDbEntity
  8
鏡台
  6
CONTINUOUS
 62
     6
100
AcDbCircle
 10
1007.5
 20
1384.5
 30
0.0
 40
14.25
100
AcDbArc
 50
324.177545
 51
335.822455
  0
ARC
  5
6C6
100
AcDbEntity
  8
鏡台
  6
CONTINUOUS
 62
     6
100
AcDbCircle
 10
1007.5
 20
1384.5
 30
0.0
 40
14.25
100
AcDbArc
 50
24.177545
 51
35.822455
  0
ARC
  5
6C7
100
AcDbEntity
  8
鏡台
  6
CONTINUOUS
 62
     6
100
AcDbCircle
 10
1007.5
 20
1384.5
 30
0.0
 40
14.25
100
AcDbArc
 50
84.177545
 51
95.822455
  0
ARC
  5
6C8
100
AcDbEntity
  8
鏡台
  6
CONTINUOUS
 62
     6
100
AcDbCircle
 10
1007.5
 20
1384.5
 30
0.0
 40
14.25
100
AcDbArc
 50
144.177545
 51
155.822455
  0
ARC
  5
6C9
100
AcDbEntity
  8
鏡台
  6
CONTINUOUS
 62
     6
100
AcDbCircle
 10
1007.5
 20
1384.5
 30
0.0
 40
14.25
100
AcDbArc
 50
204.177545
 51
215.822455
  0
CIRCLE
  5
6CA
100
AcDbEntity
  8
鏡台
  6
EXLTYPE2
 62
     6
100
AcDbCircle
 10
1007.5
 20
1384.5
 30
0.0
 40
12.074349
  0
LINE
  5
6CB
100
AcDbEntity
  8
鏡台
  6
CONTINUOUS
 62
     6
100
AcDbLine
 10
1018.0
 20
1399.858333
 30
0.0
 11
1018.0
 21
1393.448929
 31
0.0
  0
CIRCLE
  5
6CC
100
AcDbEntity
  8
鏡台
  6
EXLTYPE2
 62
     6
100
AcDbCircle
 10
1007.5
 20
1384.5
 30
0.0
 40
4.75
  0
LINE
  5
6CD
100
AcDbEntity
  8
鏡台
  6
CONTINUOUS
 62
     6
100
AcDbLine
 10
997.0
 20
1406.5
 30
0.0
 11
997.0
 21
1399.358333
 31
0.0
  0
LINE
  5
6CE
100
AcDbEntity
  8
鏡台
  6
EXLTYPE2
 62
     6
100
AcDbLine
 10
1002.5
 20
1427.5
 30
0.0
 11
1002.5
 21
1408.0
 31
0.0
  0
LINE
  5
6CF
100
AcDbEntity
  8
鏡台
  6
EXLTYPE2
 62
     6
100
AcDbLine
 10
1023.5
 20
1450.95
 30
0.0
 11
1023.5
 21
1429.45
 31
0.0
  0
LINE
  5
6D0
100
AcDbEntity
  8
鏡台
  6
EXLTYPE2
 62
     6
100
AcDbLine
 10
990.7
 20
1450.95
 30
0.0
 11
990.7
 21
1429.45
 31
0.0
  0
LINE
  5
6D1
100
AcDbEntity
  8
鏡台
  6
EXLTYPE2
 62
     6
100
AcDbLine
 10
990.7
 20
1429.45
 30
0.0
 11
993.7
 21
1429.45
 31
0.0
  0
LINE
  5
6D2
100
AcDbEntity
  8
鏡台
  6
EXLTYPE2
 62
     6
100
AcDbLine
 10
1019.0
 20
1429.0
 30
0.0
 11
1020.5
 21
1427.5
 31
0.0
  0
LINE
  5
6D3
100
AcDbEntity
  8
鏡台
  6
EXLTYPE2
 62
     6
100
AcDbLine
 10
1020.5
 20
1427.5
 30
0.0
 11
1020.5
 21
1408.0
 31
0.0
  0
LINE
  5
6D4
100
AcDbEntity
  8
鏡台
  6
EXLTYPE2
 62
     6
100
AcDbLine
 10
1020.5
 20
1408.0
 30
0.0
 11
1019.0
 21
1406.5
 31
0.0
  0
LINE
  5
6D5
100
AcDbEntity
  8
鏡台
  6
EXLTYPE2
 62
     6
100
AcDbLine
 10
1019.0
 20
1406.5
 30
0.0
 11
996.0
 21
1406.5
 31
0.0
  0
LINE
  5
6D6
100
AcDbEntity
  8
鏡台
  6
EXLTYPE2
 62
     6
100
AcDbLine
 10
996.0
 20
1406.5
 30
0.0
 11
994.5
 21
1408.0
 31
0.0
  0
LINE
  5
6D7
100
AcDbEntity
  8
鏡台
  6
EXLTYPE2
 62
     6
100
AcDbLine
 10
994.5
 20
1427.5
 30
0.0
 11
994.5
 21
1408.0
 31
0.0
  0
LINE
  5
6D8
100
AcDbEntity
  8
鏡台
  6
EXLTYPE2
 62
     6
100
AcDbLine
 10
994.5
 20
1427.5
 30
0.0
 11
996.0
 21
1429.0
 31
0.0
  0
LINE
  5
6D9
100
AcDbEntity
  8
鏡台
  6
EXLTYPE2
 62
     6
100
AcDbLine
 10
1015.392304
 20
1408.0
 30
0.0
 11
1015.392304
 21
1427.5
 31
0.0
  0
LINE
  5
6DA
100
AcDbEntity
  8
鏡台
  6
EXLTYPE2
 62
     6
100
AcDbLine
 10
1012.5
 20
1427.5
 30
0.0
 11
1012.5
 21
1408.0
 31
0.0
  0
LINE
  5
6DB
100
AcDbEntity
  8
鏡台
  6
EXLTYPE2
 62
     6
100
AcDbLine
 10
999.607695
 20
1408.0
 30
0.0
 11
999.607695
 21
1427.5
 31
0.0
  0
ARC
  5
6DC
100
AcDbEntity
  8
鏡台
  6
EXLTYPE2
 62
     6
100
AcDbCircle
 10
993.2
 20
1450.95
 30
0.0
 40
2.5
100
AcDbArc
 50
90.0
 51
180.0
  0
ARC
  5
6DD
100
AcDbEntity
  8
鏡台
  6
EXLTYPE2
 62
     6
100
AcDbCircle
 10
1021.0
 20
1450.95
 30
0.0
 40
2.5
100
AcDbArc
 50
0.0
 51
90.0
  0
LINE
  5
6DE
100
AcDbEntity
  8
鏡台
  6
EXLTYPE2
 62
     6
100
AcDbLine
 10
1021.0
 20
1453.45
 30
0.0
 11
993.2
 21
1453.45
 31
0.0
  0
LINE
  5
6DF
100
AcDbEntity
  8
鏡台
  6
EXLTYPE2
 62
     6
100
AcDbLine
 10
1023.5
 20
1429.45
 30
0.0
 11
993.7
 21
1429.45
 31
0.0
  0
LINE
  5
6E0
100
AcDbEntity
  8
鏡台
  6
EXLTYPE2
 62
     6
100
AcDbLine
 10
1019.0
 20
1429.0
 30
0.0
 11
996.0
 21
1429.0
 31
0.0
  0
LINE
  5
6E1
100
AcDbEntity
  8
鏡台
  6
EXLTYPE2
 62
     6
100
AcDbLine
 10
1014.3
 20
1453.45
 30
0.0
 11
1014.3
 21
1603.401332
 31
0.0
  0
LINE
  5
6E2
100
AcDbEntity
  8
鏡台
  6
EXLTYPE2
 62
     6
100
AcDbLine
 10
1000.7
 20
1453.45
 30
0.0
 11
1000.7
 21
1601.157657
 31
0.0
  0
LINE
  5
6E3
100
AcDbEntity
  8
鏡台
  6
CONTINUOUS
 62
     6
100
AcDbLine
 10
1007.5
 20
1434.2
 30
0.0
 11
1007.5
 21
1342.0
 31
0.0
  0
LINE
  5
6E4
100
AcDbEntity
  8
鏡台
  6
CONTINUOUS
 62
     6
100
AcDbLine
 10
1055.0
 20
1384.5
 30
0.0
 11
1140.0
 21
1384.5
 31
0.0
  0
LINE
  5
6E5
100
AcDbEntity
  8
鏡台
  6
CONTINUOUS
 62
     6
100
AcDbLine
 10
1097.5
 20
1434.2
 30
0.0
 11
1097.5
 21
1342.0
 31
0.0
  0
LINE
  5
6E6
100
AcDbEntity
  8
鏡台
  6
CONTINUOUS
 62
     6
100
AcDbLine
 10
965.0
 20
1384.5
 30
0.0
 11
1050.0
 21
1384.5
 31
0.0
  0
LINE
  5
6E7
100
AcDbEntity
  8
鏡台
  6
EXLTYPE3
 62
     6
100
AcDbLine
 10
1007.5
 20
1249.5
 30
0.0
 11
1007.5
 21
1011.499969
 31
0.0
  0
LINE
  5
6E8
100
AcDbEntity
  8
鏡台
  6
CONTINUOUS
 62
     6
100
AcDbLine
 10
1017.5
 20
1034.49301
 30
0.0
 11
1017.352295
 21
1027.727081
 31
0.0
  0
LINE
  5
6E9
100
AcDbEntity
  8
鏡台
  6
CONTINUOUS
 62
     6
100
AcDbLine
 10
1017.352295
 20
1027.727081
 30
0.0
 11
1016.125183
 21
1026.499969
 31
0.0
  0
LINE
  5
6EA
100
AcDbEntity
  8
鏡台
  6
CONTINUOUS
 62
     6
100
AcDbLine
 10
1016.125183
 20
1026.499969
 30
0.0
 11
998.874817
 21
1026.499969
 31
0.0
  0
LINE
  5
6EB
100
AcDbEntity
  8
鏡台
  6
CONTINUOUS
 62
     6
100
AcDbLine
 10
998.874817
 20
1026.499969
 30
0.0
 11
997.647858
 21
1027.727081
 31
0.0
  0
LINE
  5
6EC
100
AcDbEntity
  8
鏡台
  6
CONTINUOUS
 62
     6
100
AcDbLine
 10
997.647858
 20
1027.727081
 30
0.0
 11
997.5
 21
1034.5
 31
0.0
  0
LINE
  5
6ED
100
AcDbEntity
  8
鏡台
  6
EXLTYPE4
 62
     6
100
AcDbLine
 10
997.5
 20
1034.5
 30
0.0
 11
997.5
 21
1234.5
 31
0.0
  0
LINE
  5
6EE
100
AcDbEntity
  8
鏡台
  6
EXLTYPE4
 62
     6
100
AcDbLine
 10
1017.5
 20
1234.5
 30
0.0
 11
1017.5
 21
1034.49301
 31
0.0
  0
LINE
  5
6EF
100
AcDbEntity
  8
鏡台
  6
EXLTYPE3
 62
     6
100
AcDbLine
 10
1097.5
 20
1249.5
 30
0.0
 11
1097.5
 21
1011.499969
 31
0.0
  0
LINE
  5
6F0
100
AcDbEntity
  8
鏡台
  6
CONTINUOUS
 62
     6
100
AcDbLine
 10
1107.5
 20
1034.49301
 30
0.0
 11
1107.352295
 21
1027.727081
 31
0.0
  0
LINE
  5
6F1
100
AcDbEntity
  8
鏡台
  6
CONTINUOUS
 62
     6
100
AcDbLine
 10
1107.352295
 20
1027.727081
 30
0.0
 11
1106.125183
 21
1026.499969
 31
0.0
  0
LINE
  5
6F2
100
AcDbEntity
  8
鏡台
  6
CONTINUOUS
 62
     6
100
AcDbLine
 10
1106.125183
 20
1026.499969
 30
0.0
 11
1088.874817
 21
1026.499969
 31
0.0
  0
LINE
  5
6F3
100
AcDbEntity
  8
鏡台
  6
CONTINUOUS
 62
     6
100
AcDbLine
 10
1088.874817
 20
1026.499969
 30
0.0
 11
1087.647858
 21
1027.727081
 31
0.0
  0
LINE
  5
6F4
100
AcDbEntity
  8
鏡台
  6
CONTINUOUS
 62
     6
100
AcDbLine
 10
1087.647858
 20
1027.727081
 30
0.0
 11
1087.5
 21
1034.5
 31
0.0
  0
LINE
  5
6F5
100
AcDbEntity
  8
鏡台
  6
EXLTYPE4
 62
     6
100
AcDbLine
 10
1087.5
 20
1034.5
 30
0.0
 11
1087.5
 21
1234.5
 31
0.0
  0
LINE
  5
6F6
100
AcDbEntity
  8
鏡台
  6
EXLTYPE4
 62
     6
100
AcDbLine
 10
1107.5
 20
1234.5
 30
0.0
 11
1107.5
 21
1034.49301
 31
0.0
  0
LINE
  5
6F7
100
AcDbEntity
  8
鏡台
  6
CONTINUOUS
 62
     2
100
AcDbLine
 10
933.5
 20
1444.0
 30
0.0
 11
933.5
 21
1126.0
 31
0.0
  0
LINE
  5
6F8
100
AcDbEntity
  8
鏡台
  6
CONTINUOUS
 62
     2
100
AcDbLine
 10
931.5
 20
1444.0
 30
0.0
 11
931.5
 21
1126.0
 31
0.0
  0
ARC
  5
6F9
100
AcDbEntity
  8
鏡台
  6
CONTINUOUS
 62
     2
100
AcDbCircle
 10
408.66394
 20
1329.62329
 30
0.0
 40
2500.0
100
AcDbArc
 50
82.436951
 51
85.971846
  0
ARC
  5
6FA
100
AcDbEntity
  8
鏡台
  6
CONTINUOUS
 62
     2
100
AcDbCircle
 10
584.983039
 20
3833.422718
 30
0.0
 40
10.0
100
AcDbArc
 50
182.999998
 51
265.971846
  0
LINE
  5
6FB
100
AcDbEntity
  8
鏡台
  6
CONTINUOUS
 62
     2
100
AcDbLine
 10
574.996743
 20
3832.899359
 30
0.0
 11
570.898425
 21
3911.1
 31
0.0
  0
ARC
  5
6FC
100
AcDbEntity
  8
鏡台
  6
CONTINUOUS
 62
     2
100
AcDbCircle
 10
932.5
 20
5275.0
 30
0.0
 40
1480.0
100
AcDbArc
 50
262.436951
 51
277.563048
  0
ARC
  5
6FD
100
AcDbEntity
  8
鏡台
  6
CONTINUOUS
 62
     2
100
AcDbCircle
 10
1456.33606
 20
1329.62329
 30
0.0
 40
2500.0
100
AcDbArc
 50
94.028154
 51
97.563048
  0
LINE
  5
6FE
100
AcDbEntity
  8
鏡台
  6
CONTINUOUS
 62
     2
100
AcDbLine
 10
1290.003287
 20
3832.899364
 30
0.0
 11
1294.101581
 21
3911.1
 31
0.0
  0
ARC
  5
6FF
100
AcDbEntity
  8
鏡台
  6
CONTINUOUS
 62
     2
100
AcDbCircle
 10
1280.016991
 20
3833.42272
 30
0.0
 40
10.0
100
AcDbArc
 50
274.028154
 51
357.00002
  0
LINE
  5
700
100
AcDbEntity
  8
鏡台
  6
CONTINUOUS
 62
     6
100
AcDbLine
 10
562.0
 20
3867.0
 30
0.0
 11
573.209606
 21
3867.0
 31
0.0
  0
LINE
  5
701
100
AcDbEntity
  8
鏡台
  6
CONTINUOUS
 62
     6
100
AcDbLine
 10
562.0
 20
3881.0
 30
0.0
 11
572.475898
 21
3881.0
 31
0.0
  0
LINE
  5
702
100
AcDbEntity
  8
鏡台
  6
CONTINUOUS
 62
     6
100
AcDbLine
 10
562.0
 20
3867.0
 30
0.0
 11
562.0
 21
3881.0
 31
0.0
  0
LINE
  5
703
100
AcDbEntity
  8
鏡台
  6
CONTINUOUS
 62
     6
100
AcDbLine
 10
1303.0
 20
3867.0
 30
0.0
 11
1291.790394
 21
3867.0
 31
0.0
  0
LINE
  5
704
100
AcDbEntity
  8
鏡台
  6
CONTINUOUS
 62
     6
100
AcDbLine
 10
1303.0
 20
3881.0
 30
0.0
 11
1292.524102
 21
3881.0
 31
0.0
  0
LINE
  5
705
100
AcDbEntity
  8
鏡台
  6
CONTINUOUS
 62
     6
100
AcDbLine
 10
1303.0
 20
3867.0
 30
0.0
 11
1303.0
 21
3881.0
 31
0.0
  0
LINE
  5
706
100
AcDbEntity
  8
鏡台
  6
CONTINUOUS
 62
     6
100
AcDbLine
 10
558.564678
 20
3883.0
 30
0.0
 11
572.371082
 21
3883.0
 31
0.0
  0
LINE
  5
707
100
AcDbEntity
  8
鏡台
  6
CONTINUOUS
 62
     2
100
AcDbLine
 10
558.590858
 20
3880.0
 30
0.0
 11
562.0
 21
3880.0
 31
0.0
  0
LINE
  5
708
100
AcDbEntity
  8
鏡台
  6
CONTINUOUS
 62
     2
100
AcDbLine
 10
557.5
 20
4005.0
 30
0.0
 11
558.590858
 21
3880.0
 31
0.0
  0
LINE
  5
709
100
AcDbEntity
  8
鏡台
  6
CONTINUOUS
 62
     2
100
AcDbLine
 10
558.319453
 20
3911.1
 30
0.0
 11
1306.680547
 21
3911.1
 31
0.0
  0
LINE
  5
70A
100
AcDbEntity
  8
鏡台
  6
CONTINUOUS
 62
     2
100
AcDbLine
 10
1307.5
 20
4005.0
 30
0.0
 11
1306.409142
 21
3880.0
 31
0.0
  0
LINE
  5
70B
100
AcDbEntity
  8
鏡台
  6
CONTINUOUS
 62
     6
100
AcDbLine
 10
1306.435322
 20
3883.0
 30
0.0
 11
1292.628918
 21
3883.0
 31
0.0
  0
LINE
  5
70C
100
AcDbEntity
  8
鏡台
  6
CONTINUOUS
 62
     2
100
AcDbLine
 10
1306.409142
 20
3880.0
 30
0.0
 11
1303.0
 21
3880.0
 31
0.0
  0
LINE
  5
70D
100
AcDbEntity
  8
鏡台
  6
CONTINUOUS
 62
     6
100
AcDbLine
 10
1376.113647
 20
3855.752808
 30
0.0
 11
1365.7771
 21
3851.990601
 31
0.0
  0
LINE
  5
70E
100
AcDbEntity
  8
鏡台
  6
CONTINUOUS
 62
     6
100
AcDbLine
 10
1371.154297
 20
3869.378296
 30
0.0
 11
1357.734497
 21
3863.854126
 31
0.0
  0
LINE
  5
70F
100
AcDbEntity
  8
鏡台
  6
CONTINUOUS
 62
     6
100
AcDbLine
 10
1365.103516
 20
3871.964966
 30
0.0
 11
1356.294434
 21
3868.758667
 31
0.0
  0
LINE
  5
710
100
AcDbEntity
  8
鏡台
  6
CONTINUOUS
 62
     6
100
AcDbLine
 10
1357.734497
 20
3863.854126
 30
0.0
 11
1351.336304
 21
3885.644531
 31
0.0
  0
LINE
  5
711
100
AcDbEntity
  8
鏡台
  6
CONTINUOUS
 62
     6
100
AcDbLine
 10
1358.026611
 20
3888.080933
 30
0.0
 11
1365.808105
 21
3870.360229
 31
0.0
  0
LINE
  5
712
100
AcDbEntity
  8
鏡台
  6
CONTINUOUS
 62
     6
100
AcDbLine
 10
1387.557495
 20
3871.091919
 30
0.0
 11
1372.522461
 21
3865.619751
 31
0.0
  0
LINE
  5
713
100
AcDbEntity
  8
鏡台
  6
CONTINUOUS
 62
     6
100
AcDbLine
 10
1365.776978
 20
3851.990601
 30
0.0
 11
1361.672852
 21
3863.266968
 31
0.0
  0
LINE
  5
714
100
AcDbEntity
  8
鏡台
  6
CONTINUOUS
 62
     6
100
AcDbLine
 10
1372.009399
 20
3867.029175
 30
0.0
 11
1361.672852
 21
3863.266968
 31
0.0
  0
LINE
  5
715
100
AcDbEntity
  8
鏡台
  6
CONTINUOUS
 62
     6
100
AcDbLine
 10
1371.154297
 20
3869.378296
 30
0.0
 11
1369.674316
 21
3868.783081
 31
0.0
  0
LINE
  5
716
100
AcDbEntity
  8
鏡台
  6
CONTINUOUS
 62
     6
100
AcDbLine
 10
1377.139648
 20
3852.933716
 30
0.0
 11
1363.60083
 21
3849.004028
 31
0.0
  0
LINE
  5
717
100
AcDbEntity
  8
鏡台
  6
CONTINUOUS
 62
     6
100
AcDbLine
 10
1371.154297
 20
3869.378296
 30
0.0
 11
1377.139648
 21
3852.933716
 31
0.0
  0
LINE
  5
718
100
AcDbEntity
  8
鏡台
  6
CONTINUOUS
 62
     6
100
AcDbLine
 10
1357.560791
 20
3862.869263
 30
0.0
 11
1362.382324
 21
3849.622192
 31
0.0
  0
LINE
  5
719
100
AcDbEntity
  8
鏡台
  6
CONTINUOUS
 62
     6
100
AcDbLine
 10
1356.768921
 20
3888.61853
 30
0.0
 11
1351.953735
 21
3886.865967
 31
0.0
  0
ARC
  5
71A
100
AcDbEntity
  8
鏡台
  6
CONTINUOUS
 62
     6
100
AcDbCircle
 10
1368.554932
 20
3871.566528
 30
0.0
 40
3.0
100
AcDbArc
 50
203.707275
 51
291.909241
  0
ARC
  5
71B
100
AcDbEntity
  8
鏡台
  6
CONTINUOUS
 62
     6
100
AcDbCircle
 10
1352.295776
 20
3885.92627
 30
0.0
 40
1.0
100
AcDbArc
 50
110.000061
 51
196.363464
  0
ARC
  5
71C
100
AcDbEntity
  8
鏡台
  6
CONTINUOUS
 62
     6
100
AcDbCircle
 10
1357.110962
 20
3887.678833
 30
0.0
 40
1.0
100
AcDbArc
 50
23.707275
 51
110.0
  0
ARC
  5
71D
100
AcDbEntity
  8
鏡台
  6
CONTINUOUS
 62
     6
100
AcDbCircle
 10
1363.322021
 20
3849.964233
 30
0.0
 40
1.0
100
AcDbArc
 50
200.0
 51
286.186218
  0
ARC
  5
71E
100
AcDbEntity
  8
鏡台
  6
CONTINUOUS
 62
     6
100
AcDbCircle
 10
1358.500488
 20
3863.211304
 30
0.0
 40
1.0
100
AcDbArc
 50
111.909119
 51
200.0
  0
ARC
  5
71F
100
AcDbEntity
  8
鏡台
  6
CONTINUOUS
 62
     6
100
AcDbCircle
 10
1489.157593
 20
3947.165039
 30
0.0
 40
150.0
100
AcDbArc
 50
184.388733
 51
203.721497
  0
ARC
  5
720
100
AcDbEntity
  8
鏡台
  6
CONTINUOUS
 62
     6
100
AcDbCircle
 10
1494.650391
 20
3946.883301
 30
0.0
 40
150.0
100
AcDbArc
 50
184.77002
 51
202.901428
  0
ARC
  5
721
100
AcDbEntity
  8
鏡台
  6
CONTINUOUS
 62
     6
100
AcDbCircle
 10
1219.249512
 20
3935.189941
 30
0.0
 40
120.0
100
AcDbArc
 50
4.115021
 51
27.576874
  0
ARC
  5
722
100
AcDbEntity
  8
鏡台
  6
CONTINUOUS
 62
     6
100
AcDbCircle
 10
1225.145508
 20
3936.416992
 30
0.0
 40
120.0
100
AcDbArc
 50
2.871643
 51
29.221863
  0
ARC
  5
723
100
AcDbEntity
  8
鏡台
  6
CONTINUOUS
 62
     6
100
AcDbCircle
 10
1368.554932
 20
3871.566528
 30
0.0
 40
3.0
100
AcDbArc
 50
203.707275
 51
291.909241
  0
ARC
  5
724
100
AcDbEntity
  8
鏡台
  6
CONTINUOUS
 62
     6
100
AcDbCircle
 10
1352.295776
 20
3885.92627
 30
0.0
 40
1.0
100
AcDbArc
 50
110.000061
 51
196.363464
  0
ARC
  5
725
100
AcDbEntity
  8
鏡台
  6
CONTINUOUS
 62
     6
100
AcDbCircle
 10
1357.110962
 20
3887.678833
 30
0.0
 40
1.0
100
AcDbArc
 50
23.707275
 51
110.0
  0
ARC
  5
726
100
AcDbEntity
  8
鏡台
  6
CONTINUOUS
 62
     6
100
AcDbCircle
 10
1363.322021
 20
3849.964233
 30
0.0
 40
1.0
100
AcDbArc
 50
200.0
 51
286.186218
  0
ARC
  5
727
100
AcDbEntity
  8
鏡台
  6
CONTINUOUS
 62
     6
100
AcDbCircle
 10
1358.500488
 20
3863.211304
 30
0.0
 40
1.0
100
AcDbArc
 50
111.909119
 51
200.0
  0
ARC
  5
728
100
AcDbEntity
  8
鏡台
  6
CONTINUOUS
 62
     6
100
AcDbCircle
 10
1336.359131
 20
3926.998779
 30
0.0
 40
16.999516
100
AcDbArc
 50
71.927826
 51
128.074554
  0
ARC
  5
729
100
AcDbEntity
  8
鏡台
  6
CONTINUOUS
 62
     6
100
AcDbCircle
 10
1346.905396
 20
3959.318604
 30
0.0
 40
16.997519
100
AcDbArc
 50
251.927856
 51
280.004395
  0
ARC
  5
72A
100
AcDbEntity
  8
鏡台
  6
CONTINUOUS
 62
     6
100
AcDbCircle
 10
1346.904175
 20
3959.325928
 30
0.0
 40
17.004932
100
AcDbArc
 50
280.004395
 51
308.068359
  0
ARC
  5
72B
100
AcDbEntity
  8
鏡台
  6
CONTINUOUS
 62
     6
100
AcDbCircle
 10
1336.359131
 20
3918.998779
 30
0.0
 40
16.999516
100
AcDbArc
 50
71.927826
 51
128.074554
  0
ARC
  5
72C
100
AcDbEntity
  8
鏡台
  6
CONTINUOUS
 62
     6
100
AcDbCircle
 10
1346.905396
 20
3951.318604
 30
0.0
 40
16.997519
100
AcDbArc
 50
251.927856
 51
280.004395
  0
ARC
  5
72D
100
AcDbEntity
  8
鏡台
  6
CONTINUOUS
 62
     6
100
AcDbCircle
 10
1346.904175
 20
3951.325928
 30
0.0
 40
17.004932
100
AcDbArc
 50
280.004395
 51
308.068359
  0
ARC
  5
72E
100
AcDbEntity
  8
鏡台
  6
CONTINUOUS
 62
     6
100
AcDbCircle
 10
1307.500854
 20
3975.0
 30
0.0
 40
30.0
100
AcDbArc
 50
41.793671
 51
90.001631
  0
ARC
  5
72F
100
AcDbEntity
  8
鏡台
  6
CONTINUOUS
 62
     6
100
AcDbCircle
 10
1307.500854
 20
3975.0
 30
0.0
 40
24.0
100
AcDbArc
 50
40.990967
 51
90.502341
  0
LINE
  5
730
100
AcDbEntity
  8
鏡台
  6
CONTINUOUS
 62
     6
100
AcDbLine
 10
602.5
 20
3990.0
 30
0.0
 11
602.5
 21
4052.5
 31
0.0
  0
LINE
  5
731
100
AcDbEntity
  8
鏡台
  6
CONTINUOUS
 62
     6
100
AcDbLine
 10
604.5
 20
4005.0
 30
0.0
 11
602.5
 21
4037.5
 31
0.0
  0
LINE
  5
732
100
AcDbEntity
  8
鏡台
  6
CONTINUOUS
 62
     6
100
AcDbLine
 10
602.5
 20
4037.5
 30
0.0
 11
600.5
 21
4005.0
 31
0.0
  0
LINE
  5
733
100
AcDbEntity
  8
鏡台
  6
CONTINUOUS
 62
     6
100
AcDbLine
 10
670.0
 20
3990.0
 30
0.0
 11
670.0
 21
4052.5
 31
0.0
  0
LINE
  5
734
100
AcDbEntity
  8
鏡台
  6
CONTINUOUS
 62
     6
100
AcDbLine
 10
672.0
 20
4005.0
 30
0.0
 11
670.0
 21
4037.5
 31
0.0
  0
LINE
  5
735
100
AcDbEntity
  8
鏡台
  6
CONTINUOUS
 62
     6
100
AcDbLine
 10
670.0
 20
4037.5
 30
0.0
 11
668.0
 21
4005.0
 31
0.0
  0
LINE
  5
736
100
AcDbEntity
  8
鏡台
  6
CONTINUOUS
 62
     6
100
AcDbLine
 10
1195.0
 20
3990.0
 30
0.0
 11
1195.0
 21
4052.5
 31
0.0
  0
LINE
  5
737
100
AcDbEntity
  8
鏡台
  6
CONTINUOUS
 62
     6
100
AcDbLine
 10
1197.0
 20
4005.0
 30
0.0
 11
1195.0
 21
4037.5
 31
0.0
  0
LINE
  5
738
100
AcDbEntity
  8
鏡台
  6
CONTINUOUS
 62
     6
100
AcDbLine
 10
1195.0
 20
4037.5
 30
0.0
 11
1193.0
 21
4005.0
 31
0.0
  0
LINE
  5
739
100
AcDbEntity
  8
鏡台
  6
CONTINUOUS
 62
     6
100
AcDbLine
 10
1262.5
 20
3990.0
 30
0.0
 11
1262.5
 21
4052.5
 31
0.0
  0
LINE
  5
73A
100
AcDbEntity
  8
鏡台
  6
CONTINUOUS
 62
     6
100
AcDbLine
 10
1264.5
 20
4005.0
 30
0.0
 11
1262.5
 21
4037.5
 31
0.0
  0
LINE
  5
73B
100
AcDbEntity
  8
鏡台
  6
CONTINUOUS
 62
     6
100
AcDbLine
 10
1262.5
 20
4037.5
 30
0.0
 11
1260.5
 21
4005.0
 31
0.0
  0
LINE
  5
73C
100
AcDbEntity
  8
鏡台
  6
CONTINUOUS
 62
     6
100
AcDbLine
 10
934.5
 20
4005.0
 30
0.0
 11
932.5
 21
4037.5
 31
0.0
  0
LINE
  5
73D
100
AcDbEntity
  8
鏡台
  6
CONTINUOUS
 62
     6
100
AcDbLine
 10
932.5
 20
4037.5
 30
0.0
 11
930.5
 21
4005.0
 31
0.0
  0
DIMENSION
  5
74A
100
AcDbEntity
  8
鏡台
  6
CONTINUOUS
 62
     3
100
AcDbDimension
  2
*D14
 10
1262.5
 20
3001.0
 30
0.0
 11
932.5
 21
3036.25
 31
0.0
 70
   160
  3
STANDARD
100
AcDbAlignedDimension
 13
602.5
 23
2879.5
 33
0.0
 14
1262.5
 24
2879.5
 34
0.0
100
AcDbRotatedDimension
1001
ACAD
1000
DSTYLE
1002
{
1070
     6
1000
_EX_NORM
1070
     7
1000
_EX_NORM
1070
    41
1040
45.0
1070
    42
1040
10.5
1070
    44
1040
15.0
1070
    73
1070
     0
1070
    74
1070
     0
1070
    75
1070
     0
1070
    76
1070
     0
1070
    77
1070
     1
1070
    78
1070
     0
1070
   140
1040
60.0
1070
   147
1040
5.25
1070
   173
1070
     1
1070
   176
1070
     3
1070
   177
1070
     3
1070
   178
1070
     2
1070
   271
1070
     0
1070
   279
1070
     2
1070
   280
1070
     0
1070
   287
1070
     5
1070
   340
1005
749
1002
}
  0
DIMENSION
  5
756
100
AcDbEntity
  8
鏡台
  6
CONTINUOUS
 62
     3
100
AcDbDimension
  2
*D15
 10
932.5
 20
2339.0
 30
0.0
 11
801.25
 21
2374.25
 31
0.0
 70
   160
  3
STANDARD
100
AcDbAlignedDimension
 13
670.0
 23
2294.5
 33
0.0
 14
932.5
 24
2294.5
 34
0.0
100
AcDbRotatedDimension
1001
ACAD
1000
DSTYLE
1002
{
1070
     6
1000
_EX_NORM
1070
     7
1000
_EX_NORM
1070
    41
1040
45.0
1070
    42
1040
10.5
1070
    44
1040
15.0
1070
    73
1070
     0
1070
    74
1070
     0
1070
    75
1070
     0
1070
    76
1070
     0
1070
    77
1070
     1
1070
    78
1070
     0
1070
   140
1040
60.0
1070
   147
1040
5.25
1070
   173
1070
     1
1070
   176
1070
     3
1070
   177
1070
     3
1070
   178
1070
     2
1070
   271
1070
     0
1070
   279
1070
     2
1070
   280
1070
     0
1070
   287
1070
     5
1070
   340
1005
749
1002
}
  0
DIMENSION
  5
762
100
AcDbEntity
  8
鏡台
  6
CONTINUOUS
 62
     3
100
AcDbDimension
  2
*D16
 10
1195.0
 20
2339.0
 30
0.0
 11
1063.75
 21
2374.25
 31
0.0
 70
   160
  3
STANDARD
100
AcDbAlignedDimension
 13
932.5
 23
2294.5
 33
0.0
 14
1195.0
 24
2294.5
 34
0.0
100
AcDbRotatedDimension
1001
ACAD
1000
DSTYLE
1002
{
1070
     6
1000
_EX_NORM
1070
     7
1000
_EX_NORM
1070
    41
1040
45.0
1070
    42
1040
7.5
1070
    44
1040
15.0
1070
    73
1070
     0
1070
    74
1070
     0
1070
    75
1070
     0
1070
    76
1070
     0
1070
    77
1070
     1
1070
    78
1070
     0
1070
   140
1040
60.0
1070
   147
1040
5.25
1070
   173
1070
     1
1070
   176
1070
     3
1070
   177
1070
     3
1070
   178
1070
     2
1070
   271
1070
     0
1070
   279
1070
     2
1070
   280
1070
     0
1070
   287
1070
     5
1070
   340
1005
749
1002
}
  0
DIMENSION
  5
76E
100
AcDbEntity
  8
鏡台
  6
CONTINUOUS
 62
     3
100
AcDbDimension
  2
*D17
 10
1457.5
 20
1956.0
 30
0.0
 11
1422.25
 21
1891.0
 31
0.0
 70
   160
  3
STANDARD
100
AcDbAlignedDimension
 13
1307.5
 23
1826.0
 33
0.0
 14
1320.576697
 24
1956.0
 34
0.0
 50
90.0
100
AcDbRotatedDimension
1001
ACAD
1000
DSTYLE
1002
{
1070
     6
1000
_EX_NORM
1070
     7
1000
_EX_NORM
1070
    41
1040
45.0
1070
    42
1040
10.5
1070
    44
1040
15.0
1070
    73
1070
     0
1070
    74
1070
     0
1070
    75
1070
     0
1070
    76
1070
     0
1070
    77
1070
     1
1070
    78
1070
     0
1070
   140
1040
60.0
1070
   147
1040
5.25
1070
   173
1070
     1
1070
   176
1070
     3
1070
   177
1070
     3
1070
   178
1070
     2
1070
   271
1070
     0
1070
   279
1070
     2
1070
   280
1070
     0
1070
   287
1070
     5
1070
   340
1005
749
1002
}
  0
DIMENSION
  5
77A
100
AcDbEntity
  8
鏡台
  6
CONTINUOUS
 62
     3
100
AcDbDimension
  2
*D18
 10
1517.5
 20
2926.0
 30
0.0
 11
1482.25
 21
2376.0
 31
0.0
 70
   160
  3
STANDARD
100
AcDbAlignedDimension
 13
1307.5
 23
1826.0
 33
0.0
 14
1307.5
 24
2926.0
 34
0.0
 50
90.0
100
AcDbRotatedDimension
1001
ACAD
1000
DSTYLE
1002
{
1070
     6
1000
_EX_NORM
1070
     7
1000
_EX_NORM
1070
    41
1040
45.0
1070
    42
1040
10.5
1070
    44
1040
15.0
1070
    73
1070
     0
1070
    74
1070
     0
1070
    75
1070
     0
1070
    76
1070
     0
1070
    77
1070
     1
1070
    78
1070
     0
1070
   140
1040
60.0
1070
   147
1040
5.25
1070
   173
1070
     1
1070
   176
1070
     3
1070
   177
1070
     3
1070
   178
1070
     2
1070
   271
1070
     0
1070
   279
1070
     2
1070
   280
1070
     0
1070
   287
1070
     5
1070
   340
1005
749
1002
}
  0
LINE
  5
77B
100
AcDbEntity
  8
鏡台
  6
CONTINUOUS
 62
     2
100
AcDbLine
 10
1307.5
 20
2926.0
 30
0.0
 11
1307.5
 21
1826.0
 31
0.0
  0
LINE
  5
77C
100
AcDbEntity
  8
鏡台
  6
CONTINUOUS
 62
     2
100
AcDbLine
 10
557.5
 20
2926.0
 30
0.0
 11
1307.5
 21
2926.0
 31
0.0
  0
LINE
  5
77D
100
AcDbEntity
  8
鏡台
  6
CONTINUOUS
 62
     2
100
AcDbLine
 10
1303.0
 20
2821.0
 30
0.0
 11
1303.0
 21
2076.0
 31
0.0
  0
LINE
  5
77E
100
AcDbEntity
  8
鏡台
  6
CONTINUOUS
 62
     2
100
AcDbLine
 10
562.0
 20
2821.0
 30
0.0
 11
562.0
 21
2076.0
 31
0.0
  0
ARC
  5
77F
100
AcDbEntity
  8
鏡台
  6
CONTINUOUS
 62
     2
100
AcDbCircle
 10
1285.518432
 20
2906.192871
 30
0.0
 40
10.0
100
AcDbArc
 50
0.0
 51
90.0
  0
LINE
  5
780
100
AcDbEntity
  8
鏡台
  6
CONTINUOUS
 62
     2
100
AcDbLine
 10
579.481568
 20
2916.192871
 30
0.0
 11
1285.518432
 21
2916.192871
 31
0.0
  0
ARC
  5
781
100
AcDbEntity
  8
鏡台
  6
CONTINUOUS
 62
     2
100
AcDbCircle
 10
579.481568
 20
2906.192871
 30
0.0
 40
10.0
100
AcDbArc
 50
90.0
 51
180.0
  0
LINE
  5
782
100
AcDbEntity
  8
鏡台
  6
CONTINUOUS
 62
     2
100
AcDbLine
 10
569.481568
 20
2906.192871
 30
0.0
 11
569.481568
 21
2839.5
 31
0.0
  0
ARC
  5
783
100
AcDbEntity
  8
鏡台
  6
CONTINUOUS
 62
     2
100
AcDbCircle
 10
579.481568
 20
2839.5
 30
0.0
 40
10.0
100
AcDbArc
 50
180.0
 51
270.0
  0
LINE
  5
784
100
AcDbEntity
  8
鏡台
  6
CONTINUOUS
 62
     2
100
AcDbLine
 10
1295.518432
 20
2906.192871
 30
0.0
 11
1295.518432
 21
2839.5
 31
0.0
  0
ARC
  5
785
100
AcDbEntity
  8
鏡台
  6
CONTINUOUS
 62
     2
100
AcDbCircle
 10
1285.518432
 20
2839.5
 30
0.0
 40
10.0
100
AcDbArc
 50
270.0
 51
0.0
  0
LINE
  5
786
100
AcDbEntity
  8
鏡台
  6
CONTINUOUS
 62
     2
100
AcDbLine
 10
1307.5
 20
2829.5
 30
0.0
 11
557.5
 21
2829.5
 31
0.0
  0
LINE
  5
787
100
AcDbEntity
  8
鏡台
  6
CONTINUOUS
 62
     6
100
AcDbLine
 10
632.5
 20
2871.0
 30
0.0
 11
572.5
 21
2871.0
 31
0.0
  0
LINE
  5
788
100
AcDbEntity
  8
鏡台
  6
CONTINUOUS
 62
     6
100
AcDbLine
 10
602.5
 20
2901.0
 30
0.0
 11
602.5
 21
2841.0
 31
0.0
  0
LINE
  5
789
100
AcDbEntity
  8
鏡台
  6
CONTINUOUS
 62
     6
100
AcDbLine
 10
1292.5
 20
2871.0
 30
0.0
 11
1232.5
 21
2871.0
 31
0.0
  0
LINE
  5
78A
100
AcDbEntity
  8
鏡台
  6
CONTINUOUS
 62
     6
100
AcDbLine
 10
1262.5
 20
2901.0
 30
0.0
 11
1262.5
 21
2841.0
 31
0.0
  0
CIRCLE
  5
78B
100
AcDbEntity
  8
鏡台
  6
EXLTYPE2
 62
     6
100
AcDbCircle
 10
602.5
 20
2871.0
 30
0.0
 40
8.5
  0
CIRCLE
  5
78C
100
AcDbEntity
  8
鏡台
  6
EXLTYPE2
 62
     6
100
AcDbCircle
 10
1262.5
 20
2871.0
 30
0.0
 40
8.5
  0
ARC
  5
78D
100
AcDbEntity
  8
鏡台
  6
CONTINUOUS
 62
     6
100
AcDbCircle
 10
932.500217
 20
67078.177461
 30
0.0
 40
64166.701417
100
AcDbArc
 50
269.689686
 51
270.310313
  0
ARC
  5
78E
100
AcDbEntity
  8
鏡台
  6
CONTINUOUS
 62
     6
100
AcDbCircle
 10
584.921037
 20
2902.41729
 30
0.0
 40
10.0
100
AcDbArc
 50
89.689686
 51
182.048105
  0
ARC
  5
78F
100
AcDbEntity
  8
鏡台
  6
CONTINUOUS
 62
     6
100
AcDbCircle
 10
-243.601101
 20
2872.788178
 30
0.0
 40
819.051758
100
AcDbArc
 50
357.962228
 51
2.048105
  0
ARC
  5
790
100
AcDbEntity
  8
鏡台
  6
CONTINUOUS
 62
     6
100
AcDbCircle
 10
584.926367
 20
2843.308484
 30
0.0
 40
10.0
100
AcDbArc
 50
177.962228
 51
270.310237
  0
ARC
  5
791
100
AcDbEntity
  8
鏡台
  6
CONTINUOUS
 62
     6
100
AcDbCircle
 10
932.500217
 20
-61347.429678
 30
0.0
 40
64181.67916
100
AcDbArc
 50
89.689764
 51
90.310237
  0
ARC
  5
792
100
AcDbEntity
  8
鏡台
  6
CONTINUOUS
 62
     6
100
AcDbCircle
 10
1280.073633
 20
2843.308486
 30
0.0
 40
10.0
100
AcDbArc
 50
269.689764
 51
2.037772
  0
ARC
  5
793
100
AcDbEntity
  8
鏡台
  6
CONTINUOUS
 62
     6
100
AcDbCircle
 10
2108.601101
 20
2872.788178
 30
0.0
 40
819.051758
100
AcDbArc
 50
177.951896
 51
182.037772
  0
ARC
  5
794
100
AcDbEntity
  8
鏡台
  6
CONTINUOUS
 62
     6
100
AcDbCircle
 10
1280.078963
 20
2902.417287
 30
0.0
 40
10.0
100
AcDbArc
 50
357.951896
 51
90.310313
  0
LINE
  5
795
100
AcDbEntity
  8
鏡台
  6
CONTINUOUS
 62
     2
100
AcDbLine
 10
562.0
 20
2797.0
 30
0.0
 11
782.0
 21
2797.0
 31
0.0
  0
LINE
  5
796
100
AcDbEntity
  8
鏡台
  6
CONTINUOUS
 62
     2
100
AcDbLine
 10
562.0
 20
2821.0
 30
0.0
 11
782.0
 21
2821.0
 31
0.0
  0
LINE
  5
797
100
AcDbEntity
  8
鏡台
  6
CONTINUOUS
 62
     2
100
AcDbLine
 10
785.0
 20
2821.0
 30
0.0
 11
1080.0
 21
2821.0
 31
0.0
  0
LINE
  5
798
100
AcDbEntity
  8
鏡台
  6
CONTINUOUS
 62
     2
100
AcDbLine
 10
1083.0
 20
2821.0
 30
0.0
 11
1303.0
 21
2821.0
 31
0.0
  0
LINE
  5
799
100
AcDbEntity
  8
鏡台
  6
CONTINUOUS
 62
     2
100
AcDbLine
 10
785.0
 20
2797.0
 30
0.0
 11
1080.0
 21
2797.0
 31
0.0
  0
LINE
  5
79A
100
AcDbEntity
  8
鏡台
  6
CONTINUOUS
 62
     2
100
AcDbLine
 10
1083.0
 20
2797.0
 30
0.0
 11
1303.0
 21
2797.0
 31
0.0
  0
LINE
  5
79B
100
AcDbEntity
  8
鏡台
  6
CONTINUOUS
 62
     2
100
AcDbLine
 10
562.0
 20
2100.0
 30
0.0
 11
782.0
 21
2100.0
 31
0.0
  0
LINE
  5
79C
100
AcDbEntity
  8
鏡台
  6
CONTINUOUS
 62
     2
100
AcDbLine
 10
785.0
 20
2100.0
 30
0.0
 11
1080.0
 21
2100.0
 31
0.0
  0
LINE
  5
79D
100
AcDbEntity
  8
鏡台
  6
CONTINUOUS
 62
     2
100
AcDbLine
 10
1083.0
 20
2100.0
 30
0.0
 11
1303.0
 21
2100.0
 31
0.0
  0
LINE
  5
79E
100
AcDbEntity
  8
鏡台
  6
CONTINUOUS
 62
     2
100
AcDbLine
 10
557.5
 20
2076.0
 30
0.0
 11
1307.5
 21
2076.0
 31
0.0
  0
LINE
  5
79F
100
AcDbEntity
  8
鏡台
  6
CONTINUOUS
 62
     2
100
AcDbLine
 10
557.5
 20
2036.0
 30
0.0
 11
782.5
 21
2036.0
 31
0.0
  0
LINE
  5
7A0
100
AcDbEntity
  8
鏡台
  6
CONTINUOUS
 62
     2
100
AcDbLine
 10
737.5
 20
2076.0
 30
0.0
 11
737.5
 21
2036.0
 31
0.0
  0
LINE
  5
7A1
100
AcDbEntity
  8
鏡台
  6
CONTINUOUS
 62
     2
100
AcDbLine
 10
782.5
 20
2076.0
 30
0.0
 11
782.5
 21
2036.0
 31
0.0
  0
LINE
  5
7A2
100
AcDbEntity
  8
鏡台
  6
CONTINUOUS
 62
     6
100
AcDbLine
 10
629.5
 20
2063.0
 30
0.0
 11
665.5
 21
2063.0
 31
0.0
  0
LINE
  5
7A3
100
AcDbEntity
  8
鏡台
  6
CONTINUOUS
 62
     6
100
AcDbLine
 10
629.5
 20
2057.0
 30
0.0
 11
665.5
 21
2057.0
 31
0.0
  0
ARC
  5
7A4
100
AcDbEntity
  8
鏡台
  6
CONTINUOUS
 62
     6
100
AcDbCircle
 10
629.5
 20
2060.0
 30
0.0
 40
3.0
100
AcDbArc
 50
90.0
 51
270.0
  0
ARC
  5
7A5
100
AcDbEntity
  8
鏡台
  6
CONTINUOUS
 62
     6
100
AcDbCircle
 10
665.5
 20
2060.0
 30
0.0
 40
3.0
100
AcDbArc
 50
270.0
 51
90.0
  0
LINE
  5
7A6
100
AcDbEntity
  8
鏡台
  6
CONTINUOUS
 62
     6
100
AcDbLine
 10
1195.0
 20
2316.0
 30
0.0
 11
1195.0
 21
2256.0
 31
0.0
  0
LINE
  5
7A7
100
AcDbEntity
  8
鏡台
  6
CONTINUOUS
 62
     6
100
AcDbLine
 10
1225.0
 20
2286.0
 30
0.0
 11
1165.0
 21
2286.0
 31
0.0
  0
CIRCLE
  5
7A8
100
AcDbEntity
  8
鏡台
  6
EXLTYPE2
 62
     6
100
AcDbCircle
 10
1195.0
 20
2286.0
 30
0.0
 40
8.5
  0
LINE
  5
7A9
100
AcDbEntity
  8
鏡台
  6
CONTINUOUS
 62
     6
100
AcDbLine
 10
962.5
 20
2286.0
 30
0.0
 11
902.5
 21
2286.0
 31
0.0
  0
CIRCLE
  5
7AA
100
AcDbEntity
  8
鏡台
  6
EXLTYPE2
 62
     6
100
AcDbCircle
 10
932.5
 20
2286.0
 30
0.0
 40
8.5
  0
LINE
  5
7AB
100
AcDbEntity
  8
鏡台
  6
CONTINUOUS
 62
     6
100
AcDbLine
 10
670.0
 20
2316.0
 30
0.0
 11
670.0
 21
2256.0
 31
0.0
  0
LINE
  5
7AC
100
AcDbEntity
  8
鏡台
  6
CONTINUOUS
 62
     6
100
AcDbLine
 10
700.0
 20
2286.0
 30
0.0
 11
640.0
 21
2286.0
 31
0.0
  0
CIRCLE
  5
7AD
100
AcDbEntity
  8
鏡台
  6
EXLTYPE2
 62
     6
100
AcDbCircle
 10
670.0
 20
2286.0
 30
0.0
 40
8.5
  0
LINE
  5
7AE
100
AcDbEntity
  8
鏡台
  6
CONTINUOUS
 62
     6
100
AcDbLine
 10
668.533009
 20
2208.033009
 30
0.0
 11
615.5
 21
2155.0
 31
0.0
  0
LINE
  5
7AF
100
AcDbEntity
  8
鏡台
  6
CONTINUOUS
 62
     6
100
AcDbLine
 10
645.893146
 20
2196.706854
 30
0.0
 11
626.943146
 21
2177.756854
 31
0.0
  0
LINE
  5
7B0
100
AcDbEntity
  8
鏡台
  6
CONTINUOUS
 62
     6
100
AcDbLine
 10
662.406854
 20
2190.593146
 30
0.0
 11
632.706854
 21
2160.893146
 31
0.0
  0
LINE
  5
7B1
100
AcDbEntity
  8
鏡台
  6
CONTINUOUS
 62
     6
100
AcDbLine
 10
753.533009
 20
2488.033009
 30
0.0
 11
700.5
 21
2435.0
 31
0.0
  0
LINE
  5
7B2
100
AcDbEntity
  8
鏡台
  6
CONTINUOUS
 62
     6
100
AcDbLine
 10
730.893146
 20
2476.706854
 30
0.0
 11
711.943146
 21
2457.756854
 31
0.0
  0
LINE
  5
7B3
100
AcDbEntity
  8
鏡台
  6
CONTINUOUS
 62
     6
100
AcDbLine
 10
747.406854
 20
2470.593146
 30
0.0
 11
717.706854
 21
2440.893146
 31
0.0
  0
LINE
  5
7B4
100
AcDbEntity
  8
鏡台
  6
CONTINUOUS
 62
     6
100
AcDbLine
 10
675.533009
 20
2665.033009
 30
0.0
 11
622.5
 21
2612.0
 31
0.0
  0
LINE
  5
7B5
100
AcDbEntity
  8
鏡台
  6
CONTINUOUS
 62
     6
100
AcDbLine
 10
652.893146
 20
2653.706854
 30
0.0
 11
633.943146
 21
2634.756854
 31
0.0
  0
LINE
  5
7B6
100
AcDbEntity
  8
鏡台
  6
CONTINUOUS
 62
     6
100
AcDbLine
 10
669.406854
 20
2647.593146
 30
0.0
 11
639.706854
 21
2617.893146
 31
0.0
  0
LINE
  5
7B7
100
AcDbEntity
  8
鏡台
  6
CONTINUOUS
 62
     6
100
AcDbLine
 10
1173.893146
 20
2653.706854
 30
0.0
 11
1154.943146
 21
2634.756854
 31
0.0
  0
LINE
  5
7B8
100
AcDbEntity
  8
鏡台
  6
CONTINUOUS
 62
     6
100
AcDbLine
 10
1196.533009
 20
2665.033009
 30
0.0
 11
1143.5
 21
2612.0
 31
0.0
  0
LINE
  5
7B9
100
AcDbEntity
  8
鏡台
  6
CONTINUOUS
 62
     6
100
AcDbLine
 10
1190.406854
 20
2647.593146
 30
0.0
 11
1160.706854
 21
2617.893146
 31
0.0
  0
LINE
  5
7BA
100
AcDbEntity
  8
鏡台
  6
CONTINUOUS
 62
     6
100
AcDbLine
 10
1251.893146
 20
2476.706854
 30
0.0
 11
1232.943146
 21
2457.756854
 31
0.0
  0
LINE
  5
7BB
100
AcDbEntity
  8
鏡台
  6
CONTINUOUS
 62
     6
100
AcDbLine
 10
1274.533009
 20
2488.033009
 30
0.0
 11
1221.5
 21
2435.0
 31
0.0
  0
LINE
  5
7BC
100
AcDbEntity
  8
鏡台
  6
CONTINUOUS
 62
     6
100
AcDbLine
 10
1268.406854
 20
2470.593146
 30
0.0
 11
1238.706854
 21
2440.893146
 31
0.0
  0
LINE
  5
7BD
100
AcDbEntity
  8
鏡台
  6
CONTINUOUS
 62
     6
100
AcDbLine
 10
1166.893146
 20
2196.706854
 30
0.0
 11
1147.943146
 21
2177.756854
 31
0.0
  0
LINE
  5
7BE
100
AcDbEntity
  8
鏡台
  6
CONTINUOUS
 62
     6
100
AcDbLine
 10
1183.406854
 20
2190.593146
 30
0.0
 11
1153.706854
 21
2160.893146
 31
0.0
  0
LINE
  5
7BF
100
AcDbEntity
  8
鏡台
  6
CONTINUOUS
 62
     6
100
AcDbLine
 10
1189.533009
 20
2208.033009
 30
0.0
 11
1136.5
 21
2155.0
 31
0.0
  0
LINE
  5
7C0
100
AcDbEntity
  8
鏡台
  6
CONTINUOUS
 62
     6
100
AcDbLine
 10
1363.107802
 20
1841.412733
 30
0.0
 11
1352.482689
 21
1838.565732
 31
0.0
  0
LINE
  5
7C1
100
AcDbEntity
  8
鏡台
  6
CONTINUOUS
 62
     6
100
AcDbLine
 10
1359.354862
 20
1855.418608
 30
0.0
 11
1345.504666
 21
1851.085072
 31
0.0
  0
LINE
  5
7C2
100
AcDbEntity
  8
鏡台
  6
CONTINUOUS
 62
     6
100
AcDbLine
 10
1353.552539
 20
1858.522674
 30
0.0
 11
1344.49753
 21
1856.096338
 31
0.0
  0
LINE
  5
7C3
100
AcDbEntity
  8
鏡台
  6
CONTINUOUS
 62
     6
100
AcDbLine
 10
1345.504666
 20
1851.085072
 30
0.0
 11
1341.029978
 21
1873.350197
 31
0.0
  0
LINE
  5
7C4
100
AcDbEntity
  8
鏡台
  6
CONTINUOUS
 62
     6
100
AcDbLine
 10
1347.907174
 20
1875.194229
 30
0.0
 11
1354.114596
 21
1856.862756
 31
0.0
  0
LINE
  5
7C5
100
AcDbEntity
  8
鏡台
  6
CONTINUOUS
 62
     6
100
AcDbLine
 10
1378.174427
 20
1847.002698
 30
0.0
 11
1362.719542
 21
1842.861631
 31
0.0
  0
LINE
  5
7C6
100
AcDbEntity
  8
鏡台
  6
CONTINUOUS
 62
     6
100
AcDbLine
 10
1375.844994
 20
1855.696077
 30
0.0
 11
1360.39023
 21
1851.555
 31
0.0
  0
LINE
  5
7C7
100
AcDbEntity
  8
鏡台
  6
CONTINUOUS
 62
     6
100
AcDbLine
 10
1352.482568
 20
1838.565743
 30
0.0
 11
1349.376849
 21
1850.156776
 31
0.0
  0
LINE
  5
7C8
100
AcDbEntity
  8
鏡台
  6
CONTINUOUS
 62
     6
100
AcDbLine
 10
1360.001972
 20
1853.003899
 30
0.0
 11
1349.376849
 21
1850.156776
 31
0.0
  0
LINE
  5
7C9
100
AcDbEntity
  8
鏡台
  6
CONTINUOUS
 62
     6
100
AcDbLine
 10
1359.354862
 20
1855.418608
 30
0.0
 11
1357.828637
 21
1854.954647
 31
0.0
  0
LINE
  5
7CA
100
AcDbEntity
  8
鏡台
  6
CONTINUOUS
 62
     6
100
AcDbLine
 10
1363.884198
 20
1838.514947
 30
0.0
 11
1350.054394
 21
1835.780077
 31
0.0
  0
LINE
  5
7CB
100
AcDbEntity
  8
鏡台
  6
CONTINUOUS
 62
     6
100
AcDbLine
 10
1359.354862
 20
1855.418608
 30
0.0
 11
1363.884198
 21
1838.514947
 31
0.0
  0
LINE
  5
7CC
100
AcDbEntity
  8
鏡台
  6
CONTINUOUS
 62
     6
100
AcDbLine
 10
1345.245785
 20
1850.119096
 30
0.0
 11
1348.894412
 21
1836.50221
 31
0.0
  0
LINE
  5
7CD
100
AcDbEntity
  8
鏡台
  6
CONTINUOUS
 62
     6
100
AcDbLine
 10
1346.701124
 20
1875.839395
 30
0.0
 11
1341.751516
 21
1874.513172
 31
0.0
  0
ARC
  5
7CE
100
AcDbEntity
  8
鏡台
  6
CONTINUOUS
 62
     6
100
AcDbCircle
 10
1489.156677
 20
1901.165039
 30
0.0
 40
150.0
100
AcDbArc
 50
184.010986
 51
190.263581
  0
ARC
  5
7CF
100
AcDbEntity
  8
鏡台
  6
CONTINUOUS
 62
     6
100
AcDbCircle
 10
1494.649475
 20
1900.883301
 30
0.0
 40
150.0
100
AcDbArc
 50
184.385864
 51
189.606282
  0
ARC
  5
7D0
100
AcDbEntity
  8
鏡台
  6
CONTINUOUS
 62
     6
100
AcDbCircle
 10
1356.956095
 20
1857.824941
 30
0.0
 40
3.0
100
AcDbArc
 50
198.707275
 51
286.909241
  0
ARC
  5
7D1
100
AcDbEntity
  8
鏡台
  6
CONTINUOUS
 62
     6
100
AcDbCircle
 10
1342.010355
 20
1873.547239
 30
0.0
 40
1.0
100
AcDbArc
 50
105.000061
 51
191.363464
  0
ARC
  5
7D2
100
AcDbEntity
  8
鏡台
  6
CONTINUOUS
 62
     6
100
AcDbCircle
 10
1346.959963
 20
1874.873463
 30
0.0
 40
1.0
100
AcDbArc
 50
18.707275
 51
105.0
  0
ARC
  5
7D3
100
AcDbEntity
  8
鏡台
  6
CONTINUOUS
 62
     6
100
AcDbCircle
 10
1368.383657
 20
1849.038081
 30
0.0
 40
10.0
100
AcDbArc
 50
348.256348
 51
41.743622
  0
ARC
  5
7D4
100
AcDbEntity
  8
鏡台
  6
CONTINUOUS
 62
     6
100
AcDbCircle
 10
1349.860344
 20
1836.761049
 30
0.0
 40
1.0
100
AcDbArc
 50
195.0
 51
281.186218
  0
ARC
  5
7D5
100
AcDbEntity
  8
鏡台
  6
CONTINUOUS
 62
     6
100
AcDbCircle
 10
1346.211717
 20
1850.377935
 30
0.0
 40
1.0
100
AcDbArc
 50
106.909119
 51
195.0
  0
ARC
  5
7D6
100
AcDbEntity
  8
鏡台
  6
CONTINUOUS
 62
     6
100
AcDbCircle
 10
1219.248657
 20
1889.189941
 30
0.0
 40
120.0
100
AcDbArc
 50
4.590393
 51
27.576874
  0
ARC
  5
7D7
100
AcDbEntity
  8
鏡台
  6
CONTINUOUS
 62
     6
100
AcDbCircle
 10
1225.144653
 20
1890.416992
 30
0.0
 40
120.0
100
AcDbArc
 50
3.349121
 51
29.221863
  0
ARC
  5
7D8
100
AcDbEntity
  8
鏡台
  6
CONTINUOUS
 62
     6
100
AcDbCircle
 10
1307.5
 20
1929.0
 30
0.0
 40
30.0
100
AcDbArc
 50
41.793671
 51
90.0
  0
ARC
  5
7D9
100
AcDbEntity
  8
鏡台
  6
CONTINUOUS
 62
     6
100
AcDbCircle
 10
1356.956095
 20
1857.824941
 30
0.0
 40
3.0
100
AcDbArc
 50
198.707275
 51
286.909241
  0
ARC
  5
7DA
100
AcDbEntity
  8
鏡台
  6
CONTINUOUS
 62
     6
100
AcDbCircle
 10
1342.010355
 20
1873.547239
 30
0.0
 40
1.0
100
AcDbArc
 50
105.000061
 51
191.363464
  0
ARC
  5
7DB
100
AcDbEntity
  8
鏡台
  6
CONTINUOUS
 62
     6
100
AcDbCircle
 10
1346.959963
 20
1874.873463
 30
0.0
 40
1.0
100
AcDbArc
 50
18.707275
 51
105.0
  0
ARC
  5
7DC
100
AcDbEntity
  8
鏡台
  6
CONTINUOUS
 62
     6
100
AcDbCircle
 10
1368.383657
 20
1849.038081
 30
0.0
 40
10.0
100
AcDbArc
 50
348.256348
 51
41.743622
  0
ARC
  5
7DD
100
AcDbEntity
  8
鏡台
  6
CONTINUOUS
 62
     6
100
AcDbCircle
 10
1349.860344
 20
1836.761049
 30
0.0
 40
1.0
100
AcDbArc
 50
195.0
 51
281.186218
  0
ARC
  5
7DE
100
AcDbEntity
  8
鏡台
  6
CONTINUOUS
 62
     6
100
AcDbCircle
 10
1346.211717
 20
1850.377935
 30
0.0
 40
1.0
100
AcDbArc
 50
106.909119
 51
195.0
  0
ARC
  5
7DF
100
AcDbEntity
  8
鏡台
  6
CONTINUOUS
 62
     6
100
AcDbCircle
 10
1307.5
 20
1929.0
 30
0.0
 40
24.0
100
AcDbArc
 50
40.990967
 51
90.0
  0
ARC
  5
7E0
100
AcDbEntity
  8
鏡台
  6
CONTINUOUS
 62
     6
100
AcDbCircle
 10
1336.127808
 20
1882.015259
 30
0.0
 40
17.00025
100
AcDbArc
 50
71.928894
 51
128.072876
  0
ARC
  5
7E1
100
AcDbEntity
  8
鏡台
  6
CONTINUOUS
 62
     6
100
AcDbCircle
 10
1346.674561
 20
1914.338562
 30
0.0
 40
17.000208
100
AcDbArc
 50
251.928955
 51
280.001038
  0
ARC
  5
7E2
100
AcDbEntity
  8
鏡台
  6
CONTINUOUS
 62
     6
100
AcDbCircle
 10
1346.674683
 20
1914.338379
 30
0.0
 40
17.000029
100
AcDbArc
 50
280.001038
 51
308.073608
  0
ARC
  5
7E3
100
AcDbEntity
  8
鏡台
  6
CONTINUOUS
 62
     6
100
AcDbCircle
 10
1336.127808
 20
1874.015259
 30
0.0
 40
17.00025
100
AcDbArc
 50
71.928894
 51
128.072876
  0
ARC
  5
7E4
100
AcDbEntity
  8
鏡台
  6
CONTINUOUS
 62
     6
100
AcDbCircle
 10
1346.674561
 20
1906.338562
 30
0.0
 40
17.000208
100
AcDbArc
 50
251.928955
 51
280.001038
  0
ARC
  5
7E5
100
AcDbEntity
  8
鏡台
  6
CONTINUOUS
 62
     6
100
AcDbCircle
 10
1346.674683
 20
1906.338379
 30
0.0
 40
17.000029
100
AcDbArc
 50
280.001038
 51
308.073608
  0
LINE
  5
7E6
100
AcDbEntity
  8
鏡台
  6
CONTINUOUS
 62
     6
100
AcDbLine
 10
1277.5
 20
1956.0
 30
0.0
 11
1350.576697
 21
1956.0
 31
0.0
  0
LINE
  5
7E7
100
AcDbEntity
  8
鏡台
  6
EXLTYPE2
 62
     6
100
AcDbLine
 10
842.5
 20
2231.0
 30
0.0
 11
1022.5
 21
2231.0
 31
0.0
  0
LINE
  5
7E8
100
AcDbEntity
  8
鏡台
  6
EXLTYPE2
 62
     6
100
AcDbLine
 10
842.5
 20
2661.0
 30
0.0
 11
1022.5
 21
2661.0
 31
0.0
  0
LINE
  5
7E9
100
AcDbEntity
  8
鏡台
  6
CONTINUOUS
 62
     6
100
AcDbLine
 10
881.533009
 20
2748.033009
 30
0.0
 11
828.5
 21
2695.0
 31
0.0
  0
LINE
  5
7EA
100
AcDbEntity
  8
鏡台
  6
CONTINUOUS
 62
     6
100
AcDbLine
 10
858.893146
 20
2736.706854
 30
0.0
 11
839.943146
 21
2717.756854
 31
0.0
  0
LINE
  5
7EB
100
AcDbEntity
  8
鏡台
  6
CONTINUOUS
 62
     6
100
AcDbLine
 10
875.406854
 20
2730.593146
 30
0.0
 11
845.706854
 21
2700.893146
 31
0.0
  0
LINE
  5
7EC
100
AcDbEntity
  8
鏡台
  6
CONTINUOUS
 62
     6
100
AcDbLine
 10
911.533009
 20
2193.033009
 30
0.0
 11
858.5
 21
2140.0
 31
0.0
  0
LINE
  5
7ED
100
AcDbEntity
  8
鏡台
  6
CONTINUOUS
 62
     6
100
AcDbLine
 10
888.893146
 20
2181.706854
 30
0.0
 11
869.943146
 21
2162.756854
 31
0.0
  0
LINE
  5
7EE
100
AcDbEntity
  8
鏡台
  6
CONTINUOUS
 62
     6
100
AcDbLine
 10
905.406854
 20
2175.593146
 30
0.0
 11
875.706854
 21
2145.893146
 31
0.0
  0
LINE
  5
7EF
100
AcDbEntity
  8
鏡台
  6
CONTINUOUS
 62
     6
100
AcDbLine
 10
1008.533009
 20
2479.033009
 30
0.0
 11
955.5
 21
2426.0
 31
0.0
  0
LINE
  5
7F0
100
AcDbEntity
  8
鏡台
  6
CONTINUOUS
 62
     6
100
AcDbLine
 10
985.893146
 20
2467.706854
 30
0.0
 11
966.943146
 21
2448.756854
 31
0.0
  0
LINE
  5
7F1
100
AcDbEntity
  8
鏡台
  6
CONTINUOUS
 62
     6
100
AcDbLine
 10
1002.406854
 20
2461.593146
 30
0.0
 11
972.706854
 21
2431.893146
 31
0.0
  0
LINE
  5
7F2
100
AcDbEntity
  8
鏡台
  6
CONTINUOUS
 62
     6
100
AcDbLine
 10
932.5
 20
2316.0
 30
0.0
 11
932.5
 21
2256.0
 31
0.0
  0
LINE
  5
7F3
100
AcDbEntity
  8
鏡台
  6
CONTINUOUS
 62
     2
100
AcDbLine
 10
785.0
 20
2821.0
 30
0.0
 11
785.0
 21
2408.0
 31
0.0
  0
LINE
  5
7F4
100
AcDbEntity
  8
鏡台
  6
CONTINUOUS
 62
     2
100
AcDbLine
 10
785.0
 20
2317.0
 30
0.0
 11
785.0
 21
2076.0
 31
0.0
  0
LINE
  5
7F5
100
AcDbEntity
  8
鏡台
  6
CONTINUOUS
 62
     2
100
AcDbLine
 10
1080.0
 20
2821.0
 30
0.0
 11
1080.0
 21
2408.0
 31
0.0
  0
LINE
  5
7F6
100
AcDbEntity
  8
鏡台
  6
CONTINUOUS
 62
     2
100
AcDbLine
 10
1080.0
 20
2317.0
 30
0.0
 11
1080.0
 21
2076.0
 31
0.0
  0
LINE
  5
7F7
100
AcDbEntity
  8
鏡台
  6
CONTINUOUS
 62
     2
100
AcDbLine
 10
1083.0
 20
2821.0
 30
0.0
 11
1083.0
 21
2408.0
 31
0.0
  0
LINE
  5
7F8
100
AcDbEntity
  8
鏡台
  6
CONTINUOUS
 62
     2
100
AcDbLine
 10
1083.0
 20
2317.0
 30
0.0
 11
1083.0
 21
2076.0
 31
0.0
  0
LINE
  5
7F9
100
AcDbEntity
  8
鏡台
  6
CONTINUOUS
 62
     2
100
AcDbLine
 10
782.0
 20
2821.0
 30
0.0
 11
782.0
 21
2408.0
 31
0.0
  0
LINE
  5
7FA
100
AcDbEntity
  8
鏡台
  6
CONTINUOUS
 62
     2
100
AcDbLine
 10
782.0
 20
2317.0
 30
0.0
 11
782.0
 21
2076.0
 31
0.0
  0
LINE
  5
7FB
100
AcDbEntity
  8
鏡台
  6
EXLTYPE2
 62
     6
100
AcDbLine
 10
842.5
 20
2661.0
 30
0.0
 11
842.5
 21
2408.0
 31
0.0
  0
LINE
  5
7FC
100
AcDbEntity
  8
鏡台
  6
EXLTYPE2
 62
     6
100
AcDbLine
 10
842.5
 20
2317.0
 30
0.0
 11
842.5
 21
2231.0
 31
0.0
  0
LINE
  5
7FD
100
AcDbEntity
  8
鏡台
  6
EXLTYPE2
 62
     6
100
AcDbLine
 10
1022.5
 20
2661.0
 30
0.0
 11
1022.5
 21
2408.0
 31
0.0
  0
LINE
  5
7FE
100
AcDbEntity
  8
鏡台
  6
EXLTYPE2
 62
     6
100
AcDbLine
 10
1022.5
 20
2317.0
 30
0.0
 11
1022.5
 21
2231.0
 31
0.0
  0
LINE
  5
7FF
100
AcDbEntity
  8
鏡台
  6
CONTINUOUS
 62
     3
100
AcDbLine
 10
932.5
 20
2305.0
 30
0.0
 11
932.5
 21
2317.0
 31
0.0
  0
LINE
  5
800
100
AcDbEntity
  8
鏡台
  6
CONTINUOUS
 62
     3
100
AcDbLine
 10
932.5
 20
2305.0
 30
0.0
 11
932.5
 21
2317.0
 31
0.0
  0
DIMENSION
  5
80B
100
AcDbEntity
  8
鏡台
  6
CONTINUOUS
 62
     3
100
AcDbDimension
  2
*D19
 10
2544.5
 20
3001.0
 30
0.0
 11
2439.5
 21
3036.25
 31
0.0
 70
   160
  3
STANDARD
100
AcDbAlignedDimension
 13
2334.5
 23
2897.702357
 33
0.0
 14
2544.5
 24
2926.0
 34
0.0
100
AcDbRotatedDimension
1001
ACAD
1000
DSTYLE
1002
{
1070
     6
1000
_EX_NORM
1070
     7
1000
_EX_NORM
1070
    41
1040
45.0
1070
    42
1040
10.5
1070
    44
1040
15.0
1070
    73
1070
     0
1070
    74
1070
     0
1070
    75
1070
     0
1070
    76
1070
     1
1070
    77
1070
     1
1070
    78
1070
     0
1070
   140
1040
60.0
1070
   147
1040
5.25
1070
   173
1070
     1
1070
   176
1070
     3
1070
   177
1070
     3
1070
   178
1070
     2
1070
   271
1070
     0
1070
   279
1070
     2
1070
   280
1070
     0
1070
   287
1070
     5
1070
   340
1005
749
1002
}
  0
LINE
  5
80C
100
AcDbEntity
  8
鏡台
  6
CONTINUOUS
 62
     2
100
AcDbLine
 10
2544.5
 20
2926.0
 30
0.0
 11
2544.5
 21
1826.0
 31
0.0
  0
LINE
  5
80D
100
AcDbEntity
  8
鏡台
  6
CONTINUOUS
 62
     2
100
AcDbLine
 10
2419.5
 20
2076.0
 30
0.0
 11
2524.5
 21
2076.0
 31
0.0
  0
ARC
  5
80E
100
AcDbEntity
  8
鏡台
  6
CONTINUOUS
 62
     2
100
AcDbCircle
 10
2369.628241
 20
2849.618023
 30
0.0
 40
20.0
100
AcDbArc
 50
203.031494
 51
270.0
  0
ARC
  5
80F
100
AcDbEntity
  8
鏡台
  6
CONTINUOUS
 62
     2
100
AcDbCircle
 10
2599.700724
 20
2947.427355
 30
0.0
 40
270.0
100
AcDbArc
 50
191.025757
 51
203.031494
  0
ARC
  5
810
100
AcDbEntity
  8
鏡台
  6
CONTINUOUS
 62
     2
100
AcDbCircle
 10
2344.5
 20
2897.702357
 30
0.0
 40
10.0
100
AcDbArc
 50
94.000031
 51
191.025757
  0
ARC
  5
811
100
AcDbEntity
  8
鏡台
  6
CONTINUOUS
 62
     6
100
AcDbCircle
 10
2372.766597
 20
2899.678943
 30
0.0
 40
10.0
100
AcDbArc
 50
94.000061
 51
187.019409
  0
ARC
  5
812
100
AcDbEntity
  8
鏡台
  6
CONTINUOUS
 62
     6
100
AcDbCircle
 10
2630.817715
 20
2931.452687
 30
0.0
 40
270.0
100
AcDbArc
 50
187.01947
 51
199.909058
  0
ARC
  5
813
100
AcDbEntity
  8
鏡台
  6
CONTINUOUS
 62
     6
100
AcDbCircle
 10
2391.057979
 20
2844.618052
 30
0.0
 40
15.0
100
AcDbArc
 50
199.909058
 51
270.0
  0
LINE
  5
814
100
AcDbEntity
  8
鏡台
  6
CONTINUOUS
 62
     2
100
AcDbLine
 10
2343.802433
 20
2907.677985
 30
0.0
 11
2457.5
 21
2915.6285
 31
0.0
  0
LINE
  5
815
100
AcDbEntity
  8
鏡台
  6
CONTINUOUS
 62
     2
100
AcDbLine
 10
2457.5
 20
2829.618018
 30
0.0
 11
2369.628232
 21
2829.618045
 31
0.0
  0
LINE
  5
816
100
AcDbEntity
  8
鏡台
  6
CONTINUOUS
 62
     6
100
AcDbLine
 10
2406.5
 20
2797.0
 30
0.0
 11
2409.5
 21
2797.0
 31
0.0
  0
LINE
  5
817
100
AcDbEntity
  8
鏡台
  6
CONTINUOUS
 62
     6
100
AcDbLine
 10
2406.5
 20
2821.0
 30
0.0
 11
2414.5
 21
2821.0
 31
0.0
  0
LINE
  5
818
100
AcDbEntity
  8
鏡台
  6
CONTINUOUS
 62
     6
100
AcDbLine
 10
2414.5
 20
2821.0
 30
0.0
 11
2414.5
 21
2076.0
 31
0.0
  0
LINE
  5
819
100
AcDbEntity
  8
鏡台
  6
CONTINUOUS
 62
     6
100
AcDbLine
 10
2409.5
 20
2797.0
 30
0.0
 11
2409.5
 21
2100.0
 31
0.0
  0
LINE
  5
81A
100
AcDbEntity
  8
鏡台
  6
CONTINUOUS
 62
     6
100
AcDbLine
 10
2406.5
 20
2821.0
 30
0.0
 11
2406.5
 21
2797.0
 31
0.0
  0
LINE
  5
81B
100
AcDbEntity
  8
鏡台
  6
CONTINUOUS
 62
     6
100
AcDbLine
 10
2406.5
 20
2100.0
 30
0.0
 11
2406.5
 21
2076.0
 31
0.0
  0
LINE
  5
81C
100
AcDbEntity
  8
鏡台
  6
CONTINUOUS
 62
     6
100
AcDbLine
 10
2406.5
 20
2100.0
 30
0.0
 11
2409.5
 21
2100.0
 31
0.0
  0
LINE
  5
81D
100
AcDbEntity
  8
鏡台
  6
CONTINUOUS
 62
     6
100
AcDbLine
 10
2406.5
 20
2076.0
 30
0.0
 11
2414.5
 21
2076.0
 31
0.0
  0
LINE
  5
81E
100
AcDbEntity
  8
鏡台
  6
CONTINUOUS
 62
     6
100
AcDbLine
 10
2411.5
 20
2063.0
 30
0.0
 11
2419.5
 21
2063.0
 31
0.0
  0
LINE
  5
81F
100
AcDbEntity
  8
鏡台
  6
CONTINUOUS
 62
     6
100
AcDbLine
 10
2411.5
 20
2057.0
 30
0.0
 11
2419.5
 21
2057.0
 31
0.0
  0
ARC
  5
820
100
AcDbEntity
  8
鏡台
  6
CONTINUOUS
 62
     6
100
AcDbCircle
 10
2411.5
 20
2060.0
 30
0.0
 40
3.0
100
AcDbArc
 50
90.0
 51
270.0
  0
LINE
  5
821
100
AcDbEntity
  8
鏡台
  6
CONTINUOUS
 62
     2
100
AcDbLine
 10
2419.5
 20
2826.0
 30
0.0
 11
2419.5
 21
2076.0
 31
0.0
  0
ARC
  5
822
100
AcDbEntity
  8
鏡台
  6
CONTINUOUS
 62
     2
100
AcDbCircle
 10
2422.5
 20
2073.0
 30
0.0
 40
3.0
100
AcDbArc
 50
90.0
 51
180.0
  0
LINE
  5
823
100
AcDbEntity
  8
鏡台
  6
CONTINUOUS
 62
     2
100
AcDbLine
 10
2419.5
 20
2073.0
 30
0.0
 11
2419.5
 21
2038.846894
 31
0.0
  0
LINE
  5
824
100
AcDbEntity
  8
鏡台
  6
CONTINUOUS
 62
     2
100
AcDbLine
 10
2422.342992
 20
2035.851005
 30
0.0
 11
2524.5
 21
2030.497183
 31
0.0
  0
ARC
  5
825
100
AcDbEntity
  8
鏡台
  6
CONTINUOUS
 62
     2
100
AcDbCircle
 10
2422.5
 20
2038.846894
 30
0.0
 40
3.0
100
AcDbArc
 50
180.0
 51
267.0
  0
LINE
  5
826
100
AcDbEntity
  8
鏡台
  6
CONTINUOUS
 62
     2
100
AcDbLine
 10
2524.5
 20
2076.0
 30
0.0
 11
2524.5
 21
1826.0
 31
0.0
  0
LINE
  5
827
100
AcDbEntity
  8
鏡台
  6
CONTINUOUS
 62
     2
100
AcDbLine
 10
2419.5
 20
2826.0
 30
0.0
 11
2457.5
 21
2826.0
 31
0.0
  0
LINE
  5
828
100
AcDbEntity
  8
鏡台
  6
CONTINUOUS
 62
     6
100
AcDbLine
 10
2457.5
 20
2826.0
 30
0.0
 11
2524.5
 21
2826.0
 31
0.0
  0
LINE
  5
829
100
AcDbEntity
  8
鏡台
  6
CONTINUOUS
 62
     6
100
AcDbLine
 10
2524.5
 20
2826.0
 30
0.0
 11
2524.5
 21
2076.0
 31
0.0
  0
LINE
  5
82A
100
AcDbEntity
  8
鏡台
  6
CONTINUOUS
 62
     2
100
AcDbLine
 10
2544.5
 20
2926.0
 30
0.0
 11
2460.395302
 21
2923.062999
 31
0.0
  0
LINE
  5
82B
100
AcDbEntity
  8
鏡台
  6
CONTINUOUS
 62
     2
100
AcDbLine
 10
2457.5
 20
2920.064827
 30
0.0
 11
2457.5
 21
2826.0
 31
0.0
  0
ARC
  5
82C
100
AcDbEntity
  8
鏡台
  6
CONTINUOUS
 62
     2
100
AcDbCircle
 10
2460.5
 20
2920.064827
 30
0.0
 40
3.0
100
AcDbArc
 50
92.0
 51
180.0
  0
LINE
  5
82D
100
AcDbEntity
  8
鏡台
  6
CONTINUOUS
 62
     6
100
AcDbLine
 10
2529.5
 20
2871.0
 30
0.0
 11
2592.0
 21
2871.0
 31
0.0
  0
LINE
  5
82E
100
AcDbEntity
  8
鏡台
  6
CONTINUOUS
 62
     6
100
AcDbLine
 10
2544.5
 20
2869.0
 30
0.0
 11
2577.0
 21
2871.0
 31
0.0
  0
LINE
  5
82F
100
AcDbEntity
  8
鏡台
  6
CONTINUOUS
 62
     6
100
AcDbLine
 10
2577.0
 20
2871.0
 30
0.0
 11
2544.5
 21
2873.0
 31
0.0
  0
LINE
  5
830
100
AcDbEntity
  8
鏡台
  6
CONTINUOUS
 62
     6
100
AcDbLine
 10
2529.5
 20
2286.0
 30
0.0
 11
2592.0
 21
2286.0
 31
0.0
  0
LINE
  5
831
100
AcDbEntity
  8
鏡台
  6
CONTINUOUS
 62
     6
100
AcDbLine
 10
2544.5
 20
2284.0
 30
0.0
 11
2577.0
 21
2286.0
 31
0.0
  0
LINE
  5
832
100
AcDbEntity
  8
鏡台
  6
CONTINUOUS
 62
     6
100
AcDbLine
 10
2577.0
 20
2286.0
 30
0.0
 11
2544.5
 21
2288.0
 31
0.0
  0
LINE
  5
833
100
AcDbEntity
  8
鏡台
  6
CONTINUOUS
 62
     2
100
AcDbLine
 10
2524.5
 20
1826.0
 30
0.0
 11
2544.5
 21
1826.0
 31
0.0
  0
LINE
  5
834
100
AcDbEntity
  8
鏡台
  6
CONTINUOUS
 62
     2
100
AcDbLine
 10
557.5
 20
2926.0
 30
0.0
 11
557.5
 21
1826.0
 31
0.0
  0
TEXT
  5
835
100
AcDbEntity
  8
付属金具
  6
CONTINUOUS
 62
     2
100
AcDbText
 10
1575.500002
 20
825.75
 30
0.0
 40
60.0
  1
ＶＰ･ＶＵ４０･５０
 41
0.72594
  7
EXCADSTD
 72
     5
 11
2075.0
 21
825.75
 31
0.0
100
AcDbText
  0
LEADER
  5
836
100
AcDbEntity
  8
付属金具
  6
CONTINUOUS
 62
     3
100
AcDbLeader
  3
STANDARD
 73
     3
 74
     1
 75
     0
 40
0.0
 76
     3
 10
2371.5
 20
1036.0
 30
0.0
 10
2082.5
 20
820.5
 30
0.0
 10
1573.5
 20
820.5
 30
0.0
 77
     3
1001
ACAD
1000
DSTYLE
1002
{
1070
    41
1040
52.5
1070
     5
1000
_EX_NORM
1070
     6
1000
_EX_NORM
1070
     7
1000
_EX_NORM
1070
   341
1005
2A
1002
}
  0
TEXT
  5
837
100
AcDbEntity
  8
付属金具
  6
CONTINUOUS
 62
     2
100
AcDbText
 10
1916.0
 20
1031.0
 30
0.0
 40
60.0
  1
F.L.
 41
0.4125
  7
EXCADSTD
 72
     5
 11
2006.7434
 21
1031.0
 31
0.0
100
AcDbText
  0
POLYLINE
  5
838
100
AcDbEntity
  8
付属金具
  6
CONTINUOUS
 62
     3
100
AcDb2dPolyline
 66
     1
 10
0.0
 20
0.0
 30
0.0
 70
   128
  0
VERTEX
  5
839
100
AcDbEntity
  8
付属金具
  6
CONTINUOUS
 62
     3
100
AcDbVertex
100
AcDb2dVertex
 10
2042.5
 20
1031.0
 30
0.0
  0
VERTEX
  5
83A
100
AcDbEntity
  8
付属金具
  6
CONTINUOUS
 62
     3
100
AcDbVertex
100
AcDb2dVertex
 10
2023.5
 20
1080.0
 30
0.0
  0
SEQEND
  5
83B
100
AcDbEntity
  8
付属金具
  6
CONTINUOUS
 62
     3
  0
LINE
  5
83C
100
AcDbEntity
  8
付属金具
  6
CONTINUOUS
 62
     3
100
AcDbLine
 10
2019.238537
 20
1070.2448
 30
0.0
 11
2042.5
 21
1031.0
 31
0.0
  0
LINE
  5
83D
100
AcDbEntity
  8
付属金具
  6
CONTINUOUS
 62
     3
100
AcDbLine
 10
2042.5
 20
1031.0
 30
0.0
 11
2033.223956
 21
1075.667718
 31
0.0
  0
LINE
  5
83E
100
AcDbEntity
  8
付属金具
  6
EXLTYPE4
 62
     6
100
AcDbLine
 10
2544.5
 20
1031.0
 30
0.0
 11
1909.0
 21
1031.0
 31
0.0
  0
LINE
  5
83F
100
AcDbEntity
  8
付属金具
  6
EXLTYPE3
 62
     6
100
AcDbLine
 10
2454.5
 20
1916.07302
 30
0.0
 11
2454.5
 21
1804.0
 31
0.0
  0
DIMENSION
  5
84B
100
AcDbEntity
  8
寸法
  6
CONTINUOUS
 62
     3
100
AcDbDimension
  2
*D20
 10
1202.5
 20
4120.0
 30
0.0
 11
932.5
 21
4155.25
 31
0.0
 70
   160
  3
STANDARD
100
AcDbAlignedDimension
 13
662.5
 23
4052.5
 33
0.0
 14
1202.5
 24
4052.5
 34
0.0
100
AcDbRotatedDimension
1001
ACAD
1000
DSTYLE
1002
{
1070
     6
1000
_EX_NORM
1070
     7
1000
_EX_NORM
1070
    41
1040
45.0
1070
    42
1040
10.5
1070
    44
1040
15.0
1070
    73
1070
     0
1070
    74
1070
     0
1070
    75
1070
     0
1070
    76
1070
     0
1070
    77
1070
     1
1070
    78
1070
     0
1070
   140
1040
60.0
1070
   147
1040
5.25
1070
   173
1070
     1
1070
   176
1070
     3
1070
   177
1070
     3
1070
   178
1070
     2
1070
   271
1070
     0
1070
   279
1070
     2
1070
   280
1070
     0
1070
   287
1070
     5
1070
   340
1005
749
1002
}
  0
LINE
  5
84C
100
AcDbEntity
  8
寸法
  6
CONTINUOUS
 62
     3
100
AcDbLine
 10
2544.5
 20
2836.5
 30
0.0
 11
2544.5
 21
2920.0
 31
0.0
  0
DIMENSION
  5
858
100
AcDbEntity
  8
寸法
  6
CONTINUOUS
 62
     3
100
AcDbDimension
  2
*D21
 10
574.0
 20
709.0
 30
0.0
 11
932.5
 21
744.25
 31
0.0
 70
   160
  3
STANDARD
100
AcDbAlignedDimension
 13
1291.0
 23
1034.5
 33
0.0
 14
574.0
 24
1034.5
 34
0.0
100
AcDbRotatedDimension
1001
ACAD
1000
DSTYLE
1002
{
1070
     6
1000
_EX_NORM
1070
     7
1000
_EX_NORM
1070
    41
1040
45.0
1070
    42
1040
10.5
1070
    44
1040
15.0
1070
    73
1070
     0
1070
    74
1070
     0
1070
    75
1070
     0
1070
    76
1070
     0
1070
    77
1070
     1
1070
    78
1070
     0
1070
   140
1040
60.0
1070
   147
1040
5.25
1070
   173
1070
     1
1070
   176
1070
     3
1070
   177
1070
     3
1070
   178
1070
     2
1070
   271
1070
     0
1070
   279
1070
     2
1070
   280
1070
     0
1070
   287
1070
     5
1070
   340
1005
749
1002
}
  0
DIMENSION
  5
864
100
AcDbEntity
  8
寸法
  6
CONTINUOUS
 62
     3
100
AcDbDimension
  2
*D22
 10
1007.5
 20
805.207107
 30
0.0
 11
835.0
 21
840.457107
 31
0.0
 70
   160
  3
STANDARD
100
AcDbAlignedDimension
 13
932.5
 23
895.207107
 33
0.0
 14
1007.5
 24
1022.999969
 34
0.0
100
AcDbRotatedDimension
1001
ACAD
1000
DSTYLE
1002
{
1070
     6
1000
_EX_NORM
1070
     7
1000
_EX_BCIR
1070
    41
1040
45.0
1070
    42
1040
10.5
1070
    44
1040
15.0
1070
    73
1070
     0
1070
    74
1070
     0
1070
    75
1070
     0
1070
    76
1070
     0
1070
    77
1070
     1
1070
    78
1070
     0
1070
   140
1040
60.0
1070
   147
1040
5.25
1070
   173
1070
     1
1070
   176
1070
     3
1070
   177
1070
     3
1070
   178
1070
     2
1070
   271
1070
     0
1070
   279
1070
     2
1070
   280
1070
     1
1070
   287
1070
     5
1070
   340
1005
749
1002
}
  0
DIMENSION
  5
870
100
AcDbEntity
  8
寸法
  6
CONTINUOUS
 62
     3
100
AcDbDimension
  2
*D23
 10
1007.5
 20
805.207107
 30
0.0
 11
1052.5
 21
840.457107
 31
0.0
 70
   160
  3
STANDARD
100
AcDbAlignedDimension
 13
1097.5
 23
1022.999969
 33
0.0
 14
1007.5
 24
1022.999969
 34
0.0
100
AcDbRotatedDimension
1001
ACAD
1000
DSTYLE
1002
{
1070
     6
1000
_EX_NORM
1070
     7
1000
_EX_BCIR
1070
    41
1040
45.0
1070
    42
1040
10.5
1070
    44
1040
15.0
1070
    73
1070
     0
1070
    74
1070
     0
1070
    75
1070
     0
1070
    76
1070
     0
1070
    77
1070
     1
1070
    78
1070
     0
1070
   140
1040
60.0
1070
   147
1040
5.25
1070
   173
1070
     1
1070
   176
1070
     3
1070
   177
1070
     3
1070
   178
1070
     2
1070
   271
1070
     0
1070
   279
1070
     2
1070
   280
1070
     0
1070
   287
1070
     5
1070
   340
1005
749
1002
}
  0
DIMENSION
  5
87C
100
AcDbEntity
  8
寸法
  6
CONTINUOUS
 62
     3
100
AcDbDimension
  2
*D24
 10
2544.5
 20
709.0
 30
0.0
 11
2664.5
 21
744.25
 31
0.0
 70
   160
  3
STANDARD
100
AcDbAlignedDimension
 13
2404.5
 23
881.0
 33
0.0
 14
2544.5
 24
1034.5
 34
0.0
100
AcDbRotatedDimension
1001
ACAD
1000
DSTYLE
1002
{
1070
     6
1000
_EX_NORM
1070
     7
1000
_EX_NORM
1070
    41
1040
45.0
1070
    42
1040
0.0
1070
    44
1040
15.0
1070
    73
1070
     0
1070
    74
1070
     0
1070
    75
1070
     0
1070
    76
1070
     0
1070
    77
1070
     1
1070
    78
1070
     0
1070
   140
1040
60.0
1070
   147
1040
5.25
1070
   173
1070
     1
1070
   176
1070
     3
1070
   177
1070
     3
1070
   178
1070
     2
1070
   271
1070
     0
1070
   279
1070
     2
1070
   280
1070
     2
1070
   287
1070
     5
1070
   340
1005
749
1002
}
  0
DIMENSION
  5
887
100
AcDbEntity
  8
寸法
  6
CONTINUOUS
 62
     3
100
AcDbDimension
  2
*D25
 10
2544.5
 20
805.207107
 30
0.0
 11
2754.5
 21
840.457107
 31
0.0
 70
   160
  1
85（床給水）
  3
STANDARD
100
AcDbAlignedDimension
 13
2459.5
 23
1007.999969
 33
0.0
 14
2544.5
 24
1024.0
 34
0.0
100
AcDbRotatedDimension
1001
ACAD
1000
DSTYLE
1002
{
1070
     6
1000
_EX_NORM
1070
     7
1000
_EX_NORM
1070
    41
1040
45.0
1070
    42
1040
10.5
1070
    44
1040
15.0
1070
    73
1070
     0
1070
    74
1070
     0
1070
    75
1070
     0
1070
    76
1070
     1
1070
    77
1070
     1
1070
    78
1070
     0
1070
   140
1040
60.0
1070
   147
1040
5.25
1070
   173
1070
     1
1070
   176
1070
     3
1070
   177
1070
     3
1070
   178
1070
     2
1070
   271
1070
     0
1070
   279
1070
     2
1070
   280
1070
     2
1070
   287
1070
     5
1070
   340
1005
749
1002
}
  0
DIMENSION
  5
893
100
AcDbEntity
  8
寸法
  6
CONTINUOUS
 62
     3
100
AcDbDimension
  2
*D26
 10
2544.5
 20
612.792893
 30
0.0
 11
2337.0
 21
648.042893
 31
0.0
 70
   160
  3
STANDARD
100
AcDbAlignedDimension
 13
2129.5
 23
1034.5
 33
0.0
 14
2544.5
 24
1034.5
 34
0.0
100
AcDbRotatedDimension
1001
ACAD
1000
DSTYLE
1002
{
1070
     6
1000
_EX_NORM
1070
     7
1000
_EX_NORM
1070
    41
1040
45.0
1070
    42
1040
10.5
1070
    44
1040
15.0
1070
    73
1070
     0
1070
    74
1070
     0
1070
    75
1070
     0
1070
    76
1070
     0
1070
    77
1070
     1
1070
    78
1070
     0
1070
   140
1040
60.0
1070
   147
1040
5.25
1070
   173
1070
     1
1070
   176
1070
     3
1070
   177
1070
     3
1070
   178
1070
     2
1070
   271
1070
     0
1070
   279
1070
     2
1070
   280
1070
     0
1070
   287
1070
     5
1070
   340
1005
749
1002
}
  0
DIMENSION
  5
89F
100
AcDbEntity
  8
寸法
  6
CONTINUOUS
 62
     3
100
AcDbDimension
  2
*D27
 10
1307.5
 20
3329.0
 30
0.0
 11
932.5
 21
3364.25
 31
0.0
 70
   160
  3
STANDARD
100
AcDbAlignedDimension
 13
557.5
 23
3530.0
 33
0.0
 14
1307.5
 24
3530.0
 34
0.0
100
AcDbRotatedDimension
1001
ACAD
1000
DSTYLE
1002
{
1070
     6
1000
_EX_NORM
1070
     7
1000
_EX_NORM
1070
    41
1040
45.0
1070
    42
1040
10.5
1070
    44
1040
15.0
1070
    73
1070
     0
1070
    74
1070
     0
1070
    75
1070
     0
1070
    76
1070
     0
1070
    77
1070
     1
1070
    78
1070
     0
1070
   140
1040
60.0
1070
   147
1040
5.25
1070
   173
1070
     1
1070
   176
1070
     3
1070
   177
1070
     3
1070
   178
1070
     2
1070
   271
1070
     0
1070
   279
1070
     2
1070
   280
1070
     0
1070
   287
1070
     5
1070
   340
1005
749
1002
}
  0
DIMENSION
  5
8AA
100
AcDbEntity
  8
寸法
  6
CONTINUOUS
 62
     3
100
AcDbDimension
  2
*D28
 10
1429.0
 20
4005.0
 30
0.0
 11
1393.75
 21
3730.0
 31
0.0
 70
   160
  3
STANDARD
100
AcDbAlignedDimension
 13
932.5
 23
3455.0
 33
0.0
 14
1489.0
 24
4005.0
 34
0.0
 50
90.0
100
AcDbRotatedDimension
1001
ACAD
1000
DSTYLE
1002
{
1070
     6
1000
_EX_NORM
1070
     7
1000
_EX_NORM
1070
    41
1040
45.0
1070
    42
1040
10.5
1070
    44
1040
15.0
1070
    73
1070
     0
1070
    74
1070
     0
1070
    75
1070
     0
1070
    76
1070
     1
1070
    77
1070
     1
1070
    78
1070
     0
1070
   140
1040
60.0
1070
   147
1040
5.25
1070
   173
1070
     1
1070
   176
1070
     3
1070
   177
1070
     3
1070
   178
1070
     2
1070
   271
1070
     0
1070
   279
1070
     2
1070
   280
1070
     0
1070
   287
1070
     5
1070
   340
1005
749
1002
}
  0
DIMENSION
  5
8B5
100
AcDbEntity
  8
寸法
  6
CONTINUOUS
 62
     3
100
AcDbDimension
  2
*D29
 10
1517.5
 20
1826.0
 30
0.0
 11
1482.25
 21
1428.5
 31
0.0
 70
   160
  3
STANDARD
100
AcDbAlignedDimension
 13
1291.0
 23
1031.0
 33
0.0
 14
1295.5
 24
1826.0
 34
0.0
 50
90.0
100
AcDbRotatedDimension
1001
ACAD
1000
DSTYLE
1002
{
1070
     6
1000
_EX_NORM
1070
     7
1000
_EX_NORM
1070
    41
1040
45.0
1070
    42
1040
10.5
1070
    44
1040
15.0
1070
    73
1070
     0
1070
    74
1070
     0
1070
    75
1070
     1
1070
    76
1070
     0
1070
    77
1070
     1
1070
    78
1070
     0
1070
   140
1040
60.0
1070
   147
1040
5.25
1070
   173
1070
     1
1070
   176
1070
     3
1070
   177
1070
     3
1070
   178
1070
     2
1070
   271
1070
     0
1070
   279
1070
     2
1070
   280
1070
     0
1070
   287
1070
     5
1070
   340
1005
749
1002
}
  0
DIMENSION
  5
8C1
100
AcDbEntity
  8
寸法
  6
CONTINUOUS
 62
     3
100
AcDbDimension
  2
*D30
 10
2664.5
 20
1381.0
 30
0.0
 11
2629.25
 21
1206.0
 31
0.0
 70
   160
  3
STANDARD
100
AcDbAlignedDimension
 13
2544.5
 23
1031.0
 33
0.0
 14
2552.5
 24
1381.0
 34
0.0
 50
90.0
100
AcDbRotatedDimension
1001
ACAD
1000
DSTYLE
1002
{
1070
     6
1000
_EX_NORM
1070
     7
1000
_EX_NORM
1070
    41
1040
45.0
1070
    42
1040
2.7
1070
    44
1040
15.0
1070
    73
1070
     0
1070
    74
1070
     0
1070
    75
1070
     0
1070
    76
1070
     0
1070
    77
1070
     1
1070
    78
1070
     0
1070
   140
1040
60.0
1070
   147
1040
5.25
1070
   173
1070
     1
1070
   176
1070
     3
1070
   177
1070
     3
1070
   178
1070
     2
1070
   271
1070
     0
1070
   279
1070
     2
1070
   280
1070
     0
1070
   287
1070
     5
1070
   340
1005
749
1002
}
  0
DIMENSION
  5
8CD
100
AcDbEntity
  8
寸法
  6
CONTINUOUS
 62
     3
100
AcDbDimension
  2
*D31
 10
2754.5
 20
1541.0
 30
0.0
 11
2719.25
 21
1286.0
 31
0.0
 70
   160
  3
STANDARD
100
AcDbAlignedDimension
 13
2544.5
 23
1031.0
 33
0.0
 14
2577.0
 24
1541.0
 34
0.0
 50
90.0
100
AcDbRotatedDimension
1001
ACAD
1000
DSTYLE
1002
{
1070
     6
1000
_EX_NORM
1070
     7
1000
_EX_NORM
1070
    41
1040
45.0
1070
    42
1040
10.5
1070
    44
1040
105.0
1070
    73
1070
     0
1070
    74
1070
     0
1070
    75
1070
     0
1070
    76
1070
     0
1070
    77
1070
     1
1070
    78
1070
     0
1070
   140
1040
60.0
1070
   147
1040
5.25
1070
   173
1070
     1
1070
   176
1070
     3
1070
   177
1070
     3
1070
   178
1070
     2
1070
   271
1070
     0
1070
   279
1070
     2
1070
   280
1070
     0
1070
   287
1070
     5
1070
   340
1005
749
1002
}
  0
TEXT
  5
8CE
100
AcDbEntity
  8
寸法
  6
CONTINUOUS
 62
     2
100
AcDbText
 10
2639.0
 20
1592.75
 30
0.0
 40
60.0
  1
Ｒ１/２
 41
0.73425
  7
EXCADSTD
 72
     5
 11
2839.249999
 21
1592.75
 31
0.0
100
AcDbText
  0
LEADER
  5
8CF
100
AcDbEntity
  8
寸法
  6
CONTINUOUS
 62
     3
100
AcDbLeader
  3
STANDARD
 73
     3
 74
     1
 75
     0
 40
0.0
 76
     3
 10
2552.5
 20
1391.5
 30
0.0
 10
2631.5
 20
1587.5
 30
0.0
 10
2824.5
 20
1587.5
 30
0.0
 77
     3
1001
ACAD
1000
DSTYLE
1002
{
1070
    41
1040
52.5
1070
     5
1000
_EX_NORM
1070
     6
1000
_EX_NORM
1070
     7
1000
_EX_NORM
1070
   341
1005
2A
1002
}
  0
DIMENSION
  5
8DA
100
AcDbEntity
  8
寸法
  6
CONTINUOUS
 62
     3
100
AcDbDimension
  2
*D32
 10
1427.5
 20
1031.0
 30
0.0
 11
1392.25
 21
1414.5
 31
0.0
 70
   160
  3
STANDARD
100
AcDbAlignedDimension
 13
932.5
 23
1798.0
 33
0.0
 14
1427.5
 24
1031.0
 34
0.0
 50
90.0
100
AcDbRotatedDimension
1001
ACAD
1000
DSTYLE
1002
{
1070
     6
1000
_EX_NORM
1070
     7
1000
_EX_NORM
1070
    41
1040
45.0
1070
    42
1040
10.5
1070
    44
1040
15.0
1070
    73
1070
     0
1070
    74
1070
     0
1070
    75
1070
     0
1070
    76
1070
     1
1070
    77
1070
     1
1070
    78
1070
     0
1070
   140
1040
60.0
1070
   147
1040
5.25
1070
   173
1070
     1
1070
   176
1070
     3
1070
   177
1070
     3
1070
   178
1070
     2
1070
   271
1070
     0
1070
   279
1070
     2
1070
   280
1070
     0
1070
   287
1070
     5
1070
   340
1005
749
1002
}
  0
POLYLINE
  5
8DB
100
AcDbEntity
  8
寸法
  6
CONTINUOUS
 62
     3
100
AcDb2dPolyline
 66
     1
 10
0.0
 20
0.0
 30
0.0
 70
   128
  0
VERTEX
  5
8DC
100
AcDbEntity
  8
寸法
  6
CONTINUOUS
 62
     3
100
AcDbVertex
100
AcDb2dVertex
 10
2544.5
 20
3088.05
 30
0.0
  0
VERTEX
  5
8DD
100
AcDbEntity
  8
寸法
  6
CONTINUOUS
 62
     3
100
AcDbVertex
100
AcDb2dVertex
 10
2498.5
 20
3108.05
 30
0.0
  0
SEQEND
  5
8DE
100
AcDbEntity
  8
寸法
  6
CONTINUOUS
 62
     3
  0
LINE
  5
8DF
100
AcDbEntity
  8
寸法
  6
CONTINUOUS
 62
     3
100
AcDbLine
 10
2500.241402
 20
3099.11465
 30
0.0
 11
2544.5
 21
3088.05
 31
0.0
  0
LINE
  5
8E0
100
AcDbEntity
  8
寸法
  6
CONTINUOUS
 62
     3
100
AcDbLine
 10
2544.5
 20
3088.05
 30
0.0
 11
2506.222293
 21
3112.8707
 31
0.0
  0
DIMENSION
  5
8EB
100
AcDbEntity
  8
寸法
  6
CONTINUOUS
 62
     2
100
AcDbDimension
  2
*D33
 10
1607.5
 20
1031.0
 30
0.0
 11
1572.25
 21
1978.5
 31
0.0
 70
   160
  3
STANDARD
100
AcDbAlignedDimension
 13
1517.5
 23
2926.0
 33
0.0
 14
1607.5
 24
1031.0
 34
0.0
 50
90.0
100
AcDbRotatedDimension
1001
ACAD
1000
DSTYLE
1002
{
1070
     6
1000
_EX_NORM
1070
     7
1000
_EX_NORM
1070
    41
1040
45.0
1070
    42
1040
10.5
1070
    44
1040
15.0
1070
    73
1070
     0
1070
    74
1070
     0
1070
    75
1070
     0
1070
    76
1070
     1
1070
    77
1070
     1
1070
    78
1070
     8
1070
   140
1040
60.0
1070
   147
1040
5.25
1070
   173
1070
     1
1070
   176
1070
     3
1070
   177
1070
     3
1070
   178
1070
     2
1070
   271
1070
     2
1070
   279
1070
     2
1070
   280
1070
     0
1070
   287
1070
     5
1070
   340
1005
749
1002
}
  0
DIMENSION
  5
8F7
100
AcDbEntity
  8
寸法
  6
CONTINUOUS
 62
     2
100
AcDbDimension
  2
*D34
 10
2844.5
 20
2286.0
 30
0.0
 11
2809.25
 21
2578.5
 31
0.0
 70
   160
  3
STANDARD
100
AcDbAlignedDimension
 13
2592.0
 23
2871.0
 33
0.0
 14
2592.0
 24
2286.0
 34
0.0
 50
90.0
100
AcDbRotatedDimension
1001
ACAD
1000
DSTYLE
1002
{
1070
     6
1000
_EX_NORM
1070
     7
1000
_EX_NORM
1070
    41
1040
45.0
1070
    42
1040
10.5
1070
    44
1040
15.0
1070
    73
1070
     0
1070
    74
1070
     0
1070
    75
1070
     0
1070
    76
1070
     0
1070
    77
1070
     1
1070
    78
1070
     8
1070
   140
1040
60.0
1070
   147
1040
5.25
1070
   173
1070
     1
1070
   176
1070
     3
1070
   177
1070
     3
1070
   178
1070
     2
1070
   271
1070
     2
1070
   279
1070
     2
1070
   280
1070
     0
1070
   287
1070
     5
1070
   340
1005
749
1002
}
  0
DIMENSION
  5
901
100
AcDbEntity
  8
寸法
  6
CONTINUOUS
 62
     2
100
AcDbDimension
  2
*D35
 10
2844.5
 20
1031.0
 30
0.0
 11
2809.25
 21
1772.5
 31
0.0
 70
   160
  3
STANDARD
100
AcDbAlignedDimension
 13
2844.5
 23
2286.0
 33
0.0
 14
2844.5
 24
1031.0
 34
0.0
 50
90.0
100
AcDbRotatedDimension
1001
ACAD
1000
DSTYLE
1002
{
1070
     6
1000
_EX_NORM
1070
     7
1000
_EX_NORM
1070
    41
1040
45.0
1070
    42
1040
0.0
1070
    44
1040
0.0
1070
    73
1070
     0
1070
    74
1070
     0
1070
    75
1070
     1
1070
    76
1070
     1
1070
    77
1070
     1
1070
    78
1070
     8
1070
   140
1040
60.0
1070
   147
1040
5.25
1070
   173
1070
     1
1070
   176
1070
     3
1070
   177
1070
     3
1070
   178
1070
     2
1070
   271
1070
     2
1070
   279
1070
     2
1070
   280
1070
     0
1070
   287
1070
     5
1070
   340
1005
749
1002
}
  0
TEXT
  5
902
100
AcDbEntity
  8
寸法
  6
CONTINUOUS
 62
     2
100
AcDbText
 10
2544.5
 20
3124.050001
 30
0.0
 40
60.0
  1
W.L.
 50
90.0
 41
0.4125
  7
EXCADSTD
 72
     5
 11
2544.5
 21
3214.7934
 31
0.0
100
AcDbText
  0
LINE
  5
903
100
AcDbEntity
  8
寸法
  6
EXLTYPE4
 62
     6
100
AcDbLine
 10
2544.5
 20
1031.0
 30
0.0
 11
2544.5
 21
3223.05
 31
0.0
  0
DIMENSION
  5
90D
100
AcDbEntity
  8
寸法
  6
CONTINUOUS
 62
     3
100
AcDbDimension
  2
*D36
 10
997.5
 20
2004.0
 30
0.0
 11
1102.5
 21
2039.25
 31
0.0
 70
   160
  3
STANDARD
100
AcDbAlignedDimension
 13
932.5
 23
2004.0
 33
0.0
 14
997.5
 24
1891.3
 34
0.0
100
AcDbRotatedDimension
1001
ACAD
1000
DSTYLE
1002
{
1070
     6
1000
_EX_NONE
1070
     7
1000
_EX_NORM
1070
    41
1040
45.0
1070
    42
1040
7.5
1070
    44
1040
15.0
1070
    73
1070
     0
1070
    74
1070
     0
1070
    75
1070
     1
1070
    76
1070
     0
1070
    77
1070
     1
1070
    78
1070
     8
1070
   140
1040
60.0
1070
   147
1040
5.25
1070
   173
1070
     1
1070
   176
1070
     3
1070
   177
1070
     3
1070
   178
1070
     2
1070
   271
1070
     2
1070
   279
1070
     2
1070
   280
1070
     2
1070
   287
1070
     5
1070
   340
1005
90C
1002
}
  0
DIMENSION
  5
919
100
AcDbEntity
  8
寸法
  6
CONTINUOUS
 62
     3
100
AcDbDimension
  2
*D37
 10
932.5
 20
2004.0
 30
0.0
 11
895.0
 21
2039.25
 31
0.0
 70
   160
  3
STANDARD
100
AcDbAlignedDimension
 13
857.5
 23
1905.763506
 33
0.0
 14
932.5
 24
1853.163506
 34
0.0
100
AcDbRotatedDimension
1001
ACAD
1000
DSTYLE
1002
{
1070
     6
1000
_EX_NORM
1070
     7
1000
_EX_BCIR
1070
    41
1040
45.0
1070
    42
1040
7.5
1070
    44
1040
15.0
1070
    73
1070
     0
1070
    74
1070
     0
1070
    75
1070
     0
1070
    76
1070
     0
1070
    77
1070
     1
1070
    78
1070
     8
1070
   140
1040
60.0
1070
   147
1040
5.25
1070
   173
1070
     1
1070
   176
1070
     3
1070
   177
1070
     3
1070
   178
1070
     2
1070
   271
1070
     2
1070
   279
1070
     2
1070
   280
1070
     0
1070
   287
1070
     5
1070
   340
1005
90C
1002
}
  0
DIMENSION
  5
924
100
AcDbEntity
  8
寸法
  6
CONTINUOUS
 62
     3
100
AcDbDimension
  2
*D38
 10
2549.5
 20
2005.5
 30
0.0
 11
2349.5
 21
2040.75
 31
0.0
 70
   160
  3
STANDARD
100
AcDbAlignedDimension
 13
2454.5
 23
1826.0
 33
0.0
 14
2549.5
 24
2005.5
 34
0.0
100
AcDbRotatedDimension
1001
ACAD
1000
DSTYLE
1002
{
1070
     6
1000
_EX_NORM
1070
     7
1000
_EX_NORM
1070
    41
1040
45.0
1070
    42
1040
89.5
1070
    44
1040
18.000001
1070
    73
1070
     0
1070
    74
1070
     0
1070
    75
1070
     0
1070
    76
1070
     1
1070
    77
1070
     1
1070
    78
1070
     8
1070
   140
1040
60.0
1070
   147
1040
5.25
1070
   173
1070
     1
1070
   176
1070
     3
1070
   177
1070
     3
1070
   178
1070
     2
1070
   271
1070
     2
1070
   279
1070
     2
1070
   280
1070
     1
1070
   287
1070
     5
1070
   340
1005
90C
1002
}
  0
ENDSEC
  0
SECTION
  2
OBJECTS
  0
DICTIONARY
  5
19
100
AcDbDictionary
  3
ACAD_GROUP
350
1A
  3
ACAD_MLINESTYLE
350
1B
  0
DICTIONARY
  5
1A
102
{ACAD_REACTORS
330
19
102
}
100
AcDbDictionary
  0
DICTIONARY
  5
1B
102
{ACAD_REACTORS
330
19
102
}
100
AcDbDictionary
  3
STANDARD
350
1C
  0
MLINESTYLE
  5
1C
102
{ACAD_REACTORS
330
1B
102
}
100
AcDbMlineStyle
  2
Standard
 70
     0
  3

 62
     0
 51
90.0
 52
90.0
 71
     2
 49
0.5
 62
   256
  6
ByLayer
 49
-0.5
 62
   256
  6
ByLayer
  0
ENDSEC
  0
EOF
